osu file format v14

[General]
AudioFilename: audio.ogg
AudioLeadIn: 0
PreviewTime: 52017
Countdown: 0
SampleSet: Soft
StackLeniency: 0.5
Mode: 0
LetterboxInBreaks: 0
WidescreenStoryboard: 1

[Editor]
Bookmarks: 371,5244,16208,30827,40574,52756,74685,79558,89203
DistanceSpacing: 0.9
BeatDivisor: 4
GridSize: 32
TimelineZoom: 2.2

[Metadata]
Title:Senryakuteki de Yosoku Funou na Love Comedy no Ending Kyoku (TV Size)
TitleUnicode:戦略的で予測不能なラブコメディのエンディング曲 (TV Size)
Artist:Inori Minase, Sakura Ayane
ArtistUnicode:水瀬いのり、佐倉綾音
Creator:GodHacc
Version:tilda's Insane
Source:幼なじみが絶対に負けないラブコメ
Tags:japanese jpop j-pop pop anime osamake romcom where the childhood friend won't lose おさまけ osananajimi ga zettai ni makenai love rabu kome rabukome comedy shida kuroha 志田黒羽 kachi shirokusa 可知白草 tilda armada crysisters ending ed
BeatmapID:3950586
BeatmapSetID:1911055

[Difficulty]
HPDrainRate:5
CircleSize:3.6
OverallDifficulty:8
ApproachRate:9
SliderMultiplier:1.6
SliderTickRate:1

[Events]
//Background and Video events
0,0,"senryabg.jpg",0,0
Video,-30,"inoringood.mp4"
//Break Periods
//Storyboard Layer 0 (Background)
//Storyboard Layer 1 (Fail)
//Storyboard Layer 2 (Pass)
//Storyboard Layer 3 (Foreground)
//Storyboard Layer 4 (Overlay)
//Storyboard Sound Samples

[TimingPoints]
371,304.568527918782,4,2,1,60,1,0
371,-100,4,2,1,60,0,0
1741,-125,4,2,1,60,0,0
2807,-83.3333333333333,4,2,1,60,0,0
3873,-71.4285714285714,4,2,1,60,0,0
4330,-166.666666666667,4,2,1,60,0,0
4939,-100,4,2,1,60,0,0
5244,-100,4,2,1,65,0,0
5472,-100,4,2,1,5,0,0
5548,-100,4,2,1,65,0,0
7909,-100,4,2,1,5,0,0
7985,-100,4,2,1,65,0,0
8898,-83.3333333333333,4,2,1,65,0,0
9127,-83.3333333333333,4,2,1,65,0,0
9203,-83.3333333333333,4,2,1,65,0,0
9812,-125,4,2,1,65,0,0
10041,-125,4,2,1,5,0,0
10117,-100,4,2,1,65,0,0
12782,-100,4,2,1,5,0,0
12858,-100,4,2,1,65,0,0
13772,-83.3333333333333,4,2,1,65,0,0
14685,-250.000000000001,4,2,1,65,0,0
14990,-250.000000000001,4,2,1,60,0,0
16208,-250.000000000001,4,2,1,50,0,0
16513,-125,4,2,1,50,0,0
25954,-166.666666666667,4,2,1,60,0,0
26411,-100,4,2,1,60,0,0
27020,-166.666666666667,4,2,1,60,0,0
27629,-100,4,2,1,60,0,0
28391,-166.666666666667,4,2,1,60,0,0
29000,-100,4,2,1,60,0,0
30523,-83.3333333333333,4,2,1,60,0,0
30751,-83.3333333333333,4,2,1,5,0,0
30827,-125,4,2,1,50,0,0
33492,-125,4,2,1,5,0,0
33568,-125,4,2,1,50,0,0
34406,-125,4,2,1,5,0,0
34482,-125,4,2,1,50,0,0
35700,-125,4,2,1,60,0,0
36233,-125,4,2,1,5,0,0
36310,-125,4,2,1,60,0,0
38137,-125,4,2,1,65,0,0
39964,-71.4285714285714,4,2,1,65,0,0
40574,-71.4285714285714,4,2,1,50,0,0
40878,-166.666666666667,4,2,1,50,0,0
43924,-166.666666666667,4,2,1,60,0,0
44228,-100,4,2,1,65,0,0
46969,-71.4285714285714,4,2,1,65,0,0
47198,-71.4285714285714,4,2,1,5,0,0
47274,-100,4,2,1,65,0,0
48797,-71.4285714285714,4,2,1,65,0,0
49025,-71.4285714285714,4,2,1,5,0,0
49101,-100,4,2,1,65,0,0
49634,-100,4,2,1,5,0,0
49711,-100,4,2,1,65,0,0
50320,-125,4,2,1,70,0,0
51233,-71.4285714285714,4,2,1,70,0,0
51462,-71.4285714285714,4,2,1,5,0,0
51538,-100,4,2,1,70,0,0
52147,-200,4,2,1,70,0,0
52376,-200,4,2,1,70,0,0
52452,-71.4285714285714,4,2,1,70,0,0
52756,-83.3333333333333,4,2,1,75,0,0
52985,-83.3333333333333,4,2,1,5,0,0
53061,-83.3333333333333,4,2,1,75,0,0
56411,-166.666666666667,4,2,1,75,0,0
56640,-166.666666666667,4,2,1,5,0,0
56716,-166.666666666667,4,2,1,75,0,0
56944,-166.666666666667,4,2,1,5,0,0
57020,-100,4,2,1,75,0,0
57553,-100,4,2,1,5,0,0
57629,-83.3333333333333,4,2,1,75,0,0
59761,-100,4,2,1,75,0,0
60066,-83.3333333333333,4,2,1,75,0,0
61741,-125,4,2,1,75,0,0
61969,-125,4,2,1,5,0,0
62046,-100,4,2,1,75,0,0
62502,-83.3333333333333,4,2,1,75,0,0
62731,-83.3333333333333,4,2,1,5,0,0
62807,-83.3333333333333,4,2,1,75,0,0
66157,-166.666666666667,4,2,1,75,0,0
66386,-166.666666666667,4,2,1,5,0,0
66462,-166.666666666667,4,2,1,75,0,0
66690,-166.666666666667,4,2,1,5,0,0
66766,-100,4,2,1,75,0,0
67299,-100,4,2,1,5,0,0
67376,-83.3333333333333,4,2,1,75,0,0
72553,-66.6666666666667,4,2,1,75,0,0
74685,-100,4,2,1,60,0,0
76056,-125,4,2,1,60,0,0
77122,-83.3333333333333,4,2,1,60,0,0
78188,-71.4285714285714,4,2,1,60,0,0
78645,-166.666666666667,4,2,1,60,0,0
79558,-100,4,2,1,65,0,0
79787,-100,4,2,1,5,0,0
79863,-100,4,2,1,65,0,0
82223,-100,4,2,1,5,0,0
82299,-100,4,2,1,65,0,0
83213,-83.3333333333333,4,2,1,65,0,0
84127,-125,4,2,1,65,0,0
84355,-125,4,2,1,5,0,0
84431,-100,4,2,1,65,0,0
86868,-100,4,2,1,70,0,0
87096,-100,4,2,1,5,0,0
87173,-83.3333333333333,4,2,1,70,0,0
87782,-71.4285714285714,4,2,1,70,0,0
88086,-66.6666666666667,4,2,1,70,0,0
88695,-76.9230769230769,4,2,1,70,0,0

[Colours]
Combo1 : 245,153,145
Combo2 : 158,118,140
Combo3 : 255,185,151
Combo4 : 138,138,255
Combo5 : 166,255,188
Combo6 : 255,202,202

[HitObjects]
177,210,371,5,6,3:2:0:0:
57,250,523,2,0,P|33:302|23:362,1,80,10|8,3:2|3:0,0:0:0:0:
193,208,827,1,2,3:2:0:0:
107,133,979,2,0,P|55:137|4:156,1,80,10|8,3:2|3:0,0:0:0:0:
208,206,1284,1,2,3:2:0:0:
232,98,1436,2,0,P|202:55|160:21,1,80,10|8,3:2|3:0,0:0:0:0:
167,215,1741,6,0,P|187:250|195:284,1,64,2|10,3:2|3:2,0:0:0:0:
130,358,2198,5,2,1:3:0:0:
321,235,2502,1,2,1:3:0:0:
392,157,2655,1,2,3:2:0:0:
392,157,2731,1,0,3:0:0:0:
392,157,2807,5,6,3:2:0:0:
426,289,2959,2,0,P|472:280|512:253,1,95.9999970703126,8|8,3:0|3:0,0:0:0:0:
386,139,3264,5,2,3:2:0:0:
243,176,3416,2,0,P|242:111|280:48,1,95.9999970703126,10|8,3:2|3:0,0:0:0:0:
395,121,3721,5,2,3:2:0:0:
294,295,3873,2,0,P|190:285|132:162,1,223.999993164063,10|2,3:2|1:3,0:0:0:0:
1,46,4330,6,0,B|-12:72|3:89|3:89|56:33|141:31,1,191.999994140625,2|0,1:3|1:0,0:0:0:0:
284,167,5091,1,0,1:0:0:0:
294,182,5167,1,0,1:0:0:0:
306,200,5244,6,0,P|349:171|436:155,1,120,6|0,3:2|0:0,0:0:0:0:
493,171,5548,2,0,P|479:203|430:232,1,80,2|0,1:2|0:0,0:0:0:0:
301,350,5853,5,2,3:2:0:0:
301,350,6005,1,0,3:2:0:0:
207,249,6157,2,0,L|225:154,1,80,2|0,1:2|0:0,0:0:0:0:
0,379,6462,6,0,B|97:350|46:320|152:289,1,160,2|2,3:2|1:2,0:0:0:0:
273,218,6919,2,0,P|212:200|191:82,1,160,2|2,3:2|3:2,0:0:0:0:
391,11,7376,5,2,1:2:0:0:
266,131,7528,1,2,0:0:0:0:
410,216,7680,2,0,P|438:265|438:332,1,120,2|0,3:2|0:0,0:0:0:0:
377,384,7985,2,0,P|358:351|369:287,1,80,2|0,1:2|0:0,0:0:0:0:
451,143,8289,5,2,3:2:0:0:
451,143,8442,1,0,3:2:0:0:
319,98,8594,2,0,L|215:64,1,80,2|0,1:2|0:0,0:0:0:0:
0,144,8898,6,0,B|44:121|97:145|97:145|126:187|188:187,1,191.999994140625,2|2,3:2|1:2,0:0:0:0:
308,276,9355,2,0,P|406:299|507:360,1,191.999994140625,2|2,3:2|3:2,0:0:0:0:
191,376,9812,6,0,P|207:338|204:294,1,64,6|2,1:2|0:0,0:0:0:0:
163,212,10117,6,0,P|134:233|126:299,1,80,6|0,3:2|0:0,0:0:0:0:
282,172,10421,2,0,P|242:129|222:81,1,80,2|0,1:2|0:0,0:0:0:0:
96,16,10726,1,2,3:2:0:0:
96,16,10878,1,0,3:0:0:0:
20,127,11030,2,0,P|32:164|39:204,1,80,2|0,1:2|0:0,0:0:0:0:
155,364,11335,6,0,B|249:328|195:302|302:258,1,160,2|2,3:2|1:2,0:0:0:0:
386,189,11792,2,0,P|378:127|343:24,1,160,2|2,3:2|3:2,0:0:0:0:
512,145,12249,5,2,1:2:0:0:
405,280,12401,1,2,0:0:0:0:
263,188,12553,2,0,L|132:170,1,120,6|0,3:2|0:0,0:0:0:0:
95,111,12858,2,0,L|123:26,1,80,2|0,1:2|0:0,0:0:0:0:
0,193,13162,1,2,3:2:0:0:
0,193,13315,1,0,3:2:0:0:
127,289,13467,2,0,L|106:386,1,80,2|0,1:2|0:0,0:0:0:0:
233,181,13772,6,0,B|293:167|330:217|330:217|347:287|418:313|474:260|474:260|466:212|432:196|395:205,1,383.99998828125,6|4,3:2|3:0,0:0:0:0:
253,264,14533,1,4,3:2:0:0:
240,272,14609,1,8,2:3:0:0:
226,280,14685,2,0,L|213:349,1,64,0|0,1:0|1:0,0:0:0:0:
508,91,16208,5,4,3:2:0:0:
508,91,16513,2,0,P|466:100|426:117,1,64,2|0,1:2|3:2,0:0:0:0:
339,184,16817,2,0,P|298:164|258:79,1,128,2|2,0:0|1:2,0:0:0:0:
382,28,17426,6,0,P|370:77|355:113,1,64,2|2,3:2|0:0,0:0:0:0:
267,190,17731,1,0,1:0:0:0:
267,190,17883,2,0,P|224:164|127:139,1,128,2|2,3:2|3:2,0:0:0:0:
149,141,18340,1,0,1:2:0:0:
16,179,18645,5,0,3:0:0:0:
16,179,18949,2,0,P|31:222|44:325,1,128,2|2,1:2|3:2,0:0:0:0:
160,368,19406,1,0,3:2:0:0:
160,368,19558,2,0,P|151:329|151:283,1,64,2|0,1:2|0:0,0:0:0:0:
19,247,19863,5,2,3:2:0:0:
140,193,20015,2,0,P|189:174|222:169,1,64,2|0,0:0|1:0,0:0:0:0:
272,285,20320,2,0,P|298:313|396:324,1,128,2|2,3:2|3:2,0:0:0:0:
383,328,20777,1,0,1:0:0:0:
503,192,21081,5,4,3:2:0:0:
503,192,21386,2,0,L|494:271,1,64,2|0,1:2|3:0,0:0:0:0:
398,160,21690,2,0,L|408:82,1,64,2|2,0:0|3:2,0:0:0:0:
299,24,21995,1,2,1:2:0:0:
299,24,22299,5,2,3:2:0:0:
231,107,22452,1,2,3:2:0:0:
128,77,22604,1,0,1:0:0:0:
128,77,22756,2,0,P|83:101|30:168,1,128,2|2,3:2|3:2,0:0:0:0:
169,230,23213,2,0,P|151:203|129:180,1,64,0|2,1:0|0:0,0:0:0:0:
34,299,23518,5,0,3:2:0:0:
34,299,23822,2,0,P|76:309|162:373,1,128,2|2,1:2|3:2,0:0:0:0:
261,294,24279,1,0,0:0:0:0:
261,294,24431,2,0,P|307:280|339:264,1,64,2|0,1:2|0:0,0:0:0:0:
497,198,24736,5,2,3:2:0:0:
497,198,24888,2,0,P|465:173|427:157,1,64,2|0,0:2|1:0,0:0:0:0:
362,66,25193,2,0,P|337:111|321:204,1,128,2|2,3:2|3:2,0:0:0:0:
214,155,25650,2,0,P|195:128|184:99,1,64,0|2,1:0|0:2,0:0:0:0:
73,301,25954,6,0,P|120:291|164:271,1,95.9999970703126,6|0,3:2|1:0,0:0:0:0:
258,331,26411,1,2,3:2:0:0:
388,256,26563,2,0,P|422:198|522:157,1,160,2|0,3:2|1:0,0:0:0:0:
250,209,27020,5,2,3:2:0:0:
182,141,27173,2,0,P|147:115|87:86,1,95.9999970703126,2|0,0:0|1:0,0:0:0:0:
254,14,27629,1,2,3:2:0:0:
371,107,27782,2,0,P|410:184|505:225,1,160,2|0,0:0|1:0,0:0:0:0:
188,295,28391,6,0,B|172:341|154:323|136:384,1,95.9999970703126,2|0,3:2|1:0,0:0:0:0:
256,192,28848,1,2,3:2:0:0:
380,128,29000,2,0,B|350:50|308:93|269:-12,1,160,2|0,3:2|1:2,0:0:0:0:
277,9,29609,5,2,3:2:0:0:
220,127,29761,1,2,0:2:0:0:
310,224,29914,2,0,L|376:292,1,80,2|2,1:2|3:2,0:0:0:0:
274,384,30218,1,2,0:2:0:0:
84,155,30523,6,0,P|61:231|48:325,1,143.999995605469,4|0,1:2|0:0,0:0:0:0:
4,364,30827,6,0,P|41:339|133:303,1,128,6|0,3:2|1:0,0:0:0:0:
207,205,31284,1,2,3:2:0:0:
207,205,31436,2,0,P|237:169|271:84,1,128,2|0,3:2|1:0,0:0:0:0:
368,18,31893,1,2,0:0:0:0:
368,18,32046,6,0,P|391:53|408:99,2,64,2|2|2,3:2|3:2|1:2,0:0:0:0:
426,295,32655,2,0,P|400:253|385:211,1,64,2|0,3:2|3:2,0:0:0:0:
342,146,32959,1,0,1:0:0:0:
342,146,33264,6,0,B|286:170|323:185|259:213,1,96,6|0,3:2|0:0,0:0:0:0:
202,165,33568,2,0,P|190:125|176:98,1,64,2|2,1:2|3:2,0:0:0:0:
93,244,33873,2,0,P|111:210|119:168,1,64,2|0,3:2|0:0,0:0:0:0:
0,93,34178,2,0,P|10:128|17:208,1,96,2|0,1:2|0:0,0:0:0:0:
7,233,34482,5,2,3:2:0:0:
74,342,34634,1,2,0:0:0:0:
195,297,34787,2,0,P|226:302|252:320,1,64,2|0,1:2|3:0,0:0:0:0:
395,252,35091,2,0,P|348:223|317:142,1,128,2|0,3:2|1:0,0:0:0:0:
191,29,35700,5,4,3:2:0:0:
191,29,36005,2,0,P|160:66|145:127,1,96,2|0,1:2|0:0,0:0:0:0:
203,165,36310,2,0,P|222:203|231:252,1,64,2|0,0:0|3:2,0:0:0:0:
105,295,36614,2,0,P|118:256|107:210,1,64,10|0,1:2|0:0,0:0:0:0:
186,370,36919,6,0,B|263:353|225:329|314:312,1,128,2|2,3:2|1:2,0:0:0:0:
391,218,37376,2,0,P|342:191|305:120,1,128,2|2,3:2|3:2,0:0:0:0:
408,55,37832,2,0,P|397:92|408:135,1,64,0|0,1:2|0:0,0:0:0:0:
512,283,38137,5,6,3:2:0:0:
335,367,38442,1,6,3:2:0:0:
315,358,38594,5,6,3:2:0:0:
170,222,38898,1,6,3:2:0:0:
145,228,39051,5,6,3:2:0:0:
8,366,39355,1,6,3:2:0:0:
34,357,39508,5,6,3:2:0:0:
169,209,39812,1,6,3:2:0:0:
194,220,39964,6,0,P|205:190|204:146,2,55.9999982910157,6|0|0,3:2|0:0|1:0,0:0:0:0:
319,312,40269,1,4,2:3:0:0:
319,312,40345,1,0,0:0:0:0:
319,312,40421,2,0,P|309:292|305:242,1,55.9999982910157,4|0,2:3|0:0,0:0:0:0:
348,138,40574,5,4,3:2:0:0:
348,138,40878,2,0,P|383:153|408:169,1,47.9999985351563,2|0,1:2|3:0,0:0:0:0:
507,78,41183,1,2,0:0:0:0:
507,78,41335,2,0,P|464:78|426:22,1,95.9999970703126,0|0,3:2|0:0,0:0:0:0:
337,137,41792,6,0,P|332:165|320:193,1,47.9999985351563,2|0,0:0|3:0,0:0:0:0:
449,279,42096,2,0,P|437:242|434:217,1,47.9999985351563,2|0,1:2|0:0,0:0:0:0:
352,342,42401,2,0,L|247:360,1,95.9999970703126,2|2,3:2|1:2,0:0:0:0:
166,323,42858,1,0,0:0:0:0:
240,249,43010,6,0,B|218:224|218:224|239:148,1,95.9999970703126,6|0,3:2|1:0,0:0:0:0:
234,163,43467,1,0,3:0:0:0:
11,67,43772,5,0,3:0:0:0:
110,19,43924,1,2,1:2:0:0:
133,23,44000,1,8,0:3:0:0:
157,28,44076,1,8,0:3:0:0:
180,33,44152,1,8,0:3:0:0:
204,37,44228,6,0,P|222:78|229:128,1,80,6|0,1:2|3:0,0:0:0:0:
399,225,44533,1,2,1:2:0:0:
339,65,44685,1,0,3:0:0:0:
215,237,44838,2,0,P|255:210|310:186,1,80,2|0,1:2|3:0,0:0:0:0:
284,360,45142,5,2,1:2:0:0:
96,294,45294,1,0,1:0:0:0:
96,294,45371,1,0,1:0:0:0:
96,294,45447,6,0,P|27:306|16:393,1,160,6|2,3:2|1:2,0:0:0:0:
172,346,45903,1,2,0:0:0:0:
172,346,46056,2,0,P|177:302|172:252,1,80,2|0,3:2|3:0,0:0:0:0:
273,177,46360,1,2,1:2:0:0:
129,75,46513,6,0,B|226:120|156:147|270:195,1,160,6|2,3:2|3:2,0:0:0:0:
388,58,46969,2,0,B|418:45|398:-1|369:-23|275:24|307:101,1,167.999994873047,2|0,1:2|0:0,0:0:0:0:
354,137,47274,6,0,P|407:152|449:173,1,80,2|0,3:2|3:2,0:0:0:0:
508,281,47579,2,0,P|467:304|427:339,1,80,2|0,1:2|0:0,0:0:0:0:
292,260,47883,6,0,P|301:214|302:85,1,160,6|0,3:2|1:0,0:0:0:0:
303,101,48340,1,2,0:0:0:0:
197,195,48492,2,0,P|145:214|102:223,1,80,2|0,3:2|3:2,0:0:0:0:
13,305,48797,2,0,P|71:320|170:383,1,167.999994873047,2|0,1:2|0:0,0:0:0:0:
210,306,49101,6,0,P|202:264|182:218,1,80,2|0,3:2|0:0,0:0:0:0:
353,349,49406,2,0,P|334:297|321:203,1,120,2|0,1:2|0:0,0:0:0:0:
362,157,49711,5,2,3:2:0:0:
362,157,49863,1,0,3:0:0:0:
441,49,50015,1,2,1:2:0:0:
280,9,50167,1,0,1:0:0:0:
280,9,50244,1,0,1:0:0:0:
280,9,50320,6,0,L|144:38,1,128,6|0,3:2|3:2,0:0:0:0:
251,124,50777,2,0,L|115:153,1,128,4|0,1:2|3:0,0:0:0:0:
0,205,51233,6,0,B|20:232|20:232|123:247|123:247|151:283,1,167.999994873047,4|0,1:2|0:0,0:0:0:0:
189,342,51538,5,4,3:2:0:0:
320,196,51690,1,4,3:2:0:0:
418,372,51842,1,4,3:2:0:0:
418,372,52147,6,0,P|383:384|346:381,1,60,2|2,0:0|0:0,0:0:0:0:
303,328,52452,2,0,P|266:325|198:384,1,111.999996582031,2|2,3:2|0:0,0:0:0:0:
511,332,52756,6,0,P|479:279|472:173,1,143.999995605469,6|0,3:2|0:0,0:0:0:0:
507,130,53061,1,2,1:2:0:0:
345,26,53213,2,0,B|239:59|304:116|183:153,1,191.999994140625,2|2,0:0|3:2,0:0:0:0:
42,89,53670,1,0,1:0:0:0:
177,22,53822,6,0,L|223:240,1,191.999994140625,2|0,0:0|0:0,0:0:0:0:
110,371,54279,1,2,1:2:0:0:
0,234,54431,2,0,P|45:242|98:301,1,95.9999970703126,2|0,3:2|0:0,0:0:0:0:
285,166,54736,1,2,3:2:0:0:
164,61,54888,2,0,P|137:101|133:147,1,95.9999970703126,0|2,1:0|0:0,0:0:0:0:
266,260,55193,6,0,B|374:311|310:334|438:388,1,191.999994140625,0|0,3:0|1:0,0:0:0:0:
505,190,55802,1,2,3:2:0:0:
505,190,55954,1,0,3:0:0:0:
396,106,56107,2,0,P|414:52|421:2,1,95.9999970703126,2|0,1:2|0:0,0:0:0:0:
213,135,56411,6,0,P|229:167|245:216,1,71.9999978027344,2|0,3:2|0:0,0:0:0:0:
298,256,56716,2,0,P|276:289|243:324,1,71.9999978027344,2|0,1:2|0:0,0:0:0:0:
189,371,57020,6,0,P|152:350|96:345,1,80,2|0,3:2|3:0,0:0:0:0:
10,264,57325,2,0,P|61:254|125:182,1,120,6|0,1:2|0:0,0:0:0:0:
166,142,57629,6,0,B|207:148|238:112|238:112|294:89|355:140,2,191.999994140625,6|0|0,3:2|1:0|3:0,0:0:0:0:
286,268,58391,1,0,3:0:0:0:
471,188,58543,5,2,1:2:0:0:
433,354,58695,1,2,0:0:0:0:
295,248,58848,2,0,P|225:210|108:189,1,191.999994140625,2|2,3:2|1:2,0:0:0:0:
307,130,59305,6,0,P|370:115|411:-7,1,191.999994140625,6|0,3:2|3:0,0:0:0:0:
280,44,59761,2,0,P|237:71|216:109,1,80,2|2,1:2|0:0,0:0:0:0:
154,248,60066,6,0,B|57:280|99:321|-6:361,1,191.999994140625,6|2,3:2|1:2,0:0:0:0:
0,358,60523,1,0,0:0:0:0:
195,330,60675,2,0,P|241:310|301:290,1,95.9999970703126,2|0,3:2|3:2,0:0:0:0:
158,223,60980,6,0,P|111:215|56:197,1,95.9999970703126,2|2,1:2|1:2,0:0:0:0:
33,168,61208,1,0,1:0:0:0:
33,168,61284,5,6,3:2:0:0:
169,27,61436,1,6,3:2:0:0:
424,198,61741,6,0,L|408:314,1,96,6|0,3:2|0:0,0:0:0:0:
335,340,62046,6,0,L|320:289,1,40,2|0,1:2|0:0,0:0:0:0:
394,181,62198,1,2,1:2:0:0:
385,152,62274,1,2,1:2:0:0:
377,123,62350,1,2,1:2:0:0:
369,94,62426,1,2,1:2:0:0:
360,66,62502,6,0,P|289:53|198:8,1,143.999995605469,6|0,3:2|0:0,0:0:0:0:
157,67,62807,1,2,1:0:0:0:
44,233,62959,2,0,P|13:191|14:127,1,95.9999970703126,2|0,0:0|3:0,0:0:0:0:
167,187,63264,5,2,3:2:0:0:
244,294,63416,1,0,1:0:0:0:
75,377,63568,2,0,P|116:344|150:194,1,191.999994140625,6|0,3:2|3:0,0:0:0:0:
262,123,64025,1,2,1:0:0:0:
401,236,64178,2,0,P|452:215|513:201,1,95.9999970703126,2|0,0:0|3:0,0:0:0:0:
358,362,64482,5,2,3:2:0:0:
254,275,64634,1,0,1:0:0:0:
376,128,64787,2,0,B|279:107|328:39|212:18,1,191.999994140625,6|0,3:2|3:0,0:0:0:0:
84,111,65244,2,0,P|36:98|-15:42,1,95.9999970703126,0|0,1:0|0:0,0:0:0:0:
142,33,65548,5,2,3:2:0:0:
142,33,65700,1,0,3:2:0:0:
228,143,65853,2,0,P|243:195|250:249,1,95.9999970703126,2|0,1:2|0:0,0:0:0:0:
175,356,66157,6,0,P|141:362|90:345,1,71.9999978027344,2|0,3:2|0:0,0:0:0:0:
83,276,66462,2,0,P|60:249|50:196,1,71.9999978027344,2|0,1:2|0:0,0:0:0:0:
123,171,66766,6,0,P|99:135|45:117,1,80,2|0,3:2|3:0,0:0:0:0:
198,265,67071,2,0,P|241:241|331:219,1,120,6|0,1:2|0:0,0:0:0:0:
369,277,67376,6,0,P|411:260|402:123,2,191.999994140625,6|0|0,3:2|1:0|3:0,0:0:0:0:
264,358,68137,1,0,3:0:0:0:
204,232,68289,2,0,P|211:180|223:137,1,95.9999970703126,2|2,1:2|0:0,0:0:0:0:
405,8,68594,5,2,3:2:0:0:
478,200,68746,1,2,0:0:0:0:
300,97,68898,1,2,1:2:0:0:
506,17,69051,2,0,L|461:230,1,191.999994140625,2|0,3:2|3:0,0:0:0:0:
293,348,69508,5,2,1:2:0:0:
407,268,69660,1,2,0:0:0:0:
244,113,69812,2,0,P|283:90|382:197,1,191.999994140625,6|0,3:2|1:0,0:0:0:0:
227,222,70269,1,2,0:0:0:0:
227,222,70421,2,0,P|187:246|113:266,1,95.9999970703126,0|0,3:0|3:0,0:0:0:0:
93,103,70726,5,2,1:2:0:0:
263,5,70878,2,0,P|312:89|316:208,1,191.999994140625,4|0,3:2|3:0,0:0:0:0:
192,350,71335,1,0,1:0:0:0:
185,327,71411,1,0,3:0:0:0:
179,303,71487,1,0,3:0:0:0:
175,280,71563,1,0,3:0:0:0:
172,256,71640,5,2,3:2:0:0:
361,342,71792,1,2,3:2:0:0:
361,342,71868,1,0,3:0:0:0:
361,342,71944,1,2,1:2:0:0:
445,156,72096,1,2,0:0:0:0:
245,69,72249,5,6,3:2:0:0:
245,69,72553,2,0,P|257:127|279:183,1,120.000004577637,2|2,1:2|3:2,0:0:0:0:
150,265,72858,2,0,P|100:312|26:339,1,120.000004577637,2|2,1:2|3:2,0:0:0:0:
298,182,73162,2,0,P|351:208|394:250,1,120.000004577637,2|0,1:2|3:2,0:0:0:0:
229,367,73467,5,2,1:2:0:0:
183,165,73619,1,2,3:2:0:0:
34,372,73772,1,2,1:2:0:0:
0,174,73924,1,2,3:2:0:0:
200,274,74076,2,0,P|262:293|322:317,1,120.000004577637,2|0,1:2|3:2,0:0:0:0:
512,197,74381,1,0,1:0:0:0:
484,208,74457,1,0,1:0:0:0:
455,218,74533,1,0,1:0:0:0:
427,227,74609,1,0,1:0:0:0:
398,236,74685,5,6,3:2:0:0:
304,126,74838,2,0,P|321:83|325:19,1,80,10|8,3:2|3:0,0:0:0:0:
405,242,75142,5,2,3:2:0:0:
277,265,75295,2,0,P|251:232|204:200,1,80,10|8,3:2|3:0,0:0:0:0:
413,251,75599,5,2,3:2:0:0:
373,360,75752,2,0,P|336:365|289:387,1,80,10|8,3:2|3:0,0:0:0:0:
129,279,76056,6,0,P|157:293|188:300,1,64,2|10,3:2|3:2,0:0:0:0:
14,212,76513,5,2,1:3:0:0:
122,42,76817,1,2,1:3:0:0:
234,76,76969,1,2,3:2:0:0:
234,76,77046,1,0,3:0:0:0:
234,76,77122,5,6,3:2:0:0:
344,151,77274,2,0,P|367:119|371:45,1,95.9999970703126,8|8,3:0|3:0,0:0:0:0:
233,79,77579,5,2,3:2:0:0:
112,161,77731,2,0,P|87:126|82:45,1,95.9999970703126,10|8,3:2|3:0,0:0:0:0:
246,93,78035,5,2,3:2:0:0:
196,252,78188,2,0,P|143:274|2:182,1,223.999993164063,10|2,3:2|1:3,0:0:0:0:
245,367,78645,6,0,B|348:324|288:282|392:236,1,191.999994140625,2|0,1:3|1:0,0:0:0:0:
487,152,79406,1,0,1:0:0:0:
487,152,79482,1,0,1:0:0:0:
487,152,79558,6,0,P|500:208|495:291,1,120,6|0,3:2|0:0,0:0:0:0:
430,312,79863,2,0,P|403:340|358:363,1,80,2|0,1:2|0:0,0:0:0:0:
208,294,80167,5,2,3:2:0:0:
208,294,80320,1,0,3:2:0:0:
328,235,80472,2,0,P|347:192|353:142,1,80,2|0,1:2|0:0,0:0:0:0:
251,24,80777,6,0,P|269:68|229:192,1,160,2|2,3:2|1:2,0:0:0:0:
287,306,81233,2,0,P|255:342|134:373,1,160,2|2,3:2|3:2,0:0:0:0:
14,288,81690,5,2,1:2:0:0:
111,161,81843,1,2,0:0:0:0:
243,262,81995,2,0,P|282:280|380:240,1,120,2|0,3:2|0:0,0:0:0:0:
417,212,82299,2,0,P|379:187|333:187,1,80,2|0,1:2|0:0,0:0:0:0:
219,61,82604,5,2,3:2:0:0:
219,61,82756,1,0,3:2:0:0:
118,152,82909,2,0,L|35:168,1,80,2|0,1:2|0:0,0:0:0:0:
174,268,83213,6,0,B|225:268|250:311|250:311|261:367|324:393,1,191.999994140625,2|2,3:2|1:2,0:0:0:0:
492,304,83670,2,0,P|447:324|381:204,1,191.999994140625,2|2,3:2|3:2,0:0:0:0:
456,30,84127,6,0,P|479:50|496:100,1,64,6|2,1:2|0:0,0:0:0:0:
436,172,84431,6,0,P|400:152|354:142,1,80,6|0,3:2|0:0,0:0:0:0:
239,202,84736,2,0,P|216:244|164:272,1,80,2|0,1:2|0:0,0:0:0:0:
33,211,85041,1,2,3:2:0:0:
33,211,85193,1,0,3:0:0:0:
117,104,85345,2,0,P|102:60|96:12,1,80,2|0,1:2|0:0,0:0:0:0:
280,163,85650,6,0,B|195:195|240:237|147:274,1,160,2|2,3:2|1:2,0:0:0:0:
13,351,86107,2,0,P|40:294|70:175,1,160,2|2,3:2|3:2,0:0:0:0:
145,366,86563,5,2,1:2:0:0:
228,223,86716,1,2,0:0:0:0:
389,289,86868,2,0,P|445:254|529:233,1,120,6|0,3:2|0:0,0:0:0:0:
431,169,87173,6,0,P|386:159|318:111,1,95.9999970703126,2|0,1:2|3:0,0:0:0:0:
311,363,87477,2,0,P|293:305|287:248,1,95.9999970703126,2|0,1:2|3:2,0:0:0:0:
74,306,87782,2,0,P|94:244|129:179,1,111.999996582031,6|0,1:2|0:0,0:0:0:0:
17,42,88086,6,0,L|95:55,2,80.0000030517579,6|0|0,3:2|1:0|1:0,0:0:0:0:
192,113,88391,1,0,3:0:0:0:
208,101,88492,2,0,L|300:114,1,80.0000030517579,8|8,0:3|0:3,0:0:0:0:
379,183,88695,6,0,L|396:250,2,69.3333301595054,0|0|8,3:0|1:0|0:3,0:0:0:0:
469,320,89000,1,4,0:3:0:0:
478,338,89101,1,4,0:3:0:0:
484,357,89203,1,4,0:3:0:0:
