osu file format v14

[General]
AudioFilename: audio.ogg
AudioLeadIn: 0
PreviewTime: 52017
Countdown: 0
SampleSet: Soft
StackLeniency: 0.5
Mode: 0
LetterboxInBreaks: 0
WidescreenStoryboard: 1

[Editor]
Bookmarks: 371,5244,11792,16208,30827,40574,52756,63568,72553,74685,79558,89203
DistanceSpacing: 1
BeatDivisor: 4
GridSize: 32
TimelineZoom: 2.2

[Metadata]
Title:Senryakuteki de Yosoku Funou na Love Comedy no Ending Kyoku (TV Size)
TitleUnicode:戦略的で予測不能なラブコメディのエンディング曲 (TV Size)
Artist:Inori Minase, Sakura Ayane
ArtistUnicode:水瀬いのり、佐倉綾音
Creator:GodHacc
Version:Normal
Source:幼なじみが絶対に負けないラブコメ
Tags:japanese jpop j-pop pop anime osamake romcom where the childhood friend won't lose おさまけ osananajimi ga zettai ni makenai love rabu kome rabukome comedy shida kuroha 志田黒羽 kachi shirokusa 可知白草 tilda armada crysisters ending ed
BeatmapID:3956152
BeatmapSetID:1911055

[Difficulty]
HPDrainRate:3
CircleSize:3.2
OverallDifficulty:4
ApproachRate:6
SliderMultiplier:1
SliderTickRate:1

[Events]
//Background and Video events
Video,-30,"inoringood.mp4"
0,0,"senryabg.jpg",0,0
//Break Periods
//Storyboard Layer 0 (Background)
//Storyboard Layer 1 (Fail)
//Storyboard Layer 2 (Pass)
//Storyboard Layer 3 (Foreground)
//Storyboard Layer 4 (Overlay)
//Storyboard Sound Samples

[TimingPoints]
371,304.568527918782,4,2,1,60,1,0
371,-100,4,2,1,60,0,0
5244,-100,4,2,1,65,0,0
14990,-100,4,2,1,60,0,0
16208,-111.111111111111,4,2,1,50,0,0
25954,-111.111111111111,4,2,1,60,0,0
30827,-111.111111111111,4,2,1,50,0,0
35700,-111.111111111111,4,2,1,60,0,0
38137,-111.111111111111,4,2,1,65,0,0
40574,-111.111111111111,4,2,1,50,0,0
43924,-111.111111111111,4,2,1,60,0,0
44228,-100,4,2,1,65,0,0
50320,-100,4,2,1,70,0,0
52147,-111.111111111111,4,2,1,70,0,0
52756,-100,4,2,1,75,0,0
74685,-100,4,2,1,60,0,0
79558,-100,4,2,1,65,0,0
86868,-100,4,2,1,70,0,0

[Colours]
Combo1 : 245,153,145
Combo2 : 158,118,140
Combo3 : 255,185,151
Combo4 : 138,138,255
Combo5 : 166,255,188
Combo6 : 255,202,202

[HitObjects]
0,314,371,5,6,3:2:0:0:
0,314,523,2,0,L|107:295,1,100,10|2,3:2|3:2,0:0:0:0:
136,263,980,2,0,L|234:280,1,100,10|2,3:2|3:2,0:0:0:0:
272,312,1436,1,10,3:2:0:0:
344,242,1741,1,2,3:2:0:0:
344,242,1893,2,0,L|444:264,2,100,10|2|2,3:2|1:3|1:3,0:0:0:0:
305,209,2655,1,2,3:2:0:0:
305,209,2807,1,6,3:2:0:0:
377,77,3264,5,2,3:2:0:0:
377,77,3416,2,0,L|270:52,1,100,10|2,3:2|3:2,0:0:0:0:
236,80,3873,2,0,L|138:97,1,100,10|2,3:2|1:3,0:0:0:0:
90,80,4330,1,2,1:3:0:0:
14,265,4939,1,0,1:0:0:0:
84,335,5244,6,0,L|137:322,1,50,6|0,3:2|0:0,0:0:0:0:
173,296,5548,2,0,P|212:317|272:323,1,100,2|2,1:2|3:2,0:0:0:0:
311,356,6005,1,0,3:2:0:0:
311,356,6157,1,2,1:2:0:0:
401,312,6462,2,0,L|413:261,1,50,2|0,3:2|0:0,0:0:0:0:
441,224,6766,1,2,1:2:0:0:
441,224,6919,1,2,3:2:0:0:
386,140,7223,2,0,L|398:89,2,50,2|2|2,3:2|1:2|0:0,0:0:0:0:
349,174,7680,5,2,3:2:0:0:
295,258,7985,1,2,1:2:0:0:
199,229,8289,2,0,L|132:254,1,50,2|0,3:2|3:2,0:0:0:0:
113,278,8594,2,0,L|66:260,1,50,2|0,1:2|0:0,0:0:0:0:
27,228,8898,2,0,P|8:184|25:114,1,100,2|2,3:2|1:2,0:0:0:0:
2,84,9355,1,2,3:2:0:0:
95,47,9660,2,0,L|83:-1,2,50,2|6|2,3:2|1:2|0:0,0:0:0:0:
131,81,10117,6,0,P|174:104|224:108,1,100,6|2,3:2|1:2,0:0:0:0:
298,41,10726,2,0,L|347:50,1,50,2|0,3:2|3:0,0:0:0:0:
388,77,11030,1,2,1:2:0:0:
442,161,11335,2,0,L|455:230,1,50,2|0,3:2|0:0,0:0:0:0:
446,263,11640,1,2,1:2:0:0:
446,263,11792,1,2,3:2:0:0:
361,335,12096,2,0,L|374:404,2,50,2|2|2,3:2|1:2|0:0,0:0:0:0:
322,303,12553,5,6,3:2:0:0:
247,369,12858,1,2,1:2:0:0:
177,297,13162,2,0,L|115:319,1,50,2|0,3:2|3:2,0:0:0:0:
92,347,13467,2,0,L|44:330,1,50,2|0,1:2|0:0,0:0:0:0:
14,290,13772,2,0,P|7:222|70:99,1,200,6|4,3:2|3:0,0:0:0:0:
106,80,14533,1,4,3:2:0:0:
106,80,14685,2,0,L|216:99,1,100,0|0,1:0|1:0,0:0:0:0:
452,27,16208,5,4,3:2:0:0:
403,103,16513,2,0,L|307:122,1,89.9999972534181,2|2,1:2|0:0,0:0:0:0:
238,71,17122,1,2,1:2:0:0:
189,148,17426,1,2,3:2:0:0:
189,148,17579,2,0,P|147:135|91:132,2,89.9999972534181,2|2|2,0:0|3:2|3:2,0:0:0:0:
255,208,18492,2,0,L|352:191,1,89.9999972534181,2|0,0:0|0:0,0:0:0:0:
387,204,18949,5,2,1:2:0:0:
438,278,19254,1,2,3:2:0:0:
381,348,19558,2,0,L|326:365,1,44.999998626709,2|0,1:2|0:0,0:0:0:0:
308,334,19863,1,2,3:2:0:0:
308,334,20015,2,0,P|271:307|217:300,1,89.9999972534181,2|2,0:0|3:2,0:0:0:0:
165,363,20624,1,2,3:2:0:0:
55,284,21081,5,4,3:2:0:0:
110,213,21386,2,0,L|96:157,1,44.999998626709,2|0,1:2|3:0,0:0:0:0:
69,135,21690,2,0,L|14:150,2,44.999998626709,2|2|2,0:0|3:2|1:2,0:0:0:0:
116,60,22299,1,2,3:2:0:0:
116,60,22452,2,0,P|164:59|211:87,1,89.9999972534181,2|2,3:2|3:2,0:0:0:0:
268,136,23061,1,2,3:2:0:0:
329,70,23365,2,0,L|429:53,1,89.9999972534181,2|0,0:0|0:0,0:0:0:0:
456,31,23822,5,2,1:2:0:0:
504,107,24127,1,2,3:2:0:0:
462,186,24431,2,0,L|450:248,1,44.999998626709,2|0,1:2|0:0,0:0:0:0:
438,275,24736,1,2,3:2:0:0:
438,275,24888,2,0,L|333:254,1,89.9999972534181,2|2,0:2|3:2,0:0:0:0:
270,213,25497,1,2,3:2:0:0:
193,257,25802,1,2,0:2:0:0:
193,257,25954,6,0,P|172:216|176:160,1,89.9999972534181,6|0,3:2|1:0,0:0:0:0:
200,139,26411,1,2,3:2:0:0:
200,139,26563,1,2,3:2:0:0:
171,11,27020,1,2,3:2:0:0:
171,11,27173,2,0,L|268:26,1,89.9999972534181,2|0,0:0|1:0,0:0:0:0:
308,22,27629,1,2,3:2:0:0:
308,22,27782,1,2,0:0:0:0:
369,87,28086,1,0,1:0:0:0:
443,37,28391,6,0,L|464:135,1,89.9999972534181,2|0,3:2|1:0,0:0:0:0:
439,165,28848,1,2,3:2:0:0:
439,165,29000,2,0,L|418:263,1,89.9999972534181,2|0,3:2|1:2,0:0:0:0:
356,317,29609,2,0,L|306:304,1,44.999998626709,2|2,3:2|0:2,0:0:0:0:
269,291,29914,2,0,L|225:302,1,44.999998626709,2|2,1:2|3:2,0:0:0:0:
183,319,30218,2,0,P|163:281|169:221,1,89.9999972534181,2|4,0:2|1:2,0:0:0:0:
215,161,30827,6,0,L|301:185,1,89.9999972534181,6|0,3:2|1:0,0:0:0:0:
344,212,31284,1,2,3:2:0:0:
344,212,31436,2,0,L|446:190,1,89.9999972534181,2|0,3:2|1:0,0:0:0:0:
468,110,32046,2,0,L|528:126,2,44.999998626709,2|2|2,3:2|3:2|1:2,0:0:0:0:
433,91,32502,1,2,0:0:0:0:
433,91,32655,2,0,P|408:43|410:-10,1,89.9999972534181,2|0,3:2|1:0,0:0:0:0:
316,3,33264,6,0,L|218:28,1,89.9999972534181,6|2,3:2|1:2,0:0:0:0:
193,51,33721,1,2,3:2:0:0:
193,51,33873,2,0,L|105:28,1,89.9999972534181,2|2,3:2|1:2,0:0:0:0:
40,89,34482,2,0,L|24:145,1,44.999998626709,2|2,3:2|0:0,0:0:0:0:
50,170,34787,2,0,L|66:226,1,44.999998626709,2|0,1:2|3:0,0:0:0:0:
39,251,35091,2,0,P|16:302|25:352,1,89.9999972534181,2|0,3:2|1:0,0:0:0:0:
95,383,35700,5,4,3:2:0:0:
153,315,36005,2,0,L|249:340,1,89.9999972534181,2|2,1:2|0:0,0:0:0:0:
324,306,36614,2,0,L|341:254,1,44.999998626709,10|0,1:2|0:0,0:0:0:0:
369,230,36919,1,2,3:2:0:0:
316,163,37223,1,2,1:2:0:0:
316,163,37376,2,0,L|260:145,1,44.999998626709,2|0,3:2|0:0,0:0:0:0:
240,118,37680,2,0,L|148:139,1,89.9999972534181,2|0,3:2|0:0,0:0:0:0:
116,110,38137,5,6,3:2:0:0:
55,177,38442,1,6,3:2:0:0:
55,177,38594,2,0,L|70:278,1,89.9999972534181,6|6,3:2|3:2,0:0:0:0:
43,303,39051,1,6,3:2:0:0:
111,370,39355,1,6,3:2:0:0:
111,370,39508,2,0,P|160:365|200:333,1,89.9999972534181,6|6,3:2|3:2,0:0:0:0:
223,310,39964,2,0,L|283:323,1,44.999998626709,6|0,3:2|1:0,0:0:0:0:
306,342,40269,2,0,L|349:332,1,44.999998626709,4|4,2:3|2:3,0:0:0:0:
387,306,40574,5,4,3:2:0:0:
322,243,40878,2,0,L|336:182,1,44.999998626709,2|0,1:2|3:0,0:0:0:0:
298,168,41183,2,0,P|289:130|311:70,1,89.9999972534181,2|2,0:0|0:0,0:0:0:0:
343,1,41792,2,0,L|403:13,1,44.999998626709,2|0,0:0|3:0,0:0:0:0:
422,37,42096,2,0,L|511:18,2,89.9999972534181,2|2|2,1:2|3:2|1:2,0:0:0:0:
354,96,43010,2,0,P|368:150|350:199,1,89.9999972534181,6|0,3:2|1:0,0:0:0:0:
323,209,43467,2,0,P|309:251|316:295,1,89.9999972534181,0|0,3:0|3:0,0:0:0:0:
306,339,43924,1,2,1:2:0:0:
402,367,44228,6,0,L|449:382,1,50,6|0,1:2|3:0,0:0:0:0:
491,354,44533,2,0,L|506:307,1,50,2|0,1:2|3:0,0:0:0:0:
480,263,44838,2,0,P|463:211|466:159,1,100,2|2,1:2|1:2,0:0:0:0:
421,75,45447,6,0,L|313:107,1,100,6|2,3:2|1:2,0:0:0:0:
299,147,45903,1,2,0:0:0:0:
299,147,46056,1,2,3:2:0:0:
214,104,46360,1,2,1:2:0:0:
214,104,46513,2,0,L|101:131,1,100,6|2,3:2|3:2,0:0:0:0:
69,110,46969,1,2,1:2:0:0:
36,204,47274,2,0,L|50:266,1,50,2|0,3:2|3:2,0:0:0:0:
13,290,47579,2,0,L|1:338,1,50,2|0,1:2|0:0,0:0:0:0:
34,376,47883,6,0,P|78:347|135:342,1,100,6|0,3:2|1:0,0:0:0:0:
168,365,48340,1,2,0:0:0:0:
168,365,48492,1,2,3:2:0:0:
238,293,48797,1,2,1:2:0:0:
317,352,49101,2,0,L|378:329,1,50,2|0,3:2|0:0,0:0:0:0:
401,300,49406,1,2,1:2:0:0:
490,345,49711,2,0,P|512:298|506:238,1,100,2|2,3:2|1:2,0:0:0:0:
452,168,50320,6,0,L|472:61,1,100,6|0,3:2|3:2,0:0:0:0:
435,33,50777,2,0,P|395:60|323:63,1,100,4|0,1:2|3:0,0:0:0:0:
303,38,51233,2,0,L|254:26,1,50,4|0,1:2|0:0,0:0:0:0:
215,57,51538,2,0,L|203:105,2,50,4|4|4,3:2|3:2|3:2,0:0:0:0:
139,7,52147,2,0,P|94:21|35:29,1,89.9999972534181,2|2,0:0|3:2,0:0:0:0:
4,116,52756,6,0,L|14:181,1,50,6|0,3:2|0:0,0:0:0:0:
40,212,53061,1,2,1:2:0:0:
40,212,53213,2,0,L|105:222,1,50,2|0,0:0|3:0,0:0:0:0:
128,250,53518,1,2,3:2:0:0:
201,182,53822,2,0,P|187:133|184:84,1,100,2|0,0:0|0:0,0:0:0:0:
166,43,54279,1,2,1:2:0:0:
166,43,54431,2,0,L|222:55,1,50,2|0,3:2|0:0,0:0:0:0:
259,77,54736,1,2,3:2:0:0:
349,33,55041,2,0,P|409:39|435:69,1,100,2|0,0:0|0:0,0:0:0:0:
460,108,55497,1,0,1:0:0:0:
450,207,55802,6,0,L|437:267,1,50,2|0,3:2|3:0,0:0:0:0:
411,297,56107,2,0,L|353:280,1,50,2|0,1:2|0:0,0:0:0:0:
315,268,56411,2,0,P|260:284|204:294,1,100,2|2,3:2|1:2,0:0:0:0:
135,348,57020,2,0,L|114:283,1,50,2|0,3:2|3:0,0:0:0:0:
77,273,57325,1,6,1:2:0:0:
55,175,57629,6,0,P|103:164|151:147,1,100,6|0,3:2|1:0,0:0:0:0:
188,188,58086,1,0,0:0:0:0:
188,188,58239,1,0,3:0:0:0:
250,110,58543,2,0,L|312:95,1,50,2|2,1:2|0:0,0:0:0:0:
335,64,58848,1,2,3:2:0:0:
428,114,59152,1,2,1:2:0:0:
428,114,59305,2,0,P|415:163|406:227,1,100,6|0,3:2|3:0,0:0:0:0:
373,247,59761,2,0,L|388:309,1,50,2|2,1:2|0:0,0:0:0:0:
352,333,60066,5,6,3:2:0:0:
274,269,60371,1,2,1:2:0:0:
213,348,60675,2,0,L|152:333,1,50,2|0,3:2|3:2,0:0:0:0:
118,356,60980,2,0,L|69:345,1,50,2|2,1:2|1:2,0:0:0:0:
25,362,61284,1,6,3:2:0:0:
25,362,61436,1,6,3:2:0:0:
2,264,61741,2,0,L|21:155,1,100,6|2,3:2|1:2,0:0:0:0:
52,127,62198,2,0,L|37:66,1,50,2|2,1:2|1:2,0:0:0:0:
13,36,62502,6,0,P|43:12|108:10,1,100,6|2,3:2|1:2,0:0:0:0:
138,42,62959,1,2,0:0:0:0:
179,132,63264,2,0,L|164:198,1,50,2|0,3:2|1:0,0:0:0:0:
197,220,63568,2,0,P|238:243|300:235,1,100,6|0,3:2|3:0,0:0:0:0:
341,228,64025,1,2,1:2:0:0:
341,228,64178,1,2,0:0:0:0:
427,277,64482,1,2,3:2:0:0:
479,191,64787,2,0,L|505:87,1,100,6|0,3:2|3:0,0:0:0:0:
468,57,65244,1,0,1:0:0:0:
380,8,65548,6,0,L|322:24,1,50,2|0,3:2|3:2,0:0:0:0:
293,53,65853,2,0,L|244:39,1,50,2|0,1:2|0:0,0:0:0:0:
207,7,66157,2,0,P|173:49|167:112,1,100,2|2,3:2|1:2,0:0:0:0:
105,173,66766,2,0,L|49:158,1,50,2|0,3:2|3:0,0:0:0:0:
17,192,67071,2,0,L|32:248,1,50,6|0,1:2|0:0,0:0:0:0:
64,276,67376,6,0,L|30:389,2,100,6|0|0,3:2|1:0|3:0,0:0:0:0:
160,249,68289,2,0,L|226:269,1,50,2|2,1:2|0:0,0:0:0:0:
252,287,68594,2,0,L|299:272,1,50,2|2,3:2|0:0,0:0:0:0:
342,246,68898,1,2,1:2:0:0:
342,246,69051,2,0,P|366:195|365:137,1,100,2|0,3:2|3:0,0:0:0:0:
362,102,69508,1,2,1:2:0:0:
282,41,69812,6,0,L|171:71,1,100,6|0,3:2|1:0,0:0:0:0:
148,100,70269,2,0,L|51:73,1,100,2|0,0:0|3:0,0:0:0:0:
21,114,70726,1,2,1:2:0:0:
21,114,70878,1,4,3:2:0:0:
27,218,71183,1,0,3:0:0:0:
27,218,71335,1,0,1:0:0:0:
126,205,71640,2,0,L|183:224,1,50,2|2,3:2|3:2,0:0:0:0:
212,252,71944,2,0,L|259:236,1,50,2|2,1:2|0:0,0:0:0:0:
292,198,72249,5,6,3:2:0:0:
219,130,72553,2,0,L|203:83,1,50,2|2,1:2|3:2,0:0:0:0:
239,48,72858,2,0,L|286:32,1,50,2|2,1:2|3:2,0:0:0:0:
324,63,73162,1,2,1:2:0:0:
426,47,73467,1,2,1:2:0:0:
426,47,73619,2,0,L|442:-11,2,50,2|2|2,3:2|1:2|3:2,0:0:0:0:
455,87,74076,2,0,P|434:134|424:187,1,100,2|0,1:2|1:0,0:0:0:0:
372,268,74685,5,6,3:2:0:0:
372,268,74838,2,0,L|269:286,1,100,10|2,3:2|3:2,0:0:0:0:
232,256,75294,2,0,P|179:280|122:275,1,100,10|2,3:2|3:2,0:0:0:0:
91,259,75751,1,10,3:2:0:0:
108,163,76056,1,2,3:2:0:0:
108,163,76208,2,0,L|79:50,2,100,10|2|2,3:2|1:3|1:3,0:0:0:0:
152,196,76969,1,2,3:2:0:0:
152,196,77122,1,6,3:2:0:0:
224,66,77579,5,2,3:2:0:0:
224,66,77731,2,0,L|327:84,1,100,10|2,3:2|3:2,0:0:0:0:
364,111,78188,2,0,L|462:94,1,100,10|2,3:2|1:3,0:0:0:0:
491,53,78645,1,2,1:3:0:0:
427,242,79254,1,0,1:0:0:0:
343,187,79558,6,0,L|287:202,1,50,6|0,3:2|0:0,0:0:0:0:
250,223,79863,2,0,L|153:198,1,100,2|2,1:2|3:2,0:0:0:0:
117,171,80320,1,0,3:2:0:0:
117,171,80472,1,2,1:2:0:0:
153,77,80777,2,0,L|215:63,1,50,2|0,3:2|0:0,0:0:0:0:
247,85,81081,1,2,1:2:0:0:
247,85,81233,1,2,3:2:0:0:
340,49,81538,2,0,L|326:-13,2,50,2|2|2,3:2|1:2|0:0,0:0:0:0:
377,83,81995,5,2,3:2:0:0:
472,55,82299,1,2,1:2:0:0:
501,151,82604,2,0,L|515:213,1,50,2|0,3:2|3:2,0:0:0:0:
479,238,82909,2,0,L|465:300,1,50,2|0,1:2|0:0,0:0:0:0:
433,323,83213,2,0,P|381:325|330:353,1,100,2|2,3:2|1:2,0:0:0:0:
296,318,83670,1,2,3:2:0:0:
197,338,83975,2,0,L|179:393,2,50,2|6|2,3:2|1:2|0:0,0:0:0:0:
170,296,84431,6,0,L|149:192,1,100,6|2,3:2|1:2,0:0:0:0:
224,131,85041,2,0,L|238:69,1,50,2|0,3:2|3:0,0:0:0:0:
267,45,85345,1,2,1:2:0:0:
357,3,85650,2,0,L|421:21,1,50,2|0,3:2|0:0,0:0:0:0:
446,46,85954,1,2,1:2:0:0:
446,46,86107,1,2,3:2:0:0:
493,139,86411,1,2,3:2:0:0:
493,139,86563,2,0,L|481:188,1,50,2|2,1:2|0:2,0:0:0:0:
453,229,86868,6,0,P|425:229|356:197,1,100,6|2,3:2|1:2,0:0:0:0:
288,130,87477,2,0,L|239:143,1,50,2|0,1:2|3:0,0:0:0:0:
200,175,87781,1,2,1:2:0:0:
126,106,88086,2,0,B|123:16|2:16|-27:135|78:292,1,366.666666666667,6|4,3:2|0:3,0:0:0:0:
