osu file format v14

[General]
AudioFilename: audio.ogg
AudioLeadIn: 0
PreviewTime: 52017
Countdown: 0
SampleSet: Soft
StackLeniency: 0.5
Mode: 0
LetterboxInBreaks: 0
WidescreenStoryboard: 1

[Editor]
Bookmarks: 371,5244,16208,30827,40574,52756,74685,79558,89203
DistanceSpacing: 0.9
BeatDivisor: 6
GridSize: 32
TimelineZoom: 2.2

[Metadata]
Title:Senryakuteki de Yosoku Funou na Love Comedy no Ending Kyoku (TV Size)
TitleUnicode:戦略的で予測不能なラブコメディのエンディング曲 (TV Size)
Artist:Inori Minase, Sakura Ayane
ArtistUnicode:水瀬いのり、佐倉綾音
Creator:GodHacc
Version:Hard
Source:幼なじみが絶対に負けないラブコメ
Tags:japanese jpop j-pop pop anime osamake romcom where the childhood friend won't lose おさまけ osananajimi ga zettai ni makenai love rabu kome rabukome comedy shida kuroha 志田黒羽 kachi shirokusa 可知白草 tilda armada crysisters ending ed
BeatmapID:3956151
BeatmapSetID:1911055

[Difficulty]
HPDrainRate:4
CircleSize:3.5
OverallDifficulty:6
ApproachRate:8
SliderMultiplier:1.4
SliderTickRate:1

[Events]
//Background and Video events
Video,-30,"inoringood.mp4"
0,0,"senryabg.jpg",0,0
//Break Periods
//Storyboard Layer 0 (Background)
//Storyboard Layer 1 (Fail)
//Storyboard Layer 2 (Pass)
//Storyboard Layer 3 (Foreground)
//Storyboard Layer 4 (Overlay)
//Storyboard Sound Samples

[TimingPoints]
371,304.568527918782,4,2,1,60,1,0
371,-100,4,2,1,60,0,0
5244,-100,4,2,1,65,0,0
14990,-100,4,2,1,60,0,0
16208,-125,4,2,1,50,0,0
25954,-125,4,2,1,60,0,0
30827,-125,4,2,1,50,0,0
35700,-125,4,2,1,60,0,0
38137,-111.111111111111,4,2,1,65,0,0
40574,-125,4,2,1,50,0,0
43924,-125,4,2,1,60,0,0
44228,-100,4,2,1,65,0,0
50320,-100,4,2,1,70,0,0
52147,-125,4,2,1,70,0,0
52756,-90.9090909090909,4,2,1,75,0,0
74685,-100,4,2,1,60,0,0
79558,-100,4,2,1,65,0,0
86868,-100,4,2,1,70,0,0

[Colours]
Combo1 : 245,153,145
Combo2 : 158,118,140
Combo3 : 255,185,151
Combo4 : 138,138,255
Combo5 : 166,255,188
Combo6 : 255,202,202

[HitObjects]
58,110,371,5,6,3:2:0:0:
58,110,523,2,0,B|134:91|116:137|197:115,1,140,10|2,3:2|3:2,0:0:0:0:
289,73,980,2,0,P|284:120|262:167,1,70,10|8,3:2|3:0,0:0:0:0:
245,236,1284,1,2,3:2:0:0:
245,236,1436,2,0,L|389:198,1,140,10|2,3:2|3:2,0:0:0:0:
439,296,1893,2,0,L|361:283,1,70,10|8,3:2|3:0,0:0:0:0:
272,344,2198,2,0,P|221:366|163:377,1,105,2|0,1:3|0:0,0:0:0:0:
173,376,2502,2,0,P|136:362|86:359,1,70,2|2,1:3|3:2,0:0:0:0:
46,259,2807,5,6,3:2:0:0:
46,259,2959,2,0,P|41:187|10:93,1,140,8|2,3:0|3:2,0:0:0:0:
100,47,3416,2,0,P|112:79|117:114,1,70,10|8,3:2|3:0,0:0:0:0:
201,176,3721,1,2,3:2:0:0:
201,176,3873,2,0,B|257:189|257:189|278:207|278:207|332:218,1,140,10|2,3:2|1:3,0:0:0:0:
412,159,4330,1,2,1:3:0:0:
288,339,4939,5,0,1:0:0:0:
208,281,5091,1,0,1:0:0:0:
208,281,5167,1,0,1:0:0:0:
208,281,5244,2,0,P|171:267|121:264,1,70,6|0,3:2|0:0,0:0:0:0:
26,339,5548,2,0,B|56:301|56:301|31:213,1,140,2|2,1:2|3:2,0:0:0:0:
103,145,6005,1,0,3:2:0:0:
36,67,6157,1,2,1:2:0:0:
227,125,6462,6,0,P|294:115|369:82,1,140,2|2,3:2|1:2,0:0:0:0:
435,152,6919,2,0,P|445:219|478:294,1,140,2|2,3:2|3:2,0:0:0:0:
419,378,7376,1,2,1:2:0:0:
419,378,7528,1,2,0:0:0:0:
317,334,7680,2,0,P|280:348|230:351,1,70,2|0,3:2|0:0,0:0:0:0:
130,384,7985,2,0,P|153:331|157:229,1,140,2|2,1:2|3:2,0:0:0:0:
85,156,8442,1,0,3:2:0:0:
0,218,8594,1,2,1:2:0:0:
160,249,8898,6,0,B|226:232|203:193|279:181,1,140,2|2,3:2|1:2,0:0:0:0:
363,134,9355,2,0,P|423:164|512:163,1,140,2|2,3:2|3:2,0:0:0:0:
512,276,9812,1,6,1:2:0:0:
512,276,9964,1,2,0:0:0:0:
385,254,10117,2,0,P|401:291|404:341,1,70,6|0,3:2|0:0,0:0:0:0:
320,384,10421,2,0,P|274:337|184:336,1,140,2|2,1:2|3:2,0:0:0:0:
92,267,10878,1,0,3:0:0:0:
126,384,11030,1,2,1:2:0:0:
237,205,11335,6,0,B|289:187|289:187|316:192|316:192|371:175,1,140,2|2,3:2|1:2,0:0:0:0:
428,105,11792,2,0,B|375:87|375:87|348:92|348:92|293:75,1,140,2|2,3:2|3:2,0:0:0:0:
203,20,12249,1,2,1:2:0:0:
203,20,12401,1,2,0:0:0:0:
105,96,12553,2,0,P|123:133|128:186,1,70,6|0,3:2|0:0,0:0:0:0:
69,250,12858,2,0,P|125:210|198:207,1,140,2|2,1:2|3:2,0:0:0:0:
290,267,13315,1,0,3:2:0:0:
349,184,13467,1,2,1:2:0:0:
507,40,13772,6,0,P|492:92|492:161,1,105,6|0,3:2|1:0,0:0:0:0:
465,173,14076,2,0,P|478:214|479:233,3,35,0|0|8|8,1:0|0:0|3:0|2:3,0:0:0:0:
412,156,14381,2,0,P|371:178|321:186,1,70,4|4,3:0|3:2,0:0:0:0:
285,85,14685,2,0,P|274:118|257:148,1,70,0|0,1:0|1:0,0:0:0:0:
192,248,14990,5,0,1:0:0:0:
379,384,16208,1,4,3:2:0:0:
457,307,16513,6,0,P|450:265|444:248,1,56,2|0,1:2|3:2,0:0:0:0:
483,183,16817,2,0,P|436:213|372:213,1,112,2|2,0:0|1:2,0:0:0:0:
232,163,17426,1,2,3:2:0:0:
232,163,17579,2,0,P|248:207|252:231,1,56,2|0,0:0|1:0,0:0:0:0:
200,284,17883,2,0,P|164:255|76:250,2,112,2|2|2,3:2|3:2|0:0,0:0:0:0:
251,362,18645,1,0,3:0:0:0:
353,257,18949,6,0,P|356:195|370:141,1,112,2|2,1:2|3:2,0:0:0:0:
409,49,19406,1,0,3:2:0:0:
409,49,19558,2,0,P|381:57|357:66,1,56,2|0,1:2|0:0,0:0:0:0:
274,124,19863,1,2,3:2:0:0:
274,124,20015,1,2,0:0:0:0:
103,24,20320,2,0,P|118:61|119:93,1,56,2|0,3:2|0:0,0:0:0:0:
177,143,20624,2,0,P|162:177|150:273,1,112,2|0,3:2|0:0,0:0:0:0:
105,332,21081,1,4,3:2:0:0:
258,305,21386,6,0,P|305:331|370:337,1,112,2|2,1:2|0:0,0:0:0:0:
434,384,21843,1,2,3:2:0:0:
434,384,21995,1,2,1:2:0:0:
512,242,22299,1,2,3:2:0:0:
512,242,22452,2,0,P|501:192|490:163,1,56,2|0,3:2|1:0,0:0:0:0:
419,128,22756,2,0,P|421:83|447:9,2,112,2|2|2,3:2|3:2|0:0,0:0:0:0:
332,177,23518,1,0,3:2:0:0:
155,88,23822,6,0,P|185:61|267:56,1,112,2|2,1:2|3:2,0:0:0:0:
349,23,24279,1,0,0:0:0:0:
349,23,24431,2,0,P|336:63|333:92,1,56,2|0,1:2|0:0,0:0:0:0:
253,143,24736,1,2,3:2:0:0:
253,143,24888,1,2,0:2:0:0:
376,254,25193,2,0,P|355:305|357:386,1,112,2|2,3:2|3:2,0:0:0:0:
262,384,25650,1,0,1:0:0:0:
262,384,25802,1,2,0:2:0:0:
165,341,25954,6,0,P|119:369|53:372,1,112,6|0,3:2|1:0,0:0:0:0:
0,303,26411,1,2,3:2:0:0:
51,221,26563,2,0,P|58:172|82:104,1,112,2|0,3:2|1:0,0:0:0:0:
113,24,27020,1,2,3:2:0:0:
199,70,27173,2,0,P|243:41|305:29,1,112,2|0,0:0|1:0,0:0:0:0:
400,3,27629,1,2,3:2:0:0:
369,97,27782,2,0,P|385:140|395:215,1,112,2|0,0:0|1:0,0:0:0:0:
512,358,28391,6,0,P|467:324|392:306,1,112,2|0,3:2|1:0,0:0:0:0:
325,262,28848,1,2,3:2:0:0:
242,322,29000,2,0,P|232:267|208:215,1,112,2|0,3:2|1:2,0:0:0:0:
146,54,29609,2,0,P|174:59|200:69,1,56,2|2,3:2|0:2,0:0:0:0:
289,26,29914,1,2,1:2:0:0:
289,26,30066,1,2,3:2:0:0:
369,97,30218,2,0,P|383:129|387:165,1,56,2|0,0:2|3:2,0:0:0:0:
337,237,30523,1,4,1:2:0:0:
174,183,30827,6,0,P|121:166|56:159,1,112,6|0,3:2|1:0,0:0:0:0:
4,227,31284,1,2,3:2:0:0:
4,227,31436,2,0,P|29:274|26:356,1,112,2|0,3:2|1:0,0:0:0:0:
132,322,31893,1,2,0:0:0:0:
132,322,32046,2,0,L|122:266,2,56,2|2|2,3:2|3:2|1:2,0:0:0:0:
204,370,32502,1,2,0:0:0:0:
204,370,32655,2,0,P|240:353|270:347,1,56,2|0,3:2|3:2,0:0:0:0:
338,384,32959,1,0,1:0:0:0:
490,293,33264,6,0,P|508:246|506:219,1,56,6|0,3:2|0:0,0:0:0:0:
512,148,33568,1,2,1:2:0:0:
512,148,33721,1,2,3:2:0:0:
432,185,33873,2,0,P|387:207|315:214,1,112,2|2,3:2|1:2,0:0:0:0:
210,97,34482,6,0,P|182:93|157:81,1,56,2|2,3:2|0:0,0:0:0:0:
110,157,34787,2,0,P|96:190|95:219,1,56,2|0,1:2|3:0,0:0:0:0:
168,279,35091,2,0,P|196:345|198:403,1,112,2|0,3:2|1:0,0:0:0:0:
38,337,35700,1,4,3:2:0:0:
168,279,36005,6,0,P|220:294|241:296,1,56,2|0,1:2|3:0,0:0:0:0:
326,311,36310,2,0,P|317:284|311:257,1,56,2|0,0:0|3:2,0:0:0:0:
384,192,36614,2,0,P|411:201|438:207,1,56,10|0,1:2|0:0,0:0:0:0:
512,274,36919,1,2,3:2:0:0:
461,111,37223,1,2,1:2:0:0:
461,111,37376,2,0,P|432:106|408:95,1,56,2|0,3:2|0:0,0:0:0:0:
321,39,37680,2,0,P|281:71|209:78,1,112,2|0,3:2|0:0,0:0:0:0:
100,0,38137,6,0,P|114:24|124:60,1,62.9999980773926,6|0,3:2|0:0,0:0:0:0:
43,130,38442,1,6,3:2:0:0:
103,215,38594,2,0,P|159:194|227:188,1,125.999996154785,6|6,3:2|3:2,0:0:0:0:
331,258,39051,2,0,P|339:231|356:197,1,62.9999980773926,6|0,3:2|0:0,0:0:0:0:
432,128,39355,1,6,3:2:0:0:
362,38,39508,2,0,P|307:32|241:-8,1,125.999996154785,6|6,3:2|3:2,0:0:0:0:
184,63,39964,1,6,3:2:0:0:
93,28,40117,2,0,P|97:12|105:0,2,31.4999990386963,0|0|4,1:0|1:0|2:3,0:0:0:0:
27,91,40421,1,4,2:3:0:0:
108,148,40574,5,4,3:2:0:0:
62,319,40878,2,0,P|114:304|135:302,1,56,2|0,1:2|3:0,0:0:0:0:
202,246,41183,2,0,P|232:284|240:369,1,112,2|2,0:0|0:0,0:0:0:0:
392,384,41792,2,0,P|444:369|465:367,1,56,2|0,0:0|3:0,0:0:0:0:
502,301,42096,2,0,P|487:249|482:181,2,112,2|2|2,1:2|3:2|1:2,0:0:0:0:
346,183,43010,6,0,P|294:198|226:203,1,112,6|0,3:2|1:0,0:0:0:0:
138,160,43467,2,0,P|152:202|172:283,1,112,0|0,3:0|3:0,0:0:0:0:
212,345,43924,2,0,L|179:360,3,28,2|8|8|8,1:2|0:3|0:3|0:3,0:0:0:0:
155,384,44228,6,0,P|110:373|84:352,1,70,6|0,1:2|3:0,0:0:0:0:
19,285,44533,2,0,P|34:255|45:208,1,70,2|0,1:2|3:0,0:0:0:0:
138,160,44838,2,0,P|184:196|271:222,1,140,2|2,1:2|1:2,0:0:0:0:
362,293,45294,5,0,1:0:0:0:
362,293,45371,1,0,1:0:0:0:
362,293,45447,2,0,L|391:146,1,140,6|2,3:2|1:2,0:0:0:0:
269,81,45903,1,2,0:0:0:0:
269,81,46056,2,0,L|285:149,1,70,2|0,3:2|3:0,0:0:0:0:
389,155,46360,1,2,1:2:0:0:
476,52,46513,6,0,P|403:42|333:24,1,140,6|2,3:2|3:2,0:0:0:0:
269,81,46969,2,0,P|235:88|200:88,1,70,2|0,1:2|0:0,0:0:0:0:
94,44,47274,2,0,P|105:78|105:113,1,70,2|0,3:2|3:2,0:0:0:0:
173,176,47579,2,0,P|174:210|185:244,1,70,2|0,1:2|0:0,0:0:0:0:
152,361,47883,6,0,P|198:328|292:313,1,140,6|0,3:2|1:0,0:0:0:0:
345,241,48340,1,2,0:0:0:0:
345,241,48492,2,0,P|379:251|414:253,1,70,2|0,3:2|3:2,0:0:0:0:
494,324,48797,2,0,P|505:290|507:255,1,70,2|0,1:2|0:0,0:0:0:0:
495,150,49101,2,0,P|461:160|426:162,1,70,2|0,3:2|0:0,0:0:0:0:
301,115,49406,2,0,P|340:170|340:258,1,140,2|2,1:2|3:2,0:0:0:0:
269,320,49863,1,0,3:0:0:0:
269,320,50015,2,0,P|235:310|200:308,1,70,2|0,1:2|1:0,0:0:0:0:
169,287,50244,1,0,1:0:0:0:
169,287,50320,6,0,P|108:321|20:320,1,140,6|0,3:2|3:2,0:0:0:0:
17,215,50777,2,0,P|51:154|50:66,1,140,4|0,1:2|3:0,0:0:0:0:
190,43,51233,2,0,P|172:91|178:163,1,105,4|0,1:2|0:0,0:0:0:0:
173,144,51538,1,4,3:2:0:0:
296,119,51690,1,4,3:2:0:0:
348,232,51843,1,4,3:2:0:0:
188,340,52147,6,0,P|189:303|247:230,1,112,2|2,0:0|3:2,0:0:0:0:
296,119,52756,6,0,B|336:136|336:136|376:130|376:130|409:150|466:151,1,154.000004699707,6|2,3:2|1:2,0:0:0:0:
503,236,53213,2,0,P|502:274|511:311,1,77.0000023498536,2|0,0:0|3:0,0:0:0:0:
432,384,53518,1,2,3:2:0:0:
432,384,53670,1,0,1:0:0:0:
336,317,53822,2,0,B|259:360|264:296|175:346,1,154.000004699707,2|0,0:0|0:0,0:0:0:0:
81,382,54279,1,2,1:2:0:0:
30,287,54431,2,0,P|31:249|22:212,1,77.0000023498536,2|0,3:2|0:0,0:0:0:0:
95,135,54736,2,0,P|132:144|170:143,1,77.0000023498536,2|0,3:2|1:0,0:0:0:0:
265,187,55041,1,2,0:0:0:0:
406,89,55193,6,0,P|376:145|370:253,1,154.000004699707,0|0,3:0|1:0,0:0:0:0:
495,384,55802,1,2,3:2:0:0:
495,384,55954,1,0,3:0:0:0:
411,325,56107,2,0,P|374:315|336:316,1,77.0000023498536,2|0,1:2|0:0,0:0:0:0:
221,366,56411,2,0,B|174:385|174:385|130:364|52:376,1,154.000004699707,2|2,3:2|1:2,0:0:0:0:
5,295,56868,1,0,0:0:0:0:
76,221,57020,1,2,3:2:0:0:
76,221,57173,1,0,3:0:0:0:
13,138,57325,2,0,P|2:89|9:42,1,77.0000023498536,6|0,1:2|0:0,0:0:0:0:
134,2,57629,6,0,B|171:40|171:40|213:61|280:56,1,154.000004699707,6|0,3:2|1:0,0:0:0:0:
388,37,58086,1,0,0:0:0:0:
388,37,58239,2,0,P|369:80|367:120,1,77.0000023498536,0|0,3:0|3:0,0:0:0:0:
409,228,58543,1,2,1:2:0:0:
302,193,58695,1,2,0:0:0:0:
266,297,58848,2,0,L|98:253,1,154.000004699707,2|2,3:2|1:2,0:0:0:0:
1,343,59305,2,0,P|23:271|45:175,1,154.000004699707,6|0,3:2|3:0,0:0:0:0:
29,83,59761,1,2,1:2:0:0:
117,162,59914,1,2,0:0:0:0:
183,58,60066,6,0,P|255:44|329:-6,2,154.000004699707,6|2|2,3:2|1:2|3:2,0:0:0:0:
29,83,60827,1,0,3:2:0:0:
117,162,60980,2,0,L|125:216,3,38.5000011749268,2|0|2|0,1:2|1:0|1:2|1:0,0:0:0:0:
137,140,61284,5,6,3:2:0:0:
229,226,61436,1,6,3:2:0:0:
358,110,61741,6,0,B|411:139|411:139|444:135|444:135|508:160,1,154.000004699707,6|2,3:2|1:2,0:0:0:0:
493,34,62198,2,0,L|507:70,3,38.5000011749268,2|2|2|2,1:2|1:2|1:2|1:2,0:0:0:0:
465,4,62502,6,0,P|392:25|303:12,1,154.000004699707,6|2,3:2|1:2,0:0:0:0:
244,67,62959,2,0,P|198:60|149:63,1,77.0000023498536,2|0,0:0|3:0,0:0:0:0:
40,1,63264,1,2,3:2:0:0:
87,92,63416,1,0,1:0:0:0:
8,178,63568,2,0,B|51:234|51:234|31:277|42:326,1,154.000004699707,6|0,3:2|3:0,0:0:0:0:
104,384,64025,1,2,1:2:0:0:
177,315,64178,2,0,P|216:319|253:330,1,77.0000023498536,2|0,0:0|3:0,0:0:0:0:
333,376,64482,2,0,P|372:372|409:361,1,77.0000023498536,2|0,3:2|1:0,0:0:0:0:
488,259,64787,6,0,P|487:187|452:115,1,154.000004699707,6|0,3:2|3:0,0:0:0:0:
502,40,65244,1,0,1:0:0:0:
325,147,65548,1,2,3:2:0:0:
325,147,65700,1,0,3:2:0:0:
250,74,65853,2,0,P|214:63|175:59,1,77.0000023498536,2|0,1:2|0:0,0:0:0:0:
87,151,66157,2,0,P|62:114|58:2,2,154.000004699707,2|2|2,3:2|1:2|3:2,0:0:0:0:
152,236,66919,1,0,3:0:0:0:
260,216,67071,2,0,P|296:227|335:231,1,77.0000023498536,6|0,1:2|0:0,0:0:0:0:
463,329,67376,6,0,B|434:283|434:283|459:235|452:178,1,154.000004699707,6|0,3:2|1:0,0:0:0:0:
493,92,67832,1,0,0:0:0:0:
493,92,67985,2,0,P|459:103|418:107,1,77.0000023498536,0|0,3:0|3:0,0:0:0:0:
334,55,68289,1,2,1:2:0:0:
267,137,68442,1,2,0:0:0:0:
335,231,68594,2,0,P|321:277|320:329,1,77.0000023498536,2|2,3:2|0:0,0:0:0:0:
367,384,68898,1,2,1:2:0:0:
251,360,69051,2,0,P|212:333|102:314,1,154.000004699707,2|0,3:2|3:0,0:0:0:0:
22,265,69508,1,2,1:2:0:0:
22,265,69660,1,2,0:0:0:0:
39,130,69812,6,0,B|116:173|111:109|200:159,1,154.000004699707,6|0,3:2|1:0,0:0:0:0:
284,211,70269,2,0,P|299:138|264:40,1,154.000004699707,2|0,0:0|3:0,0:0:0:0:
373,22,70726,1,2,1:2:0:0:
441,114,70878,2,0,L|460:267,1,154.000004699707,4|0,3:2|3:0,0:0:0:0:
506,363,71335,2,0,P|460:349|408:348,1,77.0000023498536,0|0,1:0|3:0,0:0:0:0:
353,292,71640,1,2,3:2:0:0:
271,362,71792,1,2,3:2:0:0:
271,362,71868,1,0,3:0:0:0:
271,362,71944,2,0,P|233:357|197:345,1,77.0000023498536,2|2,1:2|0:0,0:0:0:0:
119,257,72249,6,0,P|135:209|134:163,1,77.0000023498536,6|0,3:2|0:0,0:0:0:0:
190,91,72553,1,2,1:2:0:0:
76,53,72706,1,2,3:2:0:0:
34,160,72858,2,0,P|18:208|19:254,1,77.0000023498536,2|2,1:2|3:2,0:0:0:0:
79,352,73162,2,0,P|118:348|154:334,1,77.0000023498536,2|0,1:2|3:2,0:0:0:0:
252,275,73467,1,2,1:2:0:0:
349,361,73619,1,2,3:2:0:0:
431,278,73772,2,0,P|435:239|449:203,1,77.0000023498536,2|2,1:2|3:2,0:0:0:0:
341,159,74076,2,0,B|285:146|285:146|258:124|258:124|197:113,1,154.000004699707,2|0,1:2|1:0,0:0:0:0:
174,121,74457,1,0,1:0:0:0:
174,121,74533,1,0,1:0:0:0:
261,43,74685,5,6,3:2:0:0:
261,43,74838,2,0,B|337:24|319:70|400:48,1,140,10|2,3:2|3:2,0:0:0:0:
485,0,75294,2,0,P|508:48|509:93,1,70,10|8,3:2|3:0,0:0:0:0:
464,154,75599,1,2,3:2:0:0:
464,154,75751,2,0,P|435:213|429:297,1,140,10|2,3:2|3:2,0:0:0:0:
443,384,76208,2,0,P|397:363|350:360,1,70,10|8,3:2|3:0,0:0:0:0:
288,286,76513,2,0,P|241:311|170:315,1,105,2|0,1:3|0:0,0:0:0:0:
191,317,76817,2,0,P|145:296|98:293,1,70,2|2,1:3|3:2,0:0:0:0:
52,193,77122,5,6,3:2:0:0:
52,193,77274,2,0,B|100:177|100:177|135:202|191:198,1,140,8|2,3:0|3:2,0:0:0:0:
263,134,77731,2,0,P|309:155|356:158,1,70,10|8,3:2|3:0,0:0:0:0:
429,116,78035,1,2,3:2:0:0:
429,116,78188,2,0,P|420:170|436:274,1,140,10|2,3:2|1:3,0:0:0:0:
378,359,78645,1,2,1:3:0:0:
127,294,79254,5,0,1:0:0:0:
54,215,79406,1,0,1:0:0:0:
54,215,79482,1,0,1:0:0:0:
54,215,79558,2,0,P|62:180|77:148,1,70,6|0,3:2|0:0,0:0:0:0:
41,62,79863,2,0,P|98:101|183:105,1,140,2|2,1:2|3:2,0:0:0:0:
251,169,80320,1,0,3:2:0:0:
313,85,80472,1,2,1:2:0:0:
460,222,80777,6,0,P|427:265|432:368,1,140,2|2,3:2|1:2,0:0:0:0:
331,384,81233,2,0,P|288:351|185:356,1,140,2|2,3:2|3:2,0:0:0:0:
127,270,81690,1,2,1:2:0:0:
127,270,81843,1,2,0:0:0:0:
23,306,81995,2,0,P|15:263|-1:228,1,70,2|0,3:2|0:0,0:0:0:0:
77,149,82299,2,0,P|136:184|228:177,1,140,2|2,1:2|3:2,0:0:0:0:
293,119,82756,1,0,3:2:0:0:
375,186,82909,1,2,1:2:0:0:
503,57,83213,6,0,B|453:70|453:70|404:60|364:24,1,140,2|2,3:2|1:2,0:0:0:0:
271,13,83670,2,0,L|124:0,1,140,2|2,3:2|3:2,0:0:0:0:
37,56,84127,1,6,1:2:0:0:
37,56,84279,1,2,0:0:0:0:
103,140,84431,2,0,P|77:192|74:231,1,70,6|0,3:2|0:0,0:0:0:0:
128,287,84736,2,0,B|213:266|213:266|237:293|263:304,1,140,2|2,1:2|3:2,0:0:0:0:
337,363,85193,1,0,3:0:0:0:
416,290,85345,1,2,1:2:0:0:
301,120,85650,6,0,P|328:166|329:264,1,140,2|2,3:2|1:2,0:0:0:0:
235,327,86107,2,0,B|180:335|180:335|157:350|157:350|98:361,1,140,2|2,3:2|3:2,0:0:0:0:
28,280,86563,1,2,1:2:0:0:
28,280,86716,1,2,0:0:0:0:
99,195,86868,2,0,P|103:140|124:111,1,70,6|0,3:2|0:0,0:0:0:0:
85,33,87173,2,0,P|118:45|153:43,1,70,2|0,1:2|3:0,0:0:0:0:
225,109,87477,1,2,1:2:0:0:
225,109,87629,1,0,3:2:0:0:
337,67,87782,2,0,P|323:99|324:137,1,70,6|0,1:2|0:0,0:0:0:0:
426,195,88086,6,0,P|418:219|417:248,2,46.6666666666667,6|0|0,3:2|1:0|1:0,0:0:0:0:
329,239,88391,2,0,P|338:263|338:292,2,46.6666666666667,0|8|8,3:0|0:3|0:3,0:0:0:0:
253,197,88695,2,0,P|229:188|200:188,2,46.6666666666667,0|0|8,3:0|1:0|0:3,0:0:0:0:
324,134,89000,2,0,P|349:125|377:125,2,46.6666666666667,4|4|4,0:3|0:3|0:3,0:0:0:0:
