osu file format v14

[General]
AudioFilename: audio.ogg
AudioLeadIn: 0
PreviewTime: 52017
Countdown: 0
SampleSet: Soft
StackLeniency: 0.7
Mode: 0
LetterboxInBreaks: 0
WidescreenStoryboard: 1

[Editor]
Bookmarks: 8213,10421,10497,12858,14228,27781,34177,42400,50777
DistanceSpacing: 0.4
BeatDivisor: 4
GridSize: 4
TimelineZoom: 2.4

[Metadata]
Title:Senryakuteki de Yosoku Funou na Love Comedy no Ending Kyoku (TV Size)
TitleUnicode:戦略的で予測不能なラブコメディのエンディング曲 (TV Size)
Artist:Inori Minase, Sakura Ayane
ArtistUnicode:水瀬いのり、佐倉綾音
Creator:GodHacc
Version:Armada's Extra
Source:幼なじみが絶対に負けないラブコメ
Tags:japanese jpop j-pop pop anime osamake romcom where the childhood friend won't lose おさまけ osananajimi ga zettai ni makenai love rabu kome rabukome comedy shida kuroha 志田黒羽 kachi shirokusa 可知白草 tilda armada crysisters ending ed
BeatmapID:3966213
BeatmapSetID:1911055

[Difficulty]
HPDrainRate:5.7
CircleSize:3.7
OverallDifficulty:8.5
ApproachRate:9.2
SliderMultiplier:1.8
SliderTickRate:1

[Events]
//Background and Video events
Video,-30,"inoringood.mp4"
0,0,"senryabg.jpg",0,0
//Break Periods
//Storyboard Layer 0 (Background)
//Storyboard Layer 1 (Fail)
//Storyboard Layer 2 (Pass)
//Storyboard Layer 3 (Foreground)
//Storyboard Layer 4 (Overlay)
//Storyboard Sound Samples

[TimingPoints]
371,304.568527918782,4,2,1,60,1,0
371,-100,4,2,1,60,0,0
4330,-200,4,2,1,60,0,0
4939,-100,4,2,1,60,0,0
5244,-100,4,2,1,65,0,0
5548,-200,4,2,1,65,0,0
6386,-100,4,2,1,65,0,0
6462,-100,4,2,1,65,0,0
7985,-200,4,2,1,65,0,0
8898,-100,4,2,1,65,0,0
10421,-200,4,2,1,65,0,0
11335,-100,4,2,1,65,0,0
13467,-200,4,2,1,65,0,0
14990,-200,4,2,1,60,0,0
16208,-125,4,2,1,50,0,0
25954,-125,4,2,1,60,0,0
30522,-100,4,2,1,60,0,0
30826,-125,4,2,1,50,0,0
35700,-111.111111111111,4,2,1,60,0,0
38136,-100,4,2,1,65,0,0
40573,-125,4,2,1,50,0,0
43924,-125,4,2,1,60,0,0
44228,-125,4,2,1,65,0,0
45446,-100,4,2,1,65,0,0
50320,-100,4,2,1,70,0,0
52146,-200,4,2,1,70,0,0
52756,-90.9090909090909,4,2,1,75,0,1
74685,-100,4,2,1,60,0,0
78644,-200,4,2,1,60,0,0
79557,-100,4,2,1,65,0,0
79863,-200,4,2,1,65,0,0
80777,-100,4,2,1,65,0,0
82299,-200,4,2,1,65,0,0
83213,-100,4,2,1,65,0,0
84736,-200,4,2,1,65,0,0
85650,-100,4,2,1,65,0,0
86868,-100,4,2,1,70,0,0

[Colours]
Combo1 : 245,153,145
Combo2 : 158,118,140
Combo3 : 255,185,151
Combo4 : 138,138,255
Combo5 : 166,255,188
Combo6 : 255,202,202

[HitObjects]
294,42,371,5,6,3:2:0:0:
92,157,523,2,0,P|137:168|194:184,1,90,10|8,3:2|3:0,0:0:0:0:
37,70,827,1,2,3:2:0:0:
254,242,980,2,0,P|220:270|176:265,1,90,10|8,3:2|3:0,0:0:0:0:
92,157,1284,1,2,3:2:0:0:
350,211,1436,2,0,P|357:254|331:289,1,90,10|8,3:2|3:0,0:0:0:0:
270,131,1741,1,2,3:2:0:0:
402,365,1893,6,0,P|446:352|489:339,1,90,10|8,3:2|3:0,0:0:0:0:
254,242,2198,2,0,P|210:255|167:268,1,90,2|0,1:3|3:0,0:0:0:0:
13,195,2502,1,2,1:3:0:0:
117,365,2655,1,2,3:2:0:0:
117,365,2731,1,0,3:0:0:0:
117,365,2807,5,6,3:2:0:0:
77,127,2959,2,0,P|43:98|-2:101,1,90,8|8,3:0|3:0,0:0:0:0:
170,287,3264,1,2,3:2:0:0:
191,55,3416,2,0,P|224:26|270:29,1,90,10|8,3:2|3:0,0:0:0:0:
452,226,3721,5,2,3:2:0:0:
262,120,3873,1,10,3:2:0:0:
262,120,3949,1,8,3:0:0:0:
262,120,4025,1,8,3:0:0:0:
441,64,4178,5,2,1:3:0:0:
300,253,4330,2,0,P|233:268|169:287,1,135,2|0,1:3|3:0,0:0:0:0:
300,253,4939,1,0,1:0:0:0:
102,344,5091,1,0,1:0:0:0:
94,337,5167,1,0,1:0:0:0:
86,330,5244,2,0,P|72:287|88:241,1,90,6|0,3:2|0:0,0:0:0:0:
231,72,5548,6,0,P|238:104|230:136,1,67.5,2|0,1:2|0:0,0:0:0:0:
157,100,5853,1,2,3:2:0:0:
314,153,6005,1,0,3:2:0:0:
481,208,6157,1,2,1:2:0:0:
481,208,6462,6,0,B|419:224|419:224|396:263|396:263|311:286,1,180,2|2,3:2|1:2,0:0:0:0:
157,100,6919,2,0,B|207:113|207:113|224:142|224:142|270:155,1,135,2|0,3:2|0:0,0:0:0:0:
314,153,7223,1,2,3:2:0:0:
154,318,7376,1,2,1:2:0:0:
326,373,7528,5,2,0:0:0:0:
151,202,7680,2,0,P|108:215|65:228,1,90,2|0,3:2|0:0,0:0:0:0:
326,373,7985,6,0,P|360:362|395:352,1,67.5,2|0,1:2|0:0,0:0:0:0:
467,325,8289,1,2,3:2:0:0:
311,264,8441,1,0,3:2:0:0:
144,196,8593,1,2,1:2:0:0:
144,196,8898,6,0,B|140:256|98:288|99:261|59:292|58:345,1,180,2|2,3:2|1:2,0:0:0:0:
261,176,9355,2,0,B|258:129|225:104|226:125|196:101|195:60,1,135,2|0,3:2|0:0,0:0:0:0:
195,24,9660,1,2,3:2:0:0:
354,128,9812,1,6,1:2:0:0:
147,198,9964,5,2,0:0:0:0:
289,45,10117,2,0,P|332:32|375:19,1,90,6|0,3:2|0:0,0:0:0:0:
147,198,10422,6,0,P|113:209|78:219,1,67.5,2|0,1:2|0:0,0:0:0:0:
8,242,10726,1,2,3:2:0:0:
164,303,10878,1,0,3:0:0:0:
331,371,11030,1,2,1:2:0:0:
331,371,11335,6,0,P|354:291|386:187,1,180,2|2,3:2|1:2,0:0:0:0:
114,285,11792,2,0,P|98:226|77:155,1,135,2|0,3:2|0:0,0:0:0:0:
61,118,12096,1,2,3:2:0:0:
229,232,12249,1,2,1:2:0:0:
28,345,12401,1,2,0:0:0:0:
207,140,12553,6,0,P|251:138|289:161,1,90,6|0,3:2|0:0,0:0:0:0:
441,82,12858,2,0,P|464:119|463:163,1,90,2|0,1:2|0:0,0:0:0:0:
388,367,13162,1,2,3:2:0:0:
388,367,13315,1,0,3:2:0:0:
229,232,13467,6,0,L|155:249,1,67.5,2|0,1:2|0:0,0:0:0:0:
304,276,13772,5,6,3:2:0:0:
109,109,13924,1,0,1:0:0:0:
109,109,14000,1,0,1:0:0:0:
109,109,14076,1,0,1:0:0:0:
278,51,14228,1,8,3:0:0:0:
278,51,14305,1,8,2:3:0:0:
278,51,14381,1,4,3:0:0:0:
163,247,14533,1,4,3:2:0:0:
138,256,14610,1,8,2:3:0:0:
111,259,14686,1,0,1:0:0:0:
84,254,14762,1,0,1:0:0:0:
60,242,14838,1,0,1:0:0:0:
40,224,14914,1,0,1:0:0:0:
25,202,14990,1,0,1:0:0:0:
25,202,16056,5,0,0:0:0:0:
167,363,16207,1,4,3:2:0:0:
167,363,16513,6,0,L|257:338,1,72,2|0,1:2|3:2,0:0:0:0:
312,264,16817,2,0,P|366:307|455:271,1,144,2|2,0:0|1:2,0:0:0:0:
256,123,17425,1,2,3:2:0:0:
256,123,17578,2,0,P|247:157|236:192,1,72,2|0,0:0|1:0,0:0:0:0:
161,299,17883,2,0,P|136:304|81:319,1,72,2|0,3:2|0:0,0:0:0:0:
35,181,18188,2,0,P|72:191|104:201,1,72,2|0,3:2|1:2,0:0:0:0:
104,201,18492,1,2,0:0:0:0:
257,351,18645,1,0,3:0:0:0:
257,351,18949,6,0,P|324:331|408:312,1,144,2|2,1:2|3:2,0:0:0:0:
463,241,19405,1,0,3:2:0:0:
399,168,19558,2,0,L|313:144,1,72,2|0,1:2|0:0,0:0:0:0:
241,191,19863,1,2,3:2:0:0:
241,191,20015,2,0,P|225:148|238:116,1,72,2|0,0:0|1:0,0:0:0:0:
241,286,20320,2,0,P|196:278|174:250,1,72,2|0,3:2|0:0,0:0:0:0:
20,187,20623,1,2,3:2:0:0:
73,282,20776,2,0,P|63:316|54:351,1,72,0|0,1:0|0:0,0:0:0:0:
118,149,21080,1,4,3:2:0:0:
118,149,21385,6,0,L|142:50,1,72,2|0,1:2|3:0,0:0:0:0:
29,96,21689,1,2,0:0:0:0:
29,96,21842,1,2,3:2:0:0:
190,213,21994,2,0,P|210:180|208:134,1,72,2|0,1:2|0:0,0:0:0:0:
403,79,22299,1,2,3:2:0:0:
299,58,22451,2,0,L|323:158,1,72,2|0,3:2|1:0,0:0:0:0:
401,204,22755,2,0,L|377:303,1,72,2|0,3:2|0:0,0:0:0:0:
311,369,23061,2,0,P|255:333|180:361,1,144,2|2,3:2|0:0,0:0:0:0:
384,273,23517,1,0,3:2:0:0:
384,273,23821,6,0,L|469:297,1,72,2|0,1:2|3:0,0:0:0:0:
285,219,24127,2,0,L|348:157,1,72,2|0,3:2|0:0,0:0:0:0:
194,273,24431,2,0,L|172:187,1,72,2|0,1:2|0:0,0:0:0:0:
12,105,24735,1,2,3:2:0:0:
48,255,24888,2,0,L|72:169,1,72,2|0,0:2|1:0,0:0:0:0:
102,59,25193,2,0,P|143:38|187:48,1,72,2|0,3:2|0:0,0:0:0:0:
177,204,25497,2,0,L|153:118,1,72,2|0,3:2|1:0,0:0:0:0:
157,134,25801,1,2,0:2:0:0:
203,326,25954,6,0,P|147:369|79:356,1,144,6|0,3:2|1:0,0:0:0:0:
321,249,26410,5,2,3:2:0:0:
321,249,26563,2,0,P|376:292|444:279,1,144,2|0,3:2|1:0,0:0:0:0:
177,204,27020,5,2,3:2:0:0:
177,204,27173,2,0,P|121:247|53:234,1,144,2|0,0:0|1:0,0:0:0:0:
295,126,27629,5,2,3:2:0:0:
295,126,27782,2,0,P|350:169|418:156,1,144,2|0,0:0|1:0,0:0:0:0:
371,68,28238,1,0,0:0:0:0:
177,204,28391,6,0,P|108:184|4:158,1,144,2|0,3:2|1:0,0:0:0:0:
295,336,28847,5,2,3:2:0:0:
295,336,28999,2,0,P|365:315|433:299,1,144,2|0,3:2|1:2,0:0:0:0:
434,298,29609,5,2,3:2:0:0:
501,178,29762,1,2,0:2:0:0:
347,65,29914,5,2,1:2:0:0:
410,203,30066,1,2,3:2:0:0:
303,167,30218,5,2,0:2:0:0:
303,167,30371,1,0,3:2:0:0:
111,54,30523,2,0,P|164:91|227:75,1,135,4|0,1:2|0:0,0:0:0:0:
335,26,30826,6,0,P|318:97|302:166,1,144,6|0,3:2|1:0,0:0:0:0:
260,329,31284,1,2,3:2:0:0:
191,281,31436,2,0,B|119:287|143:331|54:334,1,144,2|0,3:2|1:0,0:0:0:0:
60,333,31892,1,2,0:0:0:0:
125,180,32045,1,2,3:2:0:0:
125,180,32197,1,2,3:2:0:0:
191,281,32349,5,2,1:2:0:0:
14,209,32502,1,2,0:0:0:0:
142,110,32655,2,0,L|124:179,1,72,2|0,3:2|3:2,0:0:0:0:
196,375,32958,1,0,1:0:0:0:
196,375,33263,6,0,P|265:354|334:337,1,144,6|2,3:2|1:2,0:0:0:0:
426,186,33720,1,2,3:2:0:0:
493,295,33872,2,0,P|461:284|423:274,1,72,2|0,3:2|0:0,0:0:0:0:
296,173,34177,2,0,P|305:207|315:242,1,72,2|0,1:2|0:0,0:0:0:0:
53,138,34482,5,2,3:2:0:0:
126,185,34634,1,2,0:0:0:0:
190,123,34787,2,0,P|181:89|171:54,1,72,2|0,1:2|3:0,0:0:0:0:
15,339,35091,2,0,P|71:299|140:311,1,144,2|0,3:2|1:0,0:0:0:0:
214,374,35547,1,0,0:0:0:0:
405,242,35700,1,4,3:2:0:0:
405,242,36005,6,0,P|393:280|383:320,1,80.9999975280763,2|0,1:2|3:0,0:0:0:0:
338,112,36310,2,0,P|376:100|416:90,1,80.9999975280763,2|0,0:0|3:2,0:0:0:0:
200,212,36614,2,0,P|239:222|278:233,1,80.9999975280763,10|0,1:2|0:0,0:0:0:0:
147,39,36919,6,0,P|70:25|16:81,1,161.999995056153,2|2,3:2|1:2,0:0:0:0:
73,201,37375,2,0,P|83:166|99:109,1,80.9999975280763,2|0,3:2|0:0,0:0:0:0:
202,329,37679,1,2,3:2:0:0:
278,191,37832,2,0,P|238:201|199:212,1,80.9999975280763,0|0,1:2|0:0,0:0:0:0:
331,353,38136,5,6,3:2:0:0:
331,353,38441,1,6,3:2:0:0:
73,201,38593,1,6,3:2:0:0:
73,201,38898,1,6,3:2:0:0:
341,50,39050,1,6,3:2:0:0:
341,50,39354,1,6,3:2:0:0:
243,200,39507,1,6,3:2:0:0:
247,204,39812,5,6,3:2:0:0:
160,54,39964,1,6,3:2:0:0:
350,158,40116,5,0,1:0:0:0:
350,158,40192,1,0,1:0:0:0:
350,158,40268,1,4,2:3:0:0:
219,316,40420,1,4,2:3:0:0:
303,69,40573,6,0,P|345:58|431:115,1,144,4|2,3:2|1:2,0:0:0:0:
329,227,41030,1,0,3:0:0:0:
329,227,41183,2,0,P|340:192|350:157,1,72,2|0,0:0|3:2,0:0:0:0:
395,316,41487,2,0,P|405:281|415:246,1,72,2|0,0:0|0:0,0:0:0:0:
149,323,41792,6,0,P|139:285|128:239,1,72,2|0,0:0|3:0,0:0:0:0:
249,367,42096,2,0,P|240:333|232:298,1,72,2|0,1:2|0:0,0:0:0:0:
61,109,42401,6,0,P|69:74|78:39,1,72,2|0,3:2|0:0,0:0:0:0:
170,63,42705,2,0,P|160:97|152:132,1,72,2|0,1:2|0:0,0:0:0:0:
23,346,43010,6,0,P|72:308|156:329,1,144,6|0,3:2|1:0,0:0:0:0:
251,371,43466,1,0,3:0:0:0:
251,371,43771,1,0,3:0:0:0:
321,302,43923,1,2,1:2:0:0:
321,302,43999,1,8,0:3:0:0:
321,302,44075,2,0,L|305:238,1,36,8|8,0:3|0:3,0:0:0:0:
403,358,44228,5,6,1:2:0:0:
230,226,44380,1,0,3:0:0:0:
449,129,44533,5,2,1:2:0:0:
321,302,44685,1,0,3:0:0:0:
296,27,44838,5,2,1:2:0:0:
452,249,44989,1,0,3:0:0:0:
186,129,45141,5,2,1:2:0:0:
452,35,45293,1,0,1:0:0:0:
452,35,45370,1,0,1:0:0:0:
452,35,45447,6,0,B|353:52|402:106|300:124,1,180,6|2,3:2|1:2,0:0:0:0:
88,55,45903,1,2,0:0:0:0:
164,216,46055,2,0,P|174:174|186:128,1,90,2|0,3:2|3:0,0:0:0:0:
22,258,46359,1,2,1:2:0:0:
206,360,46513,6,0,P|293:334|385:313,1,180,6|2,3:2|3:2,0:0:0:0:
502,148,46969,2,0,P|456:107|357:126,1,135,2|0,1:2|0:0,0:0:0:0:
354,125,47274,1,2,3:2:0:0:
186,240,47426,1,0,3:2:0:0:
233,67,47579,2,0,P|244:110|255:154,1,90,2|0,1:2|0:0,0:0:0:0:
375,362,47883,6,0,P|396:274|420:187,1,180,6|0,3:2|1:0,0:0:0:0:
419,187,48340,1,2,0:0:0:0:
243,331,48492,1,2,3:2:0:0:
122,138,48645,1,0,3:2:0:0:
37,293,48797,2,0,P|80:281|123:270,1,90,2|0,1:2|0:0,0:0:0:0:
347,114,49101,6,0,P|334:160|318:219,1,90,2|0,3:2|0:0,0:0:0:0:
243,331,49406,2,0,P|230:285|214:225,1,90,2|0,1:2|0:0,0:0:0:0:
178,62,49710,1,2,3:2:0:0:
178,62,49862,1,0,3:0:0:0:
26,176,50014,1,2,1:2:0:0:
243,331,50167,1,0,1:0:0:0:
243,331,50243,1,0,1:0:0:0:
243,331,50320,6,0,P|292:289|387:314,1,135,6|0,3:2|0:0,0:0:0:0:
387,313,50623,1,0,3:2:0:0:
106,222,50777,6,0,P|117:285|48:355,1,135,4|0,1:2|0:0,0:0:0:0:
49,355,51080,1,0,3:0:0:0:
269,143,51233,6,0,P|208:121|182:26,1,135,4|0,1:2|0:0,0:0:0:0:
182,28,51538,1,4,3:2:0:0:
243,331,51689,1,4,3:2:0:0:
410,96,51842,1,4,3:2:0:0:
410,96,52146,6,0,P|401:57|393:12,1,67.5,2|2,0:0|0:0,0:0:0:0:
507,155,52451,1,2,3:2:0:0:
507,155,52756,6,0,P|434:130|340:229,1,198.000006042481,6|2,3:2|1:2,0:0:0:0:
207,366,53213,2,0,L|181:271,1,99.0000030212403,2|0,0:0|3:0,0:0:0:0:
217,85,53518,1,2,3:2:0:0:
53,215,53670,1,0,1:0:0:0:
300,322,53822,6,0,B|405:303|352:246|468:228,1,198.000006042481,2|0,0:0|0:0,0:0:0:0:
217,85,54278,1,2,1:2:0:0:
289,232,54431,2,0,P|299:189|313:136,1,99.0000030212403,2|0,3:2|0:0,0:0:0:0:
100,43,54736,2,0,P|114:90|125:138,1,99.0000030212403,2|0,3:2|1:0,0:0:0:0:
3,361,55041,6,0,P|60:300|172:333,1,198.000006042481,2|0,0:0|0:0,0:0:0:0:
302,376,55497,2,0,P|349:361|397:350,1,99.0000030212403,0|0,1:0|0:0,0:0:0:0:
467,100,55801,1,2,3:2:0:0:
399,192,55953,1,0,3:0:0:0:
312,128,56107,2,0,P|300:81|286:33,1,99.0000030212403,2|0,1:2|0:0,0:0:0:0:
114,291,56411,6,0,P|67:276|19:265,1,99.0000030212403,2|0,3:2|0:0,0:0:0:0:
216,102,56716,2,0,P|263:116|310:127,1,99.0000030212403,2|0,1:2|0:0,0:0:0:0:
431,323,57020,1,2,3:2:0:0:
241,208,57173,1,0,3:0:0:0:
426,36,57325,1,6,1:2:0:0:
426,36,57629,6,0,P|479:90|435:204,2,198.000006042481,6|0|0,3:2|1:0|3:0,0:0:0:0:
313,173,58390,1,0,3:0:0:0:
236,53,58542,1,2,1:2:0:0:
446,196,58695,1,2,0:0:0:0:
286,268,58847,2,0,P|300:221|319:143,1,99.0000030212403,2|0,3:2|0:0,0:0:0:0:
380,357,59151,1,2,1:2:0:0:
190,194,59305,6,0,B|81:212|135:272|22:291,1,198.000006042481,6|0,3:2|3:0,0:0:0:0:
158,78,59760,1,2,1:2:0:0:
158,78,59913,1,2,0:0:0:0:
286,268,60065,2,0,P|299:222|312:172,1,99.0000030212403,6|0,3:2|0:0,0:0:0:0:
2,92,60371,2,0,P|16:140|28:187,1,99.0000030212403,2|0,1:2|0:0,0:0:0:0:
214,358,60674,1,2,3:2:0:0:
144,194,60826,1,0,3:2:0:0:
47,328,60979,6,0,L|97:314,1,49.5000015106202,2|0,1:2|1:0,0:0:0:0:
191,207,61131,2,0,L|142:193,1,49.5000015106202,2|0,1:2|1:0,0:0:0:0:
364,384,61283,1,6,3:2:0:0:
364,384,61436,1,6,3:2:0:0:
364,384,61740,6,0,P|381:316|407:218,1,148.50000453186,6|0,3:2|0:0,0:0:0:0:
410,200,62045,1,2,1:2:0:0:
301,51,62198,1,2,1:2:0:0:
256,28,62274,1,2,1:2:0:0:
207,23,62350,1,2,1:2:0:0:
166,47,62426,1,2,1:2:0:0:
139,87,62502,6,0,P|158:158|174:231,1,148.50000453186,6|0,3:2|0:0,0:0:0:0:
183,269,62807,1,2,1:2:0:0:
379,355,62959,2,0,P|426:341|474:329,1,99.0000030212403,2|0,0:0|3:0,0:0:0:0:
317,161,63264,1,2,3:2:0:0:
235,376,63416,1,0,1:0:0:0:
480,197,63568,6,0,B|462:88|402:142|383:29,1,198.000006042481,6|0,3:2|3:0,0:0:0:0:
184,148,64024,1,2,1:2:0:0:
348,300,64177,2,0,P|360:251|373:204,1,99.0000030212403,2|0,0:0|3:0,0:0:0:0:
147,16,64481,1,2,3:2:0:0:
233,283,64634,1,0,1:0:0:0:
22,197,64787,6,0,P|89:130|183:147,1,198.000006042481,6|0,3:2|3:0,0:0:0:0:
348,300,65244,1,0,1:0:0:0:
348,300,65548,1,2,3:2:0:0:
443,90,65700,1,0,3:2:0:0:
512,236,65852,2,0,P|468:222|416:211,1,99.0000030212403,2|0,1:2|0:0,0:0:0:0:
189,350,66157,6,0,P|177:303|161:246,1,99.0000030212403,2|0,3:2|0:0,0:0:0:0:
323,81,66461,2,0,P|309:128|298:177,1,99.0000030212403,2|0,1:2|0:0,0:0:0:0:
332,361,66766,1,2,3:2:0:0:
185,119,66919,1,0,3:0:0:0:
49,363,67071,1,6,1:2:0:0:
49,363,67376,6,0,P|110:309|224:349,2,198.000006042481,6|0|0,3:2|1:0|3:0,0:0:0:0:
49,363,68137,1,0,3:0:0:0:
269,212,68289,1,2,1:2:0:0:
69,113,68442,1,2,0:0:0:0:
141,270,68594,1,2,3:2:0:0:
217,65,68746,1,2,0:0:0:0:
25,221,68898,1,2,1:2:0:0:
256,351,69051,6,0,P|351:323|446:298,1,198.000006042481,2|0,3:2|3:0,0:0:0:0:
141,270,69507,1,2,1:2:0:0:
141,270,69659,1,2,0:0:0:0:
320,64,69812,6,0,B|429:82|375:142|488:161,1,198.000006042481,6|0,3:2|1:0,0:0:0:0:
306,168,70268,1,2,0:0:0:0:
490,54,70420,1,0,3:0:0:0:
490,54,70573,1,0,3:0:0:0:
391,267,70725,1,2,1:2:0:0:
206,41,70878,5,4,3:2:0:0:
206,41,71182,1,0,3:0:0:0:
206,41,71258,1,0,3:0:0:0:
206,41,71335,2,0,L|225:115,1,49.5000015106202,0|0,1:0|3:0,0:0:0:0:
164,218,71487,5,0,3:0:0:0:
164,218,71563,1,0,3:0:0:0:
164,218,71639,2,0,L|232:238,1,49.5000015106202,2|0,3:2|0:0,0:0:0:0:
349,153,71792,2,0,L|285:167,1,49.5000015106202,2|0,3:2|3:0,0:0:0:0:
163,244,71944,6,0,L|222:261,1,49.5000015106202,2|0,1:2|0:0,0:0:0:0:
346,125,72096,2,0,L|283:141,1,49.5000015106202,2|0,0:0|0:0,0:0:0:0:
74,309,72249,6,0,P|61:264|43:201,1,99.0000030212403,6|0,3:2|0:0,0:0:0:0:
329,242,72553,1,2,1:2:0:0:
180,365,72706,1,2,3:2:0:0:
291,91,72858,5,2,1:2:0:0:
491,269,73010,1,2,3:2:0:0:
434,14,73162,2,0,P|423:61|404:134,1,99.0000030212403,2|0,1:2|3:2,0:0:0:0:
363,372,73467,5,2,1:2:0:0:
219,221,73619,1,2,3:2:0:0:
71,376,73772,5,2,1:2:0:0:
342,246,73924,1,2,3:2:0:0:
69,136,74076,2,0,P|81:183|92:232,1,99.0000030212403,2|0,1:2|3:2,0:0:0:0:
180,379,74381,1,0,1:0:0:0:
180,379,74457,1,0,1:0:0:0:
180,379,74533,2,0,L|196:318,1,49.5000015106202,0|0,1:0|1:0,0:0:0:0:
227,71,74685,5,6,3:2:0:0:
342,246,74837,2,0,P|387:257|444:273,1,90,10|8,3:2|3:0,0:0:0:0:
279,156,75141,1,2,3:2:0:0:
489,332,75294,2,0,P|517:298|512:254,1,90,10|8,3:2|3:0,0:0:0:0:
437,164,75598,1,2,3:2:0:0:
325,353,75751,2,0,P|281:363|237:375,1,90,10|8,3:2|3:0,0:0:0:0:
86,283,76055,1,2,3:2:0:0:
279,156,76207,6,0,P|266:200|253:243,1,90,10|8,3:2|3:0,0:0:0:0:
111,369,76512,2,0,P|98:325|85:282,1,90,2|0,1:3|3:0,0:0:0:0:
101,44,76816,1,2,1:3:0:0:
253,242,76969,1,2,3:2:0:0:
253,242,77045,1,0,3:0:0:0:
253,242,77121,5,6,3:2:0:0:
11,169,77274,2,0,P|55:156|98:143,1,90,8|8,3:0|3:0,0:0:0:0:
218,335,77579,1,2,3:2:0:0:
341,118,77731,2,0,P|297:104|254:92,1,90,10|8,3:2|3:0,0:0:0:0:
383,300,78035,5,2,3:2:0:0:
463,87,78187,1,10,3:2:0:0:
463,87,78263,1,8,3:0:0:0:
463,87,78339,1,8,3:0:0:0:
266,207,78492,5,2,1:3:0:0:
505,355,78644,2,0,P|488:290|471:224,1,135,2|0,1:3|3:0,0:0:0:0:
505,355,79253,1,0,1:0:0:0:
393,174,79406,1,0,1:0:0:0:
397,164,79481,1,0,1:0:0:0:
402,154,79558,2,0,P|439:129|488:132,1,90,6|0,3:2|0:0,0:0:0:0:
287,323,79863,6,0,P|316:339|349:341,1,67.5,2|0,1:2|0:0,0:0:0:0:
334,255,80167,1,2,3:2:0:0:
177,308,80319,1,0,3:2:0:0:
10,363,80471,1,2,1:2:0:0:
10,363,80777,6,0,P|33:277|54:188,1,180,2|2,3:2|1:2,0:0:0:0:
182,41,81233,2,0,P|199:103|216:171,1,135,2|0,3:2|0:0,0:0:0:0:
231,211,81538,1,2,3:2:0:0:
80,100,81690,5,2,1:2:0:0:
283,13,81843,1,2,0:0:0:0:
86,210,81994,2,0,P|45:197|0:183,1,90,2|0,3:2|0:0,0:0:0:0:
269,360,82299,6,0,L|335:342,1,67.5,2|0,1:2|0:0,0:0:0:0:
410,318,82604,1,2,3:2:0:0:
253,265,82756,1,0,3:2:0:0:
86,210,82908,1,2,1:2:0:0:
86,210,83213,6,0,B|148:194|148:194|171:155|171:155|256:132,1,180,2|2,3:2|1:2,0:0:0:0:
410,318,83670,2,0,B|360:305|360:305|343:276|343:276|297:263,1,135,2|0,3:2|0:0,0:0:0:0:
253,265,83974,1,2,3:2:0:0:
487,120,84127,1,6,1:2:0:0:
321,33,84278,1,2,0:0:0:0:
418,225,84431,2,0,L|514:250,1,90,6|0,3:2|0:0,0:0:0:0:
321,33,84736,6,0,P|305:62|308:96,1,67.5,2|0,1:2|0:0,0:0:0:0:
390,76,85041,1,2,3:2:0:0:
233,129,85193,1,0,3:0:0:0:
72,175,85345,1,2,1:2:0:0:
72,175,85650,6,0,P|155:203|251:238,1,180,2|2,3:2|1:2,0:0:0:0:
461,312,86107,2,0,P|397:329|330:346,1,135,2|0,3:2|0:0,0:0:0:0:
291,361,86412,1,2,3:2:0:0:
282,131,86563,1,2,1:2:0:0:
129,300,86716,1,2,0:0:0:0:
220,65,86868,6,0,P|257:41|304:43,1,90,6|0,3:2|0:0,0:0:0:0:
469,268,87173,1,2,1:2:0:0:
282,131,87325,1,0,3:0:0:0:
511,37,87477,1,2,1:2:0:0:
333,242,87629,1,0,3:2:0:0:
492,354,87782,2,0,L|457:227,1,90,6|0,1:2|0:0,0:0:0:0:
434,81,88086,5,6,3:2:0:0:
473,98,88187,5,0,1:0:0:0:
488,137,88288,5,0,1:0:0:0:
471,175,88390,5,0,3:0:0:0:
436,197,88492,5,8,0:3:0:0:
395,191,88593,5,8,0:3:0:0:
364,162,88695,5,0,3:0:0:0:
311,159,88796,5,0,1:0:0:0:
264,185,88898,5,8,0:3:0:0:
245,235,88999,5,4,0:3:0:0:
260,287,89101,5,4,0:3:0:0:
305,317,89202,5,4,0:3:0:0:
