osu file format v14

[General]
AudioFilename: audio.mp3
AudioLeadIn: 0
PreviewTime: 38742
Countdown: 0
SampleSet: None
StackLeniency: 0.4
Mode: 0
LetterboxInBreaks: 0
WidescreenStoryboard: 0

[Editor]
Bookmarks: 12342,13714,15085,16457,17828,19200,20571,21942,23314,24685,26057,27428,28800,30171,31542,32914,62057,83657,94628,100114,105600,111085,115200,120171,141257,165942,185142,187885,208800,209828,214285,214371,214457,214542,220114,220200,225257,225342,225428,229028,231771,256457,256800,257142,257485,264685,269828
DistanceSpacing: 1.8
BeatDivisor: 4
GridSize: 4
TimelineZoom: 1.4

[Metadata]
Title:Koko kara, Koko kara
TitleUnicode:ここから、ここから
Artist:Inori Minase, Kana Hanazawa, Yuka Iguchi, Saori Hayami
ArtistUnicode:玉木マリ(CV:水瀬いのり)、小淵沢報瀬(CV:花澤香菜)、三宅日向(CV:井口裕香)、白石結月(CV:早見沙織)
Creator:doctorsonic46
Version:Insane
Source:宇宙よりも遠い場所
Tags:A_Place_Further_Than_The_Universe
BeatmapID:1766575
BeatmapSetID:844511

[Difficulty]
HPDrainRate:6
CircleSize:4
OverallDifficulty:6
ApproachRate:9
SliderMultiplier:1.7
SliderTickRate:1

[Events]
//Background and Video events
0,0,"kokokorokoko.jpg",0,0
//Break Periods
2,83857,94028
//Storyboard Layer 0 (Background)
//Storyboard Layer 1 (Fail)
//Storyboard Layer 2 (Pass)
//Storyboard Layer 3 (Foreground)
//Storyboard Sound Samples

[TimingPoints]
0,342.857142857143,4,2,0,100,1,0
0,-200,4,2,0,100,0,0
12342,-133.333333333333,4,2,0,100,0,0
33600,-100,4,2,0,100,0,0
38742,-133.333333333333,4,2,0,100,0,0
39771,-90.9090909090909,4,2,0,100,0,0
94628,-100,4,2,0,100,0,0
115200,-90.9090909090909,4,2,0,100,0,0
122057,-83.3333333333333,4,2,0,100,0,0
264685,-169.491525423729,4,2,0,100,0,0

[Colours]
Combo1 : 242,255,81
Combo2 : 2,98,155
Combo3 : 255,35,23
Combo4 : 210,105,0

[HitObjects]
164,156,1371,6,0,P|184:116|232:116,1,85
256,192,1885,1,0,0:0:0:0:
291,110,2742,6,0,P|331:118|348:156,1,85
256,192,3256,1,0,0:0:0:0:
348,228,4114,6,0,P|328:268|280:268,1,85
256,192,4628,1,0,0:0:0:0:
220,273,5485,6,0,P|180:265|164:228,1,85
256,192,5999,1,0,0:0:0:0:
256,192,6857,6,0,L|184:136,1,85
128,88,7371,1,0,0:0:0:0:
256,192,8228,6,0,L|328:136,1,85
384,88,8742,1,0,0:0:0:0:
256,192,9600,6,0,L|328:248,1,85
384,296,10114,1,0,0:0:0:0:
256,192,10971,6,0,L|184:248,1,85
132,292,11485,1,0,0:0:0:0:
56,304,11657,1,0,0:0:0:0:
8,244,11828,1,0,0:0:0:0:
56,184,12000,1,0,0:0:0:0:
132,188,12171,1,0,0:0:0:0:
200,148,12342,6,0,P|220:100|172:60,1,95.6250036478044
197,67,12685,1,0,0:0:0:0:
112,112,12857,1,0,0:0:0:0:
0,16,13371,2,0,P|56:44|144:24,1,127.500004863739
300,28,14057,5,0,0:0:0:0:
392,88,14228,1,0,0:0:0:0:
512,24,14571,1,0,0:0:0:0:
464,168,14742,1,0,0:0:0:0:
308,232,15085,6,0,P|316:272|380:300,1,95.6250036478044
359,300,15428,1,0,0:0:0:0:
428,224,15600,1,0,0:0:0:0:
440,344,15942,2,0,P|416:376|372:380,1,63.7500024318696
224,384,16457,6,0,P|184:372|156:340,1,63.7500024318696
216,292,16800,2,0,P|204:256|172:236,1,63.7500024318696
108,304,17142,2,0,P|60:296|80:220,1,127.500004863739
172,160,17828,6,0,P|212:136|212:84,1,95.6250036478044
215,90,18171,1,0,0:0:0:0:
104,72,18342,1,0,0:0:0:0:
216,16,18857,1,0,0:0:0:0:
288,144,19200,6,0,P|324:172|376:144,1,95.6250036478044
367,156,19542,1,0,0:0:0:0:
340,76,19714,2,0,P|364:40|432:56,1,95.6250036478044
412,38,20057,1,0,0:0:0:0:
512,8,20228,2,0,P|500:56|512:136,1,127.500004863739
464,240,20914,5,0,0:0:0:0:
420,344,21085,1,0,0:0:0:0:
300,224,21600,1,0,0:0:0:0:
216,352,21942,5,0,0:0:0:0:
200,264,22114,2,0,P|160:284|128:340,1,95.6250036478044
131,325,22457,1,0,0:0:0:0:
56,320,22628,1,0,0:0:0:0:
76,244,22800,1,0,0:0:0:0:
144,208,22971,1,0,0:0:0:0:
224,208,23142,1,0,0:0:0:0:
312,228,23314,38,0,P|356:248|388:300,1,95.6250036478044
383,285,23657,1,0,0:0:0:0:
296,324,23828,1,0,0:0:0:0:
456,372,24342,2,0,P|480:336|480:232,1,127.500004863739
460,116,25028,37,0,0:0:0:0:
460,116,25200,1,0,0:0:0:0:
348,32,25542,1,0,0:0:0:0:
348,32,25714,1,0,0:0:0:0:
208,132,26057,38,0,P|168:160|104:152,1,95.6250036478044
122,160,26400,1,0,0:0:0:0:
136,68,26571,1,0,0:0:0:0:
0,104,27085,1,0,0:0:0:0:
8,252,27428,37,0,0:0:0:0:
84,360,27600,1,0,0:0:0:0:
116,216,27942,1,0,0:0:0:0:
184,352,28285,1,0,0:0:0:0:
223,224,28457,1,0,0:0:0:0:
96,152,28800,6,0,P|56:120|64:72,1,95.6250036478044
59,79,29142,1,0,0:0:0:0:
164,88,29314,1,0,0:0:0:0:
116,20,29828,2,0,P|184:12|248:68,1,127.500004863739
296,152,30514,5,0,0:0:0:0:
332,48,30685,1,0,0:0:0:0:
476,48,31028,1,0,0:0:0:0:
512,152,31199,1,0,0:0:0:0:
456,256,31542,6,0,B|376:356|276:356|188:216|364:108|476:224|404:384|252:360,1,510.000019454957
148,316,33085,5,0,0:0:0:0:
12,364,33428,1,0,0:0:0:0:
24,228,33600,2,0,P|56:164|152:152,1,170
124,240,34114,1,0,0:0:0:0:
146,149,34285,6,0,P|178:85|274:73,1,170
372,232,34971,2,0,P|432:216|440:96,1,170
256,192,35657,5,0,0:0:0:0:
188,248,35828,2,0,P|236:280|288:272,1,85
416,248,36342,1,0,0:0:0:0:
364,120,36685,6,0,P|308:76|216:84,1,127.5
253,70,37028,2,0,P|232:132|176:96,1,127.5
184,117,37371,1,0,0:0:0:0:
104,176,37542,5,0,0:0:0:0:
92,188,37628,1,0,0:0:0:0:
108,192,37714,1,0,0:0:0:0:
84,104,37885,1,0,0:0:0:0:
188,232,38057,1,0,0:0:0:0:
16,112,38228,1,0,0:0:0:0:
296,232,38400,1,0,0:0:0:0:
464,348,38742,6,0,P|464:308|440:220,1,127.500004863739
352,272,39257,2,0,P|344:212|380:96,1,159.375006079674
367,117,39771,6,0,P|368:56|348:120,1,187.000005706787
248,112,40285,2,0,P|200:80|76:132,1,187.000005706787
168,176,40800,2,0,P|138:222|128:272,1,93.5000028533936
252,232,41142,2,0,P|260:288|368:352,1,187.000005706787
364,204,41657,1,0,0:0:0:0:
236,160,41828,2,0,P|224:104|308:-4,1,187.000005706787
320,100,42342,1,0,0:0:0:0:
408,68,42514,6,0,P|420:124|400:160,1,93.5000028533936
344,196,42857,1,0,0:0:0:0:
272,208,43028,1,0,0:0:0:0:
260,132,43200,1,0,0:0:0:0:
332,120,43371,1,0,0:0:0:0:
172,48,43542,1,0,0:0:0:0:
172,48,43714,1,0,0:0:0:0:
344,36,43885,1,0,0:0:0:0:
344,36,44057,1,0,0:0:0:0:
377,181,44228,2,0,P|389:233|349:269,1,93.5000028533936
332,120,44571,2,0,P|324:64|352:32,1,93.5000028533936
428,0,44914,2,0,P|472:32|432:160,1,187.000005706787
224,176,45600,6,0,P|236:252|280:268,1,93.5000028533936
316,280,45942,1,0,0:0:0:0:
384,252,46114,1,0,0:0:0:0:
408,180,46285,2,0,P|384:124|328:104,1,93.5000028533936
264,92,46628,2,0,P|192:64|176:28,1,93.5000028533936
44,136,46971,2,0,P|108:132|136:104,1,93.5000028533936
272,212,47314,2,0,P|200:184|184:148,1,93.5000028533936
40,252,47657,2,0,P|112:304|208:280,1,187.000005706787
44,128,48342,6,0,P|36:76|72:48,1,93.5000028533936
136,28,48685,1,0,0:0:0:0:
212,36,48857,1,0,0:0:0:0:
204,112,49028,1,0,0:0:0:0:
128,104,49200,1,0,0:0:0:0:
284,72,49371,1,0,0:0:0:0:
288,164,49542,1,0,0:0:0:0:
360,100,49714,2,0,P|420:116|456:200,1,140.25000428009
456,180,50057,1,0,0:0:0:0:
308,244,50228,1,0,0:0:0:0:
360,100,50400,2,0,P|268:68|204:128,1,187.000005706787
58,20,51085,6,0,P|18:56|2:108,1,93.5000028533936
106,108,51428,2,0,P|104:172|128:192,1,93.5000028533936
206,120,51771,2,0,P|296:152|372:72,1,187.000005706787
276,48,52285,1,0,0:0:0:0:
365,11,52457,2,0,P|373:71|353:115,1,93.5000028533936
281,151,52800,2,0,P|297:203|337:227,1,93.5000028533936
421,231,53143,2,0,P|405:287|277:303,1,187.000005706787
208,268,53657,5,0,0:0:0:0:
176,184,53828,2,0,P|228:148|292:156,1,93.5000028533936
356,168,54171,1,0,0:0:0:0:
424,96,54342,2,0,P|376:44|320:40,1,93.5000028533936
248,48,54685,1,0,0:0:0:0:
148,8,54857,2,0,P|80:48|68:172,1,187.000005706787
232,180,55542,6,0,P|232:232|196:276,1,93.5000028533936
112,304,55885,2,0,P|128:352|264:344,1,187.000005706787
316,324,56400,1,0,0:0:0:0:
368,268,56571,2,0,P|384:232|384:164,1,93.5000028533936
288,168,56914,2,0,P|304:108|352:76,1,93.5000028533936
456,88,57257,2,0,P|484:144|468:208,1,93.5000028533936
420,272,57600,6,0,B|368:280|296:236|208:276,1,187.000005706787
168,180,58114,1,0,0:0:0:0:
236,88,58285,2,0,B|288:80|360:124|448:84,1,187.000005706787
484,136,58800,1,0,0:0:0:0:
500,208,58971,1,0,0:0:0:0:
428,224,59142,1,0,0:0:0:0:
412,152,59314,2,0,P|352:124|244:136,1,140.25000428009
279,123,59657,1,0,0:0:0:0:
176,116,59828,1,0,0:0:0:0:
284,128,60000,6,0,P|320:176|272:272,1,140.25000428009
303,249,60342,1,0,0:0:0:0:
288,284,60428,1,0,0:0:0:0:
260,308,60514,1,0,0:0:0:0:
224,320,60600,1,0,0:0:0:0:
188,324,60685,1,0,0:0:0:0:
88,252,60857,5,0,0:0:0:0:
92,236,60942,1,0,0:0:0:0:
104,248,61028,2,0,P|156:236|156:212,1,46.7500014266968
164,212,61200,2,0,P|196:156|180:228,1,187.000005706787
88,160,61714,6,0,P|128:104|252:96,1,187.000005706787
312,152,62228,2,0,P|360:172|472:108,1,187.000005706787
376,88,62742,2,0,P|336:112|308:160,1,93.5000028533936
224,112,63085,2,0,P|228:184|248:216,1,93.5000028533936
124,256,63428,2,0,P|184:288|228:280,1,93.5000028533936
304,272,63771,2,0,P|368:236|368:96,1,187.000005706787
328,68,64285,1,0,0:0:0:0:
248,88,64457,2,0,P|224:136|240:188,1,93.5000028533936
304,156,64800,5,0,0:0:0:0:
321,227,64971,1,0,0:0:0:0:
249,246,65142,1,0,0:0:0:0:
231,173,65314,1,0,0:0:0:0:
228,52,65486,1,0,0:0:0:0:
228,52,65657,1,0,0:0:0:0:
72,140,65828,1,0,0:0:0:0:
72,140,66000,1,0,0:0:0:0:
72,48,66171,6,0,P|112:16|172:20,1,93.5000028533936
148,100,66514,2,0,P|180:144|240:140,1,93.5000028533936
228,52,66857,2,0,P|300:96|300:192,1,187.000005706787
248,256,67371,1,0,0:0:0:0:
152,272,67542,2,0,P|156:312|232:328,1,93.5000028533936
292,340,67885,2,0,P|336:316|340:252,1,93.5000028533936
348,184,68228,2,0,P|408:108|500:144,1,187.000005706787
448,220,68742,1,0,0:0:0:0:
348,184,68914,2,0,P|292:160|184:224,1,187.000005706787
136,304,69428,1,0,0:0:0:0:
44,248,69600,2,0,P|32:188|136:112,1,187.000005706787
268,124,70285,6,0,P|320:112|340:76,1,93.5000028533936
340,4,70628,1,0,0:0:0:0:
264,0,70800,1,0,0:0:0:0:
260,76,70971,1,0,0:0:0:0:
339,79,71142,1,0,0:0:0:0:
188,56,71314,1,0,0:0:0:0:
212,152,71485,1,0,0:0:0:0:
117,122,71657,2,0,P|61:134|41:234,1,140.25000428009
31,206,72000,1,0,0:0:0:0:
248,232,72171,1,0,0:0:0:0:
128,288,72342,2,0,P|158:365|264:373,1,187.000005706787
420,120,73028,6,0,P|416:180|368:208,1,93.5000028533936
288,224,73371,2,0,P|312:280|356:292,1,93.5000028533936
440,292,73714,2,0,P|492:284|512:156,1,187.000005706787
434,204,74228,2,0,P|410:156|446:96,1,93.5000028533936
496,64,74571,1,0,0:0:0:0:
408,24,74742,2,0,P|356:28|316:96,1,93.5000028533936
300,168,75085,6,0,P|272:236|276:140,1,280.500008560181
352,268,75771,2,0,P|300:308|256:312,1,93.5000028533936
168,284,76114,2,0,P|128:231|125:187,1,93.5000028533936
248,188,76457,2,0,P|292:88|208:160,1,280.500008560181
256,132,77142,1,0,0:0:0:0:
260,304,77485,5,0,0:0:0:0:
300,368,77657,1,0,0:0:0:0:
372,384,77828,2,0,P|452:356|464:316,1,93.5000028533936
392,300,78171,2,0,P|408:236|532:200,1,187.000005706787
480,276,78685,1,0,0:0:0:0:
84,236,79200,6,0,P|14:187|14:145,1,93.5000028533936
87,149,79543,2,0,P|89:83|-21:14,1,187.000005706787
9,102,80057,1,0,0:0:0:0:
448,76,80571,5,0,0:0:0:0:
504,132,80742,1,0,0:0:0:0:
504,212,80914,2,0,P|476:278|349:319,1,187.000005706787
188,280,81600,5,0,0:0:0:0:
100,252,81771,1,0,0:0:0:0:
164,192,81942,1,0,0:0:0:0:
320,208,82285,6,0,P|368:164|304:60,1,187.000005706787
260,120,82800,1,0,0:0:0:0:
260,140,82885,1,0,0:0:0:0:
244,132,82971,1,0,0:0:0:0:
168,52,83142,1,0,0:0:0:0:
96,140,83314,1,0,0:0:0:0:
88,0,83485,1,0,0:0:0:0:
8,224,83657,1,0,0:0:0:0:
0,160,94628,38,0,P|64:140|88:52,1,127.5
91,89,94971,1,0,0:0:0:0:
4,48,95142,2,0,P|116:2|192:108,1,255
84,96,96000,2,0,P|20:108|8:40,1,127.5
0,59,96342,1,0,0:0:0:0:
172,0,96514,2,0,P|208:80|77:81,1,255
40,8,97371,2,0,P|16:56|72:112,1,127.5
56,109,97714,1,0,0:0:0:0:
144,60,97885,1,0,0:0:0:0:
208,140,98228,1,0,0:0:0:0:
208,140,98400,1,0,0:0:0:0:
52,164,98742,2,0,P|16:128|16:88,1,85
100,96,99085,2,0,P|128:56|168:40,1,85
188,132,99428,1,0,0:0:0:0:
264,152,99600,1,0,0:0:0:0:
336,132,99771,1,0,0:0:0:0:
392,76,99942,1,0,0:0:0:0:
328,32,100114,6,0,P|400:-4|468:80,1,170
392,76,100628,1,0,0:0:0:0:
504,176,101142,1,0,0:0:0:0:
292,176,101485,2,0,P|284:120|340:56,1,127.5
322,64,101828,1,0,0:0:0:0:
392,144,102000,1,0,0:0:0:0:
444,12,102342,1,0,0:0:0:0:
512,96,102514,2,0,P|466:137|376:80,1,170
444,12,103371,1,0,0:0:0:0:
304,12,104228,2,0,P|280:60|364:160,1,170
408,160,104742,1,0,0:0:0:0:
472,112,104914,1,0,0:0:0:0:
496,188,105085,1,0,0:0:0:0:
480,264,105257,1,0,0:0:0:0:
404,288,105428,1,0,0:0:0:0:
352,232,105600,6,0,P|320:304|404:364,1,170
376,363,106285,2,0,P|352:307|256:320,1,170
257,318,106971,2,0,P|265:262|352:228,1,127.5
321,225,107314,1,0,0:0:0:0:
344,312,107485,2,0,P|444:352|472:236,1,255
355,230,108171,2,0,P|343:314|459:222,1,340
416,284,109542,1,0,0:0:0:0:
416,284,109714,2,0,P|468:232|512:308,1,170
472,356,110228,1,0,0:0:0:0:
396,381,110400,1,0,0:0:0:0:
316,377,110571,1,0,0:0:0:0:
248,336,110742,1,0,0:0:0:0:
176,316,110914,1,0,0:0:0:0:
104,336,111085,6,0,P|48:360|88:268,1,212.5
59,259,111600,1,0,0:0:0:0:
212,368,112114,2,0,P|240:324|192:232,1,127.5
223,254,112457,1,0,0:0:0:0:
140,300,112800,1,0,0:0:0:0:
68,228,112971,2,0,P|24:244|96:380,1,255
140,300,113657,1,0,0:0:0:0:
136,216,113828,2,0,P|184:224|212:316,1,127.5
219,289,114171,1,0,0:0:0:0:
192,384,114342,1,0,0:0:0:0:
40,280,114685,1,0,0:0:0:0:
0,384,114857,1,0,0:0:0:0:
224,152,115200,5,0,0:0:0:0:
40,48,115371,2,0,P|20:112|128:172,1,187.000005706787
104,96,115885,1,0,0:0:0:0:
160,44,116057,1,0,0:0:0:0:
232,28,116228,2,0,P|292:32|348:112,1,140.25000428009
343,88,116571,1,0,0:0:0:0:
232,128,116914,6,0,P|180:152|144:280,1,187.000005706787
72,176,117600,2,0,P|68:100|-4:4,1,187.000005706787
152,80,118285,2,0,P|220:28|344:60,1,187.000005706787
256,164,118971,2,0,P|280:216|372:248,1,140.25000428009
356,248,119314,1,0,0:0:0:0:
468,96,119657,1,0,0:0:0:0:
280,64,120000,1,0,0:0:0:0:
292,188,120171,5,0,0:0:0:0:
380,44,120342,1,0,0:0:0:0:
448,256,120514,1,0,0:0:0:0:
280,64,120685,1,0,0:0:0:0:
232,56,120771,1,0,0:0:0:0:
188,68,120857,1,0,0:0:0:0:
164,108,120942,1,0,0:0:0:0:
172,156,121028,6,0,P|164:216|152:144,1,187.000005706787
248,136,121542,2,0,P|260:192|168:300,1,187.000005706787
144,192,122057,6,0,P|108:88|-12:84,1,203.999993774414
124,4,122571,2,0,P|204:72|228:192,1,203.999993774414
212,248,123085,1,0,0:0:0:0:
244,324,123257,1,0,0:0:0:0:
328,336,123428,2,0,P|392:332|448:200,1,203.999993774414
356,240,123942,1,0,0:0:0:0:
380,140,124114,2,0,P|316:144|260:276,1,203.999993774414
164,196,124628,1,0,0:0:0:0:
72,252,124800,6,0,P|80:312|124:332,1,101.999996887207
184,332,125142,1,0,0:0:0:0:
264,328,125314,1,0,0:0:0:0:
264,248,125485,1,0,0:0:0:0:
184,252,125657,1,0,0:0:0:0:
24,264,125828,1,0,0:0:0:0:
24,264,126000,1,0,0:0:0:0:
120,156,126171,1,0,0:0:0:0:
120,156,126342,1,0,0:0:0:0:
60,40,126514,2,0,P|112:24|188:64,1,101.999996887207
244,80,126857,2,0,P|292:96|348:76,1,101.999996887207
372,0,127200,2,0,P|436:40|400:148,1,203.999993774414
320,172,127714,5,0,0:0:0:0:
292,252,127886,2,0,P|288:304|356:360,1,101.999996887207
388,384,128229,1,0,0:0:0:0:
464,360,128400,1,0,0:0:0:0:
504,288,128571,2,0,P|497:236|418:195,1,101.999996887207
388,260,128914,2,0,P|324:264|284:248,1,101.999996887207
180,176,129257,2,0,P|252:180|292:160,1,101.999996887207
424,104,129600,2,0,P|360:116|304:84,1,101.999996887207
188,64,129942,2,0,P|268:20|400:44,1,203.999993774414
444,80,130457,5,0,0:0:0:0:
468,156,130628,2,0,P|472:228|440:268,1,101.999996887207
378,266,130971,1,0,0:0:0:0:
301,243,131142,1,0,0:0:0:0:
323,166,131314,1,0,0:0:0:0:
399,189,131485,1,0,0:0:0:0:
240,188,131657,1,0,0:0:0:0:
288,88,131828,1,0,0:0:0:0:
204,24,132000,2,0,P|140:40|80:148,1,152.999995330811
86,105,132342,1,0,0:0:0:0:
240,188,132514,1,0,0:0:0:0:
72,204,132685,2,0,P|72:268|184:344,1,203.999993774414
160,232,133200,5,0,0:0:0:0:
168,136,133371,2,0,P|202:89|248:76,1,101.999996887207
316,136,133714,2,0,P|372:115|395:38,1,101.999996887207
436,0,134057,2,0,P|488:24|456:160,1,203.999993774414
380,192,134571,1,0,0:0:0:0:
376,292,134742,2,0,P|400:364|452:380,1,101.999996887207
504,336,135085,2,0,P|480:264|428:248,1,101.999996887207
356,216,135428,2,0,P|284:212|172:112,1,203.999993774414
108,60,135942,5,0,0:0:0:0:
44,0,136114,2,0,P|8:48|40:112,1,101.999996887207
100,156,136457,1,0,0:0:0:0:
36,224,136628,2,0,P|18:281|70:330,1,101.999996887207
120,268,136971,1,0,0:0:0:0:
168,352,137142,2,0,P|220:384|352:324,1,203.999993774414
388,268,137657,1,0,0:0:0:0:
408,184,137828,6,0,P|412:136|372:88,1,101.999996887207
316,44,138171,2,0,P|228:28|172:120,1,203.999993774414
176,196,138686,1,0,0:0:0:0:
248,268,138857,2,0,P|264:232|260:160,1,101.999996887207
368,168,139200,2,0,P|356:108|304:76,1,101.999996887207
204,84,139543,2,0,P|168:120|168:180,1,101.999996887207
236,272,139886,6,0,B|288:280|360:232|452:280,1,203.999993774414
488,180,140400,1,0,0:0:0:0:
420,88,140571,2,0,B|368:80|296:128|208:80,1,203.999993774414
156,44,141085,1,0,0:0:0:0:
0,80,141257,5,0,0:0:0:0:
160,244,141428,1,0,0:0:0:0:
240,36,141771,5,0,0:0:0:0:
64,308,141942,1,0,0:0:0:0:
136,116,142285,5,0,0:0:0:0:
260,304,142457,2,0,P|308:332|360:320,1,101.999996887207
396,316,142714,5,0,0:0:0:0:
432,292,142799,1,0,0:0:0:0:
464,256,142885,1,0,0:0:0:0:
484,212,142971,1,0,0:0:0:0:
488,168,143056,1,0,0:0:0:0:
488,120,143142,1,0,0:0:0:0:
468,80,143228,1,0,0:0:0:0:
436,48,143314,6,0,P|408:32|360:40,1,50.9999984436036
384,104,143485,2,0,P|324:172|212:128,1,203.999993774414
168,56,144000,6,0,P|108:16|28:116,1,203.999993774414
100,144,144514,2,0,P|88:216|-24:268,1,203.999993774414
44,348,145028,2,0,P|92:372|156:356,1,101.999996887207
192,280,145371,2,0,P|248:264|296:288,1,101.999996887207
348,364,145714,2,0,P|400:372|444:336,1,101.999996887207
492,260,146057,2,0,P|512:196|404:92,1,203.999993774414
412,196,146571,1,0,0:0:0:0:
332,132,146742,2,0,P|276:100|220:112,1,101.999996887207
160,116,147085,5,0,0:0:0:0:
88,156,147257,1,0,0:0:0:0:
128,228,147428,1,0,0:0:0:0:
198,188,147600,1,0,0:0:0:0:
264,52,147771,1,0,0:0:0:0:
264,52,147942,1,0,0:0:0:0:
132,232,148114,1,0,0:0:0:0:
132,232,148285,1,0,0:0:0:0:
286,204,148457,6,0,P|342:172|354:124,1,101.999996887207
206,174,148800,2,0,P|147:200|130:256,1,101.999996887207
218,272,149142,2,0,P|310:332|426:300,1,203.999993774414
462,268,149657,1,0,0:0:0:0:
488,176,149828,2,0,P|480:108|436:80,1,101.999996887207
396,204,150171,2,0,P|363:165|365:115,1,101.999996887207
376,24,150514,2,0,P|288:20|248:56,1,101.999996887207
240,128,150857,2,0,P|191:141|142:128,1,101.999996887207
76,64,151200,1,0,0:0:0:0:
4,116,151371,1,0,0:0:0:0:
24,208,151542,2,0,P|72:221|121:207,1,101.999996887207
232,220,151885,2,0,P|296:228|340:352,1,203.999993774414
424,264,152400,5,0,0:0:0:0:
352,176,152571,2,0,P|316:128|324:76,1,101.999996887207
388,32,152914,1,0,0:0:0:0:
472,16,153085,1,0,0:0:0:0:
492,104,153257,1,0,0:0:0:0:
408,120,153428,1,0,0:0:0:0:
304,48,153600,1,0,0:0:0:0:
256,148,153771,1,0,0:0:0:0:
312,252,153942,2,0,P|372:292|452:256,1,152.999995330811
443,266,154285,1,0,0:0:0:0:
380,144,154457,1,0,0:0:0:0:
192,248,154628,2,0,P|124:264|64:228,1,101.999996887207
36,168,154971,5,0,0:0:0:0:
0,260,155142,1,0,0:0:0:0:
28,344,155314,2,0,P|96:360|156:324,1,101.999996887207
236,348,155657,2,0,P|304:364|364:328,1,101.999996887207
440,356,156000,2,0,P|496:304|460:192,1,203.999993774414
392,132,156514,2,0,P|356:84|356:28,1,101.999996887207
368,216,156857,1,0,0:0:0:0:
336,296,157028,2,0,P|276:292|240:236,1,101.999996887207
216,156,157371,6,0,P|296:96|240:180,1,254.999992218018
160,52,158057,2,0,P|212:12|264:8,1,101.999996887207
344,32,158400,2,0,P|384:85|384:140,1,101.999996887207
264,132,158743,2,0,P|220:236|308:164,1,305.999990661621
256,192,159428,1,0,0:0:0:0:
256,296,159771,5,0,0:0:0:0:
212,360,159942,1,0,0:0:0:0:
140,384,160114,2,0,P|52:376|32:356,1,101.999996887207
112,288,160457,2,0,P|63:273|31:235,1,101.999996887207
24,128,160800,1,0,0:0:0:0:
100,48,160971,2,0,P|168:72|316:32,1,203.999993774414
388,0,161485,1,0,0:0:0:0:
472,64,161657,2,0,P|480:128|444:172,1,101.999996887207
368,188,162000,2,0,P|360:252|396:296,1,101.999996887207
456,356,162342,2,0,P|388:380|240:340,1,203.999993774414
180,276,162857,1,0,0:0:0:0:
112,356,163028,2,0,P|64:292|60:232,1,101.999996887207
72,160,163371,6,0,P|64:104|8:64,1,101.999996887207
140,52,163714,1,0,0:0:0:0:
208,160,163885,2,0,P|216:104|272:64,1,101.999996887207
332,24,164228,1,0,0:0:0:0:
424,40,164400,1,0,0:0:0:0:
492,104,164571,2,0,P|504:168|476:216,1,101.999996887207
392,288,164914,5,0,0:0:0:0:
272,172,165085,1,0,0:0:0:0:
264,180,165171,1,0,0:0:0:0:
276,184,165257,1,0,0:0:0:0:
140,248,165428,1,0,0:0:0:0:
196,76,165600,1,0,0:0:0:0:
232,308,165771,1,0,0:0:0:0:
108,44,165942,1,0,0:0:0:0:
