osu file format v14

[General]
AudioFilename: audio.mp3
AudioLeadIn: 0
PreviewTime: 37619
Countdown: 0
SampleSet: Soft
StackLeniency: 0.4
Mode: 0
LetterboxInBreaks: 0
WidescreenStoryboard: 0

[Editor]
DistanceSpacing: 1.5
BeatDivisor: 4
GridSize: 4
TimelineZoom: 1

[Metadata]
Title:Koko kara, Koko kara
TitleUnicode:ここから、ここから
Artist:Inori Minase, Kana Hanazawa, Yuka Iguchi, Saori Hayami
ArtistUnicode:玉木マリ(CV:水瀬いのり)、小淵沢報瀬(CV:花澤香菜)、三宅日向(CV:井口裕香)、白石結月(CV:早見沙織)
Creator:Nozhomi
Version:White
Source:宇宙よりも遠い場所
Tags:ed ending tv size sora yori mo tooi basho a place further than the universe
BeatmapID:1620491
BeatmapSetID:770789

[Difficulty]
HPDrainRate:6
CircleSize:4.3
OverallDifficulty:8.2
ApproachRate:9
SliderMultiplier:1.8
SliderTickRate:1

[Events]
//Background and Video events
0,0,"4girls.jpg",0,0
//Break Periods
//Storyboard Layer 0 (Background)
//Storyboard Layer 1 (Fail)
//Storyboard Layer 2 (Pass)
//Storyboard Layer 3 (Foreground)
//Storyboard Sound Samples

[TimingPoints]
248,342.857142857143,4,2,1,50,1,0
248,-133.333333333333,4,2,1,50,0,0
11219,-133.333333333333,4,2,1,60,0,0
38648,-100,4,2,1,80,0,1
59219,-100,4,2,1,70,0,1
59562,-100,4,2,1,80,0,0
60590,-100,4,2,1,80,0,1
82533,-133.333333333333,4,2,1,40,0,0
87762,-133.333333333333,4,2,1,35,0,0
87848,-133.333333333333,4,2,1,30,0,0
88019,-133.333333333333,4,2,1,25,0,0
88190,-133.333333333333,4,2,1,20,0,0
88362,-133.333333333333,4,2,1,15,0,0
88533,-133.333333333333,4,2,1,10,0,0
88705,-133.333333333333,4,2,1,5,0,0

[Colours]
Combo1 : 45,187,145
Combo2 : 201,107,22
Combo3 : 48,186,186
Combo4 : 203,151,41

[HitObjects]
72,128,248,6,0,P|112:176|200:192,1,135.000005149842,2|0,0:0|0:0,0:0:0:0:
256,76,762,2,0,L|252:144,1,67.5000025749208,2|0,0:0|0:0,0:0:0:0:
256,232,1105,1,0,0:0:0:0:
180,195,1276,1,2,0:0:0:0:
380,120,1619,6,0,P|440:135|492:208,1,135.000005149842,2|0,0:0|0:0,0:0:0:0:
484,341,2133,2,0,L|486:266,1,67.5000025749208,2|0,0:0|0:0,0:0:0:0:
403,231,2476,1,0,0:0:0:0:
486,189,2648,1,2,0:0:0:0:
240,296,2990,6,0,L|100:288,1,135.000005149842,2|0,0:0|0:0,0:0:0:0:
220,216,3505,2,0,L|287:219,1,67.5000025749208,2|0,0:0|0:0,0:0:0:0:
332,301,3848,1,0,0:0:0:0:
240,296,4019,1,2,0:0:0:0:
94,84,4362,6,0,L|101:218,1,135.000005149842,2|0,0:0|0:0,0:0:0:0:
109,360,4876,2,0,L|105:292,1,67.5000025749208,2|0,0:0|0:0,0:0:0:0:
25,259,5219,1,2,0:0:0:0:
172,196,5390,2,0,L|168:128,1,67.5000025749208,2|0,0:0|0:0,0:0:0:0:
180,272,5733,6,0,P|252:292|328:264,1,135.000005149842,2|0,0:0|0:0,0:0:0:0:
340,144,6248,2,0,L|348:220,1,67.5000025749208,2|0,0:0|0:0,0:0:0:0:
408,276,6590,1,0,0:0:0:0:
448,196,6762,1,2,0:0:0:0:
222,79,7105,6,0,P|215:145|172:196,1,135.000005149842,2|0,0:0|0:0,0:0:0:0:
36,224,7619,2,0,L|124:220,1,67.5000025749208,2|0,0:0|0:0,0:0:0:0:
164,284,7962,1,0,0:0:0:0:
172,196,8133,1,2,0:0:0:0:
456,128,8476,6,0,B|388:112|388:112|324:128,1,135.000005149842,2|0,0:0|0:0,0:0:0:0:
272,244,8990,2,0,P|280:212|276:176,1,67.5000025749208,2|0,0:0|0:0,0:0:0:0:
242,97,9333,1,0,0:0:0:0:
325,128,9505,1,2,0:0:0:0:
46,289,9848,6,0,B|24:228|24:228|40:160,1,135.000005149842,2|0,0:0|0:0,0:0:0:0:
72,76,10362,1,0,0:0:0:0:
136,136,10533,2,0,L|220:132,1,67.5000025749208,2|0,0:0|0:0,0:0:0:0:
360,184,10876,2,0,L|276:180,1,67.5000025749208,2|0,0:0|0:0,0:0:0:0:
136,68,11219,5,4,3:2:0:0:
136,68,11562,2,0,L|136:136,1,67.5000025749208,8|8,0:3|0:3,0:0:0:0:
52,192,11905,2,0,L|52:260,1,67.5000025749208
128,328,12248,2,0,L|128:244,1,67.5000025749208,0|0,3:0|0:0,0:0:0:0:
192,180,12590,2,0,P|253:151|318:183,1,135.000005149842,4|8,0:3|0:3,0:0:0:0:
352,268,13105,2,0,P|317:340|243:343,1,135.000005149842,8|0,0:3|0:3,0:0:0:0:
192,247,13619,2,0,L|192:180,1,67.5000025749208,0|2,3:0|0:0,0:0:0:0:
216,44,13962,6,0,P|148:100|84:116,1,135.000005149842,4|8,0:3|0:3,0:0:0:0:
256,124,14476,2,0,P|292:140|336:144,1,67.5000025749208,8|0,0:3|0:0,0:0:0:0:
400,108,14819,1,0,0:0:0:0:
372,204,14990,2,0,L|376:280,1,67.5000025749208,0|0,3:0|0:0,0:0:0:0:
296,336,15333,6,0,P|277:302|275:258,1,67.5000025749208,4|0,0:3|1:0,0:0:0:0:
172,264,15676,2,0,P|182:226|212:193,1,67.5000025749208,0|8,0:0|0:3,0:0:0:0:
136,128,16019,2,0,P|170:108|214:106,1,67.5000025749208,0|8,0:0|0:3,0:0:0:0:
296,48,16362,2,0,L|293:174,1,101.250003862381,0|0,3:0|0:0,0:0:0:0:
360,164,16705,6,0,P|384:92|351:27,1,135.000005149842,4|8,0:3|0:3,0:0:0:0:
227,64,17219,2,0,L|226:131,1,67.5000025749208,8|0,0:3|0:0,0:0:0:0:
284,224,17562,1,0,0:0:0:0:
384,184,17733,2,0,P|432:176|485:187,1,101.250003862381,0|0,3:0|0:0,0:0:0:0:
500,256,18076,6,0,P|431:273|360:244,1,135.000005149842,4|8,0:3|0:3,0:0:0:0:
284,204,18590,2,0,P|220:184|156:201,1,135.000005149842,8|8,0:3|0:3,0:0:0:0:
92,280,19105,2,0,L|96:348,1,67.5000025749208,0|2,3:0|0:0,0:0:0:0:
40,224,19448,6,0,P|28:158|44:93,1,135.000005149842,4|8,0:3|0:3,0:0:0:0:
152,133,19962,2,0,L|156:201,1,67.5000025749208,8|0,0:3|0:0,0:0:0:0:
256,252,20305,1,0,0:0:0:0:
256,252,20476,2,0,L|252:184,1,67.5000025749208,0|0,3:0|0:0,0:0:0:0:
160,288,20819,1,4,0:3:0:0:
264,332,20990,2,0,L|332:328,1,67.5000025749208,0|0,1:0|0:0,0:0:0:0:
432,328,21333,1,8,0:3:0:0:
372,192,21505,2,0,P|368:225|379:256,1,67.5000025749208,2|8,0:0|0:3,0:0:0:0:
323,112,21848,2,0,P|298:133|283:163,1,67.5000025749208,2|0,3:2|0:0,0:0:0:0:
416,116,22190,5,4,3:2:0:0:
256,252,22533,2,0,L|160:248,1,67.5000025749208,8|8,0:3|0:3,0:0:0:0:
164,348,22876,2,0,L|96:345,1,67.5000025749208
76,244,23219,2,0,L|7:241,1,67.5000025749208,0|0,3:0|0:0,0:0:0:0:
88,132,23562,2,0,L|223:139,1,135.000005149842,4|8,0:3|0:3,0:0:0:0:
316,208,24076,2,0,L|450:201,1,135.000005149842,8|8,0:3|0:3,0:0:0:0:
456,304,24590,2,0,L|388:306,1,67.5000025749208,0|2,3:0|0:0,0:0:0:0:
255,251,24933,6,0,P|276:315|253:377,1,135.000005149842,4|8,0:3|0:3,0:0:0:0:
160,336,25448,2,0,L|164:268,1,67.5000025749208,8|0,0:3|0:0,0:0:0:0:
68,236,25790,1,0,0:0:0:0:
68,236,25962,2,0,L|60:168,1,67.5000025749208,0|0,3:0|0:0,0:0:0:0:
104,76,26305,6,0,P|136:104|176:112,1,67.5000025749208,4|0,0:3|1:0,0:0:0:0:
284,56,26648,2,0,P|243:69|216:100,1,67.5000025749208,0|8,0:0|0:3,0:0:0:0:
212,220,26990,2,0,P|220:178|207:139,1,67.5000025749208,0|8,0:0|0:3,0:0:0:0:
104,76,27333,2,0,L|2:79,1,101.250003862381,0|0,3:0|0:0,0:0:0:0:
80,150,27676,6,0,L|214:154,1,135.000005149842,4|8,0:3|0:3,0:0:0:0:
288,224,28190,2,0,L|360:220,1,67.5000025749208,8|0,0:3|0:0,0:0:0:0:
444,268,28533,1,0,0:0:0:0:
376,344,28705,2,0,P|328:368|260:352,1,101.250003862381,0|0,3:0|0:0,0:0:0:0:
207,289,29048,6,0,L|215:155,1,135.000005149842,4|8,0:3|0:3,0:0:0:0:
132,96,29562,2,0,L|124:230,1,135.000005149842,8|8,0:3|0:3,0:0:0:0:
76,320,30076,2,0,P|54:294|26:276,1,67.5000025749208,0|2,3:0|0:0,0:0:0:0:
160,308,30419,6,0,P|220:288|312:304,1,135.000005149842,4|8,0:3|0:3,0:0:0:0:
372,356,30933,2,0,L|448:352,1,67.5000025749208,8|0,0:3|0:0,0:0:0:0:
392,264,31276,1,0,0:0:0:0:
290,295,31448,2,0,L|214:291,1,67.5000025749208,0|0,3:0|0:0,0:0:0:0:
136,236,31790,1,4,0:3:0:0:
216,144,31962,2,0,P|220:110|211:78,1,67.5000025749208,0|0,1:0|0:0,0:0:0:0:
124,28,32305,1,8,0:3:0:0:
300,116,32476,2,0,L|384:108,1,67.5000025749208,0|8,0:0|0:3,0:0:0:0:
216,144,32819,2,0,L|132:136,1,67.5000025749208,0|0,3:0|0:0,0:0:0:0:
296,200,33162,6,0,P|320:272|291:342,1,135.000005149842,4|0,0:3|0:0,0:0:0:0:
212,368,33676,1,0,3:0:0:0:
208,268,33848,1,0,1:0:0:0:
400,328,34190,2,0,L|488:316,1,67.5000025749208
400,240,34533,1,4,0:3:0:0:
488,192,34705,1,0,1:0:0:0:
400,144,34876,2,0,L|408:72,1,67.5000025749208,0|4,0:0|0:3,0:0:0:0:
324,184,35219,2,0,L|308:112,1,67.5000025749208,0|4,1:0|0:3,0:0:0:0:
264,248,35562,2,0,P|220:212|172:204,1,101.250003862381,8|0,0:3|0:0,0:0:0:0:
56,248,35905,6,0,P|89:253|121:244,1,67.5000025749208,0|0,1:0|0:0,0:0:0:0:
176,120,36248,1,0,1:0:0:0:
200,292,36419,1,0,0:0:0:0:
200,292,36505,1,0,0:0:0:0:
200,292,36590,1,0,1:0:0:0:
80,176,36762,1,0,3:0:0:0:
248,176,36933,1,0,3:0:0:0:
100,276,37105,1,0,3:0:0:0:
248,100,37276,1,0,1:0:0:0:
248,100,37619,6,0,L|344:108,1,67.5000025749208,2|0,0:0|0:0,0:0:0:0:
392,172,37962,1,2,0:0:0:0:
304,219,38133,2,0,P|280:281|301:344,1,135.000005149842,2|0,0:0|0:0,0:0:0:0:
392,172,38648,6,0,L|192:180,1,180,4|0,3:2|1:0,0:0:0:0:
50,245,39162,2,0,P|138:229|222:169,1,180,4|4,0:3|0:3,0:0:0:0:
216,16,39676,2,0,L|224:120,1,90,0|0,1:0|0:0,0:0:0:0:
376,32,40019,2,0,L|308:111,1,90,4|0,0:3|0:0,0:0:0:0:
476,160,40362,2,0,L|372:168,1,90,2|4,1:2|0:3,0:0:0:0:
460,320,40705,2,0,L|380:252,1,90,2|4,0:0|0:3,0:0:0:0:
255,370,41048,2,0,B|236:304|276:304|256:239,1,135,2|0,1:2|0:0,0:0:0:0:
168,219,41390,6,0,B|256:239|256:239|344:219,1,180,4|0,0:3|1:0,0:0:0:0:
300,100,41905,2,0,B|256:92|256:92|212:100,1,90,4|0,0:3|0:0,0:0:0:0:
100,160,42248,1,4,0:3:0:0:
163,267,42419,2,0,P|176:310|164:353,1,90,0|0,1:0|0:0,0:0:0:0:
44,312,42762,1,4,0:3:0:0:
44,312,42933,1,4,0:3:0:0:
168,192,43105,2,0,L|276:200,1,90,2|4,1:2|0:3,0:0:0:0:
416,212,43448,2,0,L|326:205,1,90,2|4,0:0|0:3,0:0:0:0:
204,324,43790,2,0,L|344:334,1,135,2|0,1:2|0:0,0:0:0:0:
424,312,44133,6,0,P|484:252|464:148,1,180,4|0,0:3|1:0,0:0:0:0:
372,88,44648,2,0,P|287:88|227:175,1,180,4|4,0:3|0:3,0:0:0:0:
290,364,45162,2,0,P|277:324|241:284,1,90,0|0,1:0|0:0,0:0:0:0:
314,180,45505,2,0,P|277:160|223:157,1,90,4|0,0:3|0:0,0:0:0:0:
90,264,45848,2,0,P|102:224|138:184,1,90,2|4,1:2|0:3,0:0:0:0:
66,80,46191,2,0,P|102:60|156:57,1,90,2|4,0:0|0:3,0:0:0:0:
314,180,46533,2,0,L|310:45,1,135,2|0,1:2|0:0,0:0:0:0:
396,24,46876,6,0,B|424:112|424:112|400:203,1,180,4|0,0:3|1:0,0:0:0:0:
300,272,47390,2,0,L|208:264,1,90,4|0,0:3|0:0,0:0:0:0:
304,176,47733,1,4,0:3:0:0:
180,164,47905,2,0,L|88:156,1,90,0|0,1:0|0:0,0:0:0:0:
184,68,48248,1,4,0:3:0:0:
184,68,48419,1,4,0:3:0:0:
127,228,48590,2,0,P|119:271|131:314,1,90,4|0,0:0|0:0,0:0:0:0:
292,314,48933,2,0,P|304:271|296:228,1,90,4|4,0:3|0:3,0:0:0:0:
184,68,49276,6,0,P|252:100|376:80,1,180,0|4,1:0|0:3,0:0:0:0:
464,32,49790,1,0,0:0:0:0:
408,144,49962,2,0,P|392:184|412:264,1,90,2|4,1:2|0:3,0:0:0:0:
275,267,50305,2,0,P|292:307|326:337,1,90,2|4,0:0|0:3,0:0:0:0:
506,345,50648,6,0,L|310:337,1,180,0|4,1:0|0:3,0:0:0:0:
256,219,51162,1,4,0:3:0:0:
168,316,51333,2,0,P|109:330|57:317,1,90,2|4,1:2|0:3,0:0:0:0:
68,200,51676,2,0,P|127:186|179:199,1,90,2|4,0:0|0:3,0:0:0:0:
268,298,52019,2,0,P|226:253|211:202,1,90,0|0,1:0|0:0,0:0:0:0:
294,10,52362,6,0,P|282:98|214:158,1,180,4|0,0:3|1:0,0:0:0:0:
52,164,52876,2,0,P|134:130|220:159,1,180,4|4,0:3|0:3,0:0:0:0:
312,240,53390,2,0,L|424:236,1,90,0|0,1:0|0:0,0:0:0:0:
476,136,53733,1,4,0:3:0:0:
476,136,53905,1,4,0:3:0:0:
480,272,54076,1,0,1:0:0:0:
340,164,54248,2,0,P|250:183|234:262,1,180,4|4,0:3|0:3,0:0:0:0:
343,359,54762,6,0,P|311:329|268:319,1,90,0|0,1:0|0:0,0:0:0:0:
120,360,55105,1,4,0:3:0:0:
164,112,55448,2,0,L|152:8,1,90,0|4,1:0|0:3,0:0:0:0:
228,156,55790,2,0,L|238:245,1,90,0|4,0:0|0:3,0:0:0:0:
164,112,56133,2,0,L|152:8,1,90,0|0,1:0|0:0,0:0:0:0:
232,159,56476,1,4,0:3:0:0:
232,159,56648,1,4,0:3:0:0:
88,112,56819,2,0,P|45:100|1:110,1,90,2|4,1:2|0:3,0:0:0:0:
145,157,57162,2,0,P|188:168|231:159,1,90,2|4,0:0|0:3,0:0:0:0:
336,24,57505,2,0,P|304:55|291:97,1,90,2|0,1:2|0:0,0:0:0:0:
381,328,57848,6,0,P|379:240|316:180,1,180,4|4,0:3|1:2,0:0:0:0:
269,289,58362,1,0,0:0:0:0:
269,289,58533,1,4,0:3:0:0:
444,208,58705,1,4,0:3:0:0:
244,212,58876,1,4,1:2:0:0:
419,131,59048,1,0,0:0:0:0:
381,328,59219,5,4,0:3:0:0:
365,355,59305,1,0,1:0:0:0:
337,369,59390,1,0,1:0:0:0:
305,364,59476,1,0,1:0:0:0:
280,344,59562,1,0,1:0:0:0:
260,128,59733,5,0,1:0:0:0:
260,128,59819,1,0,1:0:0:0:
260,128,59905,1,0,1:0:0:0:
112,232,60076,1,0,1:0:0:0:
288,268,60248,1,0,1:0:0:0:
140,116,60419,1,0,1:0:0:0:
140,116,60505,1,0,1:0:0:0:
140,116,60590,6,0,L|151:296,1,180,4|0,3:2|1:0,0:0:0:0:
288,268,61105,2,0,L|277:88,1,180,4|4,0:3|0:3,0:0:0:0:
392,40,61619,2,0,P|428:72|488:80,1,90,0|0,1:0|0:0,0:0:0:0:
319,16,61962,2,0,P|319:60|348:104,1,90,4|0,0:3|0:0,0:0:0:0:
432,266,62305,2,0,P|432:222|408:184,1,90,2|4,1:2|0:3,0:0:0:0:
468,336,62648,2,0,P|499:304|509:261,1,90,2|4,0:2|0:3,0:0:0:0:
320,176,62990,2,0,L|328:320,1,135,2|0,1:2|0:0,0:0:0:0:
248,332,63333,6,0,P|216:244|244:160,1,180,4|0,0:3|1:0,0:0:0:0:
364,64,63848,2,0,P|324:100|260:104,1,90,4|0,0:3|0:0,0:0:0:0:
172,40,64190,1,4,0:3:0:0:
76,136,64362,2,0,L|80:232,1,90,0|0,1:0|0:0,0:0:0:0:
132,340,64705,1,4,0:3:0:0:
132,340,64876,1,4,0:3:0:0:
259,240,65048,2,0,P|341:216|332:312,1,180,0|4,1:0|0:3,0:0:0:0:
256,368,65562,1,4,0:3:0:0:
187,232,65733,2,0,P|218:172|276:140,1,135,0|0,1:0|0:0,0:0:0:0:
344,193,66076,6,0,P|275:137|298:48,1,180,4|0,0:3|1:0,0:0:0:0:
405,11,66590,2,0,P|472:63|457:147,1,180,4|4,0:3|0:3,0:0:0:0:
344,193,67105,2,0,L|152:180,1,180,0|4,1:0|0:3,0:0:0:0:
64,260,67619,1,0,0:0:0:0:
208,272,67790,2,0,L|297:278,1,90,2|4,1:2|0:3,0:0:0:0:
252,108,68133,2,0,L|162:101,1,90,2|4,0:2|0:3,0:0:0:0:
344,193,68476,2,0,P|377:120|336:41,1,135,2|0,1:2|0:0,0:0:0:0:
264,24,68819,6,0,L|276:220,1,180,4|0,0:3|1:0,0:0:0:0:
364,296,69333,2,0,P|408:284|456:288,1,90,4|0,0:3|0:0,0:0:0:0:
292,336,69676,1,4,0:3:0:0:
292,336,69848,2,0,P|248:347|204:345,1,90,0|0,1:0|0:0,0:0:0:0:
100,276,70190,1,4,0:3:0:0:
100,276,70362,1,4,0:3:0:0:
184,114,70533,2,0,L|188:210,1,90,0|0,1:0|0:0,0:0:0:0:
52,180,70876,2,0,L|48:90,1,90,4|0,0:3|0:0,0:0:0:0:
188,204,71219,6,0,L|198:383,1,180,4|4,1:2|0:3,0:0:0:0:
100,276,71733,1,0,0:0:0:0:
260,223,71905,2,0,P|303:213|347:223,1,90,2|4,1:2|0:3,0:0:0:0:
448,348,72248,2,0,P|417:315|403:272,1,90,2|4,0:0|0:3,0:0:0:0:
456,52,72590,6,0,P|474:136|416:200,1,180,0|4,1:0|0:3,0:0:0:0:
260,223,73105,1,0,0:0:0:0:
172,108,73276,2,0,B|160:64|160:64|172:22,1,90,2|4,1:2|0:3,0:0:0:0:
340,22,73619,2,0,B|352:64|352:64|340:108,1,90,2|4,0:0|0:3,0:0:0:0:
188,196,73962,6,0,L|8:184,1,180,0|4,1:0|0:3,0:0:0:0:
88,284,74476,1,0,0:0:0:0:
136,120,74648,2,0,P|136:72|112:28,1,90,2|0,1:2|0:0,0:0:0:0:
188,196,74990,2,0,P|204:150|242:117,1,90,2|4,3:2|0:3,0:0:0:0:
148,316,75333,6,0,P|120:220|56:160,1,180,4|0,1:2|0:0,0:0:0:0:
192,199,75848,1,4,0:3:0:0:
192,199,76019,2,0,L|292:195,1,90,0|0,1:0|0:0,0:0:0:0:
392,136,76362,1,4,0:3:0:0:
392,260,76533,1,4,0:3:0:0:
300,120,76705,2,0,P|316:80|364:52,1,90,0|0,1:0|0:0,0:0:0:0:
488,192,77048,6,0,L|484:376,1,180,4|0,0:3|1:0,0:0:0:0:
392,260,77562,2,0,L|395:80,1,180,4|4,0:3|0:3,0:0:0:0:
256,164,78076,2,0,P|208:172|166:164,1,90,0|0,1:0|0:0,0:0:0:0:
36,40,78419,2,0,P|84:144|72:224,1,180,4|0,0:3|1:0,0:0:0:0:
28,380,78933,2,0,P|94:286|169:256,1,180,4|4,0:3|0:3,0:0:0:0:
336,308,79448,2,0,P|288:300|252:276,1,90,0|0,1:0|0:0,0:0:0:0:
224,100,79790,5,4,0:3:0:0:
224,100,80133,2,0,L|216:216,1,90,0|0,1:0|0:0,0:0:0:0:
208,348,80476,1,4,0:3:0:0:
208,348,80648,1,4,0:3:0:0:
288,212,80819,2,0,P|316:180|372:164,1,90,0|0,1:0|0:0,0:0:0:0:
512,184,81162,5,0,1:0:0:0:
416,336,81333,1,4,0:3:0:0:
360,164,81505,1,0,1:0:0:0:
504,288,81676,1,4,0:3:0:0:
504,288,81762,1,0,1:0:0:0:
504,288,81848,1,0,1:0:0:0:
444,108,82019,1,4,0:3:0:0:
336,264,82190,1,0,1:0:0:0:
256,72,82362,1,0,1:0:0:0:
108,248,82533,6,0,P|172:228|260:232,1,135.000005149842,2|0,0:0|0:0,0:0:0:0:
336,264,83048,1,2,0:0:0:0:
336,264,83390,1,0,0:0:0:0:
320,156,83562,1,2,0:0:0:0:
108,248,83905,6,0,L|116:388,1,135.000005149842,2|0,0:0|0:0,0:0:0:0:
192,308,84419,1,2,0:0:0:0:
192,308,84762,1,0,0:0:0:0:
84,316,84933,1,2,0:0:0:0:
252,156,85276,6,0,P|240:84|184:32,1,135.000005149842,2|0,0:0|0:0,0:0:0:0:
100,20,85790,1,2,0:0:0:0:
100,20,86133,1,0,0:0:0:0:
131,124,86305,1,2,0:0:0:0:
376,40,86648,6,0,B|444:28|444:28|508:40,1,135.000005149842,2|0,0:0|0:0,0:0:0:0:
444,120,87162,1,2,0:0:0:0:
444,120,87505,1,0,0:0:0:0:
288,60,87676,1,2,0:0:0:0:
256,192,87762,12,0,89390,0:0:0:0:
