osu file format v14

[General]
AudioFilename: audio.ogg
AudioLeadIn: 0
PreviewTime: 233454
Countdown: 0
SampleSet: Soft
StackLeniency: 0.3
Mode: 0
LetterboxInBreaks: 0
EpilepsyWarning: 1
WidescreenStoryboard: 1

[Editor]
Bookmarks: 400,19978,20610,40821,66084,86294,109031,140610,165873,188926,191452,208821,236610,254610,277031,291873,295821,297084,306084
DistanceSpacing: 1.1
BeatDivisor: 4
GridSize: 32
TimelineZoom: 2.899999

[Metadata]
Title:brave climber
TitleUnicode:brave climber
Artist:Inori Minase
ArtistUnicode:水瀬いのり
Creator:Sekai
Version:believe
Source:
Tags:いのりん inorin japanese rock jrock j-rock pop jpop j-pop catch the rainbow! Sekaii Sekai-nyan pnky IAmWayneKing mrgglock ninym akitoshi corinn -laura midorijeon
BeatmapID:3658332
BeatmapSetID:1785920

[Difficulty]
HPDrainRate:6
CircleSize:4
OverallDifficulty:9
ApproachRate:9.3
SliderMultiplier:1.6
SliderTickRate:1

[Events]
//Background and Video events
0,0,"ayaya.jpg",0,0
//Break Periods
//Storyboard Layer 0 (Background)
//Storyboard Layer 1 (Fail)
//Storyboard Layer 2 (Pass)
//Storyboard Layer 3 (Foreground)
//Storyboard Layer 4 (Overlay)
//Storyboard Sound Samples

[TimingPoints]
410,315.789473684211,4,2,2,50,1,0
410,-125,4,2,2,50,0,0
567,-125,4,2,2,50,0,0
883,-125,4,2,2,50,0,0
1040,-125,4,2,2,50,0,0
1357,-125,4,2,2,50,0,0
1514,-125,4,2,2,50,0,0
1831,-125,4,2,2,50,0,0
1988,-125,4,2,2,50,0,0
2304,-125,4,2,2,50,0,0
2461,-125,4,2,2,50,0,0
2620,-125,4,2,2,50,0,0
2778,-125,4,2,2,50,0,0
2936,-125,4,2,2,50,0,0
3093,-125,4,2,2,50,0,0
3410,-125,4,2,2,50,0,0
3567,-125,4,2,2,50,0,0
3883,-125,4,2,2,50,0,0
4040,-125,4,2,2,50,0,0
4357,-125,4,2,2,50,0,0
4514,-125,4,2,2,50,0,0
4831,-125,4,2,2,50,0,0
4988,-125,4,2,2,50,0,0
5146,-125,4,2,2,50,0,0
5304,-125,4,2,2,50,0,0
5462,-125,4,2,2,50,0,0
5619,-125,4,2,2,50,0,0
5936,-125,4,2,2,50,0,0
6093,-125,4,2,2,50,0,0
6410,-125,4,2,2,50,0,0
6567,-125,4,2,2,50,0,0
6883,-125,4,2,2,50,0,0
7040,-125,4,2,2,50,0,0
7357,-125,4,2,2,50,0,0
7514,-125,4,2,2,50,0,0
7673,-125,4,2,2,50,0,0
7831,-125,4,2,2,50,0,0
7988,-125,4,2,2,50,0,0
8145,-125,4,2,2,50,0,0
8462,-125,4,2,2,50,0,0
8619,-125,4,2,2,50,0,0
8936,-125,4,2,2,50,0,0
9093,-125,4,2,2,50,0,0
9410,-125,4,2,2,50,0,0
9567,-125,4,2,2,50,0,0
9725,-125,4,2,2,50,0,0
9883,-125,4,2,2,65,0,0
10199,-125,4,2,2,65,0,0
10515,-100,4,2,1,75,0,0
10831,-100,4,2,6,75,0,0
10988,-100,4,2,2,75,0,0
11145,-100,4,2,6,75,0,0
11304,-100,4,2,2,75,0,0
11462,-100,4,2,6,75,0,0
11619,-100,4,2,2,75,0,0
11778,-100,4,2,6,75,0,0
11936,-100,4,2,2,75,0,0
12094,-100,4,2,6,75,0,0
12410,-100,4,2,6,75,0,0
12567,-100,4,2,2,75,0,0
12725,-100,4,2,6,75,0,0
12882,-100,4,2,2,75,0,0
13041,-100,4,2,6,75,0,0
13198,-100,4,2,2,75,0,0
13357,-100,4,2,6,75,0,0
13515,-100,4,2,2,75,0,0
13672,-100,4,2,6,75,0,0
13831,-100,4,2,2,75,0,0
13988,-100,4,2,6,75,0,0
14145,-100,4,2,2,75,0,0
14304,-100,4,2,6,75,0,0
14462,-100,4,2,2,75,0,0
14620,-100,4,2,6,75,0,0
14936,-100,4,2,6,75,0,0
15094,-100,4,2,2,75,0,0
15252,-100,4,2,3,75,0,0
15567,-100,4,2,2,75,0,0
15882,-100,4,2,6,75,0,0
16041,-100,4,2,2,75,0,0
16198,-100,4,2,6,75,0,0
16357,-100,4,2,2,75,0,0
16515,-100,4,2,6,75,0,0
16672,-100,4,2,2,75,0,0
16831,-100,4,2,6,75,0,0
16988,-100,4,2,2,75,0,0
17146,-100,4,2,6,75,0,0
17462,-100,4,2,6,75,0,0
17620,-100,4,2,2,75,0,0
18567,-100,4,2,3,75,0,0
19041,-100,4,2,2,75,0,0
20620,-111.111111111111,4,2,1,65,0,0
20935,-111.111111111111,4,2,8,65,0,0
21094,-111.111111111111,4,2,2,65,0,0
21251,-111.111111111111,4,2,8,65,0,0
21410,-111.111111111111,4,2,8,80,0,0
21567,-111.111111111111,4,2,8,65,0,0
22041,-111.111111111111,4,2,2,65,0,0
22198,-111.111111111111,4,2,8,65,0,0
22357,-111.111111111111,4,2,2,65,0,0
22515,-111.111111111111,4,2,8,65,0,0
22831,-111.111111111111,4,2,8,65,0,0
22988,-111.111111111111,4,2,12,65,0,0
23146,-111.111111111111,4,2,8,65,0,0
23620,-111.111111111111,4,2,2,65,0,0
23777,-111.111111111111,4,2,8,65,0,0
23936,-111.111111111111,4,2,13,65,0,0
24093,-111.111111111111,4,2,8,65,0,0
24252,-111.111111111111,4,2,2,65,0,0
24410,-111.111111111111,4,2,8,65,0,0
24724,-111.111111111111,4,2,8,65,0,0
24883,-111.111111111111,4,2,12,65,0,0
25041,-111.111111111111,4,2,8,65,0,0
25199,-111.111111111111,4,2,12,65,0,0
25357,-111.111111111111,4,2,8,65,0,0
25515,-111.111111111111,4,2,2,65,0,0
25988,-111.111111111111,4,2,8,65,0,0
26146,-111.111111111111,4,2,2,65,0,0
26303,-111.111111111111,4,2,8,65,0,0
26462,-111.111111111111,4,2,2,65,0,0
26620,-111.111111111111,4,2,8,65,0,0
26777,-111.111111111111,4,2,2,65,0,0
26936,-111.111111111111,4,2,8,65,0,0
27252,-111.111111111111,4,2,8,65,0,0
27410,-111.111111111111,4,2,12,65,0,0
27567,-111.111111111111,4,2,8,65,0,0
27725,-111.111111111111,4,2,12,65,0,0
27883,-111.111111111111,4,2,8,65,0,0
28041,-111.111111111111,4,2,1,65,0,0
28199,-111.111111111111,4,2,2,65,0,0
28514,-111.111111111111,4,2,8,65,0,0
28673,-111.111111111111,4,2,2,65,0,0
28830,-111.111111111111,4,2,8,65,0,0
28988,-111.111111111111,4,2,2,65,0,0
29145,-111.111111111111,4,2,8,65,0,0
29304,-111.111111111111,4,2,2,65,0,0
29620,-111.111111111111,4,2,1,65,0,0
29778,-111.111111111111,4,2,2,65,0,0
30094,-83.3333333333333,4,2,2,65,0,0
30331,-71.4285714285714,4,2,2,65,0,0
30567,-62.5,4,2,2,65,0,0
30725,-100,4,2,2,70,0,0
31040,-100,4,2,8,70,0,0
31199,-100,4,2,2,70,0,0
31356,-100,4,2,8,70,0,0
31515,-100,4,2,2,70,0,0
31673,-100,4,2,9,70,0,0
31830,-100,4,2,2,70,0,0
31988,-100,4,2,9,70,0,0
32146,-100,4,2,2,70,0,0
32303,-100,4,2,8,70,0,0
32462,-100,4,2,2,70,0,0
32620,-100,4,2,8,70,0,0
32777,-100,4,2,2,70,0,0
32936,-100,4,2,8,70,0,0
33252,-100,4,2,6,70,0,0
33567,-100,4,2,8,70,0,0
33725,-100,4,2,2,70,0,0
33882,-100,4,2,8,70,0,0
34041,-100,4,2,2,70,0,0
34198,-100,4,2,8,70,0,0
34357,-100,4,2,2,70,0,0
34831,-100,4,2,8,70,0,0
35146,-100,4,2,8,70,0,0
35304,-100,4,2,2,70,0,0
36093,-100,4,2,8,70,0,0
36252,-100,4,2,2,70,0,0
36409,-100,4,2,8,70,0,0
36567,-100,4,2,2,70,0,0
36724,-100,4,2,8,70,0,0
36883,-100,4,2,2,70,0,0
37357,-100,4,2,8,70,0,0
37673,-100,4,2,8,70,0,0
37831,-100,4,2,2,70,0,0
37988,-100,4,2,8,70,0,0
38304,-100,4,2,6,70,0,0
38619,-100,4,2,8,70,0,0
38778,-100,4,2,2,70,0,0
38935,-100,4,2,8,70,0,0
39094,-100,4,2,2,70,0,0
39252,-100,4,2,9,70,0,0
39410,-100,4,2,2,70,0,0
39883,-100,4,2,5,70,0,0
40357,-100,4,2,1,70,0,0
40515,-100,4,2,2,70,0,0
40673,-100,4,2,3,70,0,0
40831,-111.111111111111,4,2,1,70,0,0
41146,-111.111111111111,4,2,15,70,0,0
41304,-111.111111111111,4,2,2,70,0,0
41462,-111.111111111111,4,2,15,70,0,0
41619,-111.111111111111,4,2,2,70,0,0
41778,-111.111111111111,4,2,15,70,0,0
41936,-111.111111111111,4,2,5,70,0,0
42093,-111.111111111111,4,2,15,70,0,0
42410,-111.111111111111,4,2,15,70,0,0
42725,-111.111111111111,4,2,15,70,0,0
42882,-111.111111111111,4,2,2,70,0,0
43041,-111.111111111111,4,2,15,70,0,0
43199,-111.111111111111,4,2,3,70,0,0
43357,-111.111111111111,4,2,2,70,0,0
43673,-111.111111111111,4,2,15,70,0,0
43830,-111.111111111111,4,2,2,70,0,0
43988,-111.111111111111,4,2,15,70,0,0
44146,-111.111111111111,4,2,2,70,0,0
44304,-111.111111111111,4,2,15,70,0,0
44462,-111.111111111111,4,2,2,70,0,0
44619,-111.111111111111,4,2,15,70,0,0
44778,-111.111111111111,4,2,1,70,0,0
44936,-111.111111111111,4,2,15,70,0,0
45093,-111.111111111111,4,2,2,70,0,0
45252,-111.111111111111,4,2,15,70,0,0
45409,-111.111111111111,4,2,3,70,0,0
45567,-111.111111111111,4,2,15,70,0,0
45725,-111.111111111111,4,2,4,70,0,0
45883,-111.111111111111,4,2,1,70,0,0
46198,-111.111111111111,4,2,16,70,0,0
46515,-111.111111111111,4,2,15,70,0,0
46673,-111.111111111111,4,2,1,70,0,0
46830,-111.111111111111,4,2,15,70,0,0
46988,-111.111111111111,4,2,2,70,0,0
47145,-111.111111111111,4,2,15,70,0,0
47462,-111.111111111111,4,2,15,70,0,0
47778,-111.111111111111,4,2,15,70,0,0
47935,-111.111111111111,4,2,2,70,0,0
48094,-111.111111111111,4,2,15,70,0,0
48252,-111.111111111111,4,2,3,70,0,0
48410,-111.111111111111,4,2,1,70,0,0
48725,-111.111111111111,4,2,15,70,0,0
48883,-111.111111111111,4,2,2,70,0,0
49041,-111.111111111111,4,2,15,70,0,0
49198,-111.111111111111,4,2,1,70,0,0
49357,-111.111111111111,4,2,15,70,0,0
49515,-111.111111111111,4,2,2,70,0,0
49672,-111.111111111111,4,2,15,70,0,0
49988,-111.111111111111,4,2,15,70,0,0
50146,-111.111111111111,4,2,2,70,0,0
50304,-111.111111111111,4,2,17,70,0,0
50462,-111.111111111111,4,2,3,70,0,0
50620,-111.111111111111,4,2,15,70,0,0
50778,-111.111111111111,4,2,4,70,0,0
50936,-125,4,2,5,65,0,0
51251,-125,4,2,8,60,0,0
51410,-125,4,2,2,60,0,0
51883,-125,4,2,9,60,0,0
52041,-125,4,2,2,60,0,0
52199,-125,4,2,8,60,0,0
52673,-125,4,2,2,60,0,0
53146,-125,4,2,3,65,0,0
53462,-111.111111111111,4,2,2,70,0,0
53936,-111.111111111111,4,2,12,70,0,0
54252,-111.111111111111,4,2,12,70,0,0
54567,-111.111111111111,4,2,12,70,0,0
54882,-111.111111111111,4,2,2,70,0,0
55041,-111.111111111111,4,2,3,70,0,0
55357,-111.111111111111,4,2,3,70,0,0
55988,-111.111111111111,4,2,2,70,0,0
56303,-111.111111111111,4,2,6,70,0,0
56462,-111.111111111111,4,2,2,70,0,0
56619,-111.111111111111,4,2,6,70,0,0
56936,-111.111111111111,4,2,6,70,0,0
57094,-111.111111111111,4,2,3,70,0,0
57567,-111.111111111111,4,2,3,70,0,0
57724,-111.111111111111,4,2,1,70,0,0
58041,-111.111111111111,4,2,2,70,0,0
58357,-111.111111111111,4,2,3,70,0,0
58515,-111.111111111111,4,2,2,70,0,0
58830,-111.111111111111,4,2,6,70,0,0
58988,-111.111111111111,4,2,2,70,0,0
60094,-111.111111111111,4,2,2,70,0,0
60567,-111.111111111111,4,2,3,70,0,0
61357,-100,4,2,2,40,0,0
61673,-100,4,2,2,45,0,0
61988,-100,4,2,2,50,0,0
62304,-100,4,2,2,55,0,0
62620,-100,4,2,2,60,0,0
62936,-100,4,2,2,65,0,0
63252,-100,4,2,2,70,0,0
63567,-100,4,2,3,75,0,0
63883,-100,4,2,3,75,0,0
64041,-100,4,2,2,75,0,0
64357,-100,4,2,2,75,0,0
65620,-125,4,2,2,75,0,0
65778,-66.6666666666667,4,2,5,75,0,0
66014,-66.6666666666667,4,2,5,80,0,0
66094,-90.9090909090909,4,2,1,80,0,1
66410,-90.9090909090909,4,2,10,80,0,1
66883,-90.9090909090909,4,2,2,80,0,1
67041,-90.9090909090909,4,2,10,80,0,1
67199,-90.9090909090909,4,2,2,80,0,1
67356,-90.9090909090909,4,2,10,80,0,1
67515,-90.9090909090909,4,2,2,80,0,1
67988,-90.9090909090909,4,2,10,80,0,1
68146,-90.9090909090909,4,2,2,80,0,1
68304,-90.9090909090909,4,2,10,80,0,1
68462,-90.9090909090909,4,2,2,80,0,1
68620,-90.9090909090909,4,2,10,80,0,1
69410,-90.9090909090909,4,2,2,80,0,1
69567,-90.9090909090909,4,2,10,80,0,1
69725,-90.9090909090909,4,2,2,80,0,1
69882,-90.9090909090909,4,2,10,80,0,1
70041,-90.9090909090909,4,2,2,80,0,1
70515,-90.9090909090909,4,2,10,80,0,1
70673,-90.9090909090909,4,2,2,80,0,1
70831,-90.9090909090909,4,2,10,80,0,1
70988,-90.9090909090909,4,2,2,80,0,1
71146,-90.9090909090909,4,2,3,80,0,1
71462,-90.9090909090909,4,2,10,80,0,1
71935,-90.9090909090909,4,2,2,80,0,1
72094,-90.9090909090909,4,2,10,80,0,1
72252,-90.9090909090909,4,2,2,80,0,1
72725,-90.9090909090909,4,2,10,80,0,1
73199,-90.9090909090909,4,2,2,80,0,1
73357,-90.9090909090909,4,2,10,80,0,1
73515,-90.9090909090909,4,2,2,80,0,1
73673,-90.9090909090909,4,2,10,80,0,1
74461,-90.9090909090909,4,2,2,80,0,1
74620,-90.9090909090909,4,2,10,80,0,1
75094,-90.9090909090909,4,2,2,80,0,1
75252,-90.9090909090909,4,2,10,80,0,1
75410,-90.9090909090909,4,2,2,80,0,1
76199,-90.9090909090909,4,2,3,80,0,1
76514,-90.9090909090909,4,2,10,80,0,1
76673,-90.9090909090909,4,2,2,80,0,1
76830,-90.9090909090909,4,2,10,80,0,1
76988,-90.9090909090909,4,2,2,80,0,1
77145,-90.9090909090909,4,2,10,80,0,1
77304,-90.9090909090909,4,2,5,80,0,1
77778,-90.9090909090909,4,2,10,80,0,1
78251,-90.9090909090909,4,2,2,80,0,1
78410,-90.9090909090909,4,2,10,80,0,1
78725,-90.9090909090909,4,2,3,80,0,1
79040,-90.9090909090909,4,2,10,80,0,1
79199,-90.9090909090909,4,2,2,80,0,1
79356,-90.9090909090909,4,2,10,80,0,1
79515,-90.9090909090909,4,2,2,80,0,1
79672,-90.9090909090909,4,2,10,80,0,1
79831,-90.9090909090909,4,2,5,80,0,1
80304,-90.9090909090909,4,2,10,80,0,1
80778,-90.9090909090909,4,2,2,80,0,1
81252,-90.9090909090909,4,2,3,80,0,1
81567,-90.9090909090909,4,2,10,80,0,1
81645,-90.9090909090909,4,2,2,80,0,1
81883,-90.9090909090909,4,2,10,80,0,1
81961,-90.9090909090909,4,2,2,80,0,1
82199,-90.9090909090909,4,2,10,80,0,1
82277,-90.9090909090909,4,2,2,80,0,1
82436,-90.9090909090909,4,2,2,80,0,1
82515,-90.9090909090909,4,2,10,80,0,1
82672,-90.9090909090909,4,2,2,80,0,1
82831,-90.9090909090909,4,2,10,80,0,1
83252,-90.9090909090909,4,2,2,80,0,1
83462,-90.9090909090909,4,2,10,80,0,1
83568,-90.9090909090909,4,2,2,80,0,1
83778,-100,4,2,2,80,0,1
84094,-100,4,2,10,80,0,1
84252,-100,4,2,2,80,0,1
84410,-100,4,2,10,80,0,1
84567,-100,4,2,2,80,0,1
84724,-100,4,2,10,80,0,1
84883,-100,4,2,2,80,0,1
85041,-100,4,2,10,80,0,1
85199,-100,4,2,2,80,0,1
85357,-100,4,2,10,80,0,1
85515,-100,4,2,2,80,0,1
86304,-90.9090909090909,4,2,2,80,0,1
86620,-90.9090909090909,4,2,6,80,0,1
87094,-90.9090909090909,4,2,2,80,0,1
87252,-90.9090909090909,4,2,6,80,0,1
87410,-90.9090909090909,4,2,2,80,0,1
87567,-90.9090909090909,4,2,6,80,0,1
87725,-90.9090909090909,4,2,2,80,0,1
87882,-90.9090909090909,4,2,6,80,0,1
88041,-90.9090909090909,4,2,2,80,0,1
88199,-90.9090909090909,4,2,6,80,0,1
88357,-90.9090909090909,4,2,2,80,0,1
88515,-90.9090909090909,4,2,6,80,0,1
88673,-90.9090909090909,4,2,2,80,0,1
88831,-90.9090909090909,4,2,3,80,0,1
89146,-90.9090909090909,4,2,6,80,0,1
89620,-90.9090909090909,4,2,2,80,0,1
89778,-90.9090909090909,4,2,6,80,0,1
89936,-90.9090909090909,4,2,2,80,0,1
90093,-90.9090909090909,4,2,6,80,0,1
90252,-90.9090909090909,4,2,2,80,0,1
90409,-90.9090909090909,4,2,6,80,0,1
90567,-90.9090909090909,4,2,2,80,0,1
90725,-90.9090909090909,4,2,6,80,0,1
90883,-90.9090909090909,4,2,2,80,0,1
91041,-90.9090909090909,4,2,6,80,0,1
91199,-90.9090909090909,4,2,2,80,0,1
91673,-90.9090909090909,4,2,6,80,0,1
92146,-90.9090909090909,4,2,2,80,0,1
92304,-90.9090909090909,4,2,6,80,0,1
92462,-90.9090909090909,4,2,2,80,0,1
92620,-90.9090909090909,4,2,6,80,0,1
93093,-90.9090909090909,4,2,2,80,0,1
93252,-90.9090909090909,4,2,6,80,0,1
93410,-90.9090909090909,4,2,2,80,0,1
93567,-90.9090909090909,4,2,6,80,0,1
93725,-90.9090909090909,4,2,2,80,0,1
93883,-90.9090909090909,4,2,6,80,0,1
94357,-90.9090909090909,4,2,2,80,0,1
94515,-90.9090909090909,4,2,6,80,0,1
94673,-90.9090909090909,4,2,2,80,0,1
94831,-90.9090909090909,4,2,6,80,0,1
94988,-90.9090909090909,4,2,2,80,0,1
95146,-90.9090909090909,4,2,6,80,0,1
95303,-90.9090909090909,4,2,2,80,0,1
95462,-90.9090909090909,4,2,3,80,0,1
96410,-90.9090909090909,4,2,2,80,0,1
96725,-90.9090909090909,4,2,6,80,0,1
96883,-90.9090909090909,4,2,2,80,0,1
97040,-90.9090909090909,4,2,6,80,0,1
97199,-90.9090909090909,4,2,2,80,0,1
97356,-90.9090909090909,4,2,6,80,0,1
97515,-90.9090909090909,4,2,3,80,0,1
97988,-90.9090909090909,4,2,6,80,0,1
98462,-90.9090909090909,4,2,2,80,0,1
98620,-90.9090909090909,4,2,6,80,0,1
98936,-90.9090909090909,4,2,2,80,0,1
99251,-90.9090909090909,4,2,6,80,0,1
99410,-90.9090909090909,4,2,2,80,0,1
99567,-90.9090909090909,4,2,6,80,0,1
99725,-90.9090909090909,4,2,2,80,0,1
99882,-90.9090909090909,4,2,6,80,0,1
100041,-90.9090909090909,4,2,3,80,0,1
100515,-90.9090909090909,4,2,6,80,0,1
100988,-90.9090909090909,4,2,2,80,0,1
101146,-90.9090909090909,4,2,5,80,0,1
101462,-90.9090909090909,4,2,2,80,0,1
101778,-90.9090909090909,4,2,6,80,0,1
101856,-90.9090909090909,4,2,2,80,0,1
102094,-90.9090909090909,4,2,6,80,0,1
102172,-90.9090909090909,4,2,2,80,0,1
102410,-90.9090909090909,4,2,6,80,0,1
102488,-90.9090909090909,4,2,2,80,0,1
102725,-90.9090909090909,4,2,3,80,0,1
103041,-90.9090909090909,4,2,6,80,0,1
103462,-90.9090909090909,4,2,2,80,0,1
103673,-90.9090909090909,4,2,6,80,0,1
103778,-90.9090909090909,4,2,2,80,0,1
103988,-90.9090909090909,4,2,5,80,0,1
104936,-90.9090909090909,4,2,3,80,0,1
105252,-90.9090909090909,4,2,5,80,0,1
105725,-90.9090909090909,4,2,2,80,0,1
106199,-90.9090909090909,4,2,3,80,0,1
106515,-90.9090909090909,4,2,2,80,0,1
106673,-90.9090909090909,4,2,2,40,0,1
106831,-90.9090909090909,4,2,2,45,0,1
107146,-90.9090909090909,4,2,2,50,0,1
107462,-90.9090909090909,4,2,2,55,0,1
107778,-90.9090909090909,4,2,2,60,0,1
108094,-90.9090909090909,4,2,2,65,0,1
108410,-90.9090909090909,4,2,2,70,0,1
108725,-90.9090909090909,4,2,2,75,0,1
109041,-100,4,2,1,75,0,0
109356,-100,4,2,6,75,0,0
109515,-100,4,2,2,75,0,0
109672,-100,4,2,6,75,0,0
109831,-100,4,2,2,75,0,0
109988,-100,4,2,6,75,0,0
110145,-100,4,2,2,75,0,0
110304,-100,4,2,6,75,0,0
110462,-100,4,2,2,75,0,0
110619,-100,4,2,6,75,0,0
110936,-100,4,2,6,75,0,0
111093,-100,4,2,2,75,0,0
111252,-100,4,2,6,75,0,0
111409,-100,4,2,2,75,0,0
111567,-100,4,2,6,75,0,0
112041,-100,4,2,2,75,0,0
112198,-100,4,2,6,75,0,0
112357,-100,4,2,2,75,0,0
112515,-100,4,2,6,75,0,0
112672,-100,4,2,2,75,0,0
112831,-100,4,2,6,75,0,0
112988,-100,4,2,2,75,0,0
113146,-100,4,2,6,75,0,0
113462,-100,4,2,6,75,0,0
113620,-100,4,2,2,75,0,0
113778,-100,4,2,3,75,0,0
114094,-100,4,2,2,75,0,0
114409,-100,4,2,6,75,0,0
114567,-100,4,2,2,75,0,0
114724,-100,4,2,6,75,0,0
114883,-100,4,2,2,75,0,0
115041,-100,4,2,6,75,0,0
115198,-100,4,2,2,75,0,0
115357,-100,4,2,6,75,0,0
115515,-100,4,2,2,75,0,0
115672,-100,4,2,6,75,0,0
115831,-100,4,2,2,75,0,0
117094,-100,4,2,3,75,0,0
117567,-100,4,2,5,75,0,0
118041,-100,4,2,3,75,0,0
119304,-125,4,2,3,50,0,0
120410,-111.111111111111,4,2,5,60,0,0
120725,-111.111111111111,4,2,15,60,0,0
120883,-111.111111111111,4,2,2,60,0,0
121041,-111.111111111111,4,2,15,60,0,0
121199,-111.111111111111,4,2,2,60,0,0
121356,-111.111111111111,4,2,15,60,0,0
121515,-111.111111111111,4,2,15,80,0,0
121673,-111.111111111111,4,2,15,60,0,0
121830,-111.111111111111,4,2,2,60,0,0
121988,-111.111111111111,4,2,15,60,0,0
122146,-111.111111111111,4,2,3,60,0,0
122304,-111.111111111111,4,2,15,60,0,0
122461,-111.111111111111,4,2,3,60,0,0
122620,-111.111111111111,4,2,15,60,0,0
122778,-111.111111111111,4,2,3,60,0,0
122936,-111.111111111111,4,2,17,60,0,0
123251,-111.111111111111,4,2,15,60,0,0
123410,-111.111111111111,4,2,2,60,0,0
123567,-111.111111111111,4,2,15,60,0,0
123725,-111.111111111111,4,2,2,60,0,0
123883,-111.111111111111,4,2,17,60,0,0
124040,-111.111111111111,4,2,3,60,0,0
124199,-111.111111111111,4,2,15,60,0,0
124357,-111.111111111111,4,2,1,60,0,0
124514,-111.111111111111,4,2,15,60,0,0
124673,-111.111111111111,4,2,2,60,0,0
124831,-111.111111111111,4,2,15,60,0,0
124988,-111.111111111111,4,2,3,60,0,0
125146,-111.111111111111,4,2,16,60,0,0
125224,-111.111111111111,4,2,2,60,0,0
125303,-111.111111111111,4,2,3,60,0,0
125462,-111.111111111111,4,2,5,60,0,0
125777,-111.111111111111,4,2,16,60,0,0
125936,-111.111111111111,4,2,2,60,0,0
126094,-111.111111111111,4,2,15,60,0,0
126252,-111.111111111111,4,2,1,60,0,0
126409,-111.111111111111,4,2,15,60,0,0
126567,-111.111111111111,4,2,2,60,0,0
126725,-111.111111111111,4,2,16,60,0,0
127040,-111.111111111111,4,2,15,60,0,0
127199,-111.111111111111,4,2,1,60,0,0
127357,-111.111111111111,4,2,15,60,0,0
127515,-111.111111111111,4,2,2,60,0,0
127672,-111.111111111111,4,2,15,60,0,0
127831,-111.111111111111,4,2,3,60,0,0
127988,-111.111111111111,4,2,15,60,0,0
128462,-111.111111111111,4,2,2,60,0,0
128620,-111.111111111111,4,2,15,60,0,0
128777,-111.111111111111,4,2,2,60,0,0
128936,-111.111111111111,4,2,15,60,0,0
129094,-111.111111111111,4,2,2,60,0,0
129251,-111.111111111111,4,2,15,60,0,0
129410,-111.111111111111,4,2,2,60,0,0
129567,-111.111111111111,4,2,17,60,0,0
129725,-111.111111111111,4,2,3,60,0,0
129883,-66.6666666666667,4,2,3,60,0,0
129962,-66.6666666666667,4,2,3,5,0,0
130120,-66.6666666666667,4,2,3,60,0,0
130199,-66.6666666666667,4,2,3,5,0,0
130357,-66.6666666666667,4,2,3,60,0,0
130436,-66.6666666666667,4,2,3,5,0,0
130515,-200,4,2,2,55,0,0
130672,-200,4,2,2,70,0,0
130831,-100,4,2,3,70,0,0
131146,-100,4,2,6,70,0,0
131304,-100,4,2,2,70,0,0
131461,-100,4,2,7,70,0,0
131620,-100,4,2,2,70,0,0
131778,-100,4,2,7,70,0,0
131883,-100,4,2,2,70,0,0
132094,-100,4,2,6,70,0,0
132199,-100,4,2,2,70,0,0
132410,-100,4,2,7,70,0,0
132515,-100,4,2,2,70,0,0
132725,-100,4,2,6,70,0,0
132830,-100,4,2,2,70,0,0
133041,-100,4,2,7,70,0,0
133198,-100,4,2,2,70,0,0
133357,-100,4,2,6,70,0,0
133515,-100,4,2,2,70,0,0
133831,-100,4,2,2,70,0,0
133988,-100,4,2,6,70,0,0
134146,-100,4,2,2,70,0,0
134303,-100,4,2,6,70,0,0
134462,-100,4,2,2,70,0,0
134620,-100,4,2,6,70,0,0
134778,-100,4,2,2,70,0,0
134936,-100,4,2,6,70,0,0
135173,-100,4,2,6,70,0,0
135252,-100,4,2,2,70,0,0
135410,-100,4,2,6,70,0,0
135567,-125,4,2,9,50,0,0
135724,-125,4,2,2,50,0,0
135883,-100,4,2,2,70,0,0
136198,-100,4,2,6,70,0,0
136357,-100,4,2,2,70,0,0
136514,-100,4,2,6,70,0,0
136673,-100,4,2,2,70,0,0
136831,-100,4,2,6,70,0,0
136988,-100,4,2,2,70,0,0
137146,-100,4,2,6,70,0,0
137304,-100,4,2,2,70,0,0
137461,-100,4,2,6,70,0,0
137620,-100,4,2,2,70,0,0
137777,-100,4,2,7,70,0,0
137936,-100,4,2,2,70,0,0
138410,-100,4,2,6,70,0,0
138567,-100,4,2,2,70,0,0
138724,-100,4,2,6,70,0,0
138883,-100,4,2,2,70,0,0
139041,-100,4,2,6,70,0,0
139199,-100,4,2,2,70,0,0
140093,-100,4,2,1,70,0,0
140198,-100,4,2,2,70,0,0
140409,-100,4,2,3,70,0,0
140620,-125,4,2,1,70,0,0
140936,-125,4,2,7,70,0,0
141094,-125,4,2,2,70,0,0
141567,-125,4,2,6,70,0,0
141725,-125,4,2,2,70,0,0
142199,-125,4,2,7,70,0,0
142515,-125,4,2,2,70,0,0
142831,-125,4,2,7,70,0,0
142988,-125,4,2,2,70,0,0
143146,-125,4,2,3,70,0,0
143461,-125,4,2,6,70,0,0
143620,-125,4,2,2,70,0,0
144094,-125,4,2,7,70,0,0
144410,-125,4,2,1,70,0,0
144883,-125,4,2,2,70,0,0
145357,-125,4,2,3,70,0,0
145673,-125,4,2,5,70,0,0
145988,-125,4,2,7,70,0,0
146146,-125,4,2,2,70,0,0
146619,-125,4,2,6,70,0,0
146778,-125,4,2,2,70,0,0
147251,-125,4,2,7,70,0,0
147567,-125,4,2,2,70,0,0
147883,-125,4,2,7,70,0,0
148199,-125,4,2,3,70,0,0
148515,-125,4,2,1,70,0,0
149304,-125,4,2,2,70,0,0
149620,-125,4,2,1,70,0,0
149935,-125,4,2,2,70,0,0
150251,-125,4,2,3,70,0,0
150410,-125,4,2,4,70,0,0
150725,-111.111111111111,4,2,5,70,0,0
151040,-111.111111111111,4,2,6,70,0,0
151199,-111.111111111111,4,2,2,70,0,0
151357,-111.111111111111,4,2,6,70,0,0
151672,-111.111111111111,4,2,7,70,0,0
151831,-111.111111111111,4,2,2,70,0,0
151988,-111.111111111111,4,2,6,70,0,0
152145,-111.111111111111,4,2,2,70,0,0
152304,-111.111111111111,4,2,6,70,0,0
152462,-111.111111111111,4,2,2,70,0,0
152620,-111.111111111111,4,2,6,70,0,0
152777,-111.111111111111,4,2,2,70,0,0
152936,-111.111111111111,4,2,6,70,0,0
153094,-111.111111111111,4,2,2,70,0,0
153252,-100,4,2,2,70,0,0
153725,-100,4,2,12,70,0,0
154041,-100,4,2,12,70,0,0
154357,-100,4,2,12,70,0,0
154672,-100,4,2,2,70,0,0
154831,-100,4,2,3,70,0,0
155146,-100,4,2,3,70,0,0
155540,-100,4,2,2,70,0,0
155619,-100,4,2,3,70,0,0
155698,-100,4,2,2,70,0,0
157041,-100,4,2,2,70,0,0
157594,-100,4,2,3,70,0,0
157673,-100,4,2,2,70,0,0
158304,-100,4,2,2,70,0,0
158857,-100,4,2,3,70,0,0
158936,-100,4,2,2,70,0,0
159409,-100,4,2,2,70,0,0
159567,-100,4,2,2,70,0,0
159725,-100,4,2,3,70,0,0
159883,-100,4,2,3,70,0,0
160040,-100,4,2,3,70,0,0
160199,-100,4,2,3,70,0,0
160357,-100,4,2,2,70,0,0
160515,-100,4,2,3,70,0,0
160672,-100,4,2,4,70,0,0
160831,-100,4,2,2,70,0,0
161146,-100,4,2,2,40,0,0
161462,-100,4,2,2,45,0,0
161778,-100,4,2,2,50,0,0
162094,-100,4,2,2,55,0,0
162410,-100,4,2,2,60,0,0
162725,-100,4,2,2,65,0,0
163041,-100,4,2,2,70,0,0
163357,-100,4,2,3,75,0,0
163831,-100,4,2,5,75,0,0
164304,-100,4,2,3,75,0,0
165252,-100,4,2,2,75,0,0
165330,-100,4,2,3,75,0,0
165883,-90.9090909090909,4,2,1,80,0,1
166199,-90.9090909090909,4,2,10,80,0,1
166673,-90.9090909090909,4,2,2,80,0,1
166831,-90.9090909090909,4,2,10,80,0,1
166988,-90.9090909090909,4,2,2,80,0,1
167145,-90.9090909090909,4,2,10,80,0,1
167304,-90.9090909090909,4,2,2,80,0,1
167778,-90.9090909090909,4,2,10,80,0,1
167936,-90.9090909090909,4,2,2,80,0,1
168094,-90.9090909090909,4,2,10,80,0,1
168252,-90.9090909090909,4,2,2,80,0,1
168410,-90.9090909090909,4,2,10,80,0,1
169199,-90.9090909090909,4,2,2,80,0,1
169357,-90.9090909090909,4,2,10,80,0,1
169515,-90.9090909090909,4,2,2,80,0,1
169672,-90.9090909090909,4,2,10,80,0,1
169831,-90.9090909090909,4,2,2,80,0,1
170304,-90.9090909090909,4,2,10,80,0,1
170462,-90.9090909090909,4,2,2,80,0,1
170620,-90.9090909090909,4,2,10,80,0,1
170778,-90.9090909090909,4,2,2,80,0,1
170936,-90.9090909090909,4,2,3,80,0,1
171252,-90.9090909090909,4,2,10,80,0,1
171725,-90.9090909090909,4,2,2,80,0,1
171883,-90.9090909090909,4,2,10,80,0,1
172041,-90.9090909090909,4,2,2,80,0,1
172199,-90.9090909090909,4,2,10,80,0,1
172357,-90.9090909090909,4,2,2,80,0,1
172515,-90.9090909090909,4,2,10,80,0,1
172988,-90.9090909090909,4,2,2,80,0,1
173146,-90.9090909090909,4,2,10,80,0,1
174251,-90.9090909090909,4,2,2,80,0,1
174410,-90.9090909090909,4,2,10,80,0,1
174883,-90.9090909090909,4,2,2,80,0,1
175988,-90.9090909090909,4,2,3,80,0,1
176303,-90.9090909090909,4,2,10,80,0,1
176462,-90.9090909090909,4,2,2,80,0,1
176619,-90.9090909090909,4,2,10,80,0,1
176778,-90.9090909090909,4,2,2,80,0,1
176935,-90.9090909090909,4,2,10,80,0,1
177094,-90.9090909090909,4,2,5,80,0,1
177567,-90.9090909090909,4,2,10,80,0,1
178041,-90.9090909090909,4,2,2,80,0,1
178199,-90.9090909090909,4,2,10,80,0,1
178515,-90.9090909090909,4,2,3,80,0,1
178831,-90.9090909090909,4,2,10,80,0,1
178988,-90.9090909090909,4,2,2,80,0,1
179145,-90.9090909090909,4,2,10,80,0,1
179304,-90.9090909090909,4,2,2,80,0,1
179461,-90.9090909090909,4,2,10,80,0,1
179620,-90.9090909090909,4,2,5,80,0,1
180094,-90.9090909090909,4,2,10,80,0,1
180567,-90.9090909090909,4,2,2,80,0,1
180725,-90.9090909090909,4,2,5,80,0,1
181041,-90.9090909090909,4,2,2,80,0,1
181357,-90.9090909090909,4,2,10,80,0,1
181435,-90.9090909090909,4,2,2,80,0,1
181673,-90.9090909090909,4,2,10,80,0,1
181751,-90.9090909090909,4,2,2,80,0,1
181988,-90.9090909090909,4,2,10,80,0,1
182066,-90.9090909090909,4,2,2,80,0,1
182304,-90.9090909090909,4,2,10,80,0,1
182461,-90.9090909090909,4,2,2,80,0,1
182620,-90.9090909090909,4,2,10,80,0,1
182778,-90.9090909090909,4,2,2,80,0,1
184041,-90.9090909090909,4,2,3,80,0,1
184515,-90.9090909090909,4,2,2,80,0,1
184988,-90.9090909090909,4,2,3,80,0,1
185462,-90.9090909090909,4,2,5,80,0,1
186094,-90.9090909090909,4,2,3,80,0,1
186410,-90.9090909090909,4,2,3,55,0,1
186725,-90.9090909090909,4,2,3,60,0,1
187041,-90.9090909090909,4,2,3,65,0,1
187357,-90.9090909090909,4,2,3,70,0,1
187673,-90.9090909090909,4,2,3,75,0,1
187988,-90.9090909090909,4,2,3,80,0,1
188620,-125,4,2,3,60,0,0
188936,-100,4,2,3,75,0,0
189251,-100,4,2,6,75,0,0
189410,-100,4,2,2,75,0,0
189567,-100,4,2,6,75,0,0
189883,-100,4,2,6,75,0,0
190515,-100,4,2,6,75,0,0
190672,-100,4,2,2,75,0,0
190831,-100,4,2,6,75,0,0
190988,-100,4,2,2,75,0,0
191146,-100,4,2,6,75,0,0
191252,-100,4,2,2,75,0,0
191462,-100,4,2,6,75,0,0
191568,-100,4,2,2,75,0,0
191778,-100,4,2,6,75,0,0
191884,-100,4,2,2,75,0,0
192094,-100,4,2,6,75,0,0
192200,-100,4,2,2,75,0,0
192410,-100,4,2,6,75,0,0
192567,-100,4,2,2,75,0,0
193041,-100,4,2,6,75,0,0
193199,-100,4,2,2,75,0,0
193357,-100,4,2,6,75,0,0
193515,-100,4,2,2,75,0,0
193988,-100,4,2,6,75,0,0
194146,-100,4,2,2,75,0,0
194303,-100,4,2,6,75,0,0
194462,-100,4,2,2,75,0,0
194620,-100,4,2,6,75,0,0
194936,-100,4,2,6,75,0,0
195094,-100,4,2,2,75,0,0
195251,-100,4,2,6,75,0,0
195567,-100,4,2,6,75,0,0
195724,-100,4,2,2,75,0,0
195883,-100,4,2,6,75,0,0
196199,-100,4,2,6,75,0,0
196673,-100,4,2,2,75,0,0
196830,-100,4,2,6,75,0,0
196988,-100,4,2,2,75,0,0
197146,-100,4,2,6,75,0,0
197462,-100,4,2,3,75,0,0
197778,-100,4,2,2,75,0,0
198410,-100,4,2,1,75,0,0
198725,-100,4,2,2,75,0,0
199041,-100,4,2,3,75,0,0
199356,-100,4,2,6,75,0,0
199515,-100,4,2,2,75,0,0
199673,-100,4,2,6,75,0,0
199831,-100,4,2,2,75,0,0
200146,-100,4,2,2,75,0,0
200304,-100,4,2,6,75,0,0
200462,-100,4,2,2,75,0,0
200619,-100,4,2,6,75,0,0
200778,-100,4,2,2,75,0,0
201252,-100,4,2,3,75,0,0
201567,-100,4,2,6,75,0,0
201725,-100,4,2,2,75,0,0
201882,-100,4,2,6,75,0,0
202041,-100,4,2,2,75,0,0
202198,-100,4,2,6,75,0,0
202357,-100,4,2,2,75,0,0
202831,-100,4,2,6,75,0,0
202988,-100,4,2,2,75,0,0
203146,-100,4,2,6,75,0,0
203304,-100,4,2,2,75,0,0
203778,-100,4,2,3,75,0,0
204094,-100,4,2,6,75,0,0
204252,-100,4,2,2,75,0,0
204410,-100,4,2,6,75,0,0
204567,-100,4,2,2,75,0,0
204725,-100,4,2,6,75,0,0
204883,-100,4,2,2,75,0,0
205041,-100,4,2,6,75,0,0
205199,-100,4,2,2,75,0,0
205357,-100,4,2,6,75,0,0
205515,-100,4,2,2,75,0,0
205672,-100,4,2,6,75,0,0
205831,-100,4,2,2,75,0,0
205988,-100,4,2,6,75,0,0
206145,-100,4,2,2,75,0,0
206304,-100,4,2,5,75,0,0
206936,322.58064516129,4,2,5,75,1,0
207581,309.278350515464,4,2,5,75,1,0
207735,-200,4,2,5,75,0,0
208842,324.324324324324,4,2,2,60,1,0
208842,-200,4,2,2,60,0,0
209328,307.692307692307,4,2,2,50,1,0
209328,-200,4,2,2,50,0,0
209481,307.692307692307,4,2,2,50,1,0
209788,-200,4,2,2,60,0,0
209941,-200,4,2,2,50,0,0
210115,310.880829015544,4,2,2,50,1,0
210422,310.880829015544,4,2,2,50,1,0
210732,-200,4,2,2,50,0,0
211358,315.789473684211,4,2,2,50,1,0
211358,-200,4,2,2,50,0,0
211831,-200,4,2,2,50,0,0
212621,324.324324324324,4,2,2,50,1,0
212621,-200,4,2,2,50,0,0
213107,307.692307692307,4,2,2,50,1,0
213107,-200,4,2,2,50,0,0
213918,306.122448979592,4,2,2,50,1,0
213918,-200,4,2,2,50,0,0
214683,-200,4,2,2,50,0,0
214988,-200,4,2,2,50,0,0
215142,314.13612565445,4,2,2,50,1,0
215142,-200,4,2,2,50,0,0
215770,-200,4,2,2,50,0,0
216084,-200,4,2,2,50,0,0
216398,309.278350515464,4,2,2,50,1,0
216398,-125,4,2,2,50,0,0
217016,329.670329670329,4,2,2,70,1,0
217016,-100,4,2,1,70,0,0
217345,-100,4,2,2,70,0,0
217510,-100,4,2,1,70,0,0
217675,319.148936170213,4,2,3,70,1,0
217675,-100,4,2,3,70,0,0
218313,326.086956521739,4,2,2,70,1,0
218313,-100,4,2,2,70,0,0
218946,312.5,4,2,3,70,1,0
218946,-111.111111111111,4,2,3,70,0,0
219258,-111.111111111111,4,2,7,70,0,0
219414,-111.111111111111,4,2,2,70,0,0
219571,-111.111111111111,4,2,6,70,0,0
219883,-111.111111111111,4,2,6,70,0,0
220039,-111.111111111111,4,2,2,70,0,0
220196,-111.111111111111,4,2,6,70,0,0
220821,-111.111111111111,4,2,6,70,0,0
220977,-111.111111111111,4,2,2,70,0,0
221133,-111.111111111111,4,2,6,70,0,0
221289,-111.111111111111,4,2,2,70,0,0
221456,315.789473684211,4,2,2,70,1,0
221456,-111.111111111111,4,2,2,70,0,0
221771,-111.111111111111,4,2,7,70,0,0
221929,-111.111111111111,4,2,2,70,0,0
222086,-111.111111111111,4,2,6,70,0,0
222245,-111.111111111111,4,2,2,70,0,0
222402,-111.111111111111,4,2,6,70,0,0
222561,-111.111111111111,4,2,2,70,0,0
222719,-111.111111111111,4,2,6,70,0,0
222877,-111.111111111111,4,2,2,70,0,0
223034,-111.111111111111,4,2,6,70,0,0
223192,-111.111111111111,4,2,2,70,0,0
223508,-111.111111111111,4,2,1,70,0,0
223666,-111.111111111111,4,2,2,70,0,0
223982,315.789473684211,4,2,3,70,1,0
223982,-100,4,2,3,70,0,0
224297,-100,4,2,2,35,0,0
224613,-100,4,2,2,40,0,0
224929,-100,4,2,2,45,0,0
225245,-100,4,2,2,50,0,0
225560,-100,4,2,2,55,0,0
225876,326.086956521739,4,2,2,60,1,0
225876,-100,4,2,2,60,0,0
226202,-100,4,2,2,65,0,0
226365,319.148936170213,4,2,2,65,1,0
226365,-100,4,2,2,65,0,0
226524,315.789473684211,4,2,2,70,1,0
226524,-100,4,2,2,70,0,0
226997,-100,4,2,3,70,0,0
227471,-100,4,2,5,70,0,0
227945,306.122448979592,4,2,3,70,1,0
227945,-100,4,2,3,70,0,0
228404,-100,4,2,2,70,0,0
228557,297.029702970297,4,2,2,70,1,0
228928,-100,4,2,2,50,0,0
229045,322.58064516129,4,2,2,50,1,0
229045,-125,4,2,2,50,0,0
230012,314.13612565445,4,2,2,50,1,0
230012,-125,4,2,2,50,0,0
230326,310.880829015544,4,2,3,70,1,0
230481,-100,4,2,3,50,0,0
230636,-100,4,2,3,55,0,0
230947,-100,4,2,3,60,0,0
231258,-100,4,2,3,65,0,0
231569,315.789473684211,4,2,3,70,1,0
231569,-100,4,2,3,70,0,0
232200,-100,4,2,3,70,0,0
232665,315.789473684211,4,2,2,70,1,0
232980,-100,4,2,2,70,0,0
233138,-133.333333333333,4,2,3,70,0,0
234086,322.580645161291,4,2,2,50,1,0
234086,-125,4,2,2,50,0,0
235053,312.500000000001,4,2,2,70,1,0
235209,-83.3333333333333,4,2,12,70,0,0
235521,-83.3333333333333,4,2,12,70,0,0
235834,-83.3333333333333,4,2,2,70,0,0
235990,-83.3333333333333,4,2,3,70,0,0
236146,-83.3333333333333,4,2,3,70,0,0
236303,-83.3333333333333,4,2,3,70,0,0
236615,315.789473684211,4,2,2,80,1,0
236615,-90.9090909090909,4,2,2,80,0,1
236931,-90.9090909090909,4,2,6,80,0,1
237404,-90.9090909090909,4,2,2,80,0,1
237562,-90.9090909090909,4,2,6,80,0,1
237720,-90.9090909090909,4,2,2,80,0,1
237877,-90.9090909090909,4,2,6,80,0,1
238036,-90.9090909090909,4,2,2,80,0,1
238193,-90.9090909090909,4,2,6,80,0,1
238668,-90.9090909090909,4,2,2,80,0,1
238826,-90.9090909090909,4,2,6,80,0,1
238983,-90.9090909090909,4,2,2,80,0,1
239141,-90.9090909090909,4,2,3,80,0,1
239457,-90.9090909090909,4,2,6,80,0,1
239931,-90.9090909090909,4,2,2,80,0,1
240089,-90.9090909090909,4,2,6,80,0,1
240247,-90.9090909090909,4,2,2,80,0,1
240405,-90.9090909090909,4,2,6,80,0,1
241194,-90.9090909090909,4,2,2,80,0,1
241352,-90.9090909090909,4,2,6,80,0,1
241510,-90.9090909090909,4,2,2,80,0,1
241668,-90.9090909090909,4,2,6,80,0,1
242457,-90.9090909090909,4,2,2,80,0,1
242615,-90.9090909090909,4,2,6,80,0,1
243246,-90.9090909090909,4,2,3,80,0,1
243562,-90.9090909090909,4,2,1,80,0,1
244194,-90.9090909090909,4,2,2,80,0,1
244509,-90.9090909090909,4,2,6,80,0,1
244668,-90.9090909090909,4,2,2,80,0,1
244825,-90.9090909090909,4,2,6,80,0,1
244983,-90.9090909090909,4,2,2,80,0,1
245140,-90.9090909090909,4,2,6,80,0,1
245299,-90.9090909090909,4,2,3,80,0,1
245773,-90.9090909090909,4,2,6,80,0,1
246247,-90.9090909090909,4,2,2,80,0,1
246405,-90.9090909090909,4,2,6,80,0,1
246720,-90.9090909090909,4,2,2,80,0,1
247035,-90.9090909090909,4,2,6,80,0,1
247194,-90.9090909090909,4,2,2,80,0,1
247826,-90.9090909090909,4,2,3,80,0,1
248299,-90.9090909090909,4,2,6,80,0,1
248772,-90.9090909090909,4,2,2,80,0,1
248931,-90.9090909090909,4,2,5,80,0,1
249247,-90.9090909090909,4,2,2,80,0,1
249562,-90.9090909090909,4,2,6,80,0,1
249640,-90.9090909090909,4,2,2,80,0,1
249878,-90.9090909090909,4,2,6,80,0,1
249956,-90.9090909090909,4,2,2,80,0,1
250194,-90.9090909090909,4,2,6,80,0,1
250272,-90.9090909090909,4,2,2,80,0,1
250510,-90.9090909090909,4,2,6,80,0,1
250667,-90.9090909090909,4,2,2,80,0,1
250826,-90.9090909090909,4,2,6,80,0,1
251247,-90.9090909090909,4,2,2,80,0,1
251457,-90.9090909090909,4,2,6,80,0,1
251615,-90.9090909090909,4,2,2,80,0,1
252247,-90.9090909090909,4,2,3,80,0,1
252720,-90.9090909090909,4,2,5,80,0,1
254299,-90.9090909090909,4,2,2,80,0,1
254377,-90.9090909090909,4,2,3,80,0,1
254931,-90.9090909090909,4,2,6,80,0,1
255089,-90.9090909090909,4,2,2,80,0,1
255247,-90.9090909090909,4,2,6,80,0,1
255405,-90.9090909090909,4,2,2,80,0,1
255562,-90.9090909090909,4,2,6,80,0,1
255720,-90.9090909090909,4,2,2,80,0,1
255878,-90.9090909090909,4,2,6,80,0,1
256036,-90.9090909090909,4,2,2,80,0,1
256194,-90.9090909090909,4,2,6,80,0,1
256352,-90.9090909090909,4,2,2,80,0,1
256510,-90.9090909090909,4,2,6,80,0,1
256668,-90.9090909090909,4,2,2,80,0,1
257141,-90.9090909090909,4,2,6,80,0,1
257299,-90.9090909090909,4,2,2,80,0,1
257457,-90.9090909090909,4,2,6,80,0,1
257615,-90.9090909090909,4,2,2,80,0,1
257773,-90.9090909090909,4,2,6,80,0,1
257931,-90.9090909090909,4,2,2,80,0,1
258089,-90.9090909090909,4,2,6,80,0,1
258247,-90.9090909090909,4,2,2,80,0,1
258405,-90.9090909090909,4,2,6,80,0,1
258562,-90.9090909090909,4,2,2,80,0,1
258720,-90.9090909090909,4,2,6,80,0,1
258878,-90.9090909090909,4,2,2,80,0,1
259352,-90.9090909090909,4,2,3,80,0,1
259668,-90.9090909090909,4,2,6,80,0,1
259826,-90.9090909090909,4,2,2,80,0,1
259983,-90.9090909090909,4,2,6,80,0,1
260141,-90.9090909090909,4,2,2,80,0,1
260299,-90.9090909090909,4,2,6,80,0,1
260457,-90.9090909090909,4,2,2,80,0,1
260615,-90.9090909090909,4,2,6,80,0,1
260773,-90.9090909090909,4,2,2,80,0,1
260931,-90.9090909090909,4,2,6,80,0,1
261089,-90.9090909090909,4,2,2,80,0,1
261247,-90.9090909090909,4,2,6,80,0,1
261405,-90.9090909090909,4,2,2,80,0,1
261562,-90.9090909090909,4,2,6,80,0,1
261719,-90.9090909090909,4,2,2,80,0,1
262194,-90.9090909090909,4,2,6,80,0,1
262352,-90.9090909090909,4,2,2,80,0,1
262510,-90.9090909090909,4,2,6,80,0,1
262668,-90.9090909090909,4,2,2,80,0,1
262826,-90.9090909090909,4,2,6,80,0,1
262983,-90.9090909090909,4,2,2,80,0,1
263141,-90.9090909090909,4,2,6,80,0,1
263299,-90.9090909090909,4,2,2,80,0,1
263457,-90.9090909090909,4,2,3,80,0,1
264089,-90.9090909090909,4,2,2,80,0,1
264405,-90.9090909090909,4,2,3,80,0,1
264720,-90.9090909090909,4,2,6,80,0,1
264878,-90.9090909090909,4,2,2,80,0,1
265035,-90.9090909090909,4,2,6,80,0,1
265194,-90.9090909090909,4,2,2,80,0,1
265351,-90.9090909090909,4,2,6,80,0,1
265510,-90.9090909090909,4,2,2,80,0,1
265983,-90.9090909090909,4,2,6,80,0,1
266456,-90.9090909090909,4,2,2,80,0,1
266615,-90.9090909090909,4,2,6,80,0,1
266931,-90.9090909090909,4,2,3,80,0,1
267246,-90.9090909090909,4,2,6,80,0,1
267405,-90.9090909090909,4,2,2,80,0,1
267562,-90.9090909090909,4,2,1,80,0,1
268036,-90.9090909090909,4,2,2,80,0,1
268510,-90.9090909090909,4,2,6,80,0,1
268983,-90.9090909090909,4,2,2,80,0,1
269141,-90.9090909090909,4,2,3,80,0,1
269457,-90.9090909090909,4,2,2,80,0,1
269931,-90.9090909090909,4,2,3,80,0,1
270405,-90.9090909090909,4,2,2,80,0,1
271983,-90.9090909090909,4,2,3,80,0,1
272457,-90.9090909090909,4,2,5,80,0,1
272931,-90.9090909090909,4,2,2,80,0,1
273405,-90.9090909090909,4,2,3,80,0,1
273878,-90.9090909090909,4,2,5,80,0,1
274510,-90.9090909090909,4,2,3,80,0,1
274668,-90.9090909090909,4,2,2,40,0,1
274826,-90.9090909090909,4,2,2,45,0,1
275141,-90.9090909090909,4,2,2,50,0,1
275457,-90.9090909090909,4,2,2,55,0,1
275773,-90.9090909090909,4,2,10,60,0,1
275931,-90.9090909090909,4,2,2,60,0,1
276088,-90.9090909090909,4,2,2,65,0,1
276405,-90.9090909090909,4,2,2,70,0,1
276720,-90.9090909090909,4,2,2,75,0,1
277036,-100,4,2,2,75,0,0
277351,-100,4,2,3,75,0,0
277668,-100,4,2,10,75,0,0
277825,-100,4,2,2,75,0,0
277983,-100,4,2,10,75,0,0
278299,-100,4,2,10,75,0,0
278457,-100,4,2,2,75,0,0
278615,-100,4,2,10,75,0,0
278931,-100,4,2,10,75,0,0
279088,-100,4,2,2,75,0,0
279247,-100,4,2,10,75,0,0
279562,-100,4,2,10,75,0,0
280194,-100,4,2,10,75,0,0
280352,-100,4,2,2,75,0,0
280510,-100,4,2,10,75,0,0
280826,-100,4,2,10,75,0,0
280983,-100,4,2,2,75,0,0
281141,-100,4,2,10,75,0,0
281457,-100,4,2,10,75,0,0
281615,-100,4,2,2,75,0,0
281773,-100,4,2,3,75,0,0
282089,-100,4,2,2,75,0,0
282404,-100,4,2,10,75,0,0
282562,-100,4,2,2,75,0,0
282719,-100,4,2,10,75,0,0
282878,-100,4,2,2,75,0,0
283036,-100,4,2,10,75,0,0
283352,-100,4,2,10,75,0,0
283509,-100,4,2,2,75,0,0
283668,-100,4,2,10,75,0,0
283825,-100,4,2,2,75,0,0
283983,-100,4,2,10,75,0,0
284141,-100,4,2,2,75,0,0
284299,-100,4,2,10,75,0,0
284456,-100,4,2,2,75,0,0
284615,-100,4,2,10,75,0,0
284930,-66.6666666666667,4,2,3,75,0,0
285246,-100,4,2,10,75,0,0
285404,-100,4,2,2,75,0,0
285562,-66.6666666666667,4,2,5,75,0,0
285878,-100,4,2,10,75,0,0
286035,-100,4,2,2,75,0,0
286193,-66.6666666666667,4,2,3,75,0,0
286510,-66.6666666666667,4,2,10,75,0,0
286668,-100,4,2,2,75,0,0
286825,-166.666666666667,4,2,2,75,0,0
287141,-100,4,2,3,75,0,0
287456,-100,4,2,10,75,0,0
287615,-100,4,2,2,75,0,0
287772,-100,4,2,10,75,0,0
287931,-100,4,2,2,75,0,0
288089,-100,4,2,10,75,0,0
288405,-100,4,2,10,75,0,0
288562,-100,4,2,2,75,0,0
288720,-100,4,2,10,75,0,0
288878,-100,4,2,2,75,0,0
289035,-100,4,2,10,75,0,0
289194,-100,4,2,2,75,0,0
289352,-100,4,2,10,75,0,0
289510,-100,4,2,2,75,0,0
289668,-100,4,2,10,75,0,0
289983,-100,4,2,10,75,0,0
290141,-100,4,2,2,75,0,0
290299,-100,4,2,10,75,0,0
290377,-100,4,2,2,75,0,0
290615,-100,4,2,10,75,0,0
290693,-100,4,2,2,75,0,0
290931,-100,4,2,10,75,0,0
291088,-100,4,2,2,75,0,0
291246,-100,4,2,10,75,0,0
291404,-100,4,2,2,75,0,0
291562,-100,4,2,10,75,0,0
291720,-100,4,2,2,75,0,0
291878,-100,4,2,10,75,0,0
292194,-100,4,2,3,75,0,0
292510,-100,4,2,10,75,0,0
292615,-100,4,2,2,75,0,0
292826,-100,4,2,10,75,0,0
292931,-100,4,2,2,75,0,0
293141,-100,4,2,10,75,0,0
293246,-100,4,2,2,75,0,0
293457,-100,4,2,10,75,0,0
293563,-100,4,2,2,75,0,0
293773,-100,4,2,10,75,0,0
293878,-100,4,2,2,75,0,0
294246,-100,4,2,1,75,0,0
294405,-100,4,2,2,75,0,0
295194,-100,4,2,3,75,0,0
295668,-100,4,2,5,75,0,0
296141,-100,4,2,3,75,0,0
296615,-100,4,2,5,75,0,0
297088,-277.777777777778,4,2,2,75,0,0
297562,-277.777777777778,4,2,2,65,0,0
298193,-277.777777777778,4,2,2,55,0,0
298825,-277.777777777778,4,2,2,45,0,0
299457,-277.777777777778,4,2,2,35,0,0
300088,-277.777777777778,4,2,2,25,0,0
300720,-277.777777777778,4,2,2,15,0,0
301351,-277.777777777778,4,2,2,10,0,0
306089,-277.777777777778,4,2,2,5,0,0

[Colours]
Combo1 : 254,185,56
Combo2 : 83,199,255
Combo3 : 185,64,251
Combo4 : 248,114,224

[HitObjects]
316,325,410,6,0,P|319:286|317:245,1,64,2|0,0:0|0:0,0:0:0:0:
360,161,725,1,0,0:0:0:0:
258,157,883,2,0,P|247:179|224:234,1,64,2|0,0:0|0:0,0:0:0:0:
135,291,1199,1,0,0:0:0:0:
135,291,1357,2,0,P|128:255|121:218,1,64,2|0,0:0|0:0,0:0:0:0:
231,215,1673,5,0,0:0:0:0:
122,114,1831,2,0,P|150:129|179:142,1,64,2|0,0:0|0:0,0:0:0:0:
249,66,2146,1,0,0:0:0:0:
249,66,2304,2,0,P|280:58|321:50,1,64,2|0,0:0|0:0,0:0:0:0:
409,131,2620,1,2,0:0:0:0:
398,20,2778,1,0,0:0:0:0:
321,126,2936,6,0,P|315:169|312:203,1,64,2|0,0:0|0:0,0:0:0:0:
349,291,3252,1,0,0:0:0:0:
455,200,3410,2,0,P|417:205|380:212,1,64,2|0,0:0|0:0,0:0:0:0:
285,281,3725,1,0,0:0:0:0:
285,281,3883,2,0,P|317:285|349:291,1,64,2|0,0:0|0:0,0:0:0:0:
190,354,4199,5,0,0:0:0:0:
143,258,4357,2,0,P|136:228|151:195,1,64,2|0,0:0|0:0,0:0:0:0:
256,198,4673,1,0,0:0:0:0:
178,114,4831,2,0,P|135:111|108:126,1,64,2|0,0:0|0:0,0:0:0:0:
44,205,5146,1,2,0:0:0:0:
31,107,5304,1,0,0:0:0:0:
148,198,5462,6,0,P|135:234|125:271,1,64,2|0,0:0|0:0,0:0:0:0:
159,363,5778,1,0,0:0:0:0:
246,311,5936,2,0,P|237:280|225:250,1,64,2|0,0:0|0:0,0:0:0:0:
168,137,6252,1,0,0:0:0:0:
168,137,6410,2,0,P|156:167|148:198,1,64,2|0,0:0|0:0,0:0:0:0:
258,152,6725,5,0,0:0:0:0:
337,66,6883,2,0,P|377:62|414:59,1,64,2|0,0:0|0:0,0:0:0:0:
465,177,7199,1,0,0:0:0:0:
465,177,7357,2,0,P|425:173|388:170,1,64,2|0,0:0|0:0,0:0:0:0:
313,241,7673,1,2,0:0:0:0:
409,285,7831,1,0,0:0:0:0:
323,156,7988,6,0,P|279:145|246:139,1,64,2|0,0:0|0:0,0:0:0:0:
168,222,8304,1,0,0:0:0:0:
105,75,8462,6,0,P|149:64|182:58,1,64,2|0,0:0|0:0,0:0:0:0:
260,141,8778,1,0,0:0:0:0:
167,221,8936,6,0,P|169:190|169:158,1,64,2|0,0:0|0:0,0:0:0:0:
253,49,9252,1,0,0:0:0:0:
322,126,9410,6,0,P|266:139|238:147,1,64,2|0,0:0|0:0,0:0:0:0:
336,248,9725,1,8,0:1:0:0:
336,248,9804,1,8,0:1:0:0:
336,248,9883,2,0,P|372:233|442:214,1,96,14|0,0:2|0:0,0:0:0:0:
488,166,10199,5,10,0:2:0:0:
504,134,10277,1,8,0:2:0:0:
506,98,10356,1,10,0:2:0:0:
494,65,10435,1,8,0:2:0:0:
469,39,10515,6,0,P|433:69|399:97,1,80,14|2,0:1|0:2,0:0:0:0:
426,217,10831,1,8,0:2:0:0:
311,145,10988,2,0,P|302:99|293:57,1,80,2|10,0:2|0:1,0:0:0:0:
184,209,11304,1,8,0:1:0:0:
135,67,11462,2,0,P|177:85|201:124,1,80,10|2,0:2|0:2,0:0:0:0:
286,278,11778,5,8,0:1:0:0:
167,183,11936,1,10,0:1:0:0:
323,194,12094,1,10,0:2:0:0:
184,273,12252,1,0,0:0:0:0:
284,126,12410,2,0,P|323:118|367:155,1,80,10|10,0:1|0:1,0:0:0:0:
444,257,12725,2,0,P|456:208|466:174,1,80,10|8,0:2|0:1,0:0:0:0:
374,46,13041,6,0,P|336:38|286:29,1,80,10|2,0:1|0:2,0:0:0:0:
164,107,13357,1,8,0:2:0:0:
261,202,13515,2,0,P|276:153|287:112,1,80,2|10,0:2|0:1,0:0:0:0:
331,291,13831,1,8,0:1:0:0:
191,288,13988,2,0,P|182:243|176:209,1,80,10|2,0:2|0:2,0:0:0:0:
54,86,14304,5,8,0:1:0:0:
89,238,14462,1,10,0:1:0:0:
172,94,14620,1,10,0:2:0:0:
21,202,14778,1,0,0:0:0:0:
176,209,14936,1,10,0:1:0:0:
54,86,15094,1,10,0:1:0:0:
54,86,15173,1,10,0:1:0:0:
54,86,15252,2,0,P|102:73|145:63,1,80,14|0,0:2|0:0,0:0:0:0:
375,13,15567,6,0,P|353:85|330:171,1,160,14|8,0:1|0:2,0:0:0:0:
381,309,16041,2,0,P|335:296|282:286,1,80,2|10,0:2|0:1,0:0:0:0:
182,344,16357,1,8,0:1:0:0:
170,216,16515,2,0,P|216:203|269:193,1,80,10|2,0:2|0:2,0:0:0:0:
388,81,16831,5,8,0:1:0:0:
336,245,16988,1,10,0:1:0:0:
474,149,17146,1,10,0:2:0:0:
293,112,17304,1,0,0:0:0:0:
392,241,17462,5,10,0:1:0:0:
469,71,17620,1,10,0:3:0:0:
293,112,17778,2,0,P|336:120|376:130,1,80,10|10,0:2|0:1,0:0:0:0:
177,263,18094,5,14,0:2:0:0:
147,62,18252,1,10,0:1:0:0:
37,211,18410,1,8,0:1:0:0:
218,99,18567,5,14,0:2:0:0:
81,308,18725,1,10,0:1:0:0:
68,76,18883,1,8,0:1:0:0:
288,154,19041,5,14,0:2:0:0:
35,177,19199,1,10,0:1:0:0:
242,313,19357,1,8,0:1:0:0:
144,85,19515,5,14,0:2:0:0:
242,313,19673,1,10,0:1:0:0:
35,177,19831,1,8,0:1:0:0:
310,253,19988,5,10,0:2:0:0:
72,368,20146,1,10,0:2:0:0:
335,242,20304,5,10,0:2:0:0:
45,156,20462,1,10,0:2:0:0:
216,335,20620,6,0,P|213:263|208:192,1,143.999995605469,14|10,0:1|0:1,0:0:0:0:
316,120,21094,2,0,P|309:170|303:216,1,71.9999978027344,2|8,0:2|0:1,0:0:0:0:
334,305,21410,1,0,0:0:0:0:
425,158,21567,6,0,P|366:142|303:198,1,143.999995605469,10|10,0:1|0:1,0:0:0:0:
188,259,22041,2,0,P|199:209|202:169,1,71.9999978027344,2|8,0:2|0:1,0:0:0:0:
155,78,22357,1,2,0:2:0:0:
55,107,22515,2,0,P|51:165|50:194,1,71.9999978027344,10|0,0:1|0:0,0:0:0:0:
87,291,22831,1,10,0:1:0:0:
87,291,22988,1,8,0:2:0:0:
201,188,23146,6,0,B|278:165|269:218|368:184,1,143.999995605469,10|10,0:1|0:1,0:0:0:0:
268,335,23620,2,0,P|252:292|242:266,1,71.9999978027344,2|8,0:2|0:1,0:0:0:0:
342,191,23936,2,0,P|349:155|357:120,1,71.9999978027344,2|8,0:3|0:1,0:0:0:0:
295,24,24252,1,2,0:2:0:0:
256,169,24410,5,8,0:1:0:0:
322,264,24567,2,0,P|375:271|406:276,1,71.9999978027344,0|8,0:0|0:1,0:0:0:0:
449,368,24883,1,8,0:2:0:0:
436,186,25041,5,10,0:1:0:0:
355,350,25199,1,10,0:2:0:0:
336,177,25357,1,10,0:1:0:0:
210,290,25515,5,10,0:2:0:0:
210,290,25594,1,10,0:2:0:0:
210,290,25673,2,0,B|177:311|177:311|132:290|75:310,1,143.999995605469,14|10,0:1|0:1,0:0:0:0:
5,231,26146,2,0,P|10:195|18:160,1,71.9999978027344,2|8,0:2|0:1,0:0:0:0:
81,62,26462,1,2,0:2:0:0:
168,143,26620,2,0,P|130:173|103:197,1,71.9999978027344,8|10,0:1|0:2,0:0:0:0:
92,211,26857,5,8,0:2:0:0:
92,211,26936,1,8,0:1:0:0:
167,60,27094,1,0,0:0:0:0:
242,161,27252,1,8,0:1:0:0:
314,55,27410,2,0,P|266:54|237:79,1,71.9999978027344,8|10,0:2|0:1,0:0:0:0:
330,177,27725,1,10,0:2:0:0:
390,22,27883,1,10,0:1:0:0:
408,208,28041,5,10,0:3:0:0:
408,208,28120,1,10,0:3:0:0:
408,208,28199,2,0,P|366:191|252:147,1,143.999995605469,14|10,0:1|0:1,0:0:0:0:
241,142,28594,1,2,0:0:0:0:
241,142,28673,2,0,P|237:187|240:226,1,71.9999978027344,2|8,0:2|0:1,0:0:0:0:
343,279,28988,2,0,P|346:314|345:350,1,71.9999978027344,2|8,0:2|0:1,0:0:0:0:
459,193,29304,5,10,0:2:0:0:
459,193,29383,1,8,0:2:0:0:
459,193,29462,1,8,0:1:0:0:
338,103,29620,1,8,0:3:0:0:
338,103,29699,1,8,0:3:0:0:
338,103,29778,1,10,0:3:0:0:
483,50,29936,1,8,0:1:0:0:
312,195,30094,6,0,P|255:183|212:218,1,95.9999970703126,10|2,0:2|0:2,0:0:0:0:
270,304,30331,2,0,L|149:287,1,111.999996582031,10|0,0:2|0:0,0:0:0:0:
61,359,30567,2,0,P|59:329|70:285,1,64,10|0,0:2|0:0,0:0:0:0:
31,104,30725,6,0,P|78:112|211:122,1,160,12|10,0:1|0:2,0:0:0:0:
333,47,31199,2,0,P|315:86|300:129,1,80,2|8,0:2|0:1,0:0:0:0:
333,238,31515,1,8,0:1:0:0:
474,111,31673,2,0,P|424:124|389:136,1,80,2|8,0:3|0:2,0:0:0:0:
362,336,31988,5,2,0:3:0:0:
255,256,32146,2,0,P|305:243|345:235,1,80,10|8,0:1|0:2,0:0:0:0:
262,361,32462,1,2,0:2:0:0:
177,277,32620,2,0,P|178:237|196:202,1,80,10|8,0:1|0:1,0:0:0:0:
274,96,32936,1,10,0:2:0:0:
135,56,33094,5,0,0:0:0:0:
135,56,33173,1,0,0:0:0:0:
135,56,33252,2,0,P|80:37|12:117,1,160,10|10,0:1|0:2,0:0:0:0:
85,229,33725,2,0,P|91:171|98:129,1,80,2|8,0:2|0:1,0:0:0:0:
208,228,34041,2,0,P|213:267|217:307,1,80,10|2,0:1|0:3,0:0:0:0:
316,131,34357,6,0,B|405:108|386:167|496:124,1,160,10|8,0:2|0:1,0:0:0:0:
355,281,34831,2,0,B|370:235|370:235|351:205,1,80,8|0,0:2|0:0,0:0:0:0:
464,336,35146,1,10,0:1:0:0:
451,207,35304,1,8,0:1:0:0:
357,362,35462,1,10,0:2:0:0:
318,355,35540,1,8,0:2:0:0:
287,329,35619,1,8,0:2:0:0:
274,292,35698,1,8,0:2:0:0:
272,252,35778,6,0,P|222:235|131:288,1,160,14|10,0:1|0:2,0:0:0:0:
61,189,36252,2,0,P|96:182|127:143,1,80,2|8,0:2|0:1,0:0:0:0:
260,87,36567,2,0,P|233:127|215:173,1,80,10|2,0:1|0:3,0:0:0:0:
133,283,36883,6,0,P|208:253|287:224,1,160,10|8,0:2|0:1,0:0:0:0:
405,308,37357,2,0,P|347:306|309:310,1,80,10|0,0:2|0:0,0:0:0:0:
200,345,37673,1,10,0:1:0:0:
282,225,37831,1,8,0:1:0:0:
286,375,37988,1,10,0:2:0:0:
179,195,38146,5,2,0:3:0:0:
179,195,38225,1,2,0:3:0:0:
179,195,38304,2,0,B|125:169|125:169|78:175|78:175|19:150,1,160,10|8,0:1|0:2,0:0:0:0:
107,22,38778,2,0,P|81:65|90:106,1,80,2|8,0:2|0:1,0:0:0:0:
207,58,39094,1,8,0:1:0:0:
116,172,39252,1,2,0:3:0:0:
298,147,39410,6,0,B|408:121|408:121|438:156,1,160,8|8,0:2|0:1,0:0:0:0:
398,318,39883,2,0,P|387:271|379:219,1,80,12|8,0:2|0:1,0:0:0:0:
194,282,40199,5,10,0:2:0:0:
323,121,40357,1,8,0:3:0:0:
309,298,40515,5,10,0:3:0:0:
216,155,40673,1,8,0:3:0:0:
189,306,40831,6,0,P|144:291|47:264,1,143.999995605469,14|14,0:1|0:3,0:0:0:0:
0,169,41304,1,2,0:2:0:0:
121,108,41462,2,0,P|120:142|114:188,1,71.9999978027344,6|10,0:3|0:3,0:0:0:0:
51,264,41778,1,4,0:3:0:0:
145,291,41936,2,0,P|185:279|219:270,1,71.9999978027344,14|4,0:2|0:3,0:0:0:0:
353,330,42252,5,0,0:0:0:0:
307,193,42410,2,0,P|351:190|389:188,1,71.9999978027344,14|0,0:3|0:0,0:0:0:0:
476,125,42725,2,0,P|485:162|480:210,1,71.9999978027344,6|8,0:3|0:3,0:0:0:0:
468,287,43041,1,6,0:3:0:0:
378,188,43199,1,8,0:3:0:0:
256,347,43357,6,0,P|291:308|337:329,1,107.999996704102,14|0,0:1|0:0,0:0:0:0:
353,350,43673,2,0,P|367:294|373:272,1,71.9999978027344,12|2,0:3|0:2,0:0:0:0:
303,172,43988,1,4,0:3:0:0:
293,285,44146,1,8,0:3:0:0:
388,185,44304,1,6,0:3:0:0:
224,213,44462,2,0,P|215:178|206:143,1,71.9999978027344,12|6,0:2|0:3,0:0:0:0:
372,47,44778,5,8,0:3:0:0:
364,154,44936,2,0,P|314:135|289:125,1,71.9999978027344,4|10,0:3|0:3,0:0:0:0:
226,47,45252,2,0,P|192:60|158:72,1,71.9999978027344,4|8,0:3|0:3,0:0:0:0:
65,166,45567,1,6,0:3:0:0:
56,45,45725,1,8,0:3:0:0:
204,170,45883,6,0,B|122:194|134:140|64:165,1,143.999995605469,14|14,0:1|0:3,0:0:0:0:
0,267,46357,1,0,0:0:0:0:
98,232,46515,1,6,0:3:0:0:
0,194,46673,2,0,P|-7:161|11:119,1,71.9999978027344,10|4,0:3|0:3,0:0:0:0:
98,232,46988,2,0,P|110:265|103:300,1,71.9999978027344,14|4,0:2|0:3,0:0:0:0:
254,186,47304,5,0,0:0:0:0:
286,287,47462,2,0,P|333:280|406:270,1,107.999996704102,14|0,0:3|0:0,0:0:0:0:
423,265,47778,2,0,P|424:308|418:346,1,71.9999978027344,6|8,0:3|0:3,0:0:0:0:
286,287,48094,1,6,0:3:0:0:
342,378,48252,1,8,0:3:0:0:
464,195,48410,6,0,P|389:193|336:273,1,143.999995605469,14|4,0:1|0:3,0:0:0:0:
423,265,48883,1,10,0:3:0:0:
464,123,49041,2,0,P|465:170|463:205,1,71.9999978027344,6|8,0:3|0:3,0:0:0:0:
407,290,49357,1,4,0:3:0:0:
310,186,49515,6,0,P|355:173|394:162,1,71.9999978027344,12|4,0:2|0:3,0:0:0:0:
229,104,49831,1,0,0:0:0:0:
273,256,49988,1,12,0:3:0:0:
328,84,50146,5,8,0:3:0:0:
328,84,50225,1,8,0:3:0:0:
328,84,50304,1,14,0:3:0:0:
166,257,50462,1,8,0:3:0:0:
138,62,50620,5,6,0:3:0:0:
309,263,50778,1,8,0:3:0:0:
166,257,50936,6,0,P|186:196|208:136,1,128,14|2,0:1|0:3,0:0:0:0:
310,71,51410,2,0,P|240:58|162:37,1,128,2|0,0:2|0:0,0:0:0:0:
275,164,51883,1,2,0:3:0:0:
310,71,52041,1,8,0:1:0:0:
381,134,52199,6,0,P|335:120|272:170,1,128,10|2,0:1|0:3,0:0:0:0:
235,264,52673,2,0,P|286:263|377:268,1,128,2|8,0:2|0:1,0:0:0:0:
148,346,53146,2,0,P|151:298|148:245,1,96,14|0,0:2|0:0,0:0:0:0:
96,157,53462,6,0,P|170:165|216:114,1,143.999995605469,14|8,0:1|0:2,0:0:0:0:
277,23,53936,2,0,P|311:51|341:78,1,71.9999978027344,10|0,0:1|0:0,0:0:0:0:
436,113,54252,2,0,P|417:143|381:159,1,71.9999978027344,10|0,0:1|0:0,0:0:0:0:
238,260,54567,6,0,P|228:212|212:100,1,143.999995605469,10|8,0:1|0:1,0:0:0:0:
75,83,55041,2,0,P|86:128|94:162,1,71.9999978027344,14|0,0:2|0:0,0:0:0:0:
75,296,55357,1,10,0:1:0:0:
104,276,55435,1,8,0:2:0:0:
139,275,55514,1,8,0:2:0:0:
169,294,55593,1,8,0:2:0:0:
193,323,55673,1,10,0:1:0:0:
221,344,55751,1,8,0:2:0:0:
256,347,55830,1,8,0:2:0:0:
287,331,55909,1,8,0:2:0:0:
305,300,55988,6,0,P|335:238|416:244,1,143.999995605469,14|8,0:1|0:1,0:0:0:0:
320,92,56462,2,0,P|297:142|287:175,1,71.9999978027344,2|8,0:2|0:1,0:0:0:0:
379,303,56778,1,0,0:0:0:0:
391,155,56936,1,10,0:1:0:0:
278,240,57094,1,12,0:2:0:0:
206,134,57252,6,0,P|193:174|182:215,1,71.9999978027344,8|0,0:1|0:0,0:0:0:0:
56,312,57567,2,0,P|52:276|47:235,1,71.9999978027344,8|8,0:1|0:3,0:0:0:0:
110,125,57883,1,10,0:1:0:0:
133,265,58041,1,10,0:3:0:0:
22,156,58199,1,10,0:1:0:0:
185,202,58357,1,8,0:3:0:0:
248,47,58515,6,0,P|311:52|409:60,1,143.999995605469,12|10,0:1|0:1,0:0:0:0:
470,176,58988,2,0,P|420:160|389:153,1,71.9999978027344,2|8,0:2|0:1,0:0:0:0:
300,276,59304,1,14,0:2:0:0:
295,126,59462,1,8,0:1:0:0:
405,254,59620,1,2,0:2:0:0:
190,326,59778,6,0,P|191:282|197:246,1,71.9999978027344,8|0,0:1|0:0,0:0:0:0:
79,157,60094,1,10,0:1:0:0:
26,245,60252,2,0,P|53:270|78:297,1,71.9999978027344,8|10,0:3|0:1,0:0:0:0:
173,171,60567,1,8,0:3:0:0:
173,171,60646,1,8,0:3:0:0:
173,171,60725,2,0,P|230:160|256:156,1,71.9999978027344,10|8,0:1|0:3,0:0:0:0:
379,263,61041,5,14,0:1:0:0:
351,83,61199,1,0,0:0:0:0:
465,206,61357,1,8,0:2:0:0:
243,157,61515,1,10,0:2:0:0:
443,292,61673,5,10,0:2:0:0:
239,297,61831,1,8,0:2:0:0:
407,131,61988,1,8,0:2:0:0:
340,351,62146,1,10,0:2:0:0:
180,129,62304,5,10,0:2:0:0:
229,363,62462,1,8,0:2:0:0:
329,136,62620,1,10,0:2:0:0:
126,308,62778,1,10,0:2:0:0:
223,102,62936,5,8,0:2:0:0:
311,331,63094,1,10,0:2:0:0:
364,82,63252,1,8,0:2:0:0:
77,230,63410,1,10,0:2:0:0:
290,44,63567,5,14,0:1:0:0:
158,298,63725,1,0,0:0:0:0:
158,298,63883,1,8,0:2:0:0:
456,151,64041,5,14,0:1:0:0:
96,56,64199,1,0,0:0:0:0:
96,56,64357,1,8,0:1:0:0:
347,318,64515,5,10,0:2:0:0:
252,17,64673,1,8,0:1:0:0:
158,298,64831,5,10,0:2:0:0:
447,52,64988,1,10,0:2:0:0:
30,330,65620,5,10,0:1:0:0:
30,330,65699,1,10,0:1:0:0:
30,330,65778,2,0,B|140:300|108:354|218:320,1,180.000006866455,14|0,0:2|0:0,0:0:0:0:
168,243,66094,6,0,P|174:199|182:156,1,88.000002685547,14|0,0:1|0:0,0:0:0:0:
377,90,66410,2,0,P|341:135|316:167,1,88.000002685547,10|0,0:2|0:0,0:0:0:0:
344,320,66725,1,10,0:1:0:0:
252,138,66883,1,8,0:1:0:0:
438,205,67041,1,10,0:2:0:0:
207,323,67199,6,0,P|162:334|114:304,1,88.000002685547,2|8,0:2|0:1,0:0:0:0:
7,171,67515,2,0,B|70:157|70:157|177:206,1,176.000005371094,10|0,0:1|0:0,0:0:0:0:
388,256,67988,5,10,0:1:0:0:
297,60,68146,1,10,0:1:0:0:
250,281,68304,1,10,0:2:0:0:
416,107,68462,1,2,0:2:0:0:
360,331,68620,6,0,P|295:326|248:277,1,132.00000402832,10|0,0:1|0:0,0:0:0:0:
242,247,68936,2,0,P|194:283|166:303,1,88.000002685547,10|0,0:2|0:0,0:0:0:0:
15,230,69252,1,10,0:1:0:0:
86,384,69410,1,8,0:1:0:0:
141,192,69567,1,10,0:2:0:0:
273,338,69725,6,0,P|314:308|351:275,1,88.000002685547,2|8,0:2|0:1,0:0:0:0:
505,186,70041,2,0,P|465:270|434:360,1,176.000005371094,10|0,0:1|0:0,0:0:0:0:
256,223,70515,5,10,0:1:0:0:
70,103,70673,1,10,0:1:0:0:
140,291,70831,1,10,0:2:0:0:
163,69,70988,1,2,0:2:0:0:
225,305,71146,6,0,P|242:252|263:206,1,88.000002685547,14|0,0:1|0:0,0:0:0:0:
70,103,71462,2,0,P|90:145|111:195,1,88.000002685547,10|0,0:2|0:0,0:0:0:0:
239,59,71778,2,0,P|186:49|157:82,1,88.000002685547,10|8,0:1|0:1,0:0:0:0:
254,222,72094,1,10,0:2:0:0:
24,83,72252,6,0,P|46:136|98:257,1,176.000005371094,2|8,0:2|0:1,0:0:0:0:
184,359,72725,2,0,P|193:309|205:261,1,88.000002685547,10|0,0:2|0:0,0:0:0:0:
310,160,73041,1,10,0:1:0:0:
284,343,73199,1,8,0:1:0:0:
284,343,73278,1,0,0:0:0:0:
284,343,73357,1,10,0:2:0:0:
201,181,73515,1,8,0:1:0:0:
371,266,73673,6,0,P|413:277|492:180,1,176.000005371094,10|8,0:1|0:2,0:0:0:0:
362,348,74146,1,0,0:0:0:0:
411,199,74304,2,0,P|407:155|402:111,1,88.000002685547,10|8,0:1|0:1,0:0:0:0:
274,199,74620,2,0,P|269:242|265:286,1,88.000002685547,8|0,0:2|0:0,0:0:0:0:
162,98,74936,5,10,0:1:0:0:
180,271,75094,1,8,0:1:0:0:
258,114,75252,1,8,0:2:0:0:
93,204,75410,1,8,0:1:0:0:
196,11,75567,5,14,0:2:0:0:
343,183,75725,1,8,0:1:0:0:
78,106,75883,1,8,0:2:0:0:
319,38,76041,5,8,0:2:0:0:
319,38,76120,1,8,0:2:0:0:
319,38,76199,2,0,B|292:124|372:118|332:222,1,176.000005371094,14|10,0:1|0:2,0:0:0:0:
464,44,76673,2,0,P|416:46|391:78,1,88.000002685547,2|8,0:2|0:1,0:0:0:0:
192,205,76988,2,0,P|234:206|264:175,1,88.000002685547,10|8,0:1|0:2,0:0:0:0:
484,325,77304,6,0,P|428:312|298:289,1,176.000005371094,14|8,0:1|0:1,0:0:0:0:
147,361,77778,2,0,P|151:307|161:259,1,88.000002685547,10|0,0:2|0:0,0:0:0:0:
117,173,78015,1,0,0:0:0:0:
117,173,78094,2,0,P|162:183|216:192,1,88.000002685547,10|8,0:1|0:1,0:0:0:0:
228,324,78410,1,10,0:2:0:0:
297,157,78567,1,0,0:0:0:0:
56,229,78725,6,0,P|38:186|125:94,1,176.000005371094,14|10,0:1|0:2,0:0:0:0:
294,67,79199,2,0,P|244:74|215:114,1,88.000002685547,2|8,0:2|0:1,0:0:0:0:
281,243,79515,2,0,P|290:186|299:143,1,88.000002685547,10|8,0:1|0:2,0:0:0:0:
478,60,79831,6,0,P|452:126|408:236,1,176.000005371094,14|8,0:1|0:1,0:0:0:0:
352,384,80304,1,10,0:2:0:0:
475,272,80462,1,0,0:0:0:0:
259,345,80620,1,10,0:1:0:0:
483,384,80778,1,8,0:1:0:0:
373,129,80936,2,0,P|321:133|287:174,1,88.000002685547,14|0,0:2|0:0,0:0:0:0:
159,309,81252,2,0,P|170:252|190:164,1,132.00000402832,14|0,0:1|0:0,0:0:0:0:
193,135,81567,5,10,0:2:0:0:
160,105,81645,1,2,0:2:0:0:
118,95,81724,1,2,0:2:0:0:
76,106,81803,1,2,0:2:0:0:
44,136,81883,2,0,P|32:166|40:198,1,44.0000013427735,10|2,0:1|0:2,0:0:0:0:
159,309,82041,2,0,P|165:260|160:249,1,44.0000013427735,10|2,0:1|0:2,0:0:0:0:
275,184,82199,6,0,L|269:214,6,22.0000006713867,10|0|2|0|2|0|2,0:2|0:0|0:2|0:0|0:2|0:0|0:2,0:0:0:0:
283,158,82515,6,0,P|324:167|344:216,1,88.000002685547,10|8,0:1|0:1,0:0:0:0:
413,344,82831,2,0,P|372:323|327:304,1,88.000002685547,10|0,0:2|0:0,0:0:0:0:
391,103,83146,5,10,0:1:0:0:
432,186,83252,2,0,P|427:222|430:249,1,58.6666684570313,2|2,0:2|0:2,0:0:0:0:
244,279,83462,5,10,0:2:0:0:
336,364,83568,2,0,P|331:328|334:301,1,58.6666684570313,2|2,0:2|0:2,0:0:0:0:
197,123,83778,6,0,B|153:114|153:114|106:138,1,80,14|0,0:1|0:0,0:0:0:0:
5,157,84094,1,10,0:2:0:0:
167,264,84252,1,2,0:2:0:0:
61,68,84410,1,8,0:1:0:0:
12,277,84567,2,0,P|63:246|92:231,1,80,10|8,0:1|0:2,0:0:0:0:
197,123,84883,1,2,0:2:0:0:
422,138,85041,5,8,0:1:0:0:
275,300,85199,1,8,0:1:0:0:
318,68,85357,1,8,0:2:0:0:
429,292,85515,1,8,0:1:0:0:
139,296,85673,5,10,0:1:0:0:
139,296,85752,1,8,0:2:0:0:
139,296,85831,2,0,P|152:258|157:227,1,40,10|8,0:2|0:2,0:0:0:0:
142,101,85988,2,0,P|180:114|211:119,1,40,10|8,0:2|0:2,0:0:0:0:
342,88,86146,2,0,P|329:126|324:157,1,40,10|8,0:2|0:2,0:0:0:0:
374,275,86304,6,0,P|338:248|292:240,1,88.000002685547,14|0,0:1|0:0,0:0:0:0:
439,383,86620,5,10,0:2:0:0:
342,88,86778,1,0,0:0:0:0:
256,353,86936,5,10,0:2:0:0:
494,151,87094,1,8,0:1:0:0:
213,264,87252,6,0,P|208:225|220:200,1,44.0000013427735,10|0,0:2|0:0,0:0:0:0:
212,91,87410,2,0,P|166:106|123:119,1,88.000002685547,10|8,0:1|0:2,0:0:0:0:
24,288,87725,2,0,P|74:267|129:281,1,88.000002685547,2|8,0:2|0:2,0:0:0:0:
212,91,88041,1,8,0:1:0:0:
193,351,88199,5,10,0:2:0:0:
295,50,88357,1,10,0:1:0:0:
346,270,88515,1,10,0:2:0:0:
131,166,88673,5,10,0:1:0:0:
131,166,88752,1,10,0:1:0:0:
131,166,88831,2,0,P|199:145|221:137,1,88.000002685547,14|0,0:2|0:0,0:0:0:0:
434,18,89146,5,10,0:2:0:0:
325,324,89304,1,0,0:0:0:0:
298,15,89462,5,10,0:2:0:0:
452,280,89620,1,8,0:1:0:0:
178,175,89778,6,0,P|212:162|234:157,1,44.0000013427735,10|0,0:2|0:0,0:0:0:0:
408,136,89936,2,0,P|387:183|375:221,1,88.000002685547,10|8,0:1|0:2,0:0:0:0:
212,350,90252,2,0,P|215:301|213:255,1,88.000002685547,2|8,0:2|0:2,0:0:0:0:
344,344,90567,1,8,0:1:0:0:
300,121,90725,5,10,0:2:0:0:
121,313,90883,1,10,0:1:0:0:
195,48,91041,1,10,0:2:0:0:
82,234,91199,5,10,0:1:0:0:
82,234,91278,1,10,0:1:0:0:
82,234,91357,2,0,P|128:221|174:239,1,88.000002685547,14|0,0:2|0:0,0:0:0:0:
374,352,91673,5,10,0:2:0:0:
310,57,91831,1,0,0:0:0:0:
240,337,91988,5,10,0:2:0:0:
486,101,92146,1,8,0:1:0:0:
485,359,92304,5,10,0:2:0:0:
253,117,92462,1,10,0:1:0:0:
362,351,92620,6,0,P|369:300|379:255,1,88.000002685547,8|0,0:2|0:0,0:0:0:0:
140,108,92936,2,0,P|148:151|154:194,1,88.000002685547,10|8,0:2|0:1,0:0:0:0:
385,58,93252,5,10,0:2:0:0:
254,344,93410,1,8,0:1:0:0:
240,38,93567,5,10,0:2:0:0:
450,301,93725,1,8,0:1:0:0:
54,132,93883,6,0,P|67:173|82:215,1,88.000002685547,10|0,0:2|0:0,0:0:0:0:
326,94,94199,2,0,P|340:52|354:10,1,88.000002685547,8|8,0:2|0:1,0:0:0:0:
400,356,94515,5,10,0:2:0:0:
354,10,94673,1,8,0:1:0:0:
460,255,94831,5,8,0:2:0:0:
219,39,94988,1,8,0:1:0:0:
303,324,95146,6,0,P|318:282|299:238,1,88.000002685547,10|8,0:2|0:1,0:0:0:0:
32,288,95462,5,12,0:2:0:0:
267,92,95620,1,8,0:1:0:0:
169,342,95778,5,10,0:1:0:0:
189,303,95856,1,8,0:2:0:0:
182,261,95935,1,8,0:2:0:0:
151,230,96014,1,8,0:2:0:0:
109,214,96094,1,8,0:1:0:0:
62,188,96172,1,8,0:2:0:0:
38,140,96251,1,8,0:2:0:0:
48,87,96330,1,8,0:2:0:0:
87,50,96410,6,0,B|194:28|162:91|272:69,1,176.000005371094,14|10,0:1|0:2,0:0:0:0:
419,45,96883,2,0,P|394:89|377:125,1,88.000002685547,2|8,0:2|0:1,0:0:0:0:
311,255,97199,2,0,P|279:202|259:173,1,88.000002685547,10|8,0:1|0:2,0:0:0:0:
71,240,97515,6,0,P|162:243|197:317,1,176.000005371094,14|8,0:1|0:1,0:0:0:0:
5,281,97988,2,0,P|-4:225|23:184,1,88.000002685547,10|0,0:2|0:0,0:0:0:0:
107,315,98304,1,10,0:1:0:0:
73,134,98462,1,8,0:1:0:0:
73,134,98541,1,0,0:0:0:0:
73,134,98620,2,0,P|116:109|158:82,1,88.000002685547,10|0,0:2|0:0,0:0:0:0:
348,45,98936,6,0,P|297:95|219:172,1,176.000005371094,14|10,0:1|0:2,0:0:0:0:
387,163,99410,2,0,P|426:141|431:95,1,88.000002685547,2|8,0:2|0:1,0:0:0:0:
226,19,99725,2,0,P|183:33|170:82,1,88.000002685547,10|8,0:1|0:2,0:0:0:0:
65,263,100041,6,0,B|175:291|139:212|248:238,1,176.000005371094,14|8,0:1|0:1,0:0:0:0:
387,163,100515,2,0,B|359:206|359:206|377:245,1,88.000002685547,10|0,0:2|0:0,0:0:0:0:
472,77,100831,1,10,0:1:0:0:
465,266,100988,1,8,0:1:0:0:
354,91,101146,1,14,0:2:0:0:
512,198,101304,1,0,0:0:0:0:
345,336,101462,6,0,P|302:312|219:349,1,132.00000402832,14|0,0:1|0:0,0:0:0:0:
142,360,101778,6,0,P|151:312|153:294,1,44.0000013427735,10|2,0:2|0:2,0:0:0:0:
31,165,101936,2,0,P|44:211|48:233,1,44.0000013427735,2|2,0:2|0:2,0:0:0:0:
0,323,102094,6,0,P|48:332|66:334,1,44.0000013427735,10|2,0:1|0:2,0:0:0:0:
203,190,102252,2,0,P|157:203|135:207,1,44.0000013427735,10|2,0:1|0:2,0:0:0:0:
125,71,102410,6,0,L|121:92,6,22.0000006713867,10|0|2|0|2|0|2,0:2|0:0|0:2|0:0|0:2|0:0|0:2,0:0:0:0:
128,35,102725,6,0,P|180:24|252:66,1,132.00000402832,14|0,0:1|0:0,0:0:0:0:
292,140,103041,2,0,P|244:135|201:130,1,88.000002685547,10|0,0:2|0:0,0:0:0:0:
60,330,103357,5,10,0:1:0:0:
140,292,103462,2,0,P|146:246|140:229,1,58.6666684570313,2|2,0:2|0:2,0:0:0:0:
96,75,103673,5,10,0:2:0:0:
32,125,103778,2,0,P|27:153|34:181,1,58.6666684570313,2|2,0:2|0:2,0:0:0:0:
284,93,103988,6,0,P|236:114|198:134,1,88.000002685547,14|8,0:2|0:1,0:0:0:0:
318,328,104304,1,10,0:1:0:0:
361,63,104462,6,0,B|333:28|333:28|277:11,1,88.000002685547,14|8,0:2|0:1,0:0:0:0:
208,276,104778,1,10,0:1:0:0:
379,156,104936,6,0,P|424:135|468:112,1,88.000002685547,12|10,0:2|0:1,0:0:0:0:
336,331,105252,5,14,0:2:0:0:
256,97,105410,1,8,0:1:0:0:
157,345,105567,1,8,0:1:0:0:
82,64,105725,5,12,0:2:0:0:
39,302,105883,2,0,P|71:258|94:228,1,88.000002685547,10|10,0:1|0:1,0:0:0:0:
283,245,106199,1,14,0:2:0:0:
56,145,106357,1,8,0:1:0:0:
226,342,106515,5,14,0:2:0:0:
177,71,106673,1,8,0:2:0:0:
315,255,106831,5,10,0:2:0:0:
108,203,106988,1,10,0:2:0:0:
354,116,107146,5,8,0:2:0:0:
66,95,107304,1,10,0:2:0:0:
254,280,107462,5,8,0:2:0:0:
208,14,107620,1,10,0:2:0:0:
103,290,107778,5,10,0:2:0:0:
376,56,107936,1,8,0:2:0:0:
252,343,108094,5,8,0:2:0:0:
465,125,108252,1,8,0:2:0:0:
138,290,108410,5,10,0:2:0:0:
169,260,108488,1,8,0:2:0:0:
212,260,108567,1,8,0:2:0:0:
243,290,108646,1,8,0:2:0:0:
279,328,108725,5,10,0:2:0:0:
334,355,108803,1,8,0:2:0:0:
397,348,108882,1,8,0:2:0:0:
443,307,108961,1,8,0:2:0:0:
459,246,109041,6,0,B|378:195|382:260|302:206,1,160,14|8,0:1|0:2,0:0:0:0:
181,103,109515,2,0,P|167:148|192:187,1,80,2|10,0:2|0:1,0:0:0:0:
316,119,109831,1,8,0:1:0:0:
205,301,109988,2,0,P|165:268|130:245,1,80,10|2,0:2|0:2,0:0:0:0:
319,353,110304,5,8,0:1:0:0:
379,188,110462,2,0,P|421:172|466:200,1,80,10|10,0:1|0:2,0:0:0:0:
291,108,110778,1,0,0:0:0:0:
349,299,110936,2,0,P|398:275|438:259,1,80,10|10,0:1|0:1,0:0:0:0:
291,108,111252,2,0,P|250:103|215:141,1,80,10|8,0:2|0:1,0:0:0:0:
65,268,111567,6,0,P|126:257|237:241,1,160,10|8,0:1|0:2,0:0:0:0:
350,249,112041,2,0,P|316:292|292:331,1,80,2|10,0:2|0:1,0:0:0:0:
455,327,112357,1,8,0:1:0:0:
393,170,112515,2,0,P|357:152|315:159,1,80,10|2,0:2|0:2,0:0:0:0:
89,85,112831,5,8,0:1:0:0:
130,231,112988,1,10,0:1:0:0:
202,78,113146,1,10,0:2:0:0:
36,188,113304,1,0,0:0:0:0:
266,215,113462,5,10,0:1:0:0:
69,347,113620,1,10,0:1:0:0:
128,131,113778,1,14,0:2:0:0:
229,332,113936,5,0,0:0:0:0:
229,332,114015,1,0,0:0:0:0:
229,332,114094,2,0,B|288:357|332:309|332:309|351:320|374:326,1,160,14|8,0:1|0:2,0:0:0:0:
444,165,114567,2,0,P|424:217|412:252,1,80,2|10,0:2|0:1,0:0:0:0:
451,356,114883,1,8,0:1:0:0:
264,262,115041,2,0,P|255:224|274:190,1,80,10|2,0:2|0:2,0:0:0:0:
396,31,115357,5,8,0:1:0:0:
282,85,115515,2,0,P|236:78|189:71,1,80,10|10,0:1|0:2,0:0:0:0:
257,193,115831,1,8,0:1:0:0:
83,43,115988,1,10,0:3:0:0:
56,72,116066,1,8,0:2:0:0:
46,110,116145,1,10,0:2:0:0:
55,148,116224,1,8,0:2:0:0:
81,178,116304,2,0,P|134:170|176:164,1,80,10|10,0:2|0:1,0:0:0:0:
322,335,116620,5,14,0:2:0:0:
226,89,116778,1,10,0:1:0:0:
166,348,116936,1,8,0:1:0:0:
400,149,117094,5,14,0:2:0:0:
133,233,117252,1,10,0:1:0:0:
417,340,117410,1,8,0:1:0:0:
302,54,117567,5,14,0:2:0:0:
272,320,117725,1,10,0:1:0:0:
474,107,117883,1,8,0:1:0:0:
138,67,118041,5,14,0:2:0:0:
402,215,118199,1,10,0:1:0:0:
122,311,118357,1,8,0:1:0:0:
344,47,118515,5,10,0:2:0:0:
252,351,118673,1,10,0:2:0:0:
217,28,118831,5,10,0:2:0:0:
357,334,118988,1,10,0:2:0:0:
356,333,119304,6,0,P|352:301|345:270,1,64,2|2,0:2|0:2,0:0:0:0:
448,212,119620,2,0,P|441:250|439:275,1,64,2|2,0:2|0:2,0:0:0:0:
346,270,119936,5,2,0:2:0:0:
353,171,120094,1,10,0:3:0:0:
448,212,120252,1,2,0:2:0:0:
446,55,120410,6,0,P|374:44|303:35,1,143.999995605469,14|14,0:1|0:3,0:0:0:0:
190,113,120883,1,2,0:2:0:0:
231,17,121041,1,4,0:3:0:0:
288,130,121199,2,0,P|291:171|295:214,1,71.9999978027344,8|6,0:3|0:3,0:0:0:0:
190,113,121515,1,0,0:0:0:0:
116,236,121673,6,0,P|162:225|202:216,1,71.9999978027344,14|2,0:3|0:2,0:0:0:0:
140,327,121988,1,4,0:3:0:0:
72,166,122146,1,10,0:3:0:0:
72,166,122225,1,0,0:0:0:0:
72,166,122304,2,0,P|47:200|38:236,1,71.9999978027344,6|8,0:3|0:3,0:0:0:0:
34,260,122541,1,0,0:0:0:0:
34,260,122620,1,6,0:3:0:0:
51,73,122778,5,8,0:3:0:0:
51,73,122857,1,8,0:3:0:0:
51,73,122936,2,0,B|129:40|114:98|212:55,1,143.999995605469,14|14,0:3|0:3,0:0:0:0:
303,25,123410,2,0,P|312:75|290:109,1,71.9999978027344,2|4,0:2|0:3,0:0:0:0:
209,152,123725,1,10,0:3:0:0:
313,201,123883,2,0,P|361:176|394:162,1,71.9999978027344,12|10,0:3|0:3,0:0:0:0:
359,331,124199,5,12,0:3:0:0:
247,286,124357,2,0,P|216:267|179:246,1,71.9999978027344,8|4,0:3|0:3,0:0:0:0:
49,276,124673,1,8,0:3:0:0:
141,179,124831,1,6,0:3:0:0:
131,307,124988,1,10,0:3:0:0:
9,210,125146,5,14,0:3:0:0:
34,183,125224,1,8,0:3:0:0:
51,153,125303,1,10,0:3:0:0:
70,124,125382,1,8,0:3:0:0:
94,99,125462,6,0,P|139:84|240:56,1,143.999995605469,14|14,0:1|0:3,0:0:0:0:
351,111,125936,1,2,0:2:0:0:
309,12,126094,1,4,0:3:0:0:
255,133,126252,2,0,P|242:160|263:208,1,71.9999978027344,10|4,0:3|0:3,0:0:0:0:
345,271,126567,1,2,0:2:0:0:
212,268,126725,6,0,P|167:258|64:238,1,143.999995605469,12|4,0:3|0:3,0:0:0:0:
13,147,127199,1,8,0:3:0:0:
0,264,127357,1,6,0:3:0:0:
91,167,127515,2,0,P|97:131|68:96,1,71.9999978027344,10|6,0:3|0:3,0:0:0:0:
219,0,127831,5,10,0:3:0:0:
219,0,127910,1,10,0:3:0:0:
219,0,127988,2,0,P|199:55|257:127,1,143.999995605469,6|14,0:3|0:3,0:0:0:0:
352,172,128462,1,2,0:2:0:0:
356,58,128620,2,0,P|306:52|277:48,1,71.9999978027344,4|10,0:3|0:3,0:0:0:0:
179,107,128936,1,4,0:3:0:0:
308,228,129094,6,0,P|335:194|357:164,1,71.9999978027344,2|12,0:2|0:3,0:0:0:0:
475,267,129410,1,8,0:3:0:0:
445,147,129567,1,14,0:3:0:0:
375,276,129725,1,8,0:3:0:0:
258,140,129883,6,0,P|218:140|193:157,1,60.0000022888184,10|0,0:2|0:0,0:0:0:0:
69,276,130120,6,0,P|117:282|141:262,1,60.0000022888184,10|0,0:2|0:0,0:0:0:0:
117,113,130357,6,0,P|105:153|111:179,1,60.0000022888184,10|0,0:2|0:0,0:0:0:0:
229,263,130515,6,0,P|233:233|231:207,1,40,2|8,0:2|0:1,0:0:0:0:
309,224,130752,5,8,0:1:0:0:
309,224,130831,2,0,P|360:213|473:191,1,160,14|2,0:2|0:3,0:0:0:0:
404,55,131304,2,0,P|395:101|416:133,1,80,8|2,0:1|0:3,0:0:0:0:
456,274,131620,5,10,0:2:0:0:
456,274,131699,1,2,0:2:0:0:
456,274,131778,2,0,P|420:261|397:241,2,53.3333333333333,2|2|2,0:3|0:2|0:2,0:0:0:0:
286,173,132094,5,10,0:2:0:0:
286,173,132199,2,0,P|301:214|298:246,1,53.3333333333333,2|2,0:2|0:2,0:0:0:0:
262,344,132410,6,0,P|295:329|332:335,2,53.3333333333333,2|2|2,0:3|0:2|0:2,0:0:0:0:
177,263,132725,5,10,0:1:0:0:
127,245,132830,5,2,0:2:0:0:
77,259,132935,5,2,0:2:0:0:
46,301,133041,6,0,P|48:237|47:198,1,80,2|8,0:3|0:1,0:0:0:0:
9,118,133357,1,10,0:1:0:0:
164,167,133515,2,0,P|140:212|186:265,1,120,10|0,0:2|0:0,0:0:0:0:
205,265,133831,2,0,P|177:311|159:346,1,80,10|2,0:1|0:3,0:0:0:0:
338,269,134146,2,0,P|321:227|310:188,1,80,10|8,0:1|0:2,0:0:0:0:
400,94,134462,5,8,0:1:0:0:
454,248,134620,1,8,0:1:0:0:
311,193,134778,1,8,0:2:0:0:
501,120,134936,5,10,0:2:0:0:
379,238,135094,1,0,0:0:0:0:
379,238,135173,1,10,0:2:0:0:
379,238,135252,1,2,0:2:0:0:
389,59,135410,1,10,0:2:0:0:
467,210,135567,6,0,P|445:186|414:163,1,64,2|8,0:3|0:1,0:0:0:0:
328,178,135804,5,8,0:1:0:0:
328,178,135883,2,0,B|222:170|283:235|172:211,1,160,14|8,0:2|0:2,0:0:0:0:
56,174,136357,2,0,P|80:219|71:267,1,80,10|8,0:1|0:1,0:0:0:0:
158,83,136673,5,10,0:2:0:0:
158,83,136752,1,0,0:0:0:0:
158,83,136831,1,2,0:3:0:0:
199,240,136988,1,8,0:1:0:0:
56,174,137146,1,10,0:2:0:0:
256,78,137304,2,0,P|242:115|228:161,1,80,8|10,0:1|0:2,0:0:0:0:
143,315,137620,2,0,P|131:276|117:239,1,80,8|2,0:1|0:3,0:0:0:0:
254,308,137936,1,8,0:1:0:0:
378,134,138094,5,14,0:2:0:0:
351,320,138252,1,8,0:1:0:0:
248,163,138410,1,8,0:1:0:0:
445,247,138567,6,0,P|402:235|356:237,1,80,10|2,0:2|0:3,0:0:0:0:
201,285,138883,1,8,0:1:0:0:
290,113,139041,1,10,0:2:0:0:
334,312,139199,6,0,P|345:263|376:137,1,160,8|8,0:2|0:1,0:0:0:0:
243,31,139673,2,0,P|255:67|265:120,1,80,12|8,0:2|0:1,0:0:0:0:
165,248,139988,6,0,P|167:211|163:185,2,53.3333333333333,10|8|8,0:2|0:3|0:3,0:0:0:0:
23,216,140304,2,0,P|60:228|76:253,2,53.3333333333333,10|8|8,0:3|0:3|0:3,0:0:0:0:
142,350,140620,6,0,P|199:327|254:302,1,96,12|0,0:1|0:0,0:0:0:0:
260,299,140936,1,2,0:3:0:0:
358,330,141094,1,2,0:2:0:0:
270,384,141252,1,2,0:2:0:0:
260,299,141410,2,0,P|262:267|266:226,1,64,2|2,0:2|0:3,0:0:0:0:
315,151,141725,1,2,0:2:0:0:
169,124,141883,6,0,P|176:165|184:227,1,96
186,252,142199,2,0,P|143:240|112:233,1,64,2|0,0:3|0:0,0:0:0:0:
20,207,142515,2,0,P|33:248|41:283,1,64,2|0,0:2|0:0,0:0:0:0:
31,371,142831,2,0,P|76:351|109:343,1,64,2|8,0:3|0:1,0:0:0:0:
125,354,143067,5,8,0:1:0:0:
125,354,143146,2,0,B|195:338|188:369|272:345,1,128,14|2,0:2|0:3,0:0:0:0:
351,360,143620,2,0,P|340:319|317:230,1,128,2|0,0:2|0:0,0:0:0:0:
418,178,144094,2,0,P|415:229|412:260,1,64,2|0,0:3|0:0,0:0:0:0:
307,133,144410,6,0,B|224:126|271:174|185:172,1,128,10|0,0:3|0:0,0:0:0:0:
59,159,144883,2,0,P|94:201|134:267,1,128,10|0,0:3|0:0,0:0:0:0:
255,298,145357,2,0,P|265:267|276:237,1,64,10|0,0:3|0:0,0:0:0:0:
467,253,145673,6,0,P|414:253|371:323,1,128,14|2,0:1|0:3,0:0:0:0:
469,350,146146,1,2,0:2:0:0:
467,253,146304,1,2,0:2:0:0:
370,349,146462,2,0,P|351:321|336:295,1,64,2|2,0:2|0:3,0:0:0:0:
354,200,146778,1,2,0:2:0:0:
206,281,146936,6,0,B|126:311|148:260|72:286,1,128,0|2,0:0|0:3,0:0:0:0:
163,209,147410,1,0,0:0:0:0:
55,200,147567,2,0,P|68:167|81:141,1,64,2|0,0:2|0:0,0:0:0:0:
110,40,147883,2,0,P|144:71|167:92,1,64,2|0,0:3|0:0,0:0:0:0:
153,184,148199,5,14,0:2:0:0:
289,156,148357,1,8,0:1:0:0:
229,243,148515,1,8,0:3:0:0:
233,89,148673,1,10,0:1:0:0:
370,185,148831,5,10,0:2:0:0:
307,49,148988,1,8,0:1:0:0:
407,85,149146,1,8,0:1:0:0:
271,148,149304,1,12,0:2:0:0:
370,185,149462,6,0,P|380:220|375:241,1,32,10|2,0:1|0:2,0:0:0:0:
414,328,149620,2,0,P|380:319|354:324,1,32,10|2,0:3|0:2,0:0:0:0:
272,347,149778,5,2,0:2:0:0:
278,316,149856,1,2,0:2:0:0:
270,285,149935,1,10,0:3:0:0:
248,262,150014,1,2,0:2:0:0:
219,247,150094,5,2,0:2:0:0:
188,238,150172,1,2,0:2:0:0:
165,216,150251,1,10,0:3:0:0:
156,186,150330,1,2,0:2:0:0:
161,155,150410,6,0,P|166:120|161:98,1,32,10|2,0:3|0:2,0:0:0:0:
289,64,150567,2,0,P|267:96|260:112,1,32,10|2,0:3|0:2,0:0:0:0:
310,187,150725,6,0,P|356:178|468:155,1,143.999995605469,14|2,0:1|0:3,0:0:0:0:
355,80,151199,1,10,0:1:0:0:
310,187,151357,2,0,P|306:229|402:281,1,143.999995605469,8|2,0:2|0:3,0:0:0:0:
403,195,151831,1,8,0:1:0:0:
284,345,151988,6,0,P|262:311|241:284,1,71.9999978027344,10|8,0:1|0:2,0:0:0:0:
131,262,152304,1,2,0:3:0:0:
171,352,152462,1,10,0:1:0:0:
208,212,152620,2,0,P|249:203|289:235,1,71.9999978027344,8|8,0:2|0:1,0:0:0:0:
146,101,152936,1,10,0:2:0:0:
149,268,153094,1,8,0:2:0:0:
254,84,153252,6,0,P|308:75|422:48,1,160,14|10,0:1|0:2,0:0:0:0:
489,156,153725,2,0,P|473:194|460:234,1,80,10|0,0:1|0:0,0:0:0:0:
359,356,154041,2,0,P|354:302|344:257,1,80,10|0,0:1|0:0,0:0:0:0:
176,133,154357,6,0,B|171:211|182:297,1,160,10|8,0:1|0:1,0:0:0:0:
240,80,154831,2,0,P|193:54|120:76,1,120,14|0,0:2|0:0,0:0:0:0:
77,152,155146,5,10,0:1:0:0:
116,148,155224,1,8,0:2:0:0:
153,161,155303,1,8,0:2:0:0:
181,190,155382,1,8,0:2:0:0:
217,217,155462,1,10,0:2:0:0:
265,228,155540,1,8,0:3:0:0:
313,218,155619,1,8,0:3:0:0:
354,190,155698,1,8,0:3:0:0:
379,148,155778,6,0,P|397:217|425:313,1,160,14|8,0:1|0:2,0:0:0:0:
478,174,156252,1,10,0:3:0:0:
478,174,156331,1,8,0:3:0:0:
478,174,156410,1,8,0:1:0:0:
313,218,156567,1,8,0:1:0:0:
406,80,156725,2,0,P|367:72|326:102,1,80,10|0,0:2|0:0,0:0:0:0:
310,115,156962,5,0,0:0:0:0:
310,115,157041,2,0,P|317:83|331:28,1,80,8|8,0:1|0:1,0:0:0:0:
189,105,157357,1,8,0:2:0:0:
308,195,157515,1,8,0:3:0:0:
308,195,157594,1,8,0:3:0:0:
308,195,157673,2,0,P|347:187|395:178,1,80,10|10,0:1|0:1,0:0:0:0:
317,301,157988,1,10,0:2:0:0:
457,217,158146,1,0,0:0:0:0:
245,141,158304,6,0,P|229:185|306:271,1,160,14|10,0:1|0:2,0:0:0:0:
125,213,158778,1,10,0:3:0:0:
125,213,158857,1,8,0:3:0:0:
125,213,158936,2,0,P|120:163|113:121,1,80,8|10,0:1|0:1,0:0:0:0:
163,354,159252,5,8,0:2:0:0:
195,331,159330,1,0,0:0:0:0:
233,319,159409,1,2,0:2:0:0:
271,304,159488,1,0,0:0:0:0:
303,281,159567,6,0,P|317:308|323:324,1,40,8|0,0:1|0:0,0:0:0:0:
393,227,159725,2,0,P|391:192|396:167,1,40,12|0,0:2|0:0,0:0:0:0:
346,84,159883,1,10,0:1:0:0:
294,69,159961,1,0,0:0:0:0:
250,88,160040,1,8,0:1:0:0:
206,72,160119,1,0,0:0:0:0:
152,65,160199,6,0,P|137:102|141:114,1,40,10|0,0:2|0:0,0:0:0:0:
91,249,160357,2,0,P|132:240|148:247,1,40,8|0,0:3|0:0,0:0:0:0:
283,154,160515,1,10,0:3:0:0:
256,204,160593,1,0,0:0:0:0:
230,254,160672,1,8,0:3:0:0:
204,304,160751,1,0,0:0:0:0:
177,355,160831,6,0,P|231:340|266:331,1,80,14|0,0:1|0:0,0:0:0:0:
158,153,161146,5,8,0:2:0:0:
392,298,161304,1,10,0:2:0:0:
257,66,161462,5,10,0:2:0:0:
254,333,161620,1,8,0:2:0:0:
323,153,161778,1,8,0:2:0:0:
124,252,161936,1,10,0:2:0:0:
310,65,162094,5,10,0:2:0:0:
310,65,162173,1,8,0:2:0:0:
310,65,162252,2,0,P|351:69|368:62,1,40,8|8,0:2|0:2,0:0:0:0:
383,246,162410,5,10,0:2:0:0:
383,246,162489,1,8,0:2:0:0:
383,246,162568,2,0,P|379:287|386:304,1,40,10|8,0:2|0:2,0:0:0:0:
202,319,162725,5,8,0:2:0:0:
202,319,162804,1,8,0:2:0:0:
202,319,162883,2,0,P|161:315|144:322,1,40,10|8,0:2|0:2,0:0:0:0:
129,138,163041,5,8,0:2:0:0:
129,138,163120,1,8,0:2:0:0:
129,138,163199,2,0,P|133:97|126:80,1,40,10|8,0:3|0:3,0:0:0:0:
302,243,163357,5,14,0:2:0:0:
73,292,163515,1,8,0:1:0:0:
256,92,163673,1,8,0:1:0:0:
169,323,163831,5,14,0:2:0:0:
95,70,163988,1,8,0:1:0:0:
333,219,164146,1,8,0:1:0:0:
188,38,164304,5,14,0:2:0:0:
257,319,164462,1,8,0:1:0:0:
345,48,164620,5,10,0:2:0:0:
53,307,164778,1,10,0:2:0:0:
422,97,165252,5,10,0:3:0:0:
383,87,165330,1,10,0:3:0:0:
346,99,165409,1,10,0:1:0:0:
320,130,165488,1,10,0:1:0:0:
314,168,165567,2,0,B|247:191|257:154|182:178,1,120,14|2,0:2|0:2,0:0:0:0:
112,161,165883,6,0,P|105:217|99:274,1,88.000002685547,14|0,0:1|0:0,0:0:0:0:
270,344,166199,2,0,P|265:300|259:256,1,88.000002685547,10|0,0:2|0:0,0:0:0:0:
174,105,166515,1,10,0:1:0:0:
183,301,166673,1,8,0:1:0:0:
276,99,166831,1,10,0:2:0:0:
416,295,166988,6,0,P|405:245|391:200,1,88.000002685547,2|8,0:2|0:1,0:0:0:0:
314,20,167304,2,0,P|288:79|243:186,1,176.000005371094,10|0,0:1|0:0,0:0:0:0:
413,125,167778,1,10,0:1:0:0:
272,267,167936,1,10,0:1:0:0:
457,250,168094,1,10,0:2:0:0:
275,98,168252,1,2,0:2:0:0:
392,318,168410,6,0,P|338:320|316:281,1,88.000002685547,10|0,0:1|0:0,0:0:0:0:
390,108,168725,2,0,P|434:113|454:163,1,88.000002685547,10|0,0:2|0:0,0:0:0:0:
482,299,169041,1,10,0:1:0:0:
334,162,169199,1,8,0:1:0:0:
392,318,169357,1,10,0:2:0:0:
492,68,169515,6,0,P|471:114|452:153,1,88.000002685547,2|8,0:2|0:1,0:0:0:0:
319,296,169831,2,0,B|310:211|308:107,1,176.000005371094,10|0,0:1|0:0,0:0:0:0:
212,24,170304,5,10,0:1:0:0:
384,117,170462,1,10,0:1:0:0:
210,192,170620,1,10,0:2:0:0:
400,109,170778,1,2,0:2:0:0:
118,96,170936,6,0,P|125:142|131:238,1,132.00000402832,14|0,0:1|0:0,0:0:0:0:
121,335,171252,2,0,P|160:300|205:303,1,88.000002685547,10|0,0:2|0:0,0:0:0:0:
374,359,171567,1,10,0:1:0:0:
266,216,171725,1,8,0:1:0:0:
249,375,171883,1,10,0:2:0:0:
380,217,172041,1,2,0:2:0:0:
132,320,172199,5,10,0:1:0:0:
180,135,172357,1,8,0:1:0:0:
263,266,172515,2,0,P|206:252|128:239,1,132.00000402832,10|0,0:2|0:0,0:0:0:0:
53,246,172831,2,0,P|57:197|81:167,1,88.000002685547,10|8,0:1|0:1,0:0:0:0:
193,28,173146,2,0,B|178:80|178:80|196:115|196:115|180:158,1,132.00000402832,10|0,0:2|0:0,0:0:0:0:
260,71,173462,6,0,P|327:68|346:164,1,176.000005371094,10|8,0:1|0:2,0:0:0:0:
305,292,173936,1,0,0:0:0:0:
421,239,174094,2,0,P|438:196|457:154,1,88.000002685547,10|8,0:1|0:1,0:0:0:0:
265,148,174410,2,0,P|251:190|287:238,1,88.000002685547,8|0,0:2|0:0,0:0:0:0:
106,342,174725,5,10,0:1:0:0:
158,136,174883,1,8,0:1:0:0:
205,347,175041,1,12,0:2:0:0:
55,173,175199,1,8,0:1:0:0:
310,256,175357,5,10,0:1:0:0:
310,256,175436,1,8,0:2:0:0:
310,256,175515,2,0,P|356:270|380:287,1,44.0000013427735,8|8,0:2|0:2,0:0:0:0:
443,206,175673,5,8,0:2:0:0:
480,168,175751,1,8,0:2:0:0:
497,117,175830,1,8,0:2:0:0:
492,64,175909,1,8,0:2:0:0:
464,19,175988,6,0,B|358:38|396:75|281:92,1,176.000005371094,14|10,0:1|0:2,0:0:0:0:
150,160,176462,2,0,P|137:116|160:66,1,88.000002685547,2|8,0:2|0:1,0:0:0:0:
320,187,176778,2,0,P|333:231|310:281,1,88.000002685547,10|8,0:1|0:2,0:0:0:0:
119,342,177094,6,0,P|162:285|224:200,1,176.000005371094,14|8,0:1|0:1,0:0:0:0:
64,103,177567,2,0,P|91:164|102:194,1,88.000002685547,10|0,0:2|0:0,0:0:0:0:
110,225,177804,1,0,0:0:0:0:
110,225,177883,1,10,0:1:0:0:
103,25,178041,1,8,0:1:0:0:
1,205,178199,1,10,0:2:0:0:
195,75,178357,1,0,0:0:0:0:
228,314,178515,5,14,0:1:0:0:
107,163,178673,1,0,0:0:0:0:
324,217,178831,1,10,0:2:0:0:
195,75,178988,2,0,P|198:123|201:171,1,88.000002685547,2|8,0:2|0:1,0:0:0:0:
329,304,179304,2,0,P|326:242|321:189,1,88.000002685547,10|8,0:1|0:2,0:0:0:0:
250,18,179620,6,0,P|204:-1|113:76,1,176.000005371094,14|8,0:1|0:1,0:0:0:0:
31,229,180094,2,0,P|69:206|117:180,1,88.000002685547,10|0,0:2|0:0,0:0:0:0:
219,300,180410,1,10,0:1:0:0:
179,113,180567,1,8,0:1:0:0:
125,275,180725,2,0,P|102:317|140:353,1,88.000002685547,14|0,0:2|0:0,0:0:0:0:
318,265,181041,6,0,P|368:245|447:215,1,132.00000402832,14|0,0:1|0:0,0:0:0:0:
467,137,181357,5,10,0:2:0:0:
425,124,181435,1,2,0:2:0:0:
384,138,181514,1,2,0:2:0:0:
358,172,181593,1,2,0:2:0:0:
341,215,181673,5,10,0:1:0:0:
305,239,181751,1,2,0:2:0:0:
262,236,181830,1,10,0:1:0:0:
230,207,181909,1,2,0:2:0:0:
205,168,181988,6,0,L|173:148,6,22.0000006713867,10|0|2|0|2|0|2,0:2|0:0|0:2|0:0|0:2|0:0|0:2,0:0:0:0:
238,91,182304,6,0,P|190:71|148:82,1,88.000002685547,10|8,0:1|0:1,0:0:0:0:
309,207,182620,1,10,0:2:0:0:
253,0,182778,1,8,0:1:0:0:
424,185,182936,5,10,0:2:0:0:
424,185,183015,1,10,0:2:0:0:
424,185,183094,2,0,P|408:216|408:241,1,44.0000013427735,10|10,0:2|0:2,0:0:0:0:
263,360,183252,2,0,P|232:344|207:344,1,44.0000013427735,10|2,0:2|0:2,0:0:0:0:
186,156,183410,2,0,P|207:161|225:173,1,44.0000013427735,10|0,0:1|0:0,0:0:0:0:
366,301,183567,6,0,P|415:317|457:281,1,88.000002685547,14|8,0:2|0:1,0:0:0:0:
287,100,183883,1,10,0:1:0:0:
188,299,184041,6,0,P|248:268|281:250,1,88.000002685547,14|8,0:2|0:1,0:0:0:0:
460,358,184357,1,10,0:1:0:0:
364,140,184515,2,0,P|324:120|286:99,1,88.000002685547,12|10,0:2|0:1,0:0:0:0:
333,330,184831,5,8,0:1:0:0:
470,87,184988,1,12,0:2:0:0:
203,190,185146,1,8,0:1:0:0:
475,283,185304,5,8,0:1:0:0:
319,86,185462,1,14,0:2:0:0:
344,353,185620,1,10,0:1:0:0:
447,109,185778,2,0,P|413:137|379:165,1,88.000002685547,14|8,0:2|0:1,0:0:0:0:
105,324,186094,5,14,0:2:0:0:
149,100,186252,1,0,0:0:0:0:
211,263,186410,5,10,0:2:0:0:
2,88,186567,1,10,0:2:0:0:
116,289,186725,5,8,0:2:0:0:
204,33,186883,1,10,0:2:0:0:
321,282,187041,5,8,0:2:0:0:
122,105,187199,1,10,0:2:0:0:
223,350,187357,5,8,0:2:0:0:
391,38,187515,1,8,0:2:0:0:
333,356,187673,5,8,0:2:0:0:
134,47,187831,1,8,0:2:0:0:
468,335,187988,5,10,0:2:0:0:
481,279,188066,1,8,0:2:0:0:
468,223,188145,1,8,0:2:0:0:
430,179,188224,1,8,0:2:0:0:
375,175,188304,6,0,L|382:154,6,22.0000006713867,10|0|8|0|8|0|8,0:2|0:0|0:2|0:0|0:2|0:0|0:2,0:0:0:0:
303,149,188620,6,0,P|262:143|223:173,1,64,10|8,0:1|0:1,0:0:0:0:
211,174,188857,1,8,0:1:0:0:
211,174,188936,2,0,P|227:125|262:23,1,160,14|8,0:2|0:1,0:0:0:0:
120,74,189410,1,8,0:1:0:0:
274,81,189567,2,0,P|313:75|366:65,1,80,8|0,0:2|0:0,0:0:0:0:
383,67,189804,5,0,0:0:0:0:
383,67,189883,2,0,B|366:143|352:235,1,160,10|8,0:1|0:2,0:0:0:0:
398,343,190357,1,0,0:0:0:0:
255,315,190515,2,0,P|265:269|272:229,1,80,10|8,0:1|0:1,0:0:0:0:
266,204,190752,1,2,0:2:0:0:
266,204,190831,1,8,0:2:0:0:
322,368,190988,1,2,0:2:0:0:
185,250,191146,5,10,0:1:0:0:
185,250,191252,2,0,P|143:247|108:253,1,53.3333333333333,2|2,0:2|0:2,0:0:0:0:
198,121,191462,5,10,0:2:0:0:
198,121,191568,2,0,P|201:79|195:44,1,53.3333333333333,2|2,0:2|0:2,0:0:0:0:
327,134,191778,5,10,0:1:0:0:
327,134,191884,2,0,P|369:138|404:131,1,53.3333333333333,2|2,0:2|0:2,0:0:0:0:
314,263,192094,5,10,0:2:0:0:
314,263,192200,2,0,P|311:305|317:340,1,53.3333333333333,2|2,0:2|0:2,0:0:0:0:
427,244,192410,5,10,0:1:0:0:
327,134,192567,2,0,P|266:158|220:248,1,160,10|0,0:1|0:0,0:0:0:0:
146,351,193041,1,8,0:1:0:0:
126,196,193199,1,10,0:1:0:0:
253,319,193357,1,10,0:2:0:0:
59,275,193515,1,10,0:1:0:0:
86,112,193673,6,0,B|177:89|150:146|266:111,1,160,14|8,0:1|0:2,0:0:0:0:
389,69,194146,2,0,B|367:113|367:113|382:140,1,80,2|8,0:2|0:1,0:0:0:0:
437,282,194462,2,0,P|409:270|385:264,1,40,8|0,0:1|0:0,0:0:0:0:
234,287,194620,2,0,P|274:268|308:198,1,120,10|0,0:2|0:0,0:0:0:0:
225,204,194936,5,8,0:1:0:0:
364,336,195094,2,0,P|323:332|281:365,1,80,10|8,0:1|0:2,0:0:0:0:
307,202,195410,1,0,0:0:0:0:
154,282,195567,2,0,P|205:282|243:289,1,80,10|8,0:1|0:1,0:0:0:0:
30,330,195883,2,0,B|48:287|48:287|42:250|42:250|58:198,1,120,10|0,0:2|0:0,0:0:0:0:
42,128,196199,6,0,B|102:146|102:146|199:72,1,160,10|8,0:1|0:2,0:0:0:0:
332,96,196673,2,0,P|291:118|254:143,1,80,2|8,0:2|0:1,0:0:0:0:
376,243,196988,2,0,P|363:199|363:176,1,40,8|0,0:1|0:0,0:0:0:0:
206,217,197146,2,0,P|233:249|283:325,1,120,10|0,0:2|0:0,0:0:0:0:
209,363,197462,5,12,0:2:0:0:
263,136,197620,1,8,0:1:0:0:
84,224,197778,5,14,0:2:0:0:
84,224,197883,2,0,P|108:254|121:275,1,53.3333333333333,2|2,0:2|0:2,0:0:0:0:
13,148,198094,5,10,0:2:0:0:
46,125,198172,1,8,0:2:0:0:
85,118,198251,1,10,0:1:0:0:
123,127,198330,1,8,0:1:0:0:
156,149,198410,6,0,P|173:117|176:98,1,40,10|8,0:3|0:3,0:0:0:0:
299,121,198567,2,0,P|266:149|254:172,1,40,8|8,0:1|0:1,0:0:0:0:
248,252,198725,5,8,0:3:0:0:
287,257,198803,1,8,0:3:0:0:
324,245,198882,1,8,0:1:0:0:
361,228,198961,1,8,0:1:0:0:
400,227,199041,6,0,P|380:267|324:374,1,160,14|10,0:2|0:1,0:0:0:0:
440,153,199515,1,10,0:1:0:0:
459,292,199673,1,10,0:2:0:0:
367,151,199831,6,0,P|377:106|445:74,1,120,14|0,0:1|0:0,0:0:0:0:
440,153,200146,1,10,0:1:0:0:
313,58,200304,1,10,0:2:0:0:
438,73,200462,2,0,P|431:24|397:0,1,80,2|8,0:2|0:1,0:0:0:0:
310,150,200778,1,10,0:1:0:0:
285,21,200936,1,14,0:2:0:0:
389,122,201094,1,2,0:2:0:0:
166,109,201252,5,12,0:1:0:0:
142,256,201410,2,0,P|180:243|224:230,1,80,2|8,0:2|0:2,0:0:0:0:
329,317,201725,2,0,P|380:319|424:320,1,80,2|8,0:2|0:1,0:0:0:0:
432,144,202041,2,0,P|382:167|346:184,1,80,10|8,0:1|0:2,0:0:0:0:
205,312,202357,6,0,P|133:305|103:224,1,160,14|10,0:1|0:1,0:0:0:0:
132,94,202831,1,8,0:2:0:0:
174,242,202988,1,2,0:2:0:0:
44,138,203146,1,10,0:1:0:0:
254,94,203304,5,10,0:2:0:0:
290,78,203382,1,8,0:2:0:0:
330,78,203461,1,10,0:2:0:0:
367,94,203540,1,8,0:2:0:0:
394,122,203620,2,0,P|370:153|363:169,1,40,8|8,0:3|0:3,0:0:0:0:
118,262,203778,6,0,P|142:231|149:215,1,40,14|2,0:2|0:2,0:0:0:0:
101,57,203936,1,2,0:2:0:0:
257,216,204094,5,10,0:2:0:0:
42,128,204252,2,0,P|60:154|66:172,1,40,10|2,0:1|0:2,0:0:0:0:
48,308,204410,5,10,0:2:0:0:
148,86,204567,1,10,0:1:0:0:
184,325,204725,5,10,0:2:0:0:
263,116,204883,2,0,P|222:131|207:142,1,40,10|10,0:1|0:1,0:0:0:0:
310,285,205041,5,10,0:2:0:0:
192,41,205199,1,10,0:1:0:0:
325,309,205357,5,8,0:2:0:0:
225,129,205515,2,0,P|209:174|196:215,1,80,10|8,0:1|0:2,0:0:0:0:
127,112,205831,5,8,0:1:0:0:
273,249,205988,2,0,P|314:225|364:242,1,80,8|8,0:2|0:1,0:0:0:0:
127,112,206304,5,14,0:2:0:0:
198,362,206462,1,10,0:1:0:0:
317,138,206620,1,10,0:1:0:0:
86,205,206778,5,14,0:2:0:0:
278,290,206936,1,10,0:1:0:0:
217,103,207097,1,10,0:1:0:0:
371,257,207258,5,14,0:2:0:0:
193,191,207419,1,10,0:1:0:0:
367,105,207581,1,14,0:2:0:0:
270,279,207735,6,0,B|229:261|207:274|185:299|185:299|173:272|154:244|116:281|54:235,1,240,14|0,0:2|0:0,0:0:0:0:
0,179,208842,6,0,P|32:162|74:141,1,80,2|2,0:2|0:2,0:0:0:0:
82,50,209328,2,0,P|135:61|173:69,1,80,2|2,0:2|0:2,0:0:0:0:
202,145,209788,2,0,P|225:132|238:126,1,40,0|2,0:0|0:2,0:0:0:0:
160,66,210115,1,2,0:0:0:0:
315,34,210422,1,2,0:2:0:0:
345,178,210732,2,0,P|384:169|423:161,1,80,2|2,0:2|0:2,0:0:0:0:
224,258,211358,6,0,P|225:230|223:213,2,40,2|0|0,0:2|0:0|0:0,0:0:0:0:
171,327,211831,2,0,P|195:330|255:347,1,80,2|2,0:2|0:2,0:0:0:0:
327,323,212305,1,2,0:2:0:0:
248,344,212463,1,2,0:2:0:0:
289,254,212621,6,0,P|336:245|395:285,1,120,2|2,0:2|0:2,0:0:0:0:
393,282,213568,1,2,0:2:0:0:
169,99,213918,6,0,P|177:136|190:186,1,80,2|2,0:2|0:2,0:0:0:0:
140,251,214377,2,0,P|170:258|224:273,1,80,0|2,0:0|0:2,0:0:0:0:
261,196,214836,2,0,P|265:168|265:145,1,40,0|2,0:0|0:2,0:0:0:0:
356,93,215142,6,0,P|349:122|339:176,1,80,2|2,0:2|0:2,0:0:0:0:
360,256,215613,1,2,0:0:0:0:
360,256,215691,1,2,0:0:0:0:
360,256,215770,2,0,P|382:249|403:241,1,40,2|0,0:2|0:0,0:0:0:0:
445,323,216084,2,0,P|477:329|499:334,1,40,2|0,0:2|0:0,0:0:0:0:
328,337,216398,6,0,B|291:318|241:357|241:357|191:369|133:320,1,192,2|2,0:2|0:2,0:0:0:0:
2,183,217016,6,0,B|66:183|89:224|89:224|125:211|160:221,1,160,14|0,0:1|0:0,0:0:0:0:
47,341,217510,1,2,0:2:0:0:
220,266,217675,6,0,P|224:222|233:103,1,160,14|2,0:1|0:2,0:0:0:0:
358,32,218153,1,2,0:2:0:0:
463,184,218313,6,0,P|420:167|337:249,1,160,12|8,0:1|0:3,0:0:0:0:
472,350,218802,1,2,0:2:0:0:
338,230,218946,6,0,B|259:216|276:251|172:230,1,143.999995605469,14|2,0:1|0:3,0:0:0:0:
105,185,219414,1,8,0:1:0:0:
223,163,219571,2,0,P|232:128|220:95,1,71.9999978027344,8|0,0:2|0:0,0:0:0:0:
360,42,219883,2,0,P|338:78|320:113,1,71.9999978027344,2|10,0:3|0:1,0:0:0:0:
399,222,220196,5,10,0:1:0:0:
373,348,220352,2,0,P|328:310|257:244,1,143.999995605469,8|10,0:2|0:1,0:0:0:0:
162,332,220821,2,0,P|201:339|241:351,1,71.9999978027344,8|10,0:2|0:1,0:0:0:0:
265,252,221133,2,0,P|308:247|353:239,1,71.9999978027344,2|10,0:3|0:1,0:0:0:0:
182,104,221456,6,0,P|168:166|148:253,1,143.999995605469,14|2,0:1|0:3,0:0:0:0:
77,164,221929,2,0,P|80:126|108:94,1,71.9999978027344,10|8,0:1|0:2,0:0:0:0:
86,9,222245,2,0,P|140:14|166:38,1,71.9999978027344,2|2,0:2|0:3,0:0:0:0:
182,104,222561,1,10,0:1:0:0:
299,21,222719,5,8,0:1:0:0:
310,154,222877,2,0,P|286:127|259:98,1,71.9999978027344,8|8,0:2|0:1,0:0:0:0:
366,259,223192,5,8,0:2:0:0:
366,259,223271,1,8,0:2:0:0:
366,259,223350,1,10,0:2:0:0:
437,89,223508,1,8,0:3:0:0:
453,223,223666,1,10,0:3:0:0:
344,80,223824,1,8,0:1:0:0:
122,264,223982,6,0,P|142:227|156:191,1,80,14|2,0:2|0:0,0:0:0:0:
212,330,224297,5,10,0:2:0:0:
43,163,224455,1,10,0:2:0:0:
256,147,224613,5,8,0:2:0:0:
19,300,224771,1,10,0:2:0:0:
132,78,224929,5,8,0:2:0:0:
212,330,225087,1,10,0:2:0:0:
338,87,225245,5,8,0:2:0:0:
70,285,225403,1,8,0:2:0:0:
364,324,225560,5,8,0:2:0:0:
154,52,225718,1,8,0:2:0:0:
384,37,225876,5,10,0:2:0:0:
132,344,226039,1,8,0:2:0:0:
476,203,226202,5,10,0:2:0:0:
449,173,226283,1,8,0:1:0:0:
413,158,226365,1,8,0:1:0:0:
373,160,226444,1,8,0:1:0:0:
338,179,226524,5,14,0:2:0:0:
134,110,226681,1,8,0:1:0:0:
197,311,226839,1,10,0:1:0:0:
296,38,226997,5,14,0:2:0:0:
136,219,227155,1,8,0:1:0:0:
373,160,227313,1,10,0:1:0:0:
133,356,227471,5,12,0:2:0:0:
276,104,227629,1,10,0:1:0:0:
318,373,227787,1,8,0:1:0:0:
46,79,227945,5,12,0:2:0:0:
363,191,228098,1,10,0:1:0:0:
21,318,228251,1,8,0:1:0:0:
328,53,228404,5,14,0:2:0:0:
464,373,228557,5,8,0:2:0:0:
430,350,228631,1,10,0:2:0:0:
398,353,228705,1,8,0:2:0:0:
366,360,228779,1,8,0:2:0:0:
334,337,228854,2,0,P|320:358|316:383,1,40,10|0,0:2|0:0,0:0:0:0:
202,271,229045,6,0,P|210:236|206:221,1,32,2|2,0:2|0:2,0:0:0:0:
177,138,229206,6,0,P|211:146|226:142,1,32,2|2,0:2|0:2,0:0:0:0:
310,113,229367,6,0,P|301:147|305:162,1,32,2|2,0:2|0:2,0:0:0:0:
335,246,229528,6,0,P|300:237|285:241,1,32,2|2,0:2|0:2,0:0:0:0:
383,328,229690,5,2,0:2:0:0:
413,336,229770,1,2,0:2:0:0:
444,330,229851,1,2,0:2:0:0:
468,310,229932,1,2,0:2:0:0:
480,280,230012,6,0,P|474:251|475:235,1,32,2|2,0:2|0:2,0:0:0:0:
406,153,230169,2,0,P|404:168|399:184,1,32,10|10,0:1|0:1,0:0:0:0:
472,65,230326,5,14,0:2:0:0:
255,48,230481,5,8,0:2:0:0:
216,39,230559,1,8,0:2:0:0:
177,47,230636,1,8,0:2:0:0:
145,71,230714,1,8,0:2:0:0:
126,106,230792,1,8,0:2:0:0:
123,145,230870,1,8,0:2:0:0:
134,197,230947,5,10,0:2:0:0:
174,234,231025,1,8,0:2:0:0:
227,247,231103,1,8,0:2:0:0:
280,235,231180,1,8,0:2:0:0:
322,199,231258,1,8,0:2:0:0:
333,151,231336,1,8,0:2:0:0:
386,135,231414,1,10,0:2:0:0:
440,146,231491,1,8,0:2:0:0:
480,182,231569,5,8,0:1:0:0:
341,355,231726,1,10,0:2:0:0:
259,149,231884,2,0,P|297:179|329:205,1,80,10|0,0:2|0:0,0:0:0:0:
21,132,232200,5,10,0:2:0:0:
130,338,232358,2,0,P|141:292|153:241,1,80,10|0,0:2|0:0,0:0:0:0:
291,82,232665,6,0,P|304:136|324:207,1,120,14|0,0:2|0:0,0:0:0:0:
328,226,232980,1,10,0:2:0:0:
130,338,233138,6,0,B|196:299|257:335|257:335|279:361|279:361|309:347|309:347|407:341|447:247,1,360.000013732911,14|2,0:1|0:2,0:0:0:0:
47,41,235053,5,10,0:2:0:0:
111,200,235209,2,0,B|129:153|129:153|115:112|115:112|147:52,1,143.999995605469,10|0,0:1|0:0,0:0:0:0:
296,119,235521,2,0,B|248:99|248:99|204:124,1,95.9999970703126,10|0,0:1|0:0,0:0:0:0:
378,265,235834,5,8,0:1:0:0:
378,265,235912,1,8,0:1:0:0:
378,265,235990,2,0,L|392:236,6,23.9999992675781,12|0|0|0|2|0|0,0:2|0:0|0:0|0:0|0:2|0:0|0:0,0:0:0:0:
341,332,236303,5,10,0:2:0:0:
289,310,236381,1,8,0:2:0:0:
234,315,236459,1,10,0:2:0:0:
179,321,236537,1,8,0:2:0:0:
126,306,236615,6,0,P|139:247|159:169,1,132.00000402832,14|0,0:1|0:0,0:0:0:0:
144,88,236931,2,0,P|192:105|230:120,1,88.000002685547,10|0,0:2|0:0,0:0:0:0:
336,231,237247,2,0,P|288:248|250:263,1,88.000002685547,10|8,0:1|0:1,0:0:0:0:
398,101,237562,1,10,0:2:0:0:
417,298,237720,6,0,P|423:255|430:211,1,88.000002685547,2|8,0:2|0:1,0:0:0:0:
316,44,238036,2,0,P|309:87|302:131,1,88.000002685547,10|8,0:1|0:2,0:0:0:0:
314,297,238352,1,0,0:0:0:0:
314,297,238431,1,0,0:0:0:0:
314,297,238510,1,10,0:1:0:0:
190,106,238668,1,10,0:1:0:0:
391,165,238826,1,10,0:2:0:0:
160,234,238983,1,2,0:2:0:0:
326,326,239141,6,0,P|286:340|225:355,1,88.000002685547,14|0,0:1|0:0,0:0:0:0:
371,172,239457,2,0,P|386:220|401:265,1,88.000002685547,10|0,0:2|0:0,0:0:0:0:
253,124,239773,1,10,0:1:0:0:
336,290,239931,1,8,0:1:0:0:
382,103,240089,1,10,0:2:0:0:
222,257,240247,1,2,0:2:0:0:
127,41,240405,6,0,P|116:88|97:184,1,132.00000402832,10|0,0:1|0:0,0:0:0:0:
43,273,240720,2,0,P|85:261|139:247,1,88.000002685547,10|0,0:2|0:0,0:0:0:0:
294,140,241036,1,10,0:1:0:0:
220,335,241194,1,8,0:1:0:0:
167,154,241352,1,10,0:2:0:0:
307,341,241510,1,8,0:1:0:0:
443,195,241668,6,0,P|355:198|309:285,1,176.000005371094,10|8,0:1|0:2,0:0:0:0:
402,282,242141,1,0,0:0:0:0:
423,99,242299,1,10,0:1:0:0:
309,265,242457,1,8,0:1:0:0:
512,218,242615,1,8,0:2:0:0:
305,82,242773,1,0,0:0:0:0:
471,33,242931,6,0,P|437:95|381:197,1,176.000005371094,10|12,0:1|0:2,0:0:0:0:
413,343,243405,1,8,0:1:0:0:
130,297,243562,5,10,0:2:0:0:
130,297,243641,1,8,0:3:0:0:
130,297,243720,2,0,P|116:261|117:238,1,44.0000013427735,8|8,0:1|0:1,0:0:0:0:
63,130,243878,1,8,0:2:0:0:
63,130,243957,1,8,0:2:0:0:
63,130,244036,2,0,P|99:116|122:117,1,44.0000013427735,8|8,0:2|0:2,0:0:0:0:
216,210,244194,6,0,B|313:235|286:175|395:188,1,176.000005371094,14|10,0:1|0:2,0:0:0:0:
268,58,244668,2,0,P|242:100|268:133,1,88.000002685547,2|8,0:2|0:1,0:0:0:0:
358,267,244983,2,0,P|374:299|344:346,1,88.000002685547,10|8,0:1|0:2,0:0:0:0:
334,102,245299,6,0,P|421:107|509:112,1,176.000005371094,14|8,0:1|0:1,0:0:0:0:
369,223,245773,1,10,0:2:0:0:
353,20,245931,1,0,0:0:0:0:
353,20,246010,1,0,0:0:0:0:
353,20,246089,1,10,0:1:0:0:
445,193,246247,1,8,0:1:0:0:
264,105,246405,1,10,0:2:0:0:
467,43,246562,1,0,0:0:0:0:
308,173,246720,6,0,P|233:180|190:90,1,176.000005371094,14|10,0:1|0:2,0:0:0:0:
118,255,247194,1,10,0:1:0:0:
74,58,247352,2,0,P|94:99|100:122,1,44.0000013427735,8|0,0:3|0:0,0:0:0:0:
43,228,247510,1,10,0:1:0:0:
188,100,247668,1,8,0:2:0:0:
221,334,247826,6,0,B|173:286|173:286|173:236|173:236|133:188,1,176.000005371094,14|8,0:1|0:1,0:0:0:0:
299,161,248299,2,0,P|282:205|266:252,1,88.000002685547,10|0,0:2|0:0,0:0:0:0:
459,117,248615,2,0,P|407:102|353:89,1,88.000002685547,10|8,0:1|0:1,0:0:0:0:
402,293,248931,2,0,P|454:277|496:265,1,88.000002685547,14|0,0:2|0:0,0:0:0:0:
249,372,249247,6,0,P|265:319|265:223,1,132.00000402832,14|0,0:1|0:0,0:0:0:0:
236,158,249562,5,10,0:2:0:0:
185,152,249640,1,2,0:2:0:0:
139,173,249719,1,2,0:2:0:0:
109,214,249798,1,2,0:2:0:0:
103,264,249878,6,0,P|62:256|46:247,1,44.0000013427735,10|2,0:1|0:2,0:0:0:0:
31,110,250036,2,0,P|72:118|88:127,1,44.0000013427735,10|2,0:1|0:2,0:0:0:0:
217,60,250194,6,0,L|244:41,6,22.0000006713867,10|0|2|0|2|0|2,0:2|0:0|0:2|0:0|0:2|0:0|0:2,0:0:0:0:
197,79,250510,6,0,P|218:121|237:160,1,88.000002685547,10|8,0:1|0:1,0:0:0:0:
375,273,250826,2,0,P|383:222|392:170,1,88.000002685547,10|0,0:2|0:0,0:0:0:0:
194,269,251141,5,10,0:1:0:0:
287,278,251247,2,0,P|285:308|280:337,1,58.6666684570313,2|2,0:2|0:2,0:0:0:0:
104,358,251457,6,0,P|107:327|114:304,1,44.0000013427735,10|0,0:2|0:0,0:0:0:0:
68,141,251615,1,8,0:1:0:0:
68,141,251694,1,8,0:1:0:0:
68,141,251773,5,12,0:2:0:0:
194,269,251931,1,8,0:1:0:0:
148,32,252089,1,10,0:1:0:0:
346,45,252247,5,14,0:2:0:0:
98,211,252405,1,8,0:1:0:0:
367,167,252562,1,10,0:1:0:0:
201,348,252720,5,12,0:2:0:0:
257,50,252878,1,10,0:1:0:0:
321,321,253036,1,8,0:1:0:0:
142,149,253194,5,12,0:2:0:0:
369,134,253352,1,8,0:1:0:0:
145,276,253510,1,8,0:1:0:0:
397,53,253668,5,10,0:2:0:0:
438,81,253746,1,0,0:0:0:0:
456,127,253825,1,10,0:2:0:0:
444,176,253904,1,8,0:2:0:0:
407,209,253983,6,0,L|366:197,6,22.0000006713867,10|0|8|0|10|0|8,0:2|0:0|0:2|0:0|0:2|0:0|0:2,0:0:0:0:
377,288,254299,5,10,0:3:0:0:
346,277,254377,1,8,0:3:0:0:
315,282,254456,1,8,0:1:0:0:
290,303,254535,1,8,0:1:0:0:
279,333,254615,6,0,P|236:326|182:351,1,88.000002685547,14|0,0:2|0:0,0:0:0:0:
257,88,254931,5,10,0:2:0:0:
89,379,255089,1,8,0:1:0:0:
351,202,255247,5,10,0:2:0:0:
32,264,255405,1,10,0:1:0:0:
300,55,255562,5,8,0:2:0:0:
194,340,255720,1,10,0:1:0:0:
426,205,255878,5,8,0:2:0:0:
116,55,256036,1,8,0:1:0:0:
369,58,256194,5,10,0:2:0:0:
279,333,256352,1,10,0:1:0:0:
512,171,256510,5,10,0:2:0:0:
168,222,256668,1,10,0:1:0:0:
168,222,256747,1,10,0:1:0:0:
168,222,256826,6,0,P|179:167|188:124,1,88.000002685547,14|0,0:2|0:0,0:0:0:0:
407,97,257141,5,10,0:2:0:0:
157,319,257299,1,8,0:1:0:0:
394,255,257457,5,10,0:2:0:0:
103,75,257615,1,8,0:1:0:0:
256,367,257773,5,10,0:2:0:0:
196,42,257931,1,10,0:1:0:0:
327,305,258089,5,8,0:2:0:0:
69,163,258247,1,10,0:1:0:0:
69,163,258326,1,8,0:1:0:0:
69,163,258405,1,8,0:2:0:0:
209,349,258562,1,8,0:1:0:0:
312,45,258720,5,10,0:2:0:0:
371,370,258878,1,10,0:1:0:0:
169,111,259036,5,14,0:2:0:0:
489,303,259194,1,10,0:1:0:0:
438,41,259352,6,0,P|428:84|418:131,1,88.000002685547,14|0,0:2|0:0,0:0:0:0:
184,273,259668,5,10,0:2:0:0:
502,194,259826,1,8,0:1:0:0:
212,61,259983,5,10,0:2:0:0:
372,348,260141,1,8,0:1:0:0:
328,51,260299,5,10,0:2:0:0:
189,285,260457,1,10,0:1:0:0:
189,285,260536,1,10,0:1:0:0:
189,285,260615,5,10,0:2:0:0:
428,96,260773,1,8,0:1:0:0:
121,115,260931,5,10,0:2:0:0:
430,306,261089,1,8,0:1:0:0:
242,41,261247,5,10,0:2:0:0:
292,306,261405,1,8,0:1:0:0:
360,100,261562,2,0,P|309:124|270:143,1,88.000002685547,10|8,0:2|0:1,0:0:0:0:
67,315,261878,5,14,0:2:0:0:
361,234,262036,1,0,0:0:0:0:
85,124,262194,5,8,0:2:0:0:
272,384,262352,1,8,0:1:0:0:
273,87,262510,5,10,0:2:0:0:
142,382,262668,1,8,0:1:0:0:
132,88,262826,5,8,0:2:0:0:
362,346,262983,1,8,0:1:0:0:
373,55,263141,5,10,0:2:0:0:
63,308,263299,1,8,0:1:0:0:
392,253,263457,5,12,0:2:0:0:
74,60,263615,1,8,0:1:0:0:
308,91,263773,5,10,0:2:0:0:
357,71,263851,1,8,0:2:0:0:
408,84,263930,1,8,0:2:0:0:
441,126,264009,1,8,0:2:0:0:
441,180,264089,2,0,P|431:210|413:233,1,44.0000013427735,8|8,0:3|0:3,0:0:0:0:
318,353,264247,2,0,P|307:333|302:312,1,44.0000013427735,8|8,0:3|0:3,0:0:0:0:
212,192,264405,6,0,B|111:175|138:234|30:205,1,176.000005371094,14|10,0:1|0:2,0:0:0:0:
99,28,264878,2,0,P|79:80|74:119,1,88.000002685547,2|8,0:2|0:1,0:0:0:0:
150,354,265194,2,0,P|167:314|176:271,1,88.000002685547,10|8,0:1|0:2,0:0:0:0:
305,105,265510,6,0,P|384:101|417:180,1,176.000005371094,14|8,0:1|0:1,0:0:0:0:
361,341,265983,2,0,P|418:346|457:347,1,88.000002685547,10|0,0:2|0:0,0:0:0:0:
273,192,266299,2,0,P|217:207|181:220,1,88.000002685547,10|8,0:1|0:1,0:0:0:0:
188,217,266536,1,0,0:0:0:0:
188,217,266615,1,10,0:2:0:0:
116,353,266773,1,0,0:0:0:0:
62,163,266931,6,0,P|109:141|221:88,1,176.000005371094,14|10,0:1|0:2,0:0:0:0:
425,23,267405,2,0,P|399:63|389:86,1,44.0000013427735,10|0,0:1|0:0,0:0:0:0:
427,215,267562,1,8,0:3:0:0:
385,204,267640,1,8,0:1:0:0:
342,210,267719,1,10,0:1:0:0:
305,231,267798,1,8,0:1:0:0:
279,264,267877,1,8,0:2:0:0:
58,191,268036,6,0,P|94:241|161:338,1,176.000005371094,14|8,0:1|0:1,0:0:0:0:
210,142,268510,2,0,P|253:121|304:113,1,88.000002685547,10|0,0:2|0:0,0:0:0:0:
392,305,268826,2,0,P|342:274|305:249,1,88.000002685547,10|8,0:1|0:1,0:0:0:0:
416,86,269141,2,0,P|403:142|400:193,1,88.000002685547,14|0,0:2|0:0,0:0:0:0:
434,357,269457,5,14,0:1:0:0:
169,351,269615,1,8,0:2:0:0:
177,307,269693,1,8,0:2:0:0:
186,264,269772,1,10,0:2:0:0:
196,221,269851,1,8,0:2:0:0:
207,178,269931,2,0,P|169:166|139:160,1,44.0000013427735,14|0,0:1|0:0,0:0:0:0:
255,56,270089,5,8,0:2:0:0:
296,42,270167,1,8,0:2:0:0:
339,49,270246,1,8,0:2:0:0:
374,75,270325,1,8,0:2:0:0:
393,114,270405,2,0,P|391:154|394:178,1,44.0000013427735,12|0,0:1|0:0,0:0:0:0:
428,287,270562,5,8,0:2:0:0:
428,287,270641,1,8,0:2:0:0:
428,287,270720,1,14,0:1:0:0:
392,261,270798,1,0,0:0:0:0:
349,259,270877,1,8,0:2:0:0:
311,281,270956,1,8,0:2:0:0:
279,312,271036,5,10,0:2:0:0:
229,338,271114,1,8,0:2:0:0:
174,337,271193,1,8,0:1:0:0:
127,306,271272,1,8,0:1:0:0:
113,257,271352,5,10,0:2:0:0:
127,208,271430,1,8,0:2:0:0:
165,175,271509,1,8,0:1:0:0:
215,168,271588,1,8,0:1:0:0:
266,161,271668,1,10,0:3:0:0:
292,160,271746,1,8,0:3:0:0:
315,146,271825,1,8,0:1:0:0:
326,121,271904,1,8,0:1:0:0:
320,97,271983,6,0,P|259:84|219:78,1,88.000002685547,14|8,0:2|0:1,0:0:0:0:
311,281,272299,1,10,0:1:0:0:
107,23,272457,6,0,P|168:10|208:4,1,88.000002685547,14|8,0:2|0:1,0:0:0:0:
120,250,272773,1,10,0:1:0:0:
328,194,272930,6,0,P|320:238|311:281,1,88.000002685547,12|10,0:2|0:1,0:0:0:0:
66,111,273246,1,8,0:1:0:0:
326,46,273404,1,12,0:2:0:0:
195,303,273562,1,8,0:1:0:0:
193,5,273720,1,8,0:1:0:0:
51,216,273878,6,0,P|125:199|165:188,1,88.000002685547,14|10,0:2|0:1,0:0:0:0:
396,297,274194,1,14,0:2:0:0:
326,46,274352,1,8,0:1:0:0:
187,354,274510,5,14,0:2:0:0:
459,115,274668,1,8,0:2:0:0:
311,371,274826,5,10,0:2:0:0:
148,91,274983,1,10,0:2:0:0:
473,203,275141,5,8,0:2:0:0:
95,328,275299,1,10,0:2:0:0:
254,28,275457,5,8,0:2:0:0:
349,356,275615,1,10,0:2:0:0:
235,112,275773,5,8,0:1:0:0:
401,300,275931,1,8,0:2:0:0:
368,271,276009,1,8,0:2:0:0:
325,270,276088,1,8,0:2:0:0:
291,297,276167,1,8,0:2:0:0:
258,340,276247,1,8,0:2:0:0:
207,347,276325,1,8,0:2:0:0:
154,332,276405,5,10,0:2:0:0:
127,287,276483,1,8,0:2:0:0:
134,236,276562,1,8,0:2:0:0:
170,199,276641,1,8,0:2:0:0:
214,180,276720,1,10,0:2:0:0:
265,153,276798,1,8,0:2:0:0:
291,101,276877,1,8,0:2:0:0:
279,42,276957,1,8,0:2:0:0:
235,4,277036,6,0,P|188:9|127:106,1,160,14|12,0:1|0:2,0:0:0:0:
265,153,277510,1,0,0:0:0:0:
127,222,277668,2,0,P|80:195|41:172,1,80,8|10,0:1|0:1,0:0:0:0:
118,368,277983,2,0,P|152:348|187:327,1,80,10|0,0:2|0:0,0:0:0:0:
316,241,278299,5,10,0:1:0:0:
334,43,278457,1,8,0:1:0:0:
392,161,278615,2,0,P|346:143|309:129,1,80,10|0,0:2|0:0,0:0:0:0:
360,300,278931,2,0,P|406:318|443:332,1,80,10|8,0:1|0:1,0:0:0:0:
488,172,279247,2,0,P|478:127|469:85,1,80,10|0,0:2|0:0,0:0:0:0:
283,225,279562,6,0,P|207:205|139:258,1,160,10|8,0:1|0:2,0:0:0:0:
223,115,280036,1,0,0:0:0:0:
209,309,280194,1,8,0:1:0:0:
110,139,280352,1,8,0:1:0:0:
283,225,280510,1,10,0:2:0:0:
87,304,280668,1,0,0:0:0:0:
254,66,280826,6,0,P|299:63|329:97,1,80,10|8,0:1|0:1,0:0:0:0:
369,219,281141,2,0,P|401:179|432:146,1,80,10|0,0:2|0:0,0:0:0:0:
505,289,281457,1,10,0:1:0:0:
504,140,281615,1,8,0:1:0:0:
408,270,281773,2,0,P|371:249|338:308,1,120,14|0,0:2|0:0,0:0:0:0:
352,354,282089,6,0,B|271:333|285:368|183:346,1,160,14|8,0:1|0:2,0:0:0:0:
82,221,282562,2,0,P|69:279|60:312,1,80,2|8,0:2|0:1,0:0:0:0:
222,266,282878,1,8,0:1:0:0:
128,129,283036,2,0,P|74:130|39:154,1,80,8|0,0:2|0:0,0:0:0:0:
222,265,283352,6,0,P|215:226|211:186,1,80,10|8,0:1|0:1,0:0:0:0:
365,94,283668,2,0,P|347:129|327:163,1,80,8|2,0:2|0:2,0:0:0:0:
298,309,283983,1,8,0:1:0:0:
210,185,284141,1,8,0:1:0:0:
373,223,284299,2,0,P|393:256|432:259,1,80,10|8,0:2|0:1,0:0:0:0:
232,375,284615,6,0,B|245:309|245:309|214:253,1,120,10|0,0:1|0:0,0:0:0:0:
222,181,284931,6,0,B|155:204|155:204|140:243|140:243|65:258,1,180.000006866455,12|0,0:2|0:0,0:0:0:0:
75,166,285247,6,0,B|64:126|64:126|77:86,1,80,8|8,0:1|0:1,0:0:0:0:
201,22,285562,6,0,P|267:25|219:100,1,180.000006866455,14|0,0:2|0:0,0:0:0:0:
284,174,285878,6,0,P|325:143|347:104,1,80,8|8,0:1|0:1,0:0:0:0:
433,260,286194,6,0,B|315:279|401:343|273:349,1,180.000006866455,12|0,0:2|0:0,0:0:0:0:
269,264,286510,1,8,0:1:0:0:
432,346,286668,1,10,0:1:0:0:
402,170,286826,6,0,P|357:189|329:203,1,71.9999978027344,12|0,0:2|0:0,0:0:0:0:
298,220,287141,6,0,P|306:170|332:40,1,160,14|8,0:1|0:2,0:0:0:0:
194,46,287615,2,0,P|214:83|233:134,1,80,2|8,0:2|0:1,0:0:0:0:
207,252,287931,1,8,0:1:0:0:
65,147,288089,2,0,P|113:141|163:138,1,80,10|0,0:2|0:0,0:0:0:0:
314,294,288405,5,10,0:1:0:0:
126,228,288562,1,10,0:1:0:0:
317,170,288720,1,10,0:2:0:0:
174,337,288878,2,0,P|188:295|209:242,1,80,2|8,0:2|0:1,0:0:0:0:
317,170,289194,1,10,0:1:0:0:
184,162,289352,1,10,0:2:0:0:
325,75,289510,1,10,0:1:0:0:
414,277,289668,6,0,P|374:257|334:240,1,80,10|0,0:1|0:0,0:0:0:0:
174,337,289983,1,8,0:2:0:0:
307,138,290141,1,2,0:2:0:0:
307,138,290220,1,2,0:2:0:0:
307,138,290299,2,0,P|349:122|367:117,1,40,10|2,0:1|0:2,0:0:0:0:
193,75,290457,1,10,0:1:0:0:
193,75,290536,1,2,0:2:0:0:
193,75,290615,2,0,P|151:59|133:54,1,40,10|2,0:2|0:2,0:0:0:0:
65,191,290773,5,2,0:2:0:0:
65,191,290852,1,2,0:2:0:0:
65,191,290931,1,10,0:1:0:0:
44,224,291009,1,0,0:0:0:0:
47,264,291088,1,10,0:1:0:0:
71,295,291167,1,0,0:0:0:0:
108,307,291246,5,10,0:2:0:0:
155,296,291326,1,0,0:0:0:0:
194,270,291404,1,2,0:2:0:0:
241,267,291483,1,0,0:0:0:0:
283,288,291562,2,0,P|309:297|333:309,1,40,8|0,0:1|0:0,0:0:0:0:
399,360,291720,2,0,P|447:350|458:343,1,40,10|0,0:1|0:0,0:0:0:0:
471,210,291878,2,0,P|426:249|404:269,1,80,10|0,0:2|0:0,0:0:0:0:
310,165,292194,6,0,P|330:118|394:109,1,120,14|0,0:1|0:0,0:0:0:0:
344,27,292510,5,10,0:2:0:0:
344,27,292615,2,0,P|306:38|274:61,1,53.3333333333333,2|2,0:2|0:2,0:0:0:0:
144,44,292826,5,10,0:1:0:0:
144,44,292931,2,0,P|155:82|178:114,1,53.3333333333333,2|2,0:2|0:2,0:0:0:0:
164,215,293141,5,10,0:2:0:0:
164,215,293246,2,0,P|202:204|234:181,1,53.3333333333333,2|2,0:2|0:2,0:0:0:0:
410,223,293457,5,10,0:1:0:0:
410,223,293563,2,0,P|384:227|361:241,1,53.3333333333333,2|2,0:2|0:2,0:0:0:0:
251,345,293773,5,10,0:2:0:0:
251,345,293878,2,0,P|237:322|232:296,1,53.3333333333333,2|2,0:2|0:2,0:0:0:0:
133,194,294089,6,0,P|183:194|226:198,1,80,10|8,0:2|0:3,0:0:0:0:
349,328,294405,1,10,0:3:0:0:
316,133,294562,1,8,0:1:0:0:
165,319,294720,5,14,0:2:0:0:
63,115,294878,1,10,0:1:0:0:
20,332,295036,1,8,0:1:0:0:
215,90,295194,1,14,0:2:0:0:
268,300,295352,5,8,0:1:0:0:
35,193,295510,1,10,0:1:0:0:
307,121,295668,1,12,0:2:0:0:
125,335,295826,1,10,0:1:0:0:
340,101,295983,5,8,0:1:0:0:
251,353,296141,1,14,0:2:0:0:
443,161,296299,1,8,0:1:0:0:
148,240,296457,1,10,0:1:0:0:
345,79,296615,5,12,0:2:0:0:
294,342,296773,1,10,0:1:0:0:
492,114,296931,1,8,0:1:0:0:
184,84,297089,22,0,B|147:87|112:122|93:145|87:196|87:196|27:184|-46:192|-47:322|-1:329|42:340|81:331|120:260|211:324|211:324|125:226|144:155|204:125|256:171|256:171|308:131|360:162|377:226|290:328|290:328|377:260|403:361|458:345|514:322|547:306|545:207|476:181|415:187|415:187|399:104|344:91|325:88,1,1641.60004007813,14|0,0:2|2:0,0:0:0:0:
