osu file format v14

[General]
AudioFilename: audio.mp3
AudioLeadIn: 0
PreviewTime: 86797
Countdown: 0
SampleSet: Soft
StackLeniency: 0.2
Mode: 0
LetterboxInBreaks: 0
WidescreenStoryboard: 0

[Editor]
Bookmarks: 6371,34457,54882,75308,87914,108340,128925,158923,169616,190042,210627,223386,231052,239989,260254,280840
DistanceSpacing: 0.4
BeatDivisor: 4
GridSize: 32
TimelineZoom: 2.1

[Metadata]
Title:Yume no Tsubomi
TitleUnicode:夢のつぼみ
Artist:Inori Minase
ArtistUnicode:水瀬いのり
Creator:hvick225
Version:NathanZhanKamal225's Blossom
Source:アニメマシテ
Tags:nathan dream of bud 絵伊子 Eiko 渡部チェル Watanabe Cheru sukiNathan VINXIS mishima yurara SnowWhite
BeatmapID:1271372
BeatmapSetID:601883

[Difficulty]
HPDrainRate:6
CircleSize:4
OverallDifficulty:8
ApproachRate:9.2
SliderMultiplier:1.7
SliderTickRate:1

[Events]
//Background and Video events
0,0,"Konachan.com - 233230 sample.jpg",0,0
//Break Periods
2,223586,230475
//Storyboard Layer 0 (Background)
//Storyboard Layer 1 (Fail)
//Storyboard Layer 2 (Pass)
//Storyboard Layer 3 (Foreground)
//Storyboard Sound Samples

[TimingPoints]
6365,319.148936170213,4,2,1,70,1,0
6365,-125,4,2,1,70,0,0
21684,-100,4,2,1,70,0,0
22960,-100,4,2,1,70,0,0
23599,-100,4,2,1,70,0,0
25673,-111.111111111111,4,2,1,70,0,0
25992,-125,4,2,1,70,0,0
26311,-142.857142857143,4,2,1,70,0,0
26790,-100,4,2,1,70,0,0
34450,-125,4,2,1,70,0,0
52482,-100,4,2,1,70,0,0
52801,-83.3333333333333,4,2,1,70,0,0
54875,-125,4,2,1,70,0,0
64450,-100,4,2,1,70,0,0
65088,-125,4,2,1,70,0,0
72747,-100,4,2,1,70,0,0
73226,-83.3333333333333,4,2,1,70,0,0
75301,-100,4,2,1,70,0,0
77216,-111.111111111111,4,2,1,70,0,0
77535,-125,4,2,1,70,0,0
77854,-100,4,2,1,70,0,0
79769,-90.9090909090909,4,2,1,70,0,0
80088,-83.3333333333333,4,2,1,70,0,0
80407,-100,4,2,1,70,0,0
85513,-83.3333333333333,4,2,1,70,0,0
86630,-71.4285714285714,4,2,1,70,0,0
87907,-100,4,2,1,70,0,1
92535,-71.4285714285714,4,2,1,70,0,1
92694,-55.5555555555556,4,2,1,70,0,1
92854,-45.4545454545455,4,2,1,70,0,1
93013,-100,4,2,1,70,0,1
95407,-66.6666666666667,4,2,1,70,0,1
95726,-100,4,2,1,70,0,1
97641,-83.3333333333333,4,2,1,70,0,1
97960,-100,4,2,1,70,0,1
98599,-74.0740740740741,4,2,1,70,0,1
98918,-100,4,2,1,70,0,1
100194,-55.5555555555556,4,2,1,70,0,1
100354,-62.5,4,2,1,70,0,1
100513,-71.4285714285714,4,2,1,70,0,1
100673,-83.3333333333333,4,2,1,70,0,1
100833,-100,4,2,1,70,0,1
101152,-74.0740740740741,4,2,1,70,0,1
101471,-100,4,2,1,70,0,1
102747,-71.4285714285714,4,2,1,70,0,1
102907,-83.3333333333333,4,2,1,70,0,1
103067,-100,4,2,1,70,0,1
103226,-125,4,2,1,70,0,1
103386,-100,4,2,1,70,0,1
103705,-74.0740740740741,4,2,1,70,0,1
104024,-100,4,2,1,70,0,1
106577,-71.4285714285714,4,2,1,70,0,1
106737,-55.5555555555556,4,2,1,70,0,1
106896,-66.6666666666667,4,2,1,70,0,1
108333,-100,4,2,1,70,0,1
112959,-71.4285714285714,4,2,1,70,0,1
113119,-55.5555555555556,4,2,1,70,0,1
113278,-45.4545454545455,4,2,1,70,0,1
113438,-100,4,2,1,70,0,1
118066,-83.3333333333333,4,2,1,70,0,1
118385,-100,4,2,1,70,0,1
119821,-83.3333333333333,4,2,1,70,0,1
120459,-100,4,2,1,70,0,1
121257,-76.9230769230769,4,2,1,70,0,1
121736,-71.4285714285714,4,2,1,70,0,1
122055,-66.6666666666667,4,2,1,70,0,1
122374,-100,4,2,1,70,0,1
123491,-71.4285714285714,4,2,1,70,0,1
123651,-55.5555555555556,4,2,1,70,0,1
123810,-100,4,2,1,70,0,1
126364,-66.6666666666667,4,2,1,70,0,1
128598,-125,4,2,1,70,0,1
128918,-100,4,2,1,70,0,0
136576,-125,4,2,1,70,0,0
146151,-100,4,2,1,70,0,0
146789,-125,4,2,1,70,0,0
154449,-100,4,2,1,70,0,0
154768,-83.3333333333333,4,2,1,70,0,0
157003,-100,4,2,1,70,0,0
158918,-111.111111111111,4,2,1,70,0,0
159237,-125,4,2,1,70,0,0
159556,-100,4,2,1,70,0,0
161471,-90.9090909090909,4,2,1,70,0,0
161790,-83.3333333333333,4,2,1,70,0,0
162109,-100,4,2,1,70,0,0
167216,-83.3333333333333,4,2,1,70,0,0
168333,-71.4285714285714,4,2,1,70,0,0
169609,-100,4,2,1,70,0,1
174396,-83.3333333333333,4,2,1,70,0,1
174556,-71.4285714285714,4,2,1,70,0,1
174716,-100,4,2,1,70,0,1
177428,-100,4,2,1,70,0,1
181896,-83.3333333333333,4,2,1,70,0,1
182216,-100,4,2,1,70,0,1
182535,-100,4,2,1,70,0,1
184450,-100,4,2,1,70,0,1
184769,-125,4,2,1,70,0,1
185088,-100,4,2,1,70,0,1
187641,-83.3333333333333,4,2,1,70,0,1
188279,-71.4285714285714,4,2,1,70,0,1
188599,-62.5,4,2,1,70,0,1
190035,-100,4,2,1,70,0,1
194662,-71.4285714285714,4,2,1,70,0,1
194822,-55.4285714285714,4,2,1,70,0,1
194982,-45.4285714285714,4,2,1,70,0,1
195141,-100,4,2,1,70,0,1
197535,-83.3333333333333,4,2,1,70,0,1
197854,-100,4,2,1,70,0,1
201524,-83.3333333333333,4,2,1,70,0,1
202960,-76.9230769230769,4,2,1,70,0,1
204077,-100,4,2,1,70,0,1
205194,-71.4285714285714,4,2,1,70,0,1
205513,-100,4,2,1,70,0,1
208067,-71.4285714285714,4,2,1,70,0,1
209982,-100,4,2,1,70,0,1
210620,-100,4,2,1,70,0,0
211577,-90.9090909090909,4,2,1,70,0,0
211896,-83.3333333333333,4,2,1,70,0,0
212535,-76.9230769230769,4,2,1,70,0,0
215726,-66.6666666666667,4,2,1,70,0,0
216843,-62.5,4,2,1,70,0,0
218120,-200,4,2,1,70,0,0
218599,-83.3333333333333,4,2,1,70,0,0
221950,-200,4,2,1,70,0,0
231524,-133.333333333333,4,2,1,70,0,0
232003,-100,4,2,1,70,0,0
233599,-166.666666666667,4,2,1,70,0,0
234237,-142.857142857143,4,2,1,70,0,0
235194,-125,4,2,1,70,0,0
236152,-111.111111111111,4,2,1,70,0,0
236790,-100,4,2,1,70,0,0
237269,-83.3333333333333,4,2,1,70,0,0
238545,-71.4285714285714,4,2,1,70,0,0
239822,-100,4,2,1,70,0,1
244450,-71.4285714285714,4,2,1,70,0,1
244609,-55.5555555555556,4,2,1,70,0,1
244769,-45.4545454545455,4,2,1,70,0,1
244928,-100,4,2,1,70,0,1
247322,-66.6666666666667,4,2,1,70,0,1
247641,-100,4,2,1,70,0,1
249556,-83.3333333333333,4,2,1,70,0,1
249875,-100,4,2,1,70,0,1
250513,-74.0740740740741,4,2,1,70,0,1
250833,-100,4,2,1,70,0,1
252109,-55.5555555555556,4,2,1,70,0,1
252269,-62.5,4,2,1,70,0,1
252428,-71.4285714285714,4,2,1,70,0,1
252588,-83.3333333333333,4,2,1,70,0,1
252747,-100,4,2,1,70,0,1
253067,-74.0740740740741,4,2,1,70,0,1
253386,-100,4,2,1,70,0,1
254662,-71.4285714285714,4,2,1,70,0,1
254822,-83.3333333333333,4,2,1,70,0,1
254982,-100,4,2,1,70,0,1
255141,-125,4,2,1,70,0,1
255301,-100,4,2,1,70,0,1
255620,-74.0740740740741,4,2,1,70,0,1
255939,-100,4,2,1,70,0,1
258492,-71.4285714285714,4,2,1,70,0,1
258652,-55.5555555555556,4,2,1,70,0,1
258811,-66.6666666666667,4,2,1,70,0,1
260247,-100,4,2,1,70,0,1
264875,-71.4285714285714,4,2,1,70,0,1
265035,-55.5555555555556,4,2,1,70,0,1
265194,-45.4545454545455,4,2,1,70,0,1
265354,-100,4,2,1,70,0,1
273173,-66.6666666666667,4,2,1,70,0,1
273652,-76.9230769230769,4,2,1,70,0,1
275407,-71.4285714285714,4,2,1,70,0,1
275726,-100,4,2,1,70,0,1
278279,-71.4285714285714,4,2,1,70,0,1
280354,-100,4,2,1,70,0,1
280833,-100,4,2,1,70,0,0
283067,-83.3333333333333,4,2,1,70,0,0
283226,-71.4285714285714,4,2,1,70,0,0
283386,-100,4,2,1,70,0,1
285939,-71.4285714285714,4,2,1,70,0,1
288173,-83.3333333333333,4,2,1,70,0,1
288492,-100,4,2,1,70,0,0
291047,320,4,2,1,70,1,0
293607,320.855614973262,4,2,1,70,1,0
296173,322.58064516129,4,2,1,70,1,0
298753,326.086956521739,4,2,1,70,1,0
299079,333.333333333333,4,2,1,70,1,0
299412,340.909090909091,4,2,1,70,1,0
299752,348.837209302326,4,2,1,70,1,0
300100,357.142857142857,4,2,1,70,1,0
300457,365.853658536585,4,2,1,70,1,0
300822,375,4,2,1,70,1,0
301197,384.615384615385,4,2,1,70,1,0
301581,394.736842105263,4,2,1,70,1,0
302173,413.793103448276,4,2,1,70,1,0
302793,434.782608695652,4,2,1,70,1,0
308879,-133.333333333333,4,2,1,5,0,0

[Colours]
Combo1 : 170,253,236
Combo2 : 206,196,255
Combo3 : 252,188,245
Combo4 : 255,166,166

[HitObjects]
318,166,6365,6,0,P|353:174|406:168,2,68,2|0|0,0:0|0:0|0:0,0:0:0:0:
194,102,6843,2,0,P|160:101|127:109,2,68,2|0|0,0:0|0:0|0:0,0:0:0:0:
139,257,7322,1,2,0:0:0:0:
169,178,7482,1,0,0:0:0:0:
220,244,7641,1,0,0:0:0:0:
88,190,7801,6,0,P|54:190|21:182,1,68,2|0,0:0|0:0,0:0:0:0:
127,107,8120,1,0,0:0:0:0:
194,101,8279,2,0,P|160:100|127:108,1,68
286,251,8599,2,0,P|252:251|219:243,1,68
400,206,8918,6,0,P|400:240|392:273,2,68,2|0|0,0:0|0:0|0:0,0:0:0:0:
313,101,9396,2,0,P|305:68|305:35,2,68,2|0|0,0:0|0:0|0:0,0:0:0:0:
450,8,9875,1,2,0:0:0:0:
384,59,10035,1,0,0:0:0:0:
463,89,10194,1,0,0:0:0:0:
305,34,10354,6,0,P|271:33|238:41,1,68,2|0,0:0|0:0,0:0:0:0:
157,122,10673,1,0,0:0:0:0:
90,114,10833,2,0,P|123:113|156:121,1,68
341,190,11152,2,0,P|307:189|274:197,1,68
153,305,11471,6,0,L|147:227,2,68,2|0|0,0:0|0:0|0:0,0:0:0:0:
142,154,11950,1,2,0:0:0:0:
66,269,12109,1,0,0:0:0:0:
233,255,12269,1,0,0:0:0:0:
136,86,12428,6,0,L|142:164,2,68,2|0|0,0:0|0:0|0:0,0:0:0:0:
147,237,12907,1,2,0:0:0:0:
223,122,13067,1,0,0:0:0:0:
56,136,13226,1,0,0:0:0:0:
239,216,13386,6,0,P|271:231|315:227,1,68
456,154,13705,2,0,P|424:139|380:143,1,68
241,66,14024,1,2,0:0:0:0:
287,131,14184,1,0,0:0:0:0:
319,57,14343,1,0,0:0:0:0:
206,140,14503,5,2,0:0:0:0:
319,57,14662,1,0,0:0:0:0:
344,195,14822,1,0,0:0:0:0:
319,57,14982,5,2,0:0:0:0:
257,206,15141,1,0,0:0:0:0:
143,88,15301,2,0,P|106:87|75:100,2,68
0,46,15779,1,0,0:0:0:0:
120,173,15939,6,0,P|151:184|185:183,1,68
356,69,16258,1,2,0:0:0:0:
356,69,16338,1,0,0:0:0:0:
356,69,16418,1,2,0:0:0:0:
356,69,16497,1,0,0:0:0:0:
356,69,16577,6,0,B|287:60|294:108|219:89,1,136,4|0,3:2|0:0,0:0:0:0:
225,90,17056,1,0,3:0:0:0:
124,50,17216,2,0,P|115:88|124:128,1,68,8|0,0:0|0:0,0:0:0:0:
119,116,17535,1,0,0:0:0:0:
31,213,17694,6,0,P|88:201|154:243,1,136,4|0,3:2|0:0,0:0:0:0:
166,271,18093,1,0,3:0:0:0:
166,271,18173,2,0,P|157:312|148:337,1,68,0|0,3:0|3:0,0:0:0:0:
316,339,18492,2,0,P|274:330|250:321,2,68,0|0|0,0:0|3:0|3:0,0:0:0:0:
461,252,18971,1,0,0:0:0:0:
358,159,19130,6,0,P|366:235|376:282,1,102,4|0,3:2|0:0,0:0:0:0:
384,285,19450,1,8,0:0:0:0:
233,228,19609,1,0,3:0:0:0:
256,226,19689,1,0,3:0:0:0:
279,224,19769,1,0,3:0:0:0:
166,302,19928,1,0,3:0:0:0:
251,139,20088,1,0,3:0:0:0:
43,208,20247,6,0,P|122:198|159:189,1,102,4|0,3:2|0:0,0:0:0:0:
166,176,20567,1,0,3:0:0:0:
81,37,20726,2,0,P|76:76|88:124,1,68,8|0,0:0|0:0,0:0:0:0:
235,256,21045,5,2,3:2:0:0:
266,275,21125,1,0,3:2:0:0:
303,273,21205,1,2,3:2:0:0:
335,255,21285,1,0,3:2:0:0:
355,223,21365,5,2,3:2:0:0:
381,208,21444,1,0,3:2:0:0:
411,207,21524,1,2,3:2:0:0:
435,222,21604,1,0,3:2:0:0:
452,245,21684,5,6,3:2:0:0:
412,87,21843,1,0,0:0:0:0:
283,188,22003,1,2,0:0:0:0:
412,87,22162,1,0,0:0:0:0:
354,269,22322,5,2,0:0:0:0:
312,86,22482,1,0,0:0:0:0:
489,165,22641,1,2,0:0:0:0:
312,86,22801,1,2,0:0:0:0:
235,253,22960,5,8,0:0:0:0:
381,178,23120,1,10,0:0:0:0:
205,123,23279,1,10,0:0:0:0:
381,178,23439,1,10,0:0:0:0:
308,346,23599,5,8,0:0:0:0:
287,172,23758,1,10,0:0:0:0:
150,384,23918,1,10,0:0:0:0:
173,199,24077,1,10,0:0:0:0:
315,368,24237,6,0,P|360:368|401:353,1,85,4|0,3:2|0:0,0:0:0:0:
203,308,24556,2,0,P|162:294|120:294,1,85,4|0,3:2|0:0,0:0:0:0:
27,367,24875,1,4,3:2:0:0:
120,293,25035,1,0,1:0:0:0:
124,263,25115,1,0,1:0:0:0:
128,233,25194,1,0,1:0:0:0:
16,100,25354,6,0,L|112:81,1,85,4|0,3:2|0:0,0:0:0:0:
309,211,25673,6,0,L|214:192,1,76.4999976654053,4|0,3:2|0:0,0:0:0:0:
99,83,25992,6,0,L|195:64,1,68,4|0,3:2|0:0,0:0:0:0:
234,196,26311,6,0,L|205:191,1,29.7499990921021,4|0,3:2|0:0,0:0:0:0:
274,272,26471,1,2,1:2:0:0:
309,245,26551,1,0,1:2:0:0:
323,202,26630,1,2,1:2:0:0:
314,158,26710,1,0,1:2:0:0:
281,126,26790,6,0,P|272:84|268:41,1,85,4|0,3:2|0:0,0:0:0:0:
461,139,27109,2,0,P|456:181|448:222,1,85,8|0,0:0|0:0,0:0:0:0:
257,305,27428,2,0,P|298:296|340:291,1,85,0|0,3:0|0:0,0:0:0:0:
187,203,27747,1,8,0:0:0:0:
203,378,27907,6,0,P|85:347|16:339,1,170,12|0,0:0|0:0,0:0:0:0:
97,161,28386,2,0,P|101:208|112:258,1,85,8|0,0:0|0:0,0:0:0:0:
302,211,28705,2,0,P|260:202|217:199,1,85,0|0,3:0|0:0,0:0:0:0:
322,360,29024,1,8,0:0:0:0:
218,199,29184,1,0,0:0:0:0:
408,103,29343,6,0,L|419:247,1,127.5,4|0,3:2|0:0,0:0:0:0:
420,258,29662,1,8,0:0:0:0:
303,114,29822,1,0,0:0:0:0:
228,283,29982,1,0,3:0:0:0:
337,197,30141,1,0,0:0:0:0:
308,205,30221,1,0,0:0:0:0:
278,200,30301,1,8,0:0:0:0:
57,78,30460,6,0,B|157:46|139:127|238:84,1,170,12|0,0:0|0:0,0:0:0:0:
104,236,30939,2,0,P|96:190|106:151,1,85,8|0,0:0|0:0,0:0:0:0:
186,17,31258,1,2,3:2:0:0:
229,234,31418,1,0,0:0:0:0:
19,162,31577,1,10,0:2:0:0:
248,86,31737,1,0,0:0:0:0:
125,258,31896,6,0,L|119:160,1,85,6|0,3:2|0:0,0:0:0:0:
334,66,32216,2,0,P|335:90|331:112,1,42.5,12|0,0:0|0:0,0:0:0:0:
278,205,32375,1,0,0:0:0:0:
274,234,32455,1,0,0:0:0:0:
286,261,32535,1,2,3:2:0:0:
450,173,32694,1,2,3:2:0:0:
248,86,32854,1,2,3:2:0:0:
408,318,33013,6,0,B|321:299|342:360|242:334,1,170,12|0,0:0|0:0,0:0:0:0:
36,279,33492,2,0,P|82:260|124:263,1,85,0|0,1:0|1:0,1:0:0:0:
305,190,33811,2,0,P|262:189|224:172,1,85,8|8,0:0|0:0,0:0:0:0:
392,124,34130,1,8,0:0:0:0:
237,272,34290,1,8,0:0:0:0:
197,68,34450,5,4,3:2:0:0:
197,68,34769,2,0,P|152:85|101:84,1,68,8|0,0:0|0:0,0:0:0:0:
4,79,35088,2,0,P|96:69|141:93,1,136,0|8,3:0|0:0,0:0:0:0:
133,87,35567,1,0,0:0:0:0:
111,307,35726,5,0,3:0:0:0:
54,192,35886,1,0,0:0:0:0:
183,204,36045,1,8,0:0:0:0:
111,307,36205,2,0,P|65:323|34:328,1,68,0|0,0:0|3:0,0:0:0:0:
54,192,36524,2,0,P|17:160|-2:135,1,68,0|8,0:0|0:0,0:0:0:0:
183,204,36843,1,0,0:0:0:0:
131,85,37003,6,0,P|215:55|288:65,1,136,0|8,3:0|0:0,0:0:0:0:
388,32,37482,1,0,0:0:0:0:
350,156,37641,2,0,P|315:97|261:57,1,136,0|8,3:0|0:0,0:0:0:0:
261,57,38120,1,0,0:0:0:0:
339,289,38279,5,0,3:0:0:0:
236,209,38439,1,0,0:0:0:0:
350,156,38599,1,8,0:0:0:0:
339,289,38758,2,0,P|326:333|326:364,1,68,0|0,0:0|3:0,0:0:0:0:
236,209,39077,2,0,P|191:219|164:235,1,68,0|8,0:0|0:0,0:0:0:0:
350,156,39396,1,0,0:0:0:0:
251,76,39556,6,0,P|219:42|192:27,2,68,0|0|8,3:0|0:0|0:0,0:0:0:0:
350,156,40035,2,0,P|394:145|421:129,1,68,0|0,0:0|3:0,0:0:0:0:
237,205,40354,2,0,P|223:248|224:279,1,68,0|8,0:0|0:0,0:0:0:0:
374,313,40673,1,0,0:0:0:0:
277,369,40833,6,0,P|215:353|123:365,1,136,0|8,3:0|0:0,0:0:0:0:
223,270,41311,1,0,0:0:0:0:
77,369,41471,2,0,P|110:366|143:358,1,68,0|0,3:0|0:0,0:0:0:0:
94,195,41790,2,0,P|86:228|83:261,1,68,8|0,0:0|0:0,0:0:0:0:
329,321,42109,6,0,P|327:253|313:186,1,136,0|8,3:0|0:0,0:0:0:0:
253,155,42588,2,0,P|273:170|328:188,1,68,0|0,0:0|3:0,0:0:0:0:
493,195,42907,1,0,0:0:0:0:
369,150,43067,2,0,P|346:159|302:198,1,68,8|0,0:0|0:0,0:0:0:0:
215,229,43386,6,0,P|180:209|80:193,1,136,0|8,3:0|0:0,0:0:0:0:
312,330,43865,1,0,1:0:0:0:
312,330,43944,1,0,1:0:0:0:
312,330,44024,2,0,P|379:322|426:298,1,102,0|0,3:0|0:0,0:0:0:0:
448,317,44343,2,0,P|437:347|430:401,1,68,8|0,0:0|0:0,0:0:0:0:
361,127,44662,5,4,3:2:0:0:
459,171,44822,1,0,0:0:0:0:
288,202,44982,1,8,0:0:0:0:
459,171,45141,2,0,P|470:128|467:89,1,68,0|0,0:0|3:0,0:0:0:0:
247,148,45460,2,0,P|270:185|300:210,1,68,0|8,0:0|0:0,0:0:0:0:
361,127,45779,1,0,0:0:0:0:
457,259,45939,6,0,P|387:260|301:298,1,136,0|8,3:0|0:0,0:0:0:0:
160,256,46418,1,0,0:0:0:0:
247,148,46577,1,0,3:0:0:0:
256,181,46737,1,0,0:0:0:0:
218,58,46896,2,0,P|150:70|134:68,1,68,8|0,0:0|0:0,0:0:0:0:
56,164,47216,5,0,3:0:0:0:
160,256,47375,1,0,0:0:0:0:
34,313,47535,1,8,0:0:0:0:
160,256,47694,2,0,P|211:274|237:291,1,68,0|0,0:0|3:0,0:0:0:0:
56,164,48013,2,0,P|74:113|91:86,1,68,0|8,0:0|0:0,0:0:0:0:
34,313,48333,1,0,0:0:0:0:
142,177,48492,6,0,P|197:137|274:103,1,136,0|8,3:0|0:0,0:0:0:0:
373,50,48971,1,0,0:0:0:0:
375,177,49130,2,0,P|313:147|258:108,1,136,0|8,3:0|0:0,0:0:0:0:
475,213,49609,1,0,0:0:0:0:
475,213,49689,1,0,0:0:0:0:
475,213,49769,6,0,P|419:251|357:279,1,136,0|8,3:0|0:0,0:0:0:0:
185,209,50247,2,0,P|215:223|243:242,1,68,0|0,0:0|3:0,0:0:0:0:
282,325,50567,1,0,0:0:0:0:
335,125,50726,2,0,P|331:158|323:191,1,68,8|0,0:0|0:0,0:0:0:0:
171,316,51045,6,0,P|106:335|48:370,1,136,0|8,3:0|0:0,0:0:0:0:
245,362,51524,1,0,0:0:0:0:
103,253,51684,1,0,3:0:0:0:
107,229,51763,1,0,0:0:0:0:
111,205,51843,1,0,0:0:0:0:
171,316,52003,1,8,0:0:0:0:
29,163,52162,1,0,0:0:0:0:
200,198,52322,1,0,3:0:0:0:
3,327,52482,6,0,L|17:231,1,85,12|0,0:0|0:0,0:0:0:0:
182,57,52801,6,0,B|142:21|142:21|124:150,1,152.999995330811,12|0,0:0|0:0,0:0:0:0:
200,198,53120,2,0,L|149:206,1,50.9999984436036
43,95,53279,1,0,3:0:0:0:
248,120,53439,6,0,B|301:114|301:114|351:132|351:132|432:126,1,152.999995330811,12|0,0:0|0:0,0:0:0:0:
372,4,53758,2,0,P|364:28|361:53,1,50.9999984436036
290,192,53918,2,0,P|314:217|343:234,1,50.9999984436036,8|0,0:0|0:0,0:0:0:0:
458,198,54077,1,0,0:0:0:0:
263,19,54237,2,0,P|252:68|247:119,1,101.999996887207,0|0,3:0|0:0,0:0:0:0:
424,327,54556,5,12,0:0:0:0:
117,314,54875,5,4,3:2:0:0:
117,313,55194,2,0,P|130:282|137:249,1,68,8|0,0:0|0:0,0:0:0:0:
149,115,55513,2,0,P|131:193|137:248,1,136,0|8,3:0|0:0,0:0:0:0:
137,248,55992,1,0,0:0:0:0:
253,191,56152,6,0,P|286:189|320:193,2,68,0|0|8,3:0|0:0|0:0,0:0:0:0:
410,281,56630,2,0,P|443:283|477:279,1,68,0|0,0:0|3:0,0:0:0:0:
320,193,56950,1,0,0:0:0:0:
288,316,57109,1,8,0:0:0:0:
410,281,57269,1,0,0:0:0:0:
376,107,57428,6,0,P|312:89|251:115,1,136,0|8,3:0|0:0,0:0:0:0:
194,35,57907,1,0,0:0:0:0:
124,106,58067,2,0,P|186:132|251:115,1,136,0|8,3:0|0:0,0:0:0:0:
250,115,58545,1,0,0:0:0:0:
288,316,58705,6,0,P|255:318|221:314,2,68,0|0|8,3:0|0:0|0:0,0:0:0:0:
131,226,59184,2,0,P|98:224|64:228,1,68,0|0,0:0|3:0,0:0:0:0:
221,314,59503,1,0,0:0:0:0:
253,191,59662,1,8,0:0:0:0:
131,226,59822,1,0,0:0:0:0:
253,191,59982,6,0,P|265:159|270:125,2,68,0|0|8,3:0|0:0|0:0,0:0:0:0:
266,0,60460,2,0,P|287:26|314:46,1,68,0|0,0:0|3:0,0:0:0:0:
424,106,60779,2,0,P|390:111|359:124,1,68,0|8,0:0|0:0,0:0:0:0:
276,283,61099,1,0,0:0:0:0:
150,159,61258,6,0,P|84:154|7:182,1,136,0|8,3:0|0:0,0:0:0:0:
78,311,61737,1,0,0:0:0:0:
20,243,61896,2,0,P|16:209|19:176,1,68,0|0,3:0|0:0,0:0:0:0:
36,62,62216,2,0,P|46:29|61:0,1,68,8|0,0:0|0:0,0:0:0:0:
297,136,62535,6,0,P|218:144|160:131,1,136,0|8,3:0|0:0,0:0:0:0:
247,6,63013,1,0,0:0:0:0:
172,199,63173,2,0,P|164:165|162:132,1,68,0|0,3:0|0:0,0:0:0:0:
172,65,63492,2,0,P|170:98|162:131,1,68,8|0,0:0|0:0,0:0:0:0:
269,7,63811,6,0,P|323:9|422:28,1,136,0|8,3:0|0:0,0:0:0:0:
479,125,64290,1,0,1:0:0:0:
481,165,64370,1,0,1:0:0:0:
477,205,64450,6,0,L|457:356,1,127.5,4|0,3:2|0:0,0:0:0:0:
372,226,64769,2,0,L|355:99,1,127.5,12|0,0:0|0:0,0:0:0:0:
277,259,65088,6,0,P|229:265|192:262,1,68,4|0,3:2|0:0,0:0:0:0:
107,194,65407,1,8,0:0:0:0:
107,261,65567,2,0,P|111:227|106:193,1,68,0|0,0:0|3:0,0:0:0:0:
277,191,65886,2,0,P|272:224|276:258,1,68,0|8,0:0|0:0,0:0:0:0:
192,103,66205,1,0,0:0:0:0:
410,141,66365,6,0,P|433:87|409:2,1,136,0|8,3:0|0:0,0:0:0:0:
417,13,66843,1,0,0:0:0:0:
498,166,67003,2,0,L|510:248,1,68,0|0,3:0|0:0,0:0:0:0:
404,309,67322,1,8,0:0:0:0:
337,192,67482,1,0,0:0:0:0:
279,294,67641,6,0,P|262:347|245:378,1,68,0|0,3:0|0:0,0:0:0:0:
404,309,67960,1,8,0:0:0:0:
404,309,68120,2,0,P|458:297|493:296,1,68,0|0,0:0|3:0,0:0:0:0:
337,192,68439,2,0,P|297:154|267:136,1,68,0|8,0:0|0:0,0:0:0:0:
108,272,68758,6,0,P|180:283|245:256,1,136
219,377,69237,1,8,0:0:0:0:
367,272,69396,2,0,P|303:249|237:261,1,136
433,184,69875,1,8,0:0:0:0:
273,104,70035,1,0,0:0:0:0:
273,104,70115,1,0,0:0:0:0:
272,103,70194,6,0,P|205:108|147:142,1,136,0|8,3:0|0:0,0:0:0:0:
88,278,70673,1,0,0:0:0:0:
35,158,70833,2,0,P|36:116|50:84,1,68,0|0,3:0|0:0,0:0:0:0:
238,40,71152,1,8,0:0:0:0:
188,244,71311,1,0,0:0:0:0:
147,142,71471,6,0,B|179:127|212:134|212:134|241:143|281:127,1,136,0|8,3:0|0:0,0:0:0:0:
198,310,71950,2,0,P|190:277|188:243,1,68,0|0,0:0|3:0,0:0:0:0:
321,254,72269,1,0,1:0:0:0:
321,254,72349,1,0,1:0:0:0:
321,254,72428,1,8,0:0:0:0:
349,45,72588,1,0,0:0:0:0:
496,187,72747,6,0,L|487:308,1,85,4|0,3:2|0:0,0:0:0:0:
293,147,73067,2,0,P|349:133|370:134,1,42.5,0|0,3:0|0:0,0:0:0:0:
345,223,73226,6,0,P|281:238|209:183,1,152.999995330811,12|0,0:0|0:0,0:0:0:0:
200,89,73545,2,0,P|174:94|153:105,1,50.9999984436036,2|0,0:0|0:0,0:0:0:0:
68,182,73705,2,0,P|90:193|115:198,1,50.9999984436036,2|0,3:2|0:0,0:0:0:0:
57,83,73865,5,12,0:0:0:0:
57,83,74184,5,2,1:2:0:0:
289,309,74343,1,2,1:2:0:0:
282,57,74503,1,2,1:2:0:0:
75,317,74662,1,10,0:0:0:0:
75,317,74982,6,0,P|70:259|130:309,1,152.999995330811,8|0,0:0|0:0,0:0:0:0:
310,342,75301,6,0,B|219:322|239:392|137:363,1,170,4|8,3:2|0:0,0:0:0:0:
243,262,75779,1,0,0:0:0:0:
58,230,75939,2,0,P|101:220|141:210,1,85,0|0,3:0|0:0,0:0:0:0:
229,384,76258,2,0,P|188:373|147:365,1,85,8|0,0:0|0:0,0:0:0:0:
243,262,76577,1,0,3:0:0:0:
68,318,76737,1,0,0:0:0:0:
152,125,76896,6,0,L|140:212,1,85,10|0,0:0|0:0,0:0:0:0:
253,337,77216,6,0,L|242:258,1,76.4999976654053,2|0,3:2|0:0,0:0:0:0:
364,161,77535,6,0,L|353:235,1,68,10|0,0:0|0:0,0:0:0:0:
113,299,77854,6,0,P|200:283|257:358,1,170,4|8,3:2|0:0,0:0:0:0:
437,214,78333,2,0,L|331:231,1,85,0|0,0:0|3:0,0:0:0:0:
255,123,78652,1,0,0:0:0:0:
284,121,78732,1,0,0:0:0:0:
310,133,78811,1,8,0:0:0:0:
195,246,78971,1,0,0:0:0:0:
147,54,79130,2,0,P|158:99|168:145,1,85,0|0,3:0|0:0,0:0:0:0:
383,315,79450,6,0,P|341:324|300:334,1,85,10|0,0:0|0:0,0:0:0:0:
104,226,79769,6,0,P|149:235|194:246,1,93.5000028533936,2|0,3:2|0:0,0:0:0:0:
428,140,80088,6,0,P|375:127|324:115,1,101.999996887207,10|0,0:0|0:0,0:0:0:0:
252,64,80327,1,0,0:0:0:0:
252,64,80407,6,0,P|310:133|280:213,1,170,4|8,3:2|0:0,0:0:0:0:
78,167,80886,2,0,L|167:154,1,85,0|0,0:0|3:0,0:0:0:0:
15,269,81205,1,0,0:0:0:0:
208,307,81365,2,0,L|297:320,1,85,8|0,0:0|0:0,0:0:0:0:
452,180,81684,6,0,B|368:156|373:226|286:202,1,170,4|8,3:2|0:0,0:0:0:0:
422,260,82162,1,0,0:0:0:0:
253,123,82322,1,0,3:0:0:0:
286,113,82402,1,0,0:0:0:0:
318,121,82482,1,0,0:0:0:0:
279,286,82641,2,0,P|290:239|288:198,1,85,8|0,0:0|0:0,0:0:0:0:
64,62,82960,6,0,L|76:218,1,127.5,4|0,3:2|0:0,0:0:0:0:
62,211,83279,1,8,0:0:0:0:
167,84,83439,1,0,0:0:0:0:
197,272,83599,1,0,3:0:0:0:
299,144,83758,6,0,P|268:135|238:136,1,42.5,2|0,0:0|0:0,0:0:0:0:
178,175,83918,1,8,0:0:0:0:
195,53,84077,6,0,P|171:75|157:101,1,42.5,2|0,0:0|0:0,0:0:0:0:
109,242,84237,1,0,3:0:0:0:
73,102,84396,6,0,P|80:133|96:158,1,42.5,2|0,0:0|0:0,0:0:0:0:
197,272,84556,2,0,P|271:262|295:259,1,85,8|0,0:0|0:0,0:0:0:0:
443,218,84875,5,0,3:0:0:0:
329,71,85035,1,0,0:0:0:0:
362,74,85115,1,0,0:0:0:0:
390,92,85194,1,8,0:0:0:0:
274,236,85354,1,0,0:0:0:0:
205,39,85513,6,0,P|171:40|128:72,1,50.9999984436036,6|0,3:2|0:0,0:0:0:0:
4,20,85673,2,0,P|11:44|11:69,1,50.9999984436036,2|0,0:0|0:0,0:0:0:0:
57,147,85833,1,8,0:0:0:0:
189,123,85992,6,0,B|128:132|87:111|87:111|62:124|57:152,1,152.999995330811,12|0,0:0|0:0,0:0:0:0:
129,283,86311,2,0,P|168:277|197:230,1,50.9999984436036,2|0,0:0|0:0,0:0:0:0:
270,293,86471,2,0,P|284:256|258:207,1,50.9999984436036,2|0,3:2|0:0,0:0:0:0:
132,204,86630,6,0,B|171:303|85:287|143:390,1,178.499994552612,12|0,0:0|0:0,0:0:0:0:
3,266,86950,2,0,P|37:250|89:266,1,59.4999981842042,2|0,0:0|0:0,0:0:0:0:
297,370,87109,1,12,0:0:0:0:
241,233,87907,6,0,P|234:308|317:374,1,170,4|0,3:2|0:0,0:0:0:0:
305,181,88386,2,0,P|251:217|232:264,1,85,8|0,0:0|0:0,0:0:0:0:
403,296,88705,1,0,3:0:0:0:
241,233,88865,2,0,P|231:296|252:342,1,85,0|8,0:0|0:0,0:0:0:0:
392,380,89184,6,0,L|406:269,1,85,0|0,0:0|3:0,0:0:0:0:
344,67,89503,1,0,0:0:0:0:
338,167,89662,1,8,0:0:0:0:
428,118,89822,1,0,0:0:0:0:
255,112,89982,1,0,3:0:0:0:
423,213,90141,1,0,0:0:0:0:
424,23,90301,2,0,L|290:9,1,127.5,8|0,0:0|0:0,0:0:0:0:
175,89,90620,6,0,P|216:110|275:106,1,85,4|0,3:2|0:0,0:0:0:0:
491,164,90939,2,0,P|448:166|411:186,1,85,8|0,0:0|0:0,0:0:0:0:
242,292,91258,1,0,3:0:0:0:
325,199,91418,1,0,0:0:0:0:
322,224,91497,1,0,0:0:0:0:
319,249,91577,1,8,0:0:0:0:
254,111,91737,1,0,0:0:0:0:
404,283,91896,6,0,B|322:247|323:328|233:288,1,170,0|8,3:0|0:0,0:0:0:0:
45,279,92375,6,0,P|50:258|56:238,1,42.5,2|0,0:0|0:0,0:0:0:0:
256,234,92535,6,0,P|238:296|219:321,1,59.4999981842042,2|0,3:2|0:0,0:0:0:0:
65,352,92694,6,0,P|45:279|49:247,1,76.4999976654053,2|0,0:0|0:0,0:0:0:0:
225,147,92854,6,0,P|254:212|255:254,1,93.5000028533936,10|0,0:0|0:0,0:0:0:0:
156,359,93013,6,0,P|138:302|147:181,1,170,12|0,0:0|0:0,0:0:0:0:
239,364,93492,2,0,P|194:368|154:358,1,85,8|0,0:0|0:0,0:0:0:0:
2,241,93811,1,0,3:0:0:0:
106,117,93971,2,0,P|131:153|143:193,1,85,0|8,0:0|0:0,0:0:0:0:
335,294,94290,6,0,L|341:189,1,85,0|0,0:0|3:0,0:0:0:0:
350,79,94609,1,0,0:0:0:0:
169,209,94769,1,8,0:0:0:0:
423,230,94928,1,0,0:0:0:0:
259,73,95088,2,0,L|251:203,1,127.5,0|0,3:0|0:0,0:0:0:0:
262,234,95407,6,0,L|267:160,1,63.7500024318696,10|0,0:0|0:0,0:0:0:0:
168,45,95567,2,0,L|163:108,1,63.7500024318696,2|0,0:0|0:0,0:0:0:0:
355,123,95726,6,0,P|365:82|359:41,1,85,4|0,3:2|0:0,0:0:0:0:
152,292,96045,1,8,0:0:0:0:
379,218,96205,1,0,0:0:0:0:
164,109,96365,1,0,3:0:0:0:
262,234,96524,1,0,0:0:0:0:
264,210,96604,1,0,0:0:0:0:
266,185,96684,1,8,0:0:0:0:
152,292,96843,1,0,0:0:0:0:
247,71,97003,6,0,P|156:98|61:88,1,170,0|8,3:0|0:0,0:0:0:0:
166,197,97482,1,0,0:0:0:0:
333,50,97641,6,0,L|338:100,1,50.9999984436036,0|0,3:0|0:0,0:0:0:0:
249,274,97801,1,0,1:0:0:0:
255,249,97880,1,0,1:0:0:0:
262,227,97960,6,0,L|268:152,1,42.5,8|0,0:0|0:0,0:0:0:0:
430,67,98120,1,0,1:0:0:0:
438,76,98200,1,0,1:0:0:0:
445,86,98279,6,0,P|457:126|457:168,1,85,4|0,3:2|0:0,0:0:0:0:
351,293,98599,2,0,B|388:304|428:271|428:271|469:268|511:298,1,172.125000656605,8|0,0:0|0:0,0:0:0:0:
510,297,98918,1,0,3:0:0:0:
391,381,99077,1,0,0:0:0:0:
366,207,99237,1,8,0:0:0:0:
275,367,99396,6,0,P|257:305|256:251,1,85,0|0,0:0|3:0,0:0:0:0:
386,125,99716,2,0,P|372:166|365:207,1,85,0|8,0:0|0:0,0:0:0:0:
206,193,100035,1,0,0:0:0:0:
206,193,100115,1,0,0:0:0:0:
206,193,100194,6,0,P|246:196|284:182,1,76.4999976654053,2|0,3:2|0:0,0:0:0:0:
478,271,100354,6,0,P|438:268|408:278,1,68,2|0,0:0|0:0,0:0:0:0:
279,184,100513,6,0,P|295:158|303:130,1,59.4999981842042,10|0,0:0|0:0,0:0:0:0:
411,276,100673,6,0,P|396:296|388:321,1,50.9999984436036,2|0,0:0|0:0,0:0:0:0:
171,361,100833,6,0,P|164:318|154:277,1,85,4|0,3:2|0:0,0:0:0:0:
253,58,101152,2,0,B|233:100|219:138|219:138|239:177|279:230,1,172.125000656605,8|0,0:0|0:0,0:0:0:0:
264,210,101471,1,0,3:0:0:0:
160,61,101630,1,0,0:0:0:0:
314,132,101790,1,8,0:0:0:0:
95,217,101950,6,0,P|136:226|178:232,1,85,0|0,0:0|3:0,0:0:0:0:
420,25,102269,2,0,P|378:31|337:42,1,85,0|8,0:0|0:0,0:0:0:0:
409,263,102588,1,0,0:0:0:0:
409,263,102668,1,0,0:0:0:0:
409,263,102747,6,0,L|402:172,1,59.4999981842042,2|0,3:2|0:0,0:0:0:0:
267,117,102907,6,0,L|273:193,1,50.9999984436036,2|0,0:0|0:0,0:0:0:0:
404,203,103067,6,0,L|399:160,1,42.5,10|0,0:0|0:0,0:0:0:0:
271,167,103226,6,0,L|275:200,1,34,2|0,0:0|0:0,0:0:0:0:
415,79,103386,6,0,P|370:78|330:67,1,85,4|0,3:2|0:0,0:0:0:0:
156,285,103705,2,0,B|192:280|213:271|213:271|265:292|265:292|292:284|321:281,1,172.125000656605,8|0,0:0|0:0,0:0:0:0:
416,260,104024,5,2,3:2:0:0:
415,285,104104,1,0,0:0:0:0:
413,310,104184,1,2,0:0:0:0:
489,105,104343,1,8,0:0:0:0:
275,200,104503,6,0,P|274:156|265:102,2,85,0|0|0,0:0|3:0|0:0,0:0:0:0:
430,379,104982,2,0,P|433:307|452:192,1,170,8|0,0:0|3:0,0:0:0:0:
275,200,105460,1,0,0:0:0:0:
345,298,105620,2,0,P|302:304|260:304,1,85,8|0,0:0|0:0,0:0:0:0:
0,303,105939,1,0,3:0:0:0:
169,198,106099,6,0,L|177:259,1,42.5,2|0,0:0|0:0,0:0:0:0:
0,303,106258,1,8,0:0:0:0:
190,335,106418,1,2,0:0:0:0:
188,318,106497,1,0,0:0:0:0:
185,299,106577,6,0,L|174:232,1,59.4999981842042,2|0,3:2|0:0,0:0:0:0:
158,122,106737,6,0,L|169:202,1,76.4999976654053,2|0,0:0|0:0,0:0:0:0:
97,308,106896,6,0,B|78:179|78:179|23:228,1,191.250007295609,12|0,0:0|0:0,0:0:0:0:
13,97,107216,6,0,B|47:93|47:93|72:103|72:103|126:75|126:75|149:86|149:86|204:85,1,191.250007295609,12|0,0:0|0:0,0:0:0:0:
368,44,107535,2,0,P|295:54|371:129,1,191.250007295609,12|0,0:0|0:0,0:0:0:0:
491,223,107854,2,0,B|401:210|401:210|336:244,1,127.500004863739,0|0,3:0|1:0,0:0:0:0:
284,318,108093,1,0,1:0:0:0:
280,287,108173,2,0,L|273:205,1,63.7500024318696,0|0,3:0|0:0,0:0:0:0:
436,117,108333,6,0,L|416:309,1,170,12|0,0:0|0:0,0:0:0:0:
353,128,108811,2,0,P|393:114|436:117,1,85,8|0,0:0|0:0,0:0:0:0:
270,116,109130,2,0,P|310:130|353:128,1,85,0|0,3:0|0:0,0:0:0:0:
191,38,109450,1,8,0:0:0:0:
157,224,109609,6,0,P|233:191|269:116,1,170
168,28,110088,2,0,L|158:113,1,85,8|0,0:0|0:0,0:0:0:0:
137,329,110407,1,0,3:0:0:0:
84,161,110567,1,0,0:0:0:0:
255,199,110726,1,8,0:0:0:0:
157,224,110886,1,0,0:0:0:0:
60,134,111045,6,0,P|49:72|51:39,1,85,4|0,3:2|0:0,0:0:0:0:
171,254,111365,2,0,P|170:296|160:337,1,85,8|0,0:0|0:0,0:0:0:0:
320,182,111684,1,0,3:0:0:0:
363,175,111763,1,0,0:0:0:0:
406,185,111843,1,0,0:0:0:0:
282,332,112003,1,8,0:0:0:0:
161,164,112162,1,0,0:0:0:0:
296,351,112322,6,0,B|339:362|375:335|375:335|413:309|457:322,1,170,0|0,3:0|0:0,0:0:0:0:
281,181,112801,6,0,P|279:159|280:138,1,42.5,2|0,0:0|0:0,0:0:0:0:
502,74,112960,6,0,P|501:104|499:134,1,59.4999981842042,2|0,0:0|0:0,0:0:0:0:
301,195,113120,6,0,P|299:156|301:118,1,76.4999976654053
482,60,113279,6,0,P|482:107|477:154,1,93.5000028533936
378,310,113439,6,0,L|396:141,1,170,12|0,0:0|0:0,0:0:0:0:
296,298,113918,2,0,P|336:312|379:309,1,85,8|0,0:0|0:0,0:0:0:0:
213,310,114237,2,0,P|253:296|296:298,1,85,0|0,3:0|0:0,0:0:0:0:
131,382,114556,1,8,0:0:0:0:
91,264,114716,6,0,L|103:160,1,85,0|0,0:0|3:0,0:0:0:0:
192,94,115035,1,0,0:0:0:0:
40,111,115194,1,8,0:0:0:0:
191,226,115354,1,0,0:0:0:0:
84,28,115513,2,0,P|42:21|0:24,1,85,0|0,3:0|0:0,0:0:0:0:
215,111,115833,2,0,P|257:114|341:93,1,127.5,8|0,0:0|0:0,0:0:0:0:
339,93,116152,6,0,P|334:135|343:176,1,85,4|0,3:2|0:0,0:0:0:0:
438,340,116471,1,8,0:0:0:0:
265,261,116630,1,0,0:0:0:0:
442,215,116790,1,0,3:0:0:0:
325,362,116950,1,0,0:0:0:0:
325,362,117029,1,0,0:0:0:0:
325,362,117109,1,8,0:0:0:0:
343,176,117269,1,0,0:0:0:0:
163,220,117428,6,0,P|89:207|13:151,1,170,0|8,3:0|0:0,0:0:0:0:
82,312,117907,1,0,0:0:0:0:
163,64,118067,6,0,L|95:67,1,50.9999984436036,0|0,3:0|0:0,0:0:0:0:
225,156,118226,1,0,0:0:0:0:
259,186,118306,1,0,0:0:0:0:
305,190,118386,6,0,P|326:189|347:187,1,42.5,8|0,0:0|0:0,0:0:0:0:
434,61,118545,1,0,0:0:0:0:
453,86,118625,1,0,0:0:0:0:
468,114,118705,6,0,P|479:171|452:285,1,170,4|8,3:2|0:0,0:0:0:0:
285,73,119184,1,0,0:0:0:0:
225,156,119343,2,0,L|236:250,2,85,0|0|8,3:0|0:0|0:0,0:0:0:0:
39,112,119822,6,0,B|74:150|133:134|133:134|151:80|203:66,1,203.999993774414,12|0,0:0|0:0,0:0:0:0:
342,151,120301,1,8,0:0:0:0:
244,324,120460,2,0,L|225:156,1,170
365,253,120939,2,0,L|375:314,1,42.5,8|0,0:0|0:0,0:0:0:0:
365,253,121258,6,0,B|315:236|281:256|281:256|235:241|235:241|196:267|153:259,1,220.999989883423,12|0,0:0|0:0,0:0:0:0:
37,85,121737,6,0,P|123:94|175:164,1,178.499994552612,12|0,0:0|0:0,0:0:0:0:
102,358,122056,6,0,P|49:281|69:191,1,191.250007295609,12|0,0:0|0:0,0:0:0:0:
175,164,122375,6,0,B|219:147|264:158|264:158|247:110,1,127.5,4|0,0:0|0:0,0:0:0:0:
250,122,122694,1,0,0:0:0:0:
237,315,122854,1,8,0:0:0:0:
418,261,123013,1,0,0:0:0:0:
312,248,123173,5,0,3:0:0:0:
483,356,123333,1,0,1:0:0:0:
483,356,123412,1,0,1:0:0:0:
483,356,123492,2,0,L|493:270,1,59.4999981842042,8|0,0:0|0:0,0:0:0:0:
416,229,123652,2,0,L|406:143,1,76.4999976654053,0|0,1:0|1:0,0:0:0:0:
490,84,123811,6,0,P|414:48|335:71,1,170,4|8,3:2|0:0,0:0:0:0:
221,0,124290,1,0,0:0:0:0:
288,228,124450,2,0,P|291:179|292:143,1,85,0|0,3:0|0:0,0:0:0:0:
157,229,124769,1,8,0:0:0:0:
241,315,124928,6,0,B|288:328|288:328|360:301|360:301|373:258,1,170,12|0,0:0|0:0,0:0:0:0:
159,366,125407,2,0,L|57:341,1,85,8|0,0:0|0:0,0:0:0:0:
91,131,125726,5,2,3:2:0:0:
248,286,125886,1,0,0:0:0:0:
26,247,126045,1,10,0:0:0:0:
170,175,126205,2,0,L|172:233,1,42.5
25,78,126365,6,0,B|70:42|70:42|208:67,1,191.250007295609,4|0,3:2|0:0,0:0:0:0:
201,65,126684,1,0,3:0:0:0:
102,321,126843,2,0,L|91:131,1,191.250007295609,12|0,0:0|0:0,0:0:0:0:
284,10,127162,2,0,P|303:82|216:173,1,191.250007295609
258,4,127482,6,0,L|455:27,1,191.250007295609,12|0,0:0|0:0,0:0:0:0:
447,26,127801,1,8,0:0:0:0:
201,65,127960,1,12,0:0:0:0:
201,65,128599,6,0,L|211:175,1,102,8|0,0:0|0:0,0:0:0:0:
141,227,128918,6,0,P|85:213|47:207,1,85,4|0,3:2|0:0,0:0:0:0:
245,333,129237,2,0,P|286:325|327:314,1,85,8|0,0:0|0:0,0:0:0:0:
237,104,129556,2,0,P|225:145|217:186,1,85,0|0,3:0|0:0,0:0:0:0:
356,173,129875,1,8,0:0:0:0:
141,227,130035,6,0,B|238:207|215:278|319:248,1,170,12|0,0:0|0:0,0:0:0:0:
379,79,130513,2,0,P|334:85|286:104,1,85,8|0,0:0|0:0,0:0:0:0:
372,314,130833,2,0,P|385:273|391:231,1,85,0|0,3:0|0:0,0:0:0:0:
201,152,131152,1,10,0:0:0:0:
303,251,131311,1,2,0:0:0:0:
437,116,131471,6,0,B|403:96|379:93|379:93|352:119|314:117,1,127.5,4|0,3:2|0:0,0:0:0:0:
296,103,131790,1,8,0:0:0:0:
178,243,131950,1,0,0:0:0:0:
136,66,132109,1,0,3:0:0:0:
228,165,132269,1,0,0:0:0:0:
201,152,132349,1,0,0:0:0:0:
171,153,132428,1,8,0:0:0:0:
11,276,132588,6,0,B|52:271|72:260|72:260|98:271|118:288|118:288|140:276|178:275,1,170,12|0,0:0|0:0,0:0:0:0:
326,363,133067,2,0,P|332:317|343:263,1,85,8|0,0:0|0:0,0:0:0:0:
245,196,133386,5,2,3:2:0:0:
439,284,133545,1,0,0:0:0:0:
235,333,133705,1,10,0:0:0:0:
426,184,133865,1,0,0:0:0:0:
186,102,134024,6,0,P|234:96|275:86,1,85,0|0,3:0|0:0,0:0:0:0:
468,189,134343,2,0,P|447:185|425:183,1,42.5,8|0,0:0|0:0,0:0:0:0:
334,232,134503,1,0,0:0:0:0:
305,240,134583,1,0,0:0:0:0:
275,235,134662,1,0,0:0:0:0:
186,102,134822,1,8,0:0:0:0:
108,298,134982,1,0,3:0:0:0:
37,50,135141,6,0,B|0:137|77:130|37:221,1,170,12|0,0:0|0:0,0:0:0:0:
206,363,135620,2,0,P|195:322|202:280,1,85,0|0,3:0|0:0,0:0:0:0:
402,199,135939,5,10,0:0:0:0:
371,221,136019,1,0,0:0:0:0:
333,224,136099,1,0,0:0:0:0:
298,211,136178,1,0,0:0:0:0:
274,229,136258,5,10,0:0:0:0:
249,201,136338,1,0,0:0:0:0:
214,188,136418,1,8,0:0:0:0:
176,191,136497,1,0,0:0:0:0:
145,213,136577,5,4,3:2:0:0:
145,213,136896,6,0,P|113:205|80:191,1,68,8|0,0:0|0:0,0:0:0:0:
60,67,137216,2,0,P|92:123|80:192,1,136,0|8,3:0|0:0,0:0:0:0:
80,190,137694,1,0,0:0:0:0:
270,44,137854,5,0,3:0:0:0:
175,121,138013,1,0,0:0:0:0:
290,171,138173,1,8,0:0:0:0:
270,44,138333,2,0,P|235:14|217:3,1,68,0|0,0:0|3:0,0:0:0:0:
175,121,138652,2,0,P|131:136|112:146,1,68,0|8,0:0|0:0,0:0:0:0:
290,171,138971,1,0,0:0:0:0:
70,269,139130,6,0,P|169:234|212:210,1,136,0|8,3:0|0:0,0:0:0:0:
222,348,139609,1,0,0:0:0:0:
322,268,139769,2,0,P|260:238|195:218,1,136,0|8,3:0|0:0,0:0:0:0:
195,218,140247,1,0,0:0:0:0:
401,365,140407,5,0,3:0:0:0:
447,245,140567,1,0,0:0:0:0:
322,268,140726,1,8,0:0:0:0:
401,365,140886,2,0,P|449:378|475:382,1,68,0|0,0:0|3:0,0:0:0:0:
447,245,141205,2,0,P|483:209|498:189,1,68,0|8,0:0|0:0,0:0:0:0:
322,268,141524,1,0,0:0:0:0:
364,149,141684,6,0,P|351:99|341:76,2,68,0|0|8,3:0|0:0|0:0,0:0:0:0:
322,268,142162,2,0,P|285:303|270:323,1,68,0|0,0:0|3:0,0:0:0:0:
447,245,142482,2,0,P|495:258|521:261,1,68,0|8,0:0|0:0,0:0:0:0:
364,149,142801,1,0,0:0:0:0:
407,345,142960,6,0,P|320:321|274:316,1,136,0|8,3:0|0:0,0:0:0:0:
196,241,143439,1,0,0:0:0:0:
259,382,143599,2,0,P|268:349|274:315,1,68,0|0,3:0|0:0,0:0:0:0:
181,174,143918,2,0,P|186:207|195:240,1,68,8|0,0:0|0:0,0:0:0:0:
394,246,144237,6,0,P|381:176|362:107,1,136,0|8,3:0|0:0,0:0:0:0:
302,86,144716,2,0,P|335:104|375:115,1,68,0|0,0:0|3:0,0:0:0:0:
302,194,145035,1,0,0:0:0:0:
423,81,145194,2,0,P|391:94|363:113,1,68,8|0,0:0|0:0,0:0:0:0:
230,35,145513,5,0,3:0:0:0:
193,196,145673,2,0,P|186:163|182:147,1,34,0|0,1:0|1:0,1:0:0:0:
47,100,145833,5,8,0:0:0:0:
127,7,145992,2,0,P|120:39|116:56,1,34,0|0,1:0|1:0,1:0:0:0:
69,188,146152,6,0,B|144:160|130:230|228:181,1,127.5,4|0,3:2|0:0,0:0:0:0:
293,59,146471,2,0,B|271:149|271:149|264:125|235:107,1,127.5,12|0,0:0|0:0,0:0:0:0:
176,261,146790,6,0,P|184:227|193:191,1,68,4|0,3:2|0:0,0:0:0:0:
140,80,147109,1,8,0:0:0:0:
19,141,147269,2,0,P|44:164|71:190,1,68,0|0,0:0|3:0,0:0:0:0:
206,61,147588,2,0,P|172:71|136:81,1,68,0|8,0:0|0:0,0:0:0:0:
68,187,147907,1,0,0:0:0:0:
176,261,148067,6,0,B|242:240|253:291|324:262,1,136,0|8,3:0|0:0,0:0:0:0:
274,147,148545,1,0,0:0:0:0:
419,259,148705,1,2,3:2:0:0:
388,273,148865,1,0,0:0:0:0:
435,163,149024,1,10,0:0:0:0:
512,262,149184,1,0,0:0:0:0:
435,163,149343,6,0,P|427:119|431:90,1,68,0|0,3:0|0:0,0:0:0:0:
331,41,149662,1,8,0:0:0:0:
284,184,149822,2,0,P|326:199|349:217,1,68,0|0,0:0|3:0,0:0:0:0:
331,41,150141,2,0,P|296:69|269:80,1,68,0|8,0:0|0:0,0:0:0:0:
344,212,150460,1,0,0:0:0:0:
170,77,150620,6,0,P|192:133|170:216,1,136,0|8,3:0|0:0,0:0:0:0:
67,230,151099,1,0,0:0:0:0:
185,333,151258,2,0,P|161:270|177:204,1,136,0|8,3:0|0:0,0:0:0:0:
402,252,151737,1,0,0:0:0:0:
402,252,151817,1,0,0:0:0:0:
402,252,151896,6,0,B|343:237|336:287|265:267,1,136,0|8,3:0|0:0,0:0:0:0:
335,155,152375,1,0,0:0:0:0:
168,190,152535,2,0,P|204:186|255:175,1,68,0|0,3:0|0:0,0:0:0:0:
187,90,152854,1,8,0:0:0:0:
270,268,153013,1,0,0:0:0:0:
412,89,153173,6,0,P|362:57|286:65,1,136,0|8,3:0|0:0,0:0:0:0:
235,180,153652,1,0,0:0:0:0:
73,98,153811,2,0,P|108:93|120:90,1,34,8|0,0:0|0:0,0:0:0:0:
181,15,153971,1,0,0:0:0:0:
181,15,154051,1,0,0:0:0:0:
181,15,154130,1,0,3:0:0:0:
120,207,154290,1,0,0:0:0:0:
318,166,154450,6,0,P|250:175|226:181,1,85,4|8,3:2|0:0,0:0:0:0:
106,343,154769,2,0,P|121:303|118:278,1,50.9999984436036,0|0,3:0|0:0,0:0:0:0:
31,137,154928,6,0,B|1:213|57:206|31:291,1,152.999995330811,12|0,0:0|0:0,0:0:0:0:
200,343,155247,2,0,P|229:342|254:334,1,50.9999984436036,2|0,0:0|0:0,0:0:0:0:
226,139,155407,2,0,P|197:140|172:148,1,50.9999984436036,0|0,3:0|0:0,0:0:0:0:
161,243,155567,6,0,B|224:252|267:224|267:224|290:228|306:252,1,152.999995330811,12|0,0:0|0:0,0:0:0:0:
347,336,155886,1,2,1:2:0:0:
453,140,156045,1,2,1:2:0:0:
495,373,156205,1,2,1:2:0:0:
344,101,156365,1,12,0:0:0:0:
344,101,156684,6,0,P|342:45|272:82,1,152.999995330811,8|0,0:0|0:0,0:0:0:0:
442,98,157003,6,0,P|433:40|419:-19,1,85,4|0,3:2|0:0,0:0:0:0:
276,169,157322,1,8,0:0:0:0:
388,192,157482,2,0,P|429:200|471:206,1,85,0|0,0:0|3:0,0:0:0:0:
344,101,157801,1,0,0:0:0:0:
318,256,157960,1,8,0:0:0:0:
442,98,158120,1,0,0:0:0:0:
262,63,158279,2,0,P|219:69|178:77,1,85,0|0,3:0|0:0,0:0:0:0:
192,319,158599,6,0,L|182:218,1,85,10|0,0:2|0:0,0:0:0:0:
80,113,158918,6,0,L|70:191,1,76.4999976654053,2|0,3:2|0:0,0:0:0:0:
183,234,159237,6,0,L|174:149,1,68,10|0,0:2|0:0,0:0:0:0:
113,375,159556,6,0,P|195:354|279:359,1,170,4|8,3:2|0:0,0:0:0:0:
411,263,160035,2,0,P|368:264|327:253,1,85,0|0,0:0|3:0,0:0:0:0:
254,110,160354,1,0,0:0:0:0:
276,129,160434,1,0,0:0:0:0:
286,156,160513,1,8,0:0:0:0:
224,233,160673,1,0,0:0:0:0:
154,97,160833,2,0,P|173:59|203:29,1,85,0|0,3:0|0:0,0:0:0:0:
224,233,161152,6,0,L|120:220,1,85,10|0,0:2|0:0,0:0:0:0:
3,30,161471,6,0,L|95:18,1,93.5000028533936,2|0,3:2|0:0,0:0:0:0:
325,244,161790,6,0,L|204:230,1,101.999996887207,10|0,0:2|0:0,0:0:0:0:
144,227,162029,1,0,1:0:0:0:
144,227,162109,6,0,P|223:185|230:88,1,170,4|8,3:2|0:0,0:0:0:0:
176,309,162588,2,0,P|133:311|92:321,1,85,0|0,0:0|3:0,0:0:0:0:
136,124,162907,1,0,0:0:0:0:
325,179,163067,2,0,P|367:176|408:166,1,85,8|0,0:0|0:0,0:0:0:0:
220,10,163386,6,0,P|223:99|237:199,1,170,0|8,3:0|0:0,0:0:0:0:
314,73,163865,1,0,0:0:0:0:
145,158,164024,1,0,3:0:0:0:
136,124,164104,1,0,0:0:0:0:
136,89,164184,1,0,0:0:0:0:
325,179,164343,2,0,P|317:223|312:262,1,85,8|0,0:0|0:0,0:0:0:0:
66,269,164662,6,0,L|214:260,1,127.5,4|0,3:2|0:0,0:0:0:0:
216,246,164982,1,8,0:0:0:0:
160,340,165141,1,0,0:0:0:0:
197,157,165301,1,0,3:0:0:0:
353,252,165460,6,0,P|318:262|294:263,1,42.5,2|0,0:0|0:0,0:0:0:0:
216,246,165620,1,8,0:0:0:0:
245,369,165779,6,0,P|253:333|264:312,1,42.5,2|0,0:0|0:0,0:0:0:0:
278,186,165939,1,0,3:0:0:0:
421,320,166099,5,2,0:2:0:0:
421,320,166178,1,0,0:0:0:0:
421,320,166258,2,0,P|457:321|526:306,1,85,8|0,0:0|0:0,0:0:0:0:
289,97,166577,1,0,3:0:0:0:
447,222,166737,1,0,3:0:0:0:
448,187,166817,1,0,3:0:0:0:
438,154,166896,1,0,3:0:0:0:
288,210,167056,1,0,0:0:0:0:
469,75,167216,6,0,P|436:70|414:76,1,50.9999984436036,6|0,3:2|0:0,0:0:0:0:
314,54,167375,2,0,P|293:80|287:102,1,50.9999984436036,10|0,0:0|0:0,0:0:0:0:
368,201,167535,1,0,3:0:0:0:
153,85,167694,6,0,B|148:137|185:200|185:200|202:164,1,152.999995330811,12|0,0:0|0:0,0:0:0:0:
288,96,168013,2,0,L|230:105,1,50.9999984436036,0|0,3:0|0:0,0:0:0:0:
82,166,168173,1,8,0:0:0:0:
263,244,168333,6,0,B|196:253|136:236|136:236|174:282,1,178.499994552612,12|0,0:0|0:0,0:0:0:0:
221,384,168652,2,0,L|227:317,1,59.4999981842042,8|0,0:0|0:0,0:0:0:0:
237,104,168811,1,12,0:0:0:0:
237,104,169130,6,0,L|232:58,6,29.7499990921021,2|0|0|0|2|0|0,0:0|0:0|0:0|0:0|1:2|0:0|1:0,0:0:0:0:
190,182,169450,2,0,P|219:192|261:191,1,59.4999981842042,8|0,0:0|0:0,0:0:0:0:
482,209,169609,6,0,P|410:197|305:262,1,170,4|0,3:2|0:0,0:0:0:0:
492,292,170088,2,0,P|492:249|482:209,1,85,8|0,0:0|0:0,0:0:0:0:
324,237,170407,2,0,P|262:224|210:234,1,85,0|0,3:0|0:0,0:0:0:0:
217,122,170726,1,8,0:0:0:0:
198,291,170886,6,0,L|219:106,1,170
263,353,171365,2,0,L|344:377,1,85,8|0,0:0|0:0,0:0:0:0:
119,331,171684,1,0,3:0:0:0:
294,254,171843,1,0,0:0:0:0:
101,213,172003,1,8,0:0:0:0:
241,376,172162,1,0,0:0:0:0:
63,218,172322,6,0,P|34:248|14:285,1,85,4|0,3:2|0:0,0:0:0:0:
113,100,172641,2,0,P|71:89|29:91,1,85,8|0,0:0|0:0,0:0:0:0:
239,83,172960,2,0,P|227:42|204:6,2,85,0|0|8,3:0|0:0|0:0,0:0:0:0:
358,238,173439,6,0,P|441:247|512:204,1,170
277,174,173918,2,0,L|170:192,1,85,8|0,0:0|0:0,0:0:0:0:
124,240,174157,1,0,0:0:0:0:
124,240,174237,6,0,L|137:302,1,42.5,2|0,0:0|0:0,0:0:0:0:
211,96,174396,6,0,L|200:45,1,50.9999984436036,2|0,0:0|0:0,0:0:0:0:
8,1,174556,6,0,L|20:62,1,59.4999981842042,2|0,0:0|0:0,0:0:0:0:
124,134,174716,6,0,P|58:159|14:263,1,170,4|0,3:2|0:0,0:0:0:0:
57,315,175194,2,0,P|40:275|13:243,1,85,8|0,0:0|0:0,0:0:0:0:
124,134,175513,2,0,P|151:101|167:63,1,85,0|0,3:0|0:0,0:0:0:0:
117,0,175833,1,8,0:0:0:0:
151,157,175992,6,0,L|319:186,1,170
453,275,176471,1,8,0:0:0:0:
296,294,176630,1,0,0:0:0:0:
426,180,176790,1,0,3:0:0:0:
385,360,176950,1,0,0:0:0:0:
318,185,177109,6,0,L|320:128,1,42.5,2|0,0:0|0:0,0:0:0:0:
192,313,177269,2,0,L|193:363,1,42.5,2|0,0:0|0:0,0:0:0:0:
46,220,177428,6,0,L|10:297,1,85,4|0,3:2|0:0,0:0:0:0:
98,92,177747,2,0,L|13:100,1,85,8|0,0:0|0:0,0:0:0:0:
234,73,178067,2,0,L|184:3,2,85,0|0|8,3:0|0:0|0:0,0:0:0:0:
202,185,178545,6,0,B|117:175|117:175|46:220,1,170
236,292,179024,2,0,L|186:361,1,85,8|0,0:0|0:0,0:0:0:0:
384,272,179343,5,0,3:0:0:0:
128,272,179503,1,0,1:0:0:0:
90,290,179583,1,0,1:0:0:0:
52,308,179662,1,10,0:2:0:0:
308,236,179822,1,0,1:0:0:0:
346,254,179902,1,0,1:0:0:0:
384,272,179982,6,0,L|473:259,1,85,4|0,3:2|0:0,0:0:0:0:
128,272,180301,2,0,L|39:259,1,85,8|0,0:0|0:0,0:0:0:0:
112,145,180620,1,0,3:0:0:0:
94,35,180779,1,0,0:0:0:0:
5,104,180939,1,8,0:0:0:0:
191,49,181099,6,0,P|245:59|372:44,1,170
441,115,181577,1,8,0:0:0:0:
252,193,181737,1,0,0:0:0:0:
400,288,181896,6,0,L|478:298,1,50.9999984436036,2|0,3:2|0:0,0:0:0:0:
295,363,182056,2,0,L|217:373,1,50.9999984436036,2|0,0:0|0:0,0:0:0:0:
260,213,182216,6,0,L|305:219,1,42.5,8|0,0:0|0:0,0:0:0:0:
181,277,182375,2,0,L|120:284,1,42.5,2|0,0:0|0:0,0:0:0:0:
126,172,182535,6,0,L|156:58,1,85,4|0,3:2|0:0,0:0:0:0:
386,172,182854,2,0,L|356:58,1,85,8|0,0:0|0:0,0:0:0:0:
392,13,183173,1,0,3:0:0:0:
272,108,183333,1,0,0:0:0:0:
473,120,183492,1,8,0:0:0:0:
236,112,183652,6,0,P|181:104|62:41,1,170
0,110,184130,1,8,0:0:0:0:
45,313,184290,1,0,0:0:0:0:
45,313,184370,1,0,0:0:0:0:
45,313,184450,6,0,L|31:378,1,42.5,2|0,3:2|0:0,0:0:0:0:
129,219,184609,2,0,L|115:154,1,42.5,2|0,0:0|0:0,0:0:0:0:
206,320,184769,6,0,L|192:385,1,34,10|0,0:0|0:0,0:0:0:0:
290,226,184928,2,0,L|276:161,1,34,2|0,0:0|0:0,0:0:0:0:
388,298,185088,6,0,L|295:323,1,85,4|0,3:2|0:0,0:0:0:0:
124,298,185407,2,0,L|206:320,1,85,8|0,0:0|0:0,0:0:0:0:
79,208,185726,1,0,3:0:0:0:
206,126,185886,1,0,0:0:0:0:
82,62,186045,1,8,0:0:0:0:
175,225,186205,6,0,P|255:213|358:253,1,170
96,161,186684,2,0,P|157:132|211:119,1,85,8|0,0:0|0:0,0:0:0:0:
309,76,187003,2,0,P|248:47|194:34,1,85,0|0,3:0|0:0,0:0:0:0:
179,351,187322,2,0,L|198:205,1,127.5,8|0,0:0|0:0,0:0:0:0:
222,246,187641,6,0,P|276:271|343:267,1,101.999996887207,4|0,3:2|0:0,0:0:0:0:
462,233,187960,1,8,0:0:0:0:
164,122,188120,1,2,0:0:0:0:
164,122,188200,1,0,0:0:0:0:
164,122,188279,6,0,L|28:151,1,118.999996368408,2|0,3:2|0:0,0:0:0:0:
300,167,188599,6,0,L|270:31,1,136,8|0,0:0|0:0,0:0:0:0:
131,243,188918,5,8,0:0:0:0:
252,328,189077,1,0,1:0:0:0:
295,340,189157,1,0,1:0:0:0:
340,345,189237,1,8,0:0:0:0:
385,343,189317,1,0,1:0:0:0:
429,333,189396,1,0,1:0:0:0:
471,316,189476,1,0,1:0:0:0:
510,292,189556,6,0,P|506:235|487:177,1,68,0|0,3:0|0:0,0:0:0:0:
390,70,189716,1,0,1:0:0:0:
362,101,189795,1,0,1:0:0:0:
332,129,189875,2,0,P|326:162|325:196,1,68,0|0,3:0|0:0,0:0:0:0:
256,350,190035,6,0,P|189:301|77:329,1,170,4|0,3:2|0:0,0:0:0:0:
26,293,190513,2,0,P|76:313|106:308,1,85,8|0,0:0|0:0,0:0:0:0:
150,188,190833,1,0,3:0:0:0:
256,350,190992,2,0,P|259:308|240:270,1,85,0|8,0:0|0:0,0:0:0:0:
70,131,191311,6,0,B|160:107|151:189|249:152,1,170
57,44,191790,1,8,0:0:0:0:
104,220,191950,1,0,0:0:0:0:
204,65,192109,1,0,3:0:0:0:
83,133,192269,1,0,0:0:0:0:
117,128,192349,1,0,0:0:0:0:
149,143,192428,1,8,0:0:0:0:
57,44,192588,1,0,0:0:0:0:
22,237,192747,6,0,P|74:232|110:216,1,85,4|0,3:2|0:0,0:0:0:0:
285,82,193067,2,0,P|245:67|203:64,1,85,8|0,0:0|0:0,0:0:0:0:
103,219,193386,1,0,3:0:0:0:
232,156,193545,1,0,0:0:0:0:
65,91,193705,1,8,0:0:0:0:
216,264,193865,1,0,0:0:0:0:
216,264,193944,1,0,0:0:0:0:
216,264,194024,6,0,B|260:267|295:231|295:231|306:277|348:294,1,170,2|0,3:2|0:0,0:0:0:0:
466,203,194503,6,0,P|435:206|398:220,1,42.5,2|0,0:0|0:0,0:0:0:0:
324,347,194662,6,0,P|341:309|343:279,1,59.4999981842042,2|0,3:2|0:0,0:0:0:0:
442,136,194822,6,0,P|424:180|424:214,1,76.6752599935018
257,317,194982,6,0,P|317:309|345:289,1,93.5534624862717,8|0,0:0|0:0,0:0:0:0:
299,60,195141,6,0,B|275:115|313:173|276:244,1,170,4|0,3:2|0:0,0:0:0:0:
215,73,195620,2,0,P|261:69|308:56,1,85,8|0,0:0|0:0,0:0:0:0:
283,227,195939,1,0,3:0:0:0:
152,155,196099,2,0,P|110:144|68:141,1,85,0|8,0:0|0:0,0:0:0:0:
0,308,196418,6,0,L|89:300,1,85,0|0,0:0|3:0,0:0:0:0:
152,155,196737,1,0,0:0:0:0:
174,355,196896,1,8,0:0:0:0:
42,217,197056,1,0,0:0:0:0:
283,257,197216,6,0,P|183:248|141:239,1,127.5,0|0,3:0|0:0,0:0:0:0:
134,269,197535,6,0,P|167:279|198:281,1,50.9999984436036,8|0,0:0|0:0,0:0:0:0:
302,165,197694,2,0,P|269:155|238:153,1,50.9999984436036
362,319,197854,6,0,P|375:278|373:228,1,85,4|0,3:2|0:0,0:0:0:0:
168,74,198173,1,8,0:0:0:0:
265,241,198333,1,0,0:0:0:0:
346,69,198492,1,0,3:0:0:0:
155,159,198652,1,0,0:0:0:0:
180,163,198732,1,0,0:0:0:0:
203,154,198811,1,8,0:0:0:0:
98,20,198971,1,0,0:0:0:0:
0,215,199130,6,0,P|81:207|142:280,1,170,0|8,3:0|0:0,0:0:0:0:
41,321,199609,1,0,0:0:0:0:
243,250,199769,2,0,P|236:280|234:297,1,42.5,0|0,3:0|0:0,0:0:0:0:
388,384,199928,1,0,1:0:0:0:
371,380,200008,1,0,1:0:0:0:
354,377,200088,6,0,P|348:356|345:335,1,42.5,8|0,0:0|0:0,0:0:0:0:
491,169,200247,1,0,1:0:0:0:
488,194,200327,1,0,1:0:0:0:
487,216,200407,6,0,B|398:199|408:259|320:233,1,170,4|8,3:2|0:0,0:0:0:0:
148,179,200886,1,0,0:0:0:0:
241,66,201045,2,0,P|243:112|251:160,1,85,0|0,3:0|0:0,0:0:0:0:
337,315,201365,1,8,0:0:0:0:
90,268,201524,6,0,P|155:286|237:227,1,152.999995330811,12|0,3:2|0:0,0:0:0:0:
65,256,201843,2,0,P|74:304|74:321,1,50.9999984436036
148,179,202003,1,8,0:0:0:0:
228,361,202162,1,0,0:0:0:0:
314,145,202322,1,0,3:0:0:0:
234,254,202482,1,0,0:0:0:0:
234,254,202561,1,0,0:0:0:0:
234,254,202641,1,8,0:0:0:0:
387,60,202801,5,0,1:0:0:0:
387,60,202880,1,0,1:0:0:0:
387,60,202960,2,0,B|392:112|422:142|422:142|414:182|380:203,1,165.749992412568,4|0,3:2|0:0,0:0:0:0:
381,202,203279,1,0,3:0:0:0:
160,138,203439,2,0,P|217:136|272:122,1,110.499994941712,12|0,0:0|0:0,0:0:0:0:
415,290,203758,2,0,P|375:291|337:301,1,55.2499974708558,12|0,0:0|0:0,0:0:0:0:
244,350,203918,1,0,3:0:0:0:
160,138,204077,6,0,P|146:211|184:271,1,127.5,12|0,3:2|0:0,0:0:0:0:
168,256,204396,2,0,P|136:244|108:244,1,42.5
25,341,204556,2,0,P|76:338|114:328,1,85,8|0,0:0|0:0,0:0:0:0:
240,191,204875,1,0,3:0:0:0:
78,40,205035,5,2,1:2:0:0:
78,40,205115,1,0,1:0:0:0:
78,40,205194,2,0,P|88:79|87:111,1,59.4999981842042,2|0,3:2|0:0,0:0:0:0:
240,191,205354,2,0,P|277:177|309:175,1,59.4999981842042,2|0,0:0|0:0,0:0:0:0:
444,87,205513,6,0,B|494:121|494:121|466:248,1,170,4|8,3:2|0:0,0:0:0:0:
296,174,205992,1,0,0:0:0:0:
395,316,206152,2,0,P|351:294|311:295,1,85,0|0,3:0|1:0,0:0:0:0:
216,357,206471,1,8,0:0:0:0:
133,146,206630,6,0,B|232:126|206:203|318:167,1,170,12|0,0:0|0:0,0:0:0:0:
295,173,207109,2,0,L|309:77,1,85,8|0,0:0|0:0,0:0:0:0:
402,27,207428,5,2,0:0:0:0:
214,117,207588,1,0,0:0:0:0:
447,220,207747,1,2,0:0:0:0:
303,46,207907,2,0,L|307:90,1,42.5
337,282,208067,6,0,B|215:255|215:255|168:314,1,178.499994552612,4|0,3:2|0:0,0:0:0:0:
118,368,208386,1,8,0:0:0:0:
35,110,208545,6,0,B|15:170|41:232|41:232|42:198|75:173,1,178.499994552612,12|0,0:0|0:0,0:0:0:0:
149,137,208865,1,0,0:0:0:0:
174,134,208944,1,0,0:0:0:0:
197,146,209024,1,0,3:0:0:0:
502,76,209184,6,0,B|459:78|459:78|429:61|429:61|402:83|402:83|312:91,1,178.499994552612,12|0,0:0|0:0,0:0:0:0:
244,36,209503,1,2,0:0:0:0:
259,249,209662,1,8,0:0:0:0:
259,249,209822,1,2,0:0:0:0:
106,133,209982,6,0,L|173:138,1,42.5,0|0,3:0|0:0,0:0:0:0:
301,245,210141,1,0,1:0:0:0:
301,245,210221,1,0,1:0:0:0:
301,245,210301,2,0,L|234:250,1,42.5,0|0,3:0|0:0,0:0:0:0:
419,130,210460,1,0,1:0:0:0:
419,130,210540,1,0,1:0:0:0:
419,130,210620,6,0,P|382:240|387:322,1,170,4|8,3:2|0:0,0:0:0:0:
382,292,211258,6,0,P|339:297|300:312,1,85,2|0,3:2|0:0,0:0:0:0:
35,185,211577,6,0,P|74:199|135:204,1,93.5000028533936,10|0,0:0|0:0,0:0:0:0:
300,312,211896,6,0,P|233:336|95:292,1,203.999993774414,2|8,3:2|0:0,0:0:0:0:
95,105,212375,1,0,0:0:0:0:
108,303,212535,6,0,P|201:249|231:145,1,220.999989883423,2|8,3:2|0:0,0:0:0:0:
56,37,213013,1,0,0:0:0:0:
231,145,213173,6,0,P|169:189|65:180,1,165.749992412568,2|0,3:2|0:0,0:0:0:0:
61,169,213492,2,0,P|79:189|89:215,1,55.2499974708558,10|0,0:0|0:0,0:0:0:0:
207,292,213652,2,0,P|253:320|307:330,1,110.499994941712,2|0,0:0|3:0,0:0:0:0:
310,170,213971,6,0,P|300:195|281:216,1,55.2499974708558,2|0,0:0|0:0,0:0:0:0:
129,339,214130,2,0,P|120:313|121:286,1,55.2499974708558,10|0,0:0|0:0,0:0:0:0:
230,90,214290,2,0,P|235:116|231:144,1,55.2499974708558
9,222,214450,6,0,L|173:204,1,165.749992412568,6|0,3:2|0:0,0:0:0:0:
173,204,214769,1,8,0:0:0:0:
80,45,214928,1,0,0:0:0:0:
79,60,215008,1,0,0:0:0:0:
77,74,215088,2,0,L|69:142,1,55.2499974708558,2|0,3:2|0:0,0:0:0:0:
280,290,215247,2,0,L|288:222,1,55.2499974708558
312,103,215407,1,10,1:2:0:0:
66,258,215567,1,0,0:0:0:0:
212,43,215726,6,0,B|160:82|160:82|184:250,1,191.250007295609,4|0,3:2|0:0,0:0:0:0:
148,327,216045,2,0,B|200:288|200:288|182:163,1,191.250007295609,6|0,3:2|0:0,0:0:0:0:
34,196,216365,2,0,L|119:186,1,63.7500024318696,6|0,3:2|0:0,0:0:0:0:
272,168,216524,1,8,0:0:0:0:
66,92,216684,1,8,0:0:0:0:
293,314,216843,6,0,L|321:44,1,272,4|0,3:2|0:0,0:0:0:0:
408,259,217322,2,0,P|310:194|193:206,1,204,8|0,0:0|0:0,0:0:0:0:
91,235,217641,2,0,P|123:246|156:248,1,68,0|0,3:0|0:0,0:0:0:0:
315,109,217801,1,0,3:0:0:0:
285,103,217880,1,0,3:0:0:0:
257,101,217960,2,0,P|223:103|190:115,1,68,2|0,3:2|0:0,0:0:0:0:
149,338,218120,6,0,B|189:335|189:335|218:321|218:321|255:326,1,106.25,14|0,3:2|0:0,0:0:0:0:
252,325,218599,6,0,P|248:262|255:212,1,101.999996887207,8|0,0:0|0:0,0:0:0:0:
112,200,218918,2,0,P|164:165|211:146,1,101.999996887207,0|0,3:0|0:0,0:0:0:0:
326,63,219237,1,8,0:0:0:0:
288,144,219396,1,0,0:0:0:0:
422,153,219556,6,0,P|334:148|248:237,1,203.999993774414,0|8,3:0|0:0,0:0:0:0:
252,222,220194,2,0,B|197:222|132:211|132:211|149:238,1,152.999995330811
210,315,220513,1,10,0:2:0:0:
210,315,220593,1,0,0:0:0:0:
210,315,220673,1,0,0:0:0:0:
205,128,220833,5,0,3:0:0:0:
412,268,220992,1,8,0:0:0:0:
341,213,221152,1,0,3:0:0:0:
425,178,221311,1,0,3:0:0:0:
332,301,221471,2,0,P|310:173|316:75,1,203.999993774414,8|0,0:0|0:0,0:0:0:0:
509,347,221950,6,0,P|467:335|426:328,1,85,6|0,3:2|3:0,0:0:0:0:
430,331,222588,1,0,3:0:0:0:
206,262,222747,1,0,3:0:0:0:
258,337,222907,1,0,3:0:0:0:
292,253,223067,1,0,3:0:0:0:
93,353,223386,5,2,0:0:0:0:
284,121,231045,6,0,B|387:127,1,85,4|8,3:2|0:0,0:0:0:0:
486,138,231524,6,0,B|491:88|491:88|484:58|484:58|491:2,1,127.500004863739,4|0,3:2|0:0,0:0:0:0:
412,251,232003,6,0,P|329:271|358:202,1,170,4|0,3:2|0:0,0:0:0:0:
368,125,232482,2,0,P|315:121|281:134,1,85,8|0,0:0|0:0,0:0:0:0:
285,131,232960,1,8,0:0:0:0:
334,31,233120,1,0,3:0:0:0:
443,37,233279,1,0,3:0:0:0:
486,138,233439,1,0,3:0:0:0:
443,268,233599,6,0,L|436:331,1,50.9999984436036,4|0,3:2|0:0,0:0:0:0:
333,215,233918,2,0,L|340:278,1,50.9999984436036,0|0,3:0|0:0,0:0:0:0:
443,268,234237,5,0,3:0:0:0:
356,353,234396,1,0,0:0:0:0:
333,215,234556,1,0,3:0:0:0:
356,353,234716,5,8,0:0:0:0:
416,177,234875,1,0,3:0:0:0:
267,297,235035,1,8,0:0:0:0:
338,121,235194,6,0,L|253:102,1,68,0|0,3:0|0:0,0:0:0:0:
141,117,235513,2,0,P|208:128|271:106,1,136,0|8,3:0|0:0,0:0:0:0:
198,19,235992,1,0,0:0:0:0:
41,139,236152,6,0,L|23:230,1,76.4999976654053,4|0,3:2|0:0,0:0:0:0:
207,242,236471,2,0,L|225:333,1,76.4999976654053,0|0,3:0|0:0,0:0:0:0:
37,357,236790,6,0,P|68:318|96:295,1,85,0|0,1:0|1:0,0:0:0:0:
370,318,237109,1,0,1:0:0:0:
247,149,237269,6,0,P|213:211|206:282,1,101.999996887207,0|0,1:0|1:0,0:0:0:0:
192,12,237588,2,0,P|202:87|247:149,1,152.999995330811,0|0,1:0|0:0,0:0:0:0:
246,148,237907,2,0,P|291:173|333:167,1,50.9999984436036,0|0,1:0|0:0,0:0:0:0:
373,167,238067,5,8,0:0:0:0:
206,241,238226,1,0,3:0:0:0:
362,288,238386,1,0,3:0:0:0:
410,89,238545,6,0,P|342:86|291:186,1,178.499994552612,4|0,3:2|0:0,0:0:0:0:
288,171,238865,2,0,L|296:252,1,59.4999981842042,0|0,3:0|0:0,0:0:0:0:
449,384,239024,2,0,L|443:324,1,59.4999981842042,4|0,3:2|0:0,0:0:0:0:
424,63,239662,5,0,0:0:0:0:
424,63,239742,1,0,0:0:0:0:
424,63,239822,2,0,P|335:50|262:112,1,170,6|0,3:2|0:0,0:0:0:0:
467,133,240301,2,0,P|452:93|423:62,1,85,8|0,0:0|0:0,0:0:0:0:
305,238,240620,1,0,3:0:0:0:
191,111,240779,2,0,P|233:110|272:93,1,85,0|8,0:0|0:0,0:0:0:0:
389,248,241099,6,0,L|303:237,1,85,0|0,0:0|3:0,0:0:0:0:
101,169,241418,1,0,0:0:0:0:
304,237,241577,1,8,0:0:0:0:
130,356,241737,1,0,0:0:0:0:
206,200,241896,1,0,3:0:0:0:
32,316,242056,1,0,0:0:0:0:
236,384,242216,2,0,P|337:368|391:364,1,127.5,8|0,0:0|0:0,0:0:0:0:
504,302,242535,6,0,P|457:296|418:284,1,85,4|0,3:2|0:0,0:0:0:0:
198,195,242854,2,0,P|238:183|280:178,1,85,8|0,0:0|0:0,0:0:0:0:
465,88,243173,1,0,3:0:0:0:
369,210,243333,1,0,0:0:0:0:
367,184,243412,1,0,0:0:0:0:
366,158,243492,1,8,0:0:0:0:
509,212,243652,1,0,0:0:0:0:
356,53,243811,6,0,B|308:69|272:65|235:46|235:46|257:65|264:97,1,170,0|8,3:0|0:0,0:0:0:0:
175,224,244290,6,0,P|166:198|163:171,1,42.5,2|0,0:0|0:0,0:0:0:0:
68,134,244450,6,0,P|89:108|113:89,1,59.4999981842042,2|0,3:2|0:0,0:0:0:0:
248,244,244609,6,0,P|210:237|170:221,1,77.2727272727273,2|0,0:0|0:0,0:0:0:0:
90,0,244769,6,0,P|103:37|110:91,1,94.4444444444444,10|0,0:0|0:0,0:0:0:0:
95,275,244928,6,0,P|168:230|262:253,1,170,12|0,0:0|0:0,0:0:0:0:
73,356,245407,2,0,P|81:308|98:269,1,85,8|0,0:0|0:0,0:0:0:0:
221,132,245726,1,0,3:0:0:0:
328,265,245886,2,0,P|280:257|241:240,1,85,0|8,0:0|0:0,0:0:0:0:
117,60,246205,6,0,P|132:99|138:141,1,85,0|0,0:0|3:0,0:0:0:0:
27,239,246524,1,0,0:0:0:0:
117,60,246684,1,8,0:0:0:0:
233,224,246843,1,0,0:0:0:0:
62,142,247003,2,0,P|133:148|211:104,1,127.5,0|0,3:0|0:0,0:0:0:0:
212,145,247322,6,0,P|178:161|143:168,1,63.7500024318696,10|0,0:0|0:0,0:0:0:0:
27,239,247482,2,0,P|57:246|86:260,1,63.7500024318696,2|0,0:0|0:0,0:0:0:0:
185,384,247641,6,0,P|186:331|204:289,1,85,4|0,3:2|0:0,0:0:0:0:
407,176,247960,1,8,0:0:0:0:
272,351,248120,1,0,0:0:0:0:
212,145,248279,1,0,3:0:0:0:
315,267,248439,1,0,0:0:0:0:
291,256,248519,1,0,0:0:0:0:
265,256,248599,1,8,0:0:0:0:
407,176,248758,1,0,0:0:0:0:
150,235,248918,6,0,P|174:154|166:41,1,170,0|8,3:0|0:0,0:0:0:0:
77,10,249396,1,0,0:0:0:0:
278,137,249556,2,0,L|328:131,1,50.9999984436036,0|0,3:0|0:0,0:0:0:0:
508,227,249716,1,0,1:0:0:0:
483,223,249795,1,0,1:0:0:0:
458,218,249875,6,0,L|391:208,1,42.5,8|0,0:0|0:0,0:0:0:0:
302,374,250035,1,0,1:0:0:0:
312,355,250115,1,0,1:0:0:0:
322,336,250194,6,0,P|333:294|321:244,1,85,4|0,3:2|0:0,0:0:0:0:
84,209,250513,2,0,B|148:217|183:168|183:168|208:203|269:212,1,172.125000656605,8|0,0:0|0:0,0:0:0:0:
229,202,250833,1,0,3:0:0:0:
103,123,250992,1,0,0:0:0:0:
184,281,251152,1,8,0:0:0:0:
298,137,251311,6,0,P|314:181|320:224,1,85,0|0,0:0|3:0,0:0:0:0:
162,362,251630,2,0,P|178:318|184:275,1,85,0|8,0:0|0:0,0:0:0:0:
103,123,251950,1,0,0:0:0:0:
103,123,252029,1,0,0:0:0:0:
103,123,252109,6,0,P|142:138|192:135,1,76.4999976654053,2|0,3:2|0:0,0:0:0:0:
348,72,252269,6,0,P|309:57|259:60,1,68,2|0,0:0|0:0,0:0:0:0:
176,138,252428,6,0,P|168:169|166:215,1,59.4999981842042,10|0,0:0|0:0,0:0:0:0:
283,55,252588,6,0,P|291:24|293:-22,1,50.9999984436036,2|0,0:0|0:0,0:0:0:0:
81,40,252747,6,0,P|137:36|181:25,1,85,4|0,3:2|0:0,0:0:0:0:
414,190,253067,2,0,B|353:159|297:155|297:155|275:173|265:198,1,172.125000656605,8|0,0:0|0:0,0:0:0:0:
267,194,253386,1,0,3:0:0:0:
400,85,253545,1,0,0:0:0:0:
176,138,253705,1,8,0:0:0:0:
357,272,253865,6,0,P|314:278|262:292,1,85,0|0,0:0|3:0,0:0:0:0:
92,121,254184,2,0,P|135:127|187:141,1,85,0|8,0:0|0:0,0:0:0:0:
135,305,254503,1,0,0:0:0:0:
135,305,254583,1,0,0:0:0:0:
135,305,254662,6,0,P|129:269|131:230,1,59.4999981842042,2|0,3:2|0:0,0:0:0:0:
274,110,254822,6,0,P|279:145|278:185,1,50.9999984436036,2|0,0:0|0:0,0:0:0:0:
129,245,254982,6,0,P|131:218|138:194,1,42.5,10|0,0:0|0:0,0:0:0:0:
279,160,255141,6,0,P|277:187|270:211,1,34,2|0,0:0|0:3,0:0:0:0:
421,278,255301,6,0,P|411:234|408:189,1,85,4|0,3:2|0:0,0:0:0:0:
199,7,255620,2,0,B|207:60|168:101|168:101|174:143|217:184,1,172.125000656605,8|0,0:0|0:0,0:0:0:0:
245,237,255939,5,2,3:2:0:0:
213,250,256019,1,0,0:0:0:0:
179,251,256098,1,2,0:0:0:0:
274,110,256258,1,8,0:0:0:0:
84,208,256418,6,0,P|91:251|85:306,2,85,0|0|0,0:0|3:0|0:0,0:0:0:0:
9,55,256896,2,0,P|102:85|189:81,1,170,8|0,0:0|3:0,0:0:0:0:
365,50,257375,1,0,0:0:0:0:
257,11,257535,2,0,P|262:68|270:96,1,85,8|0,0:0|0:0,0:0:0:0:
481,242,257854,1,0,3:0:0:0:
313,307,258013,6,0,L|319:250,1,42.5,2|0,0:0|0:0,0:0:0:0:
481,242,258173,1,8,0:0:0:0:
328,165,258333,1,2,0:0:0:0:
326,186,258412,1,0,0:0:0:0:
324,205,258492,6,0,L|318:265,1,59.4999981842042,2|0,3:2|0:0,0:0:0:0:
304,383,258652,6,0,L|313:301,1,76.4999976654053,2|0,0:0|0:0,0:0:0:0:
236,186,258811,6,0,B|219:312|219:312|186:295|128:302,1,191.250007295609,12|0,0:0|0:0,0:0:0:0:
60,351,259130,2,0,P|50:316|52:270,1,63.7500024318696,0|0,3:0|0:0,0:0:0:0:
142,147,259290,1,0,1:0:0:0:
142,147,259370,1,0,1:0:0:0:
142,147,259450,2,0,P|140:178|131:209,1,63.7500024318696,8|0,0:0|0:0,0:0:0:0:
235,330,259609,1,0,1:0:0:0:
235,330,259689,1,0,1:0:0:0:
235,330,259769,6,0,P|319:310|366:314,1,127.500004863739,0|0,3:0|1:0,0:0:0:0:
474,342,260008,1,0,1:0:0:0:
462,309,260088,2,0,P|459:272|464:230,1,63.7500024318696,8|0,0:0|0:0,0:0:0:0:
405,75,260247,6,0,B|341:74|290:39|290:39|289:66|275:83,1,170,6|0,3:2|0:0,0:0:0:0:
489,69,260726,2,0,P|447:75|405:75,1,85,8|0,0:0|0:0,0:0:0:0:
191,78,261045,2,0,P|233:77|275:83,1,85,0|0,3:0|0:0,0:0:0:0:
353,245,261365,1,8,0:0:0:0:
116,206,261524,6,0,P|188:166|289:187,1,170
455,328,262003,1,8,0:0:0:0:
258,284,262162,1,0,0:0:0:0:
425,134,262322,1,0,3:0:0:0:
364,277,262482,1,0,0:0:0:0:
353,245,262561,1,0,0:0:0:0:
358,211,262641,1,8,0:0:0:0:
483,227,262801,1,0,0:0:0:0:
299,103,262960,6,0,P|268:171|262:214,1,85,4|0,3:2|0:0,0:0:0:0:
388,303,263279,2,0,P|409:339|438:370,1,85,8|0,0:0|0:0,0:0:0:0:
425,134,263599,1,0,3:0:0:0:
285,277,263758,1,0,0:0:0:0:
483,227,263918,1,8,0:0:0:0:
348,89,264077,1,0,0:0:0:0:
348,89,264157,1,0,0:0:0:0:
348,89,264237,6,0,B|318:153|343:217|343:217|384:171,1,170,2|0,3:2|0:0,0:0:0:0:
466,140,264716,6,0,P|440:135|411:133,1,42.5,2|0,0:0|0:0,0:0:0:0:
252,156,264875,6,0,P|228:168|197:192,1,59.4999981842042,2|0,3:0|0:0,0:0:0:0:
480,214,265035,6,0,P|472:159|457:120,1,76.4999976654053
274,66,265194,6,0,P|258:110|253:156,1,93.5000028533936,8|0,0:0|0:0,0:0:0:0:
432,289,265354,6,0,B|419:273|401:260|401:260|328:259|280:311,1,170,4|0,3:2|0:0,0:0:0:0:
485,354,265833,2,0,P|452:307|410:274,1,85,8|0,0:0|0:0,0:0:0:0:
253,156,266152,2,0,P|310:150|359:131,1,85,0|0,3:0|0:0,0:0:0:0:
496,133,266471,1,8,0:0:0:0:
285,305,266630,6,0,P|244:293|201:291,1,85,0|0,0:0|3:0,0:0:0:0:
13,173,266950,1,0,0:0:0:0:
201,291,267109,1,8,0:0:0:0:
15,359,267269,1,0,0:0:0:0:
89,149,267428,2,0,P|109:197|108:287,1,127.5,0|0,3:0|0:0,0:0:0:0:
86,285,267747,6,0,P|87:236|75:210,1,42.5,8|0,0:0|0:0,0:0:0:0:
228,169,267907,2,0,P|209:159|193:146,1,42.5
12,77,268067,6,0,P|48:54|89:46,1,85,4|0,3:2|0:0,0:0:0:0:
288,232,268386,1,8,0:0:0:0:
89,149,268545,1,0,0:0:0:0:
279,49,268705,1,0,3:0:0:0:
200,171,268865,1,0,0:0:0:0:
193,146,268944,1,0,0:0:0:0:
196,120,269024,1,8,0:0:0:0:
155,264,269184,1,0,0:0:0:0:
346,151,269343,6,0,P|326:232|334:347,1,170,2|8,3:2|0:0,0:0:0:0:
444,153,269822,1,0,0:0:0:0:
205,213,269982,2,0,P|228:224|277:228,1,42.5,0|0,3:0|0:0,0:0:0:0:
372,68,270141,1,0,0:0:0:0:
355,63,270221,1,0,0:0:0:0:
337,62,270301,2,0,P|316:67|297:77,1,42.5,8|0,0:0|0:0,0:0:0:0:
363,234,270460,1,0,1:0:0:0:
369,209,270540,1,0,1:0:0:0:
366,183,270620,6,0,P|270:145|190:137,1,170,4|8,3:2|0:0,0:0:0:0:
164,279,271099,1,0,0:0:0:0:
52,126,271258,2,0,P|64:166|69:208,1,85,0|0,3:0|0:0,0:0:0:0:
246,352,271577,1,8,0:0:0:0:
42,313,271737,6,0,P|121:285|201:277,1,127.5,6|0,3:2|0:0,0:0:0:0:
163,278,272056,2,0,P|165:256|172:237,1,42.5
299,197,272216,1,8,0:0:0:0:
133,127,272375,2,0,P|179:144|234:144,1,85,0|0,0:0|3:0,0:0:0:0:
488,117,272694,1,0,0:0:0:0:
288,50,272854,2,0,L|294:123,1,42.5,8|0,0:0|0:0,0:0:0:0:
395,239,273013,1,0,3:0:0:0:
395,239,273093,1,0,3:0:0:0:
395,239,273173,6,0,B|381:113|381:113|376:143|345:166,1,191.250007295609,6|0,3:2|0:0,0:0:0:0:
346,165,273492,1,8,0:0:0:0:
470,7,273652,2,0,P|406:28|343:28,1,110.499994941712,6|0,3:2|0:0,0:0:0:0:
132,140,273971,2,0,P|172:141|225:162,1,55.2499974708558,8|0,0:0|0:0,0:0:0:0:
353,248,274130,1,0,3:0:0:0:
270,1,274290,6,0,P|229:59|300:100,1,165.749992412568,6|0,3:2|0:0,0:0:0:0:
363,30,274609,1,0,0:0:0:0:
132,140,274769,1,8,0:0:0:0:
353,248,274928,1,0,0:0:0:0:
363,30,275088,1,0,3:0:0:0:
244,247,275247,5,0,1:0:0:0:
244,247,275327,1,0,1:0:0:0:
244,247,275407,2,0,P|246:202|266:148,1,59.4999981842042,8|0,0:0|1:0,0:0:0:0:
450,90,275567,2,0,P|455:119|455:148,1,59.4999981842042,0|0,1:0|1:0,1:0:0:0:
393,315,275726,6,0,B|344:283|344:283|340:204|369:138,1,170,6|8,3:2|0:0,0:0:0:0:
226,19,276205,1,0,0:0:0:0:
371,73,276365,2,0,P|322:85|258:90,1,85,0|0,3:0|0:0,0:0:0:0:
102,209,276684,1,8,0:0:0:0:
226,19,276843,6,0,P|201:100|191:184,1,170,6|0,3:2|0:0,0:0:0:0:
191,184,277322,2,0,P|233:189|274:200,1,85,8|0,0:0|0:0,0:0:0:0:
76,14,277641,1,0,3:0:0:0:
287,89,277800,1,0,0:0:0:0:
102,209,277960,1,8,0:0:0:0:
183,9,278120,2,0,L|186:51,1,42.5,2|0,0:0|0:0,0:0:0:0:
63,280,278279,6,0,B|19:255|19:255|15:179|15:179|53:140,1,178.499994552612,6|0,3:2|0:0,0:0:0:0:
181,204,278599,1,0,0:0:0:0:
21,51,278758,6,0,B|108:27|99:104|223:73,1,178.499994552612,6|0,3:2|0:0,0:0:0:0:
291,44,279077,1,0,0:0:0:0:
300,66,279157,1,0,0:0:0:0:
300,89,279237,1,0,3:0:0:0:
376,287,279396,6,0,B|358:221|374:162|374:162|344:191|310:195,1,178.499994552612,4|0,3:2|0:0,0:0:0:0:
237,172,279716,2,0,P|239:244|257:310,1,118.999996368408,0|8,0:0|0:0,0:0:0:0:
497,120,280035,2,0,P|495:48|477:-18,1,118.999996368408,0|0,0:0|3:0,0:0:0:0:
278,39,280354,1,0,1:0:0:0:
278,39,280434,1,0,1:0:0:0:
278,39,280513,2,0,P|301:46|342:50,1,42.5,8|0,0:0|0:0,0:0:0:0:
470,194,280673,1,0,1:0:0:0:
470,194,280753,1,0,1:0:0:0:
470,194,280833,6,0,P|414:180|376:174,1,85,4|0,3:2|0:0,0:0:0:0:
248,347,281152,2,0,P|289:339|330:328,1,85,8|0,0:0|0:0,0:0:0:0:
237,104,281471,2,0,P|225:145|217:186,1,85,0|0,3:0|0:0,0:0:0:0:
356,173,281790,1,8,0:0:0:0:
81,235,281950,6,0,B|178:215|155:286|259:256,1,170,6|0,3:2|0:0,0:0:0:0:
216,186,282428,1,0,3:0:0:0:
306,334,282588,6,0,P|335:265|356:165,1,170,6|0,3:2|0:0,0:0:0:0:
248,54,283067,6,0,P|234:112|226:135,1,50.9999984436036,2|0,3:2|0:0,0:0:0:0:
481,290,283226,6,0,P|471:257|463:227,1,59.4999981842042,8|0,0:0|0:0,0:0:0:0:
355,5,283386,6,0,B|348:64|348:64|363:110|363:110|354:176,1,170,4|8,3:2|0:0,0:0:0:0:
266,121,283865,1,0,0:0:0:0:
448,207,284024,2,0,P|453:164|441:120,1,85,0|0,3:0|0:0,0:0:0:0:
221,262,284343,1,8,0:0:0:0:
336,366,284503,6,0,B|368:367|396:350|396:350|432:375|432:375|463:355|527:363,1,170,6|0,3:2|0:0,0:0:0:0:
493,361,284982,2,0,L|504:264,1,85,8|0,0:0|0:0,0:0:0:0:
404,48,285301,5,0,3:0:0:0:
337,277,285460,1,0,1:0:0:0:
337,277,285540,1,0,1:0:0:0:
337,277,285620,1,8,0:0:0:0:
147,147,285779,2,0,P|208:145|219:146,1,42.5,0|0,3:0|0:0,0:0:0:0:
458,133,285939,6,0,B|394:147|394:147|278:99,1,178.499994552612,4|0,3:2|0:0,0:0:0:0:
222,64,286258,1,0,3:0:0:0:
230,302,286418,6,0,B|263:243|259:186|259:186|238:217|205:224,1,178.499994552612,4|0,3:2|0:0,0:0:0:0:
148,258,286737,1,0,3:0:0:0:
113,261,286817,1,0,3:0:0:0:
79,254,286896,1,8,0:0:0:0:
112,0,287056,6,0,L|119:187,1,178.499994552612,4|0,3:2|0:0,0:0:0:0:
118,178,287375,6,0,P|145:167|174:160,1,59.4999981842042,8|0,0:0|0:0,0:0:0:0:
461,139,287535,1,4,3:2:0:0:
461,139,288173,6,0,L|408:145,1,50.9999984436036,10|0,0:0|0:0,0:0:0:0:
173,244,288333,2,0,L|226:250,1,50.9999984436036,2|0,0:0|0:0,0:0:0:0:
353,375,288492,6,0,P|344:333|340:290,1,85,4|0,3:2|0:0,0:0:0:0:
461,139,288811,2,0,P|456:181|448:222,1,85,8|0,0:0|0:0,0:0:0:0:
272,64,289130,2,0,P|313:55|355:50,1,85,0|0,3:0|0:0,0:0:0:0:
187,203,289449,1,8,0:0:0:0:
352,240,289609,6,0,P|234:209|165:201,1,170,4|0,3:2|0:0,0:0:0:0:
63,184,290088,2,0,P|67:231|78:281,1,85,8|0,0:0|0:0,0:0:0:0:
275,92,290407,2,0,P|233:83|190:80,1,85,0|0,3:0|0:0,0:0:0:0:
186,202,290726,1,10,0:0:0:0:
71,75,290886,1,0,0:0:0:0:
186,202,291047,6,0,L|175:346,1,127.5,6|0,3:2|0:0,0:0:0:0:
174,357,291367,1,8,0:0:0:0:
294,217,291527,1,0,0:0:0:0:
366,382,291687,1,0,3:0:0:0:
269,325,291847,1,0,0:0:0:0:
269,325,291927,1,0,0:0:0:0:
269,325,292007,1,8,0:0:0:0:
422,157,292167,6,0,B|332:187|341:109|241:151,1,170,4|0,3:2|0:0,0:0:0:0:
386,1,292647,2,0,P|394:47|384:86,1,85,8|0,0:0|0:0,0:0:0:0:
291,213,292967,1,0,3:0:0:0:
509,105,293127,1,0,1:0:0:0:
509,105,293207,1,0,1:0:0:0:
509,105,293287,1,2,3:2:0:0:
213,164,293447,1,0,1:0:0:0:
213,164,293527,1,0,1:0:0:0:
213,164,293607,6,0,P|249:135|288:124,1,85,6|0,3:2|0:0,0:0:0:0:
494,200,293927,2,0,P|451:184|422:156,1,85,8|0,0:0|0:0,0:0:0:0:
302,318,294248,2,0,P|341:332|372:360,1,85,0|0,3:0|0:0,0:0:0:0:
393,259,294569,1,8,0:0:0:0:
237,150,294729,6,0,P|174:145|38:159,1,170,12|0,3:2|0:0,0:0:0:0:
291,317,295211,2,0,P|292:274|289:232,1,85,10|0,0:0|0:0,0:0:0:0:
121,359,295532,2,0,P|163:360|205:357,1,85,0|0,3:2|0:0,0:0:0:0:
71,232,295852,1,8,0:0:0:0:
245,157,296013,1,0,1:0:0:0:
245,157,296093,1,0,1:0:0:0:
245,157,296173,6,0,B|211:137|187:134|187:134|160:160|122:158,1,127.5,4|0,3:2|0:0,0:0:0:0:
119,182,296495,1,8,0:0:0:0:
237,322,296656,1,0,0:0:0:0:
279,145,296818,1,0,3:0:0:0:
231,236,296979,1,0,1:0:0:0:
258,249,297060,1,0,1:0:0:0:
288,248,297140,1,8,0:0:0:0:
293,66,297302,6,0,B|253:67|232:50|232:50|212:67|186:78|186:78|166:62|126:65,1,170,4|0,3:2|0:0,0:0:0:0:
141,242,297785,2,0,P|135:196|124:142,1,85,8|0,0:0|0:0,0:0:0:0:
225,247,298108,5,2,3:2:0:0:
31,335,298269,1,0,0:0:0:0:
235,384,298431,1,10,0:0:0:0:
44,235,298592,1,0,0:0:0:0:
239,148,298753,6,0,P|287:154|328:164,1,85,4|0,3:2|0:0,0:0:0:0:
237,281,299079,2,0,P|216:285|194:287,1,42.5,10|0,0:0|0:0,0:0:0:0:
44,235,299245,2,0,P|65:236|86:240,1,42.5,2|0,0:0|0:0,0:0:0:0:
122,327,299412,1,0,3:0:0:0:
122,327,299582,2,0,L|109:389,1,42.5,2|0,0:0|0:0,0:0:0:0:
254,174,299752,2,0,L|245:132,1,42.5,10|0,0:0|0:0,0:0:0:0:
317,298,299926,6,0,P|274:297|236:280,1,85,12|0,0:0|3:0,1:0:0:0:
114,109,300278,1,2,0:0:0:0:
174,192,300457,2,0,P|220:173|262:176,1,85,12|0,0:0|0:0,1:0:0:0:
111,347,300822,2,0,L|104:304,3,42.5,2|0|0|0,3:2|3:0|0:0|3:0,0:0:0:0:
30,255,301197,2,0,L|37:212,1,42.5,2|0,3:2|3:0,0:0:0:0:
136,195,301389,2,0,L|129:152,1,42.5,2|0,3:2|3:0,0:0:0:0:
79,82,301581,5,4,3:2:0:0:
14,349,301778,1,8,0:0:0:0:
276,271,301975,1,8,0:0:0:0:
30,255,302173,6,0,P|28:182|114:240,1,212.5,6|0,3:2|0:0,0:0:0:0:
104,305,302793,5,6,3:2:0:0:
256,192,302901,12,0,308879,0:0:0:0:
