osu file format v14

[General]
AudioFilename: mada.mp3
AudioLeadIn: 0
PreviewTime: 76427
Countdown: 3
SampleSet: Soft
StackLeniency: 0.5
Mode: 0
LetterboxInBreaks: 0
WidescreenStoryboard: 0

[Editor]
Bookmarks: 23528,43954,64379,76986,97411,120230
DistanceSpacing: 0.8
BeatDivisor: 4
GridSize: 4
TimelineZoom: 1

[Metadata]
Title:Yume no Tsubomi
TitleUnicode:夢のつぼみ
Artist:Inori Minase
ArtistUnicode:水瀬いのり
Creator:Sonnyc
Version:Expert
Source:アニメマシテ
Tags:king records scanter anime mashite
BeatmapID:1284593
BeatmapSetID:608258

[Difficulty]
HPDrainRate:6
CircleSize:4.7
OverallDifficulty:9
ApproachRate:9
SliderMultiplier:2
SliderTickRate:2

[Events]
//Background and Video events
0,0,"ak.jpg",0,0
//Break Periods
//Storyboard Layer 0 (Background)
//Storyboard Layer 1 (Fail)
//Storyboard Layer 2 (Pass)
//Storyboard Layer 3 (Foreground)
//Storyboard Sound Samples

[TimingPoints]
550,319.148936170213,4,2,1,80,1,0
76986,-100,4,2,1,80,0,1
87358,-100,4,2,1,80,0,0
97411,-100,4,2,1,80,0,1
107784,-100,4,2,1,80,0,0

[Colours]
Combo1 : 255,203,159
Combo2 : 190,255,179
Combo3 : 198,226,255
Combo4 : 255,191,223

[HitObjects]
66,102,23528,6,0,P|144:51|213:114,1,200,4|8,3:2|0:0,0:0:0:0:
138,128,24007,1,2,0:0:0:0:
240,14,24167,2,0,P|283:102|262:198,1,200,0|8,3:0|0:0,0:0:0:0:
121,266,24645,6,0,P|165:244|213:254,1,100,2|0,0:0|3:0,0:0:0:0:
354,209,24964,2,0,P|309:187|261:197,1,100,0|8,0:0|0:0,0:0:0:0:
296,361,25284,2,0,L|301:262,1,100,2|0,0:0|3:0,0:0:0:0:
164,121,25603,2,0,L|173:320,1,200,2|2,0:0|0:0,0:0:0:0:
89,106,26081,6,0,P|158:43|235:94,1,200,0|8,3:0|0:0,0:0:0:0:
164,121,26560,1,2,0:0:0:0:
299,156,26720,2,0,P|203:134|114:177,1,200,0|8,3:0|0:0,0:0:0:0:
168,230,27198,6,0,P|212:208|260:218,1,100,2|0,0:0|3:0,0:0:0:0:
391,168,27518,2,0,P|346:146|298:156,1,100,0|8,0:0|0:0,0:0:0:0:
221,283,27837,2,0,L|226:382,1,100,2|0,0:0|3:0,0:0:0:0:
338,221,28156,2,0,L|333:320,1,100,2|8,0:0|0:0,0:0:0:0:
298,155,28475,5,2,0:0:0:0:
298,155,28555,1,0,0:0:0:0:
298,155,28635,2,0,P|346:146|391:168,1,100,0|0,3:0|0:0,0:0:0:0:
260,224,28954,1,8,0:0:0:0:
333,320,29113,2,0,L|338:221,1,100,2|0,0:0|3:0,0:0:0:0:
191,186,29432,2,0,P|182:234|204:279,1,100,2|8,0:0|0:0,0:0:0:0:
400,266,29752,6,0,P|360:145|260:224,1,300,2|8,0:0|0:0,0:0:0:0:
338,220,30390,1,2,0:0:0:0:
202,146,30550,2,0,P|154:137|109:159,1,100,0|0,3:0|0:0,0:0:0:0:
163,211,30869,2,0,P|211:219|255:198,1,100,8|0,0:0|0:0,0:0:0:0:
86,83,31188,6,0,P|33:160|91:233,1,200,0|8,3:2|0:0,0:0:0:0:
240,228,31667,2,0,P|201:143|109:158,1,200,2|0,0:0|0:0,0:0:0:0:
130,298,32145,2,0,P|161:260|163:211,1,100,8|2,0:0|0:0,0:0:0:0:
56,301,32464,5,0,3:0:0:0:
198,364,32624,1,2,0:0:0:0:
162,210,32784,1,8,0:0:0:0:
198,364,32943,1,2,0:0:0:0:
202,368,33023,1,8,0:0:0:0:
205,371,33103,2,0,P|253:363|297:384,1,100,2|0,3:2|0:0,0:0:0:0:
437,309,33422,2,0,P|393:330|345:323,1,100,12|2,0:0|0:0,0:0:0:0:
322,131,33741,5,0,3:2:0:0:
461,142,33901,1,2,0:0:0:0:
382,257,34060,1,8,0:0:0:0:
267,186,34220,2,0,P|245:141|254:93,1,100,2|0,0:0|3:0,0:0:0:0:
421,126,34539,2,0,L|322:131,1,100,2|8,0:0|0:0,0:0:0:0:
434,51,34858,2,0,P|496:120|445:197,1,200,2|0,0:2|0:0,0:0:0:0:
349,150,35337,5,8,0:0:0:0:
421,126,35496,1,0,0:0:0:0:
373,221,35656,1,2,3:2:0:0:
277,174,35815,1,0,0:0:0:0:
325,79,35975,1,8,0:0:0:0:
373,221,36135,5,2,0:0:0:0:
325,79,36294,1,0,3:2:0:0:
373,221,36454,2,0,L|368:320,1,100,2|8,0:0|0:0,0:0:0:0:
216,352,36773,2,0,P|260:373|309:365,1,100,2|0,0:0|3:0,0:0:0:0:
198,277,37092,2,0,P|157:305|139:351,1,100,2|8,0:0|0:0,0:0:0:0:
272,298,37411,6,0,L|267:199,1,100,2|0,0:0|3:0,0:0:0:0:
123,143,37730,2,0,L|118:242,1,100,2|8,0:0|0:0,0:0:0:0:
266,198,38050,2,0,L|261:99,1,100,2|0,0:0|3:0,0:0:0:0:
129,43,38369,2,0,L|124:142,2,100,2|8|0,0:0|0:0|0:0,0:0:0:0:
195,168,38847,6,0,P|117:219|48:156,1,200,0|8,3:2|0:0,0:0:0:0:
180,93,39326,2,0,P|263:135|243:226,1,200,2|0,0:0|0:0,0:0:0:0:
123,142,39805,2,0,P|109:72|130:37,1,100,8|0,0:0|0:0,0:0:0:0:
262,44,40124,5,2,3:2:0:0:
195,168,40284,1,0,0:0:0:0:
120,48,40443,1,8,0:0:0:0:
262,44,40603,1,0,0:0:0:0:
196,263,40762,21,0,3:0:0:0:
120,48,40922,1,0,0:0:0:0:
124,52,41002,1,8,0:0:0:0:
127,55,41081,1,8,0:0:0:0:
309,177,41241,1,0,0:0:0:0:
80,183,41401,37,0,3:0:0:0:
262,44,41560,2,0,L|361:49,1,100,4|0,0:0|3:0,0:0:0:0:
455,188,41879,2,0,P|386:125|309:177,1,200,4|0,0:0|0:0,0:0:0:0:
291,271,42358,1,0,3:0:0:0:
182,194,42518,2,0,L|381:204,1,200,8|2,0:0|0:0,0:0:0:0:
262,44,42996,5,0,3:0:0:0:
80,183,43156,1,2,0:0:0:0:
291,271,43315,2,0,L|92:281,1,200,0|10,3:0|0:0,0:0:0:0:
317,343,43954,6,0,P|368:265|305:196,1,200,4|8,3:2|0:0,0:0:0:0:
291,271,44432,1,2,0:0:0:0:
405,169,44592,2,0,P|317:126|221:147,1,200,0|8,3:0|0:0,0:0:0:0:
67,176,45071,6,0,P|110:198|159:189,1,100,2|0,0:0|3:0,0:0:0:0:
125,24,45390,2,0,L|120:123,2,100,2|8|2,0:0|0:0|0:0,0:0:0:0:
229,210,45869,1,0,3:0:0:0:
229,165,45948,1,2,0:0:0:0:
204,129,46028,1,2,0:0:0:0:
163,113,46108,1,2,0:0:0:0:
119,123,46188,2,0,P|90:157|90:219,1,100,8|2,0:0|0:0,0:0:0:0:
136,330,46507,6,0,P|90:250|159:188,1,200,0|8,3:0|0:0,0:0:0:0:
163,262,46986,1,2,0:0:0:0:
229,135,47145,2,0,P|186:224|206:320,1,200,0|8,3:0|0:0,0:0:0:0:
270,280,47624,6,0,P|261:232|283:189,1,100,2|0,0:0|3:0,0:0:0:0:
433,238,47943,2,0,L|334:243,1,100,2|8,0:0|0:0,0:0:0:0:
229,135,48262,1,2,0:0:0:0:
229,135,48342,1,2,0:0:0:0:
229,135,48422,1,0,3:0:0:0:
375,99,48581,1,2,0:0:0:0:
333,243,48741,1,8,0:0:0:0:
229,135,48901,5,2,0:0:0:0:
373,177,49060,2,0,P|325:168|280:190,1,100,4|0,3:2|0:0,0:0:0:0:
411,246,49379,1,8,0:0:0:0:
338,342,49539,2,0,L|333:243,1,100,2|0,0:0|3:0,0:0:0:0:
480,208,49858,2,0,P|489:256|467:301,1,100,2|8,0:0|0:0,0:0:0:0:
271,288,50177,6,0,P|311:167|411:246,1,300,2|8,0:0|0:0,0:0:0:0:
333,243,50815,1,2,0:0:0:0:
409,113,50975,1,0,3:0:0:0:
367,94,51055,1,2,0:0:0:0:
323,90,51135,1,2,0:0:0:0:
279,98,51214,1,2,0:0:0:0:
240,120,51294,1,8,0:0:0:0:
345,301,51613,6,0,P|276:364|199:314,1,200,0|8,3:0|0:0,0:0:0:0:
187,166,52092,2,0,P|276:195|271:288,1,200,2|0,0:0|0:0,0:0:0:0:
128,279,52571,2,0,P|162:244|210:236,1,100,8|0,0:0|0:0,0:0:0:0:
130,354,52890,5,0,3:0:0:0:
70,228,53050,1,2,0:0:0:0:
210,236,53209,1,8,0:0:0:0:
4,264,53369,1,2,0:0:0:0:
4,264,53448,1,8,0:0:0:0:
4,264,53528,2,0,P|-5:216|17:173,1,100,4|0,3:2|0:0,0:0:0:0:
276,200,53847,2,0,P|285:248|263:291,1,100,12|0,0:0|0:0,0:0:0:0:
70,228,54167,5,4,3:2:0:0:
210,236,54326,1,2,0:0:0:0:
130,354,54486,1,8,0:0:0:0:
4,264,54645,2,0,P|-5:216|17:173,1,100,2|0,0:0|3:0,0:0:0:0:
169,223,54964,2,0,L|70:228,2,100,2|8|2,0:0|0:0|0:0,0:0:0:0:
312,295,55443,6,0,P|263:303|220:281,1,100,0|2,3:0|0:0,0:0:0:0:
348,230,55762,2,0,P|379:267|382:315,1,100,8|0,0:0|0:0,0:0:0:0:
274,230,56081,1,0,3:2:0:0:
276,185,56161,1,2,0:0:0:0:
278,140,56241,1,2,0:0:0:0:
280,95,56321,1,2,0:0:0:0:
283,50,56401,1,8,0:0:0:0:
130,100,56560,5,2,0:0:0:0:
283,50,56720,1,0,3:0:0:0:
130,100,56879,2,0,L|31:95,1,100,2|8,0:0|0:0,0:0:0:0:
184,45,57198,2,0,P|205:89|197:138,1,100,2|0,0:0|3:0,0:0:0:0:
119,270,57518,2,0,P|110:221|132:177,1,100,2|8,0:0|0:0,0:0:0:0:
285,227,57837,6,0,L|186:232,1,100,2|0,0:0|3:0,0:0:0:0:
239,347,58156,2,0,L|338:352,1,100,2|8,0:0|0:0,0:0:0:0:
384,222,58475,2,0,L|285:227,1,100,2|0,0:0|3:0,0:0:0:0:
338,352,58794,2,0,L|437:357,1,100,2|8,0:0|0:0,0:0:0:0:
484,216,59113,2,0,L|185:232,1,300,2|8,0:0|0:0,0:0:0:0:
109,238,59752,5,2,0:0:0:0:
141,113,59911,1,0,3:0:0:0:
270,107,60071,1,2,0:0:0:0:
316,226,60230,1,8,0:0:0:0:
217,308,60390,1,2,0:0:0:0:
315,225,60550,6,0,P|364:234|408:211,1,100,0|2,3:0|0:0,0:0:0:0:
255,181,60869,1,8,0:0:0:0:
349,61,61028,2,0,L|354:160,1,100,2|0,0:0|3:0,0:0:0:0:
260,106,61347,1,8,0:0:0:0:
262,61,61427,1,8,0:0:0:0:
264,16,61507,1,8,0:0:0:0:
354,160,61667,1,2,0:0:0:0:
120,106,61826,5,4,3:2:0:0:
210,250,61986,1,2,0:0:0:0:
354,160,62145,1,8,0:0:0:0:
120,106,62305,2,0,P|71:97|27:120,1,100,4|0,0:0|3:0,0:0:0:0:
49,310,62624,1,2,0:0:0:0:
82,170,62784,1,8,0:0:0:0:
86,374,62943,2,0,P|37:383|-6:360,1,100,12|0,0:0|3:0,0:0:0:0:
82,170,63262,5,2,0:0:0:0:
187,269,63422,1,0,3:0:0:0:
49,310,63581,1,2,0:0:0:0:
187,269,63741,2,0,L|386:279,1,200,2|10,3:2|0:1,0:0:0:0:
82,170,64379,5,0,3:0:0:0:
211,102,64539,1,2,0:0:0:0:
205,247,64698,1,8,0:0:0:0:
278,142,64858,2,0,P|191:175|135:100,1,200,2|2,0:0|0:0,0:0:0:0:
205,247,65337,1,8,0:0:0:0:
211,102,65496,1,2,0:0:0:0:
259,297,65656,6,0,P|216:320|168:311,1,100,0|0,3:0|0:0,0:0:0:0:
82,170,65975,1,8,0:0:0:0:
211,102,66135,1,0,0:0:0:0:
211,102,66214,1,0,0:0:0:0:
211,102,66294,1,2,3:2:0:0:
205,247,66454,1,0,0:0:0:0:
82,170,66613,1,10,0:0:0:0:
396,222,66932,5,0,3:0:0:0:
271,292,67092,1,2,0:0:0:0:
273,145,67252,1,8,0:0:0:0:
338,252,67411,2,0,P|251:219|195:294,1,200,2|2,0:0|0:0,0:0:0:0:
273,145,67890,1,8,0:0:0:0:
271,292,68050,1,2,0:0:0:0:
219,95,68209,6,0,P|262:72|310:81,1,100,0|0,3:0|0:0,0:0:0:0:
396,222,68528,1,8,0:0:0:0:
465,192,68688,1,2,0:0:0:0:
438,158,68768,1,2,0:0:0:0:
396,143,68847,1,0,3:0:0:0:
353,155,68927,1,2,0:0:0:0:
325,190,69007,1,2,0:0:0:0:
322,236,69087,1,2,0:0:0:0:
342,276,69167,1,8,0:0:0:0:
488,312,69326,5,8,0:0:0:0:
488,312,69406,1,8,0:0:0:0:
488,312,69486,2,0,B|452:294|420:302|396:326|396:326|372:350|340:358|304:340,1,200,0|8,3:0|0:0,0:0:0:0:
199,234,69964,2,0,P|286:201|342:276,1,200,2|0,0:0|0:0,0:0:0:0:
232,361,70443,2,0,P|234:312|266:275,1,100,8|0,0:0|0:0,0:0:0:0:
388,128,70762,6,0,P|332:202|245:169,1,200,0|8,3:0|0:0,0:0:0:0:
131,136,71241,1,2,0:0:0:0:
176,133,71321,1,2,0:0:0:0:
221,131,71401,1,0,3:0:0:0:
266,129,71480,1,2,0:0:0:0:
311,127,71560,1,2,0:0:0:0:
454,69,71720,2,0,L|355:64,1,100,8|0,0:0|0:0,0:0:0:0:
304,201,72039,5,4,3:2:0:0:
347,195,72119,1,2,0:0:0:0:
387,216,72198,1,2,0:0:0:0:
407,257,72278,1,2,0:0:0:0:
401,301,72358,1,8,0:0:0:0:
369,333,72438,1,2,0:0:0:0:
325,342,72518,1,2,0:0:0:0:
285,323,72597,1,2,0:0:0:0:
263,285,72677,1,0,3:0:0:0:
244,325,72757,1,2,0:0:0:0:
206,350,72837,1,2,0:0:0:0:
162,347,72917,1,2,0:0:0:0:
127,318,72996,1,8,0:0:0:0:
114,276,73076,1,2,0:0:0:0:
129,234,73156,1,2,0:0:0:0:
166,207,73236,1,2,0:0:0:0:
210,206,73315,1,0,3:0:0:0:
184,170,73395,1,2,0:0:0:0:
182,126,73475,1,2,0:0:0:0:
207,88,73555,1,2,0:0:0:0:
248,72,73635,1,8,0:0:0:0:
292,82,73714,1,2,0:0:0:0:
321,116,73794,1,2,0:0:0:0:
325,161,73874,1,2,0:0:0:0:
304,201,73954,5,0,3:0:0:0:
263,285,74113,1,8,0:0:0:0:
263,285,74193,1,2,0:0:0:0:
263,285,74273,1,8,0:0:0:0:
211,207,74432,1,2,0:0:0:0:
356,280,74592,37,4,3:2:0:0:
345,328,74672,1,2,0:0:0:0:
312,364,74752,1,2,0:0:0:0:
264,378,74831,1,2,0:0:0:0:
216,366,74911,1,8,0:0:0:0:
181,331,74991,1,2,0:0:0:0:
169,282,75071,2,0,L|164:182,1,100,4|0,0:0|3:0,0:0:0:0:
263,285,75390,1,2,0:0:0:0:
256,148,75550,1,8,0:0:0:0:
84,327,75709,6,0,L|74:127,1,200,12|2,0:0|0:0,0:0:0:0:
4,376,76188,1,12,0:0:0:0:
238,57,76507,37,2,0:0:0:0:
313,61,76667,1,0,0:0:0:0:
388,64,76826,1,2,0:0:0:0:
418,258,76986,22,0,P|340:207|271:270,1,200,4|2,0:0|0:0,0:0:0:0:
402,145,77464,1,8,0:0:0:0:
346,284,77624,1,2,0:0:0:0:
253,166,77784,1,0,3:0:0:0:
346,284,77943,2,0,L|341:383,1,100,2|8,0:0|0:0,0:0:0:0:
326,150,78262,6,0,P|258:88|181:139,1,200,2|0,0:0|0:0,0:0:0:0:
213,292,78741,1,8,0:0:0:0:
253,166,78901,1,2,0:0:0:0:
124,194,79060,1,0,3:0:0:0:
213,292,79220,1,2,0:0:0:0:
253,166,79379,2,0,L|248:67,1,100,8|0,0:0|0:0,0:0:0:0:
213,292,79698,5,0,3:0:0:0:
253,166,79858,1,2,0:0:0:0:
339,332,80018,1,8,0:0:0:0:
379,206,80177,1,2,0:0:0:0:
213,292,80337,1,0,3:0:0:0:
379,206,80496,2,0,L|478:211,1,100,2|8,0:0|0:0,0:0:0:0:
197,219,80815,6,0,P|135:287|186:364,1,200,2|0,0:0|0:0,0:0:0:0:
412,302,81294,2,0,L|213:292,1,200,8|0,0:0|3:0,0:0:0:0:
349,154,81773,2,0,L|354:253,1,100,2|8,0:0|0:0,0:0:0:0:
130,133,82092,6,0,P|208:184|277:121,1,200,12|2,0:0|0:0,0:0:0:0:
146,246,82571,1,8,0:0:0:0:
202,107,82730,1,2,0:0:0:0:
295,225,82890,1,0,3:0:0:0:
202,107,83050,2,0,L|207:8,1,100,2|8,0:0|0:0,0:0:0:0:
222,241,83369,6,0,P|290:303|367:252,1,200,2|0,0:0|0:0,0:0:0:0:
335,99,83847,1,8,0:0:0:0:
295,225,84007,1,2,0:0:0:0:
424,197,84167,1,0,3:0:0:0:
335,99,84326,1,2,0:0:0:0:
295,225,84486,2,0,L|300:324,1,100,8|2,0:0|0:0,0:0:0:0:
335,99,84805,5,0,3:0:0:0:
295,225,84964,1,2,0:0:0:0:
209,59,85124,1,8,0:0:0:0:
169,185,85284,1,2,0:0:0:0:
335,99,85443,1,0,3:0:0:0:
169,185,85603,2,0,L|70:180,1,100,2|8,0:0|0:0,0:0:0:0:
351,172,85922,6,0,P|413:104|362:27,1,200,2|0,0:0|0:0,0:0:0:0:
236,94,86401,2,0,L|335:99,2,100,8|2|0,0:0|0:0|3:0,0:0:0:0:
85,34,86879,1,8,0:0:0:0:
87,78,86959,1,8,0:0:0:0:
89,123,87039,1,8,0:0:0:0:
91,168,87119,1,8,0:0:0:0:
94,213,87198,1,8,0:0:0:0:
96,258,87278,1,8,0:0:0:0:
98,303,87358,6,0,P|166:365|243:314,2,200,4|8|0,3:2|0:0|3:0,0:0:0:0:
152,137,88156,1,2,0:0:0:0:
172,290,88315,1,8,0:0:0:0:
206,193,88475,2,0,P|161:214|113:205,1,100,2|0,0:0|3:0,0:0:0:0:
290,85,88794,2,0,P|228:153|279:230,1,200,2|2,0:0|0:0,0:0:0:0:
152,137,89273,5,2,3:2:0:0:
303,159,89432,1,2,0:0:0:0:
152,137,89592,1,8,0:0:0:0:
303,159,89752,1,2,0:0:0:0:
139,211,89911,6,0,P|77:143|128:66,2,200,0|8|0,3:0|0:0|3:0,0:0:0:0:
303,159,90709,1,2,0:0:0:0:
152,137,90869,1,8,0:0:0:0:
247,105,91028,2,0,P|226:150|235:198,1,100,2|0,0:0|3:0,0:0:0:0:
355,21,91347,2,0,P|287:83|210:32,1,200,2|2,0:0|0:0,0:0:0:0:
303,159,91826,5,2,3:2:0:0:
281,8,91986,1,2,0:0:0:0:
303,159,92145,1,8,0:0:0:0:
281,8,92305,1,2,0:0:0:0:
229,172,92464,6,0,P|297:234|374:183,2,200,0|8|0,3:0|0:0|3:0,0:0:0:0:
281,8,93262,1,2,0:0:0:0:
303,159,93422,1,8,0:0:0:0:
355,21,93581,2,0,P|287:83|210:32,1,200,2|0,0:0|0:0,0:0:0:0:
248,214,94060,6,0,P|293:235|342:226,1,100,8|0,0:0|0:0,0:0:0:0:
236,358,94379,2,0,P|231:309|200:272,1,100,0|0,3:0|0:0,0:0:0:0:
367,297,94698,2,0,P|327:325|310:372,1,100,8|0,0:0|0:0,0:0:0:0:
229,172,95018,6,0,P|297:234|374:183,1,200,0|8,3:0|0:0,0:0:0:0:
432,75,95496,1,2,0:0:0:0:
393,98,95576,1,2,0:0:0:0:
350,111,95656,1,0,3:0:0:0:
305,113,95736,1,2,0:0:0:0:
261,104,95815,1,2,0:0:0:0:
221,84,95895,1,2,0:0:0:0:
187,55,95975,1,8,0:0:0:0:
460,220,96294,5,8,0:0:0:0:
317,285,96454,1,0,3:0:0:0:
386,203,96613,2,0,L|391:302,1,100,8|0,0:0|0:0,0:0:0:0:
264,225,96932,37,0,3:0:0:0:
313,375,97092,1,0,3:0:0:0:
315,330,97172,1,0,3:0:0:0:
317,285,97252,1,10,0:0:0:0:
47,258,97411,22,0,P|125:207|194:270,1,200,4|2,0:0|0:0,0:0:0:0:
63,145,97890,1,8,0:0:0:0:
119,284,98050,1,2,0:0:0:0:
212,166,98209,1,0,3:0:0:0:
119,284,98369,2,0,L|124:383,1,100,2|8,0:0|0:0,0:0:0:0:
139,150,98688,6,0,P|207:88|284:139,1,200,2|0,0:0|0:0,0:0:0:0:
252,292,99167,1,8,0:0:0:0:
212,166,99326,1,2,0:0:0:0:
341,194,99486,1,0,3:0:0:0:
252,292,99645,1,2,0:0:0:0:
212,166,99805,2,0,L|217:67,1,100,8|2,0:0|0:0,0:0:0:0:
252,292,100124,5,0,3:0:0:0:
212,166,100284,1,2,0:0:0:0:
126,332,100443,1,8,0:0:0:0:
86,206,100603,1,2,0:0:0:0:
252,292,100762,1,0,3:0:0:0:
86,206,100922,2,0,L|-13:211,1,100,2|8,0:0|0:0,0:0:0:0:
268,219,101241,6,0,P|330:287|279:364,1,200,2|0,0:0|0:0,0:0:0:0:
53,302,101720,2,0,L|252:292,1,200,8|0,0:0|3:0,0:0:0:0:
116,154,102198,2,0,L|111:253,1,100,2|8,0:0|0:0,0:0:0:0:
335,133,102518,6,0,P|257:184|188:121,1,200,12|2,0:0|0:0,0:0:0:0:
319,246,102996,1,8,0:0:0:0:
263,107,103156,1,2,0:0:0:0:
170,225,103315,1,0,3:0:0:0:
263,107,103475,2,0,L|258:8,1,100,2|8,0:0|0:0,0:0:0:0:
243,241,103794,6,0,P|175:303|98:252,1,200,2|0,0:0|0:0,0:0:0:0:
130,99,104273,1,8,0:0:0:0:
170,225,104432,1,2,0:0:0:0:
41,197,104592,1,0,3:0:0:0:
130,99,104752,1,2,0:0:0:0:
170,225,104911,2,0,L|165:324,1,100,8|2,0:0|0:0,0:0:0:0:
130,99,105230,5,0,3:0:0:0:
170,225,105390,1,2,0:0:0:0:
256,59,105550,1,8,0:0:0:0:
296,185,105709,1,2,0:0:0:0:
130,99,105869,1,0,3:0:0:0:
296,185,106028,2,0,L|395:180,1,100,2|8,0:0|0:0,0:0:0:0:
114,172,106347,6,0,P|52:104|103:27,1,200,2|0,0:0|0:0,0:0:0:0:
329,89,106826,2,0,L|130:99,1,200,8|0,0:0|3:0,0:0:0:0:
406,39,107305,1,8,0:0:0:0:
404,83,107385,1,8,0:0:0:0:
402,128,107464,1,8,0:0:0:0:
400,173,107544,1,8,0:0:0:0:
397,218,107624,1,8,0:0:0:0:
395,263,107704,1,8,0:0:0:0:
393,308,107784,6,0,P|325:370|248:319,1,200,4|8,3:2|0:0,0:0:0:0:
339,142,108262,1,2,0:0:0:0:
319,295,108422,1,0,3:0:0:0:
197,202,108581,1,2,0:0:0:0:
339,142,108741,1,8,0:0:0:0:
144,148,108901,6,0,P|122:192|132:240,1,100,12|0,0:0|3:0,0:0:0:0:
296,207,109220,2,0,L|197:202,1,100,2|8,0:0|0:0,0:0:0:0:
369,103,109539,2,0,P|306:172|358:250,1,200,2|0,0:0|0:0,0:0:0:0:
483,173,110018,2,0,L|384:178,1,100,8|0,0:0|0:0,0:0:0:0:
302,302,110337,5,12,0:0:0:0:
339,324,110417,1,8,0:0:0:0:
384,321,110496,1,8,0:0:0:0:
418,295,110576,1,8,0:0:0:0:
433,254,110656,1,8,0:0:0:0:
352,150,110815,2,0,L|357:249,1,100,12|0,0:0|3:0,0:0:0:0:
225,347,111135,2,0,L|230:248,1,100,12|0,0:0|3:0,0:0:0:0:
92,50,111454,6,0,L|102:249,1,200,12|2,0:0|0:0,0:0:0:0:
252,167,111932,1,8,0:0:0:0:
196,113,112092,2,0,P|175:158|184:206,1,100,2|0,0:0|3:0,0:0:0:0:
395,299,112411,1,8,0:0:0:0:
393,255,112491,1,8,0:0:0:0:
391,210,112571,1,8,0:0:0:0:
389,165,112651,1,8,0:0:0:0:
386,120,112730,1,8,0:0:0:0:
384,75,112810,1,8,0:0:0:0:
382,30,112890,6,0,P|244:154|91:49,1,400,4|0,3:2|3:0,0:0:0:0:
97,273,113688,1,2,0:0:0:0:
91,49,113847,1,8,0:0:0:0:
174,278,114007,2,0,P|74:197|34:318,1,300,12|8,0:0|0:0,0:0:0:0:
382,30,114805,21,0,3:0:0:0:
390,191,114964,1,2,0:0:0:0:
289,65,115124,1,8,0:0:0:0:
444,107,115284,1,2,0:0:0:0:
294,165,115443,2,0,L|95:155,1,200,4|2,3:2|0:0,0:0:0:0:
228,311,115922,2,0,L|233:211,1,100,12|2,0:2|0:0,0:0:0:0:
289,65,116241,2,0,L|294:165,1,100,12|2,0:2|0:0,0:0:0:0:
149,349,116560,6,0,L|159:149,1,200,12|2,0:2|0:0,0:0:0:0:
300,337,117039,1,10,0:0:0:0:
228,311,117198,2,0,P|306:260|375:323,1,200,2|2,0:2|0:0,0:0:0:0:
406,184,117677,37,0,3:0:0:0:
300,337,117837,1,2,0:0:0:0:
220,168,117996,1,4,0:0:0:0:
256,192,118076,12,2,119911,0:0:0:0:
