osu file format v14

[General]
AudioFilename: audio.mp3
AudioLeadIn: 0
PreviewTime: 76451
Countdown: 0
SampleSet: Soft
StackLeniency: 0.7
Mode: 0
LetterboxInBreaks: 0
WidescreenStoryboard: 0

[Editor]
Bookmarks: 24890,46273,137808
DistanceSpacing: 1.4
BeatDivisor: 4
GridSize: 16
TimelineZoom: 2.2

[Metadata]
Title:Yume no Tsubomi
TitleUnicode:夢のつぼみ
Artist:Inori Minase
ArtistUnicode:水瀬いのり
Creator:Lami
Version:Promise
Source:アニメマシテ
Tags:絵伊子 渡部チェル intoon
BeatmapID:1219094
BeatmapSetID:503213

[Difficulty]
HPDrainRate:6
CircleSize:4
OverallDifficulty:9
ApproachRate:9.5
SliderMultiplier:1.88
SliderTickRate:1

[Events]
//Background and Video events
0,0,"58606862_p0.png",0,0
//Break Periods
//Storyboard Layer 0 (Background)
//Storyboard Layer 1 (Fail)
//Storyboard Layer 2 (Pass)
//Storyboard Layer 3 (Foreground)
//Storyboard Sound Samples

[TimingPoints]
574,319.148936170213,4,2,1,25,1,0
574,-125,4,2,1,25,0,0
5520,-125,4,2,1,60,0,0
10786,-111.111111111111,4,2,1,60,0,0
15893,-100,4,2,1,70,0,0
23552,-105.263157894737,4,2,1,60,0,0
33127,-95.2380952380952,4,2,1,60,0,0
33765,-105.263157894737,4,2,1,60,0,0
41425,-90.9090909090909,4,2,1,60,0,0
43978,-105.263157894737,4,2,1,60,0,0
53552,-95.2380952380952,4,2,1,60,0,0
54191,-105.263157894737,4,2,1,60,0,0
61850,-95.2380952380952,4,2,1,60,0,0
62329,-95.2380952380952,4,2,1,65,0,0
62967,-86.9565217391304,4,2,1,70,0,0
64403,-105.263157894737,4,2,1,60,0,0
75095,-89.2857142857143,4,2,1,65,0,0
75733,-80,4,2,1,70,0,0
76531,-80,4,2,1,60,0,0
77010,-90.9090909090909,4,2,1,75,0,1
110839,-83.3333333333333,4,2,1,75,0,1
111478,-90.9090909090909,4,2,1,75,0,1
115467,-83.3333333333333,4,2,1,75,0,1
117063,-100,4,2,1,75,0,0
117701,-100,4,2,1,50,0,0
117941,-100,4,2,1,5,0,0
118020,-100,4,2,1,70,0,0
129350,-86.9565217391304,4,2,1,70,0,0
130786,-105.263157894737,4,2,1,60,0,0
140361,-95.2380952380952,4,2,1,60,0,0
140999,-105.263157894737,4,2,1,60,0,0
149137,-95.2380952380952,4,2,1,65,0,0
149776,-86.9565217391304,4,2,1,70,0,0
151212,-105.263157894737,4,2,1,60,0,0
161903,-90.9090909090909,4,2,1,65,0,0
162542,-83.3333333333333,4,2,1,70,0,0
163339,-83.3333333333333,4,2,1,60,0,0
163818,-90.9090909090909,4,2,1,75,0,1
197648,-83.3333333333333,4,2,1,75,0,1
198286,-90.9090909090909,4,2,1,75,0,1
202276,-83.3333333333333,4,2,1,75,0,1
204829,-100,4,2,1,60,0,0
216478,-111.111111111111,4,2,1,50,0,0
217595,-153.846153846154,4,2,1,40,0,0
224297,-125,4,2,1,50,0,0
225254,-100,4,2,1,60,0,0
230361,-100,4,2,1,65,0,0
231478,-100,4,2,1,70,0,0
232754,-83.3333333333333,4,2,1,70,0,0
233552,-83.3333333333333,4,2,1,60,0,0
234031,-90.9090909090909,4,2,1,75,0,1
267861,-83.3333333333333,4,2,1,75,0,1
268499,-90.9090909090909,4,2,1,75,0,1
272488,-83.3333333333333,4,2,1,75,0,1
275042,-90.9090909090909,4,2,1,75,0,1
280148,-83.3333333333333,4,2,1,75,0,1
281265,-71.4285714285714,4,2,1,75,0,1
281744,-83.3333333333333,4,2,1,75,0,0
282382,-83.3333333333333,4,2,1,50,0,0
282621,-83.3333333333333,4,2,1,5,0,0
282701,-100,4,2,1,70,0,0
295467,333.333333333333,4,2,1,70,1,0
295967,368.098159509202,4,2,1,70,1,0
295967,-83.3333333333333,4,2,1,70,0,0
296528,410.958904109589,4,2,1,70,1,0
300637,-100,4,2,1,5,0,0

[Colours]
Combo1 : 128,128,255
Combo2 : 91,202,255
Combo3 : 112,241,186
Combo4 : 255,160,140

[HitObjects]
244,182,574,5,2,0:0:0:0:
154,209,733,1,0,0:0:0:0:
223,273,893,1,0,0:0:0:0:
175,118,1052,5,2,0:0:0:0:
63,200,1212,1,0,0:0:0:0:
105,287,1371,1,0,0:0:0:0:
244,182,1531,5,2,0:0:0:0:
223,273,1691,1,0,0:0:0:0:
312,245,1850,1,0,0:0:0:0:
154,209,2010,5,2,0:0:0:0:
169,346,2169,1,0,0:0:0:0:
265,354,2329,1,0,0:0:0:0:
244,182,2488,5,2,0:0:0:0:
312,245,2648,1,0,0:0:0:0:
334,153,2808,1,0,0:0:0:0:
402,216,2967,1,2,0:0:0:0:
244,182,3127,5,2,0:0:0:0:
223,273,3286,1,0,0:0:0:0:
291,336,3446,1,0,0:0:0:0:
425,130,3605,5,2,0:0:0:0:
312,245,3765,1,0,0:0:0:0:
244,182,3925,1,0,0:0:0:0:
137,83,4084,5,2,0:0:0:0:
118,175,4244,1,0,0:0:0:0:
100,266,4403,1,0,0:0:0:0:
40,107,4563,5,2,0:0:0:0:
192,240,4722,1,0,0:0:0:0:
100,266,4882,1,0,0:0:0:0:
244,182,5042,5,2,0:0:0:0:
280,268,5201,1,0,0:0:0:0:
322,351,5361,1,2,3:0:0:0:
326,359,5441,1,2,3:0:0:0:
330,367,5520,1,8,3:1:0:0:
334,375,5600,1,10,3:1:0:0:
338,383,5680,6,0,P|381:384|449:310,1,150.4,12|2,0:1|0:0,0:0:0:0:
355,178,6159,1,8,0:1:0:0:
192,240,6318,2,0,L|117:248,1,75.2,8|0,0:0|0:0,0:0:0:0:
28,223,6637,1,2,0:0:0:0:
150,102,6797,6,0,B|191:96|191:96|243:110|243:110|297:105,1,150.4,12|0,0:1|0:0,0:0:0:0:
297,104,7196,1,8,0:3:0:0:
297,104,7276,1,10,0:3:0:0:
282,241,7435,1,8,0:1:0:0:
412,158,7595,2,0,L|487:150,1,75.2,8|0,0:0|0:0,0:0:0:0:
408,298,7914,1,10,0:3:0:0:
315,215,8074,1,8,0:1:0:0:
187,335,8233,6,0,P|133:285|135:212,1,150.4,12|2,0:1|0:1,0:0:0:0:
272,109,8712,1,8,0:1:0:0:
272,109,8792,1,8,0:1:0:0:
272,109,8871,1,8,0:0:0:0:
315,215,9031,1,8,0:1:0:0:
176,124,9191,1,10,0:3:0:0:
356,64,9350,6,0,P|426:68|487:129,1,150.4,12|8,0:1|0:1,0:0:0:0:
400,330,9829,2,0,P|395:292|395:255,1,75.2,10|0,0:0|0:0,0:0:0:0:
294,144,10148,5,2,0:0:0:0:
253,124,10228,1,0,0:0:0:0:
207,125,10308,1,0,0:1:0:0:
168,147,10387,1,0,0:1:0:0:
144,186,10467,5,0,3:0:0:0:
127,206,10547,1,0,3:0:0:0:
104,219,10627,1,0,3:0:0:0:
78,220,10706,1,0,3:0:0:0:
54,211,10786,5,14,0:1:0:0:
0,109,10946,1,2,0:0:0:0:
149,53,11105,1,10,0:1:0:0:
20,128,11265,1,0,0:0:0:0:
76,305,11425,5,10,0:1:0:0:
120,149,11584,1,0,0:0:0:0:
298,234,11744,1,10,0:1:0:0:
152,240,11903,1,2,1:0:0:0:
364,150,12063,5,8,1:0:0:0:
334,351,12222,1,0,1:0:0:0:
211,145,12382,1,10,1:0:0:0:
438,261,12542,1,2,1:0:0:0:
174,346,12701,5,8,1:0:0:0:
439,233,12861,1,2,1:0:0:0:
199,54,13020,1,10,1:0:0:0:
306,347,13180,1,0,1:0:0:0:
512,140,13339,5,14,1:0:0:0:
152,240,13659,1,14,1:0:0:0:
512,140,13978,1,14,1:0:0:0:
301,47,14137,1,0,3:0:0:0:
301,47,14217,1,0,3:0:0:0:
301,47,14297,1,8,0:0:0:0:
261,213,14456,6,0,L|244:302,1,84.599997418213,14|0,0:0|0:0,0:0:0:0:
126,69,14776,2,0,L|141:152,1,84.599997418213,14|0,0:0|0:0,0:0:0:0:
68,337,15095,2,0,L|147:309,1,84.599997418213,14|0,0:0|0:0,0:0:0:0:
313,134,15414,1,14,0:0:0:0:
348,314,15574,1,8,0:0:0:0:
348,314,15653,1,8,0:0:0:0:
348,314,15733,1,8,0:0:0:0:
348,314,15813,1,8,0:0:0:0:
348,314,15893,6,0,P|419:327|492:232,1,188,14|8,0:1|0:0,0:0:0:0:
416,133,16371,1,0,0:0:0:0:
274,216,16531,2,0,L|260:314,1,94,8|0,0:1|0:0,0:0:0:0:
137,366,16850,1,8,0:0:0:0:
274,216,17010,6,0,B|333:229|333:229|385:267|385:267|452:283,1,188,4|0,0:0|0:0,0:0:0:0:
435,40,17488,2,0,L|415:136,1,94,10|0,0:0|0:0,0:0:0:0:
274,216,17808,2,0,L|254:120,1,94,10|0,0:1|0:0,0:0:0:0:
159,269,18127,1,8,0:0:0:0:
254,123,18286,1,2,0:0:0:0:
208,360,18446,6,0,P|130:368|58:284,1,188,12|8,0:1|0:0,0:0:0:0:
137,101,18925,1,0,0:0:0:0:
274,216,19084,2,0,L|366:198,1,94,8|0,0:1|0:0,0:0:0:0:
308,43,19403,1,8,0:0:0:0:
179,248,19563,6,0,P|113:186|139:100,1,188,6|0,0:0|0:0,0:0:0:0:
274,216,20042,2,0,L|262:311,1,94,8|0,0:0|0:0,0:0:0:0:
76,350,20361,1,8,0:1:0:0:
195,161,20520,1,2,0:0:0:0:
262,309,20680,1,8,0:0:0:0:
81,218,20839,1,2,0:0:0:0:
274,216,20999,6,0,P|315:198|354:155,1,94,12|0,0:1|0:0,0:0:0:0:
179,68,21318,2,0,L|198:181,1,94,8|2,0:0|0:0,0:0:0:0:
194,160,21558,1,0,0:0:0:0:
194,160,21637,1,8,0:1:0:0:
226,374,21797,1,2,0:0:0:0:
301,208,21956,1,8,0:0:0:0:
106,173,22116,1,6,0:0:0:0:
302,302,22276,5,8,0:1:0:0:
365,116,22435,1,2,0:0:0:0:
143,177,22595,1,8,0:0:0:0:
236,359,22754,1,2,1:0:0:0:
302,178,22914,5,8,1:0:0:0:
72,284,23074,1,10,1:2:0:0:
327,346,23233,1,8,1:2:0:0:
265,83,23393,1,10,1:2:0:0:
155,280,23552,6,0,L|145:375,1,89.2999976154328,12|0,0:1|0:0,0:0:0:0:
107,197,23871,2,0,P|150:186|194:187,1,89.2999976154328,8|2,0:0|0:0,0:0:0:0:
326,255,24191,2,0,P|384:225|383:108,1,178.599995230866,8|8,0:1|0:0,0:0:0:0:
330,45,24669,1,2,0:0:0:0:
245,181,24829,6,0,P|199:178|149:158,1,89.2999976154328,8|2,0:1|0:0,0:0:0:0:
57,52,25148,1,8,0:0:0:0:
21,147,25308,2,0,L|-1:328,1,178.599995230866,2|2,0:0|0:0,0:0:0:0:
129,368,25786,2,0,L|118:279,1,89.2999976154328,8|2,0:0|0:0,0:0:0:0:
245,181,26105,6,0,P|286:166|340:170,1,89.2999976154328,12|0,0:1|0:0,0:0:0:0:
204,265,26425,2,0,P|162:280|117:278,1,89.2999976154328,8|2,0:0|0:0,0:0:0:0:
21,156,26744,2,0,P|82:95|177:120,1,178.599995230866,8|8,0:1|0:0,0:0:0:0:
245,181,27222,1,2,0:0:0:0:
370,88,27382,6,0,L|383:0,1,89.2999976154328,8|2,0:1|0:0,0:0:0:0:
273,93,27701,1,8,0:0:0:0:
340,176,27861,2,0,B|397:184|397:184|455:160|455:160|512:169,1,178.599995230866,2|2,0:0|0:0,0:0:0:0:
398,270,28339,2,0,L|310:256,1,89.2999976154328,8|2,0:0|0:0,0:0:0:0:
273,93,28659,5,12,0:1:0:0:
245,181,28818,1,2,0:0:0:0:
273,93,28978,1,8,0:0:0:0:
156,192,29137,2,0,L|68:180,1,89.2999976154328,2|8,0:0|0:1,0:0:0:0:
245,181,29456,2,0,L|333:193,1,89.2999976154328,2|8,0:0|0:0,0:0:0:0:
425,209,29776,1,2,0:0:0:0:
273,93,29935,6,0,B|209:82|209:82|160:102|160:102|93:92,1,178.599995230866,12|8,0:1|0:0,0:0:0:0:
31,216,30414,1,2,0:0:0:0:
90,286,30574,2,0,P|137:282|179:266,1,89.2999976154328,8|2,0:1|0:0,0:0:0:0:
93,147,30893,2,0,P|52:130|5:125,1,89.2999976154328,8|2,0:0|0:0,0:0:0:0:
176,267,31212,6,0,P|258:287|321:226,1,178.599995230866,12|8,0:1|0:0,0:0:0:0:
238,110,31691,2,0,P|155:89|93:148,1,178.599995230866,2|0,0:0|0:0,0:0:0:0:
176,267,32169,2,0,P|220:264|265:261,1,89.2999976154328,8|2,0:0|0:0,0:0:0:0:
178,176,32488,6,0,P|90:182|0:188,1,178.599995230866,8|8,0:1|0:0,0:0:0:0:
160,345,32967,1,0,3:0:0:0:
160,345,33047,1,0,3:0:0:0:
160,345,33127,6,0,P|208:341|257:338,1,98.6999969879151,14|0,0:1|0:0,0:0:0:0:
411,141,33446,2,0,P|361:144|312:147,1,98.6999969879151,12|2,0:0|0:0,0:0:0:0:
129,121,33765,6,0,P|114:77|119:32,1,89.2999976154328,12|2,0:1|0:0,0:0:0:0:
223,129,34084,1,8,0:0:0:0:
165,212,34244,2,0,B|45:206|45:206|5:153,1,178.599995230866,2|2,0:0|0:0,0:0:0:0:
118,35,34722,2,0,P|162:31|207:29,1,89.2999976154328,8|2,0:0|0:0,0:0:0:0:
283,180,35042,6,0,P|291:230|283:269,1,89.2999976154328,8|0,0:1|0:0,0:0:0:0:
165,212,35361,2,0,P|157:168|165:124,1,89.2999976154328,8|2,0:0|0:0,0:0:0:0:
323,72,35680,1,8,0:1:0:0:
283,180,35839,1,0,0:0:0:0:
165,124,35999,2,0,P|121:117|76:110,1,89.2999976154328,8|2,0:0|0:0,0:0:0:0:
0,275,36318,6,0,P|44:268|88:261,1,89.2999976154328,12|2,0:1|0:0,0:0:0:0:
165,212,36637,1,8,0:0:0:0:
208,336,36797,2,0,P|292:353|357:296,1,178.599995230866,2|2,0:0|0:0,0:0:0:0:
372,205,37276,1,8,0:0:0:0:
279,84,37435,6,0,P|243:68|185:67,1,89.2999976154328,2|0,0:0|0:0,0:0:0:0:
111,124,37754,2,0,P|71:128|21:156,1,89.2999976154328,2|8,0:0|0:0,0:0:0:0:
121,273,38074,2,0,P|165:271|206:254,1,89.2999976154328,2|8,0:0|0:1,0:0:0:0:
307,264,38393,2,0,P|344:240|371:205,1,89.2999976154328,2|8,0:0|0:0,0:0:0:0:
379,104,38712,1,0,0:0:0:0:
219,161,38871,6,0,P|131:155|41:149,1,178.599995230866,12|8,0:1|0:0,0:0:0:0:
128,275,39350,2,0,P|216:269|306:263,1,178.599995230866,2|0,0:0|0:0,0:0:0:0:
319,78,39829,2,0,P|316:122|313:167,1,89.2999976154328,10|0,0:0|0:0,0:0:0:0:
366,342,40148,6,0,P|421:301|406:201,1,178.599995230866,10|10,0:1|0:0,0:0:0:0:
312,167,40627,1,0,0:0:0:0:
221,254,40786,1,8,3:1:0:0:
218,276,40866,1,0,3:0:0:0:
215,298,40946,1,0,3:0:0:0:
212,320,41026,1,0,3:0:0:0:
210,342,41105,2,0,P|157:359|114:351,1,89.2999976154328,8|2,3:2|0:0,0:0:0:0:
117,180,41425,5,8,0:1:0:0:
221,254,41584,2,0,L|324:235,1,103.400003155518,4|8,0:0|0:1,0:0:0:0:
167,98,41903,2,0,P|65:100|22:185,1,206.800006311035,4|8,0:0|0:0,0:0:0:0:
74,269,42382,1,8,0:1:0:0:
240,167,42542,6,0,P|263:66|194:0,1,206.800006311035,4|2,0:0|0:0,0:0:0:0:
117,180,43020,1,8,0:0:0:0:
303,243,43180,1,2,0:0:0:0:
195,0,43339,5,12,0:1:0:0:
212,332,43659,1,10,0:0:0:0:
117,180,43978,6,0,P|110:135|118:92,1,89.2999976154328,12|0,0:1|0:0,0:0:0:0:
298,150,44297,2,0,L|209:139,1,89.2999976154328,8|2,0:0|0:0,0:0:0:0:
294,251,44616,2,0,P|368:222|396:126,1,178.599995230866,8|8,0:1|0:0,0:0:0:0:
321,52,45095,1,2,0:0:0:0:
209,139,45254,6,0,L|198:227,1,89.2999976154328,8|2,0:1|0:0,0:0:0:0:
212,332,45574,1,8,0:0:0:0:
99,212,45733,2,0,P|52:204|8:206,1,89.2999976154328,2|8,0:0|0:1,0:0:0:0:
123,338,46052,1,2,3:0:0:0:
123,338,46132,1,0,3:0:0:0:
123,338,46212,2,0,P|167:339|211:331,1,89.2999976154328,8|2,0:0|0:1,0:0:0:0:
294,161,46531,6,0,L|301:69,1,89.2999976154328,12|0,0:1|0:0,0:0:0:0:
350,230,46850,2,0,P|314:245|259:247,1,89.2999976154328,8|2,0:0|0:0,0:0:0:0:
167,112,47169,2,0,P|84:89|23:148,1,178.599995230866,8|8,0:1|0:0,0:0:0:0:
0,246,47648,1,2,0:0:0:0:
92,345,47808,6,0,L|201:332,1,89.2999976154328,8|2,0:1|0:0,0:0:0:0:
266,218,48127,2,0,L|157:205,1,89.2999976154328,8|2,0:0|3:0,0:0:0:0:
177,207,48366,1,0,3:0:0:0:
177,207,48446,1,8,0:1:0:0:
256,124,48605,1,2,0:0:0:0:
348,245,48765,2,0,P|348:289|333:331,1,89.2999976154328,8|2,0:0|0:0,0:0:0:0:
184,216,49084,6,0,P|169:171|170:129,1,89.2999976154328,12|2,0:1|0:0,0:0:0:0:
293,46,49403,1,8,0:0:0:0:
348,147,49563,2,0,L|436:136,1,89.2999976154328,2|8,0:0|0:1,0:0:0:0:
272,226,49882,2,0,L|183:215,1,89.2999976154328,2|8,0:0|0:0,0:0:0:0:
85,199,50201,1,2,0:0:0:0:
158,351,50361,6,0,P|240:333|340:320,1,178.599995230866,12|8,0:1|0:0,0:0:0:0:
315,133,50839,1,2,0:0:0:0:
384,224,50999,2,0,P|427:237|472:235,1,89.2999976154328,8|2,0:1|0:0,0:0:0:0:
414,45,51318,2,0,L|425:133,1,89.2999976154328,8|2,0:0|0:0,0:0:0:0:
272,226,51637,6,0,P|183:234|131:166,1,178.599995230866,12|8,0:1|0:0,0:0:0:0:
285,77,52116,2,0,P|374:69|426:137,1,178.599995230866,2|0,0:0|0:0,0:0:0:0:
385,313,52595,2,0,P|377:269|374:224,1,89.2999976154328,8|2,0:0|0:0,0:0:0:0:
285,77,52914,6,0,L|273:165,1,89.2999976154328,8|2,0:1|0:0,0:0:0:0:
237,293,53233,1,8,3:2:0:0:
237,293,53313,1,0,3:0:0:0:
237,293,53393,1,0,3:0:0:0:
237,293,53472,1,0,3:0:0:0:
237,293,53552,6,0,L|132:286,1,98.6999969879151,14|0,0:1|0:0,0:0:0:0:
285,77,53871,2,0,L|390:83,1,98.6999969879151,12|2,0:0|0:0,0:0:0:0:
345,266,54191,6,0,P|331:222|334:177,1,89.2999976154328,12|2,0:1|0:0,0:0:0:0:
446,248,54510,1,8,0:0:0:0:
406,341,54669,2,0,P|321:360|254:300,1,178.599995230866,2|2,0:0|0:0,0:0:0:0:
253,117,55148,2,0,L|222:213,1,89.2999976154328,8|2,0:0|0:0,0:0:0:0:
138,286,55467,6,0,P|86:280|45:254,1,89.2999976154328,8|0,0:1|0:0,0:0:0:0:
168,138,55786,2,0,P|216:117|264:119,1,89.2999976154328,8|2,0:0|0:0,0:0:0:0:
353,222,56105,2,0,L|343:267,3,44.6499988077164,8|0|0|0,0:1|0:0|0:0|0:0,0:0:0:0:
368,296,56425,2,0,L|358:341,3,44.6499988077164,8|0|2|0,0:0|0:0|0:0|0:0,0:0:0:0:
383,370,56744,6,0,P|435:364|476:338,1,89.2999976154328,12|2,0:1|0:0,0:0:0:0:
510,205,57063,1,8,0:0:0:0:
421,154,57222,2,0,L|333:136,1,89.2999976154328,2|8,0:0|0:1,0:0:0:0:
257,283,57542,2,0,P|301:281|343:265,1,89.2999976154328,2|8,0:0|0:0,0:0:0:0:
252,116,57861,6,0,P|168:97|106:157,1,178.599995230866,6|2,0:0|0:0,0:0:0:0:
80,312,58339,1,8,0:0:0:0:
19,229,58499,2,0,L|5:138,1,89.2999976154328,2|8,0:0|0:1,0:0:0:0:
106,157,58818,1,2,0:0:0:0:
170,280,58978,2,0,P|213:291|257:282,1,89.2999976154328,8|2,0:0|0:0,0:0:0:0:
424,122,59297,6,0,B|367:130|367:130|309:106|309:106|252:115,1,178.599995230866,12|8,0:1|0:0,0:0:0:0:
338,222,59776,2,0,L|426:208,1,89.2999976154328,0|8,0:0|0:1,0:0:0:0:
381,42,60095,1,2,0:0:0:0:
251,115,60254,2,0,P|201:115|163:101,1,89.2999976154328,8|2,0:0|0:0,0:0:0:0:
69,6,60574,6,0,L|47:198,1,178.599995230866,12|8,0:1|0:0,0:0:0:0:
106,322,61052,2,0,P|170:263|257:282,1,178.599995230866,2|2,0:0|0:0,0:0:0:0:
320,384,61531,1,8,0:0:0:0:
373,268,61691,1,2,0:0:0:0:
196,358,61850,6,0,B|54:347|54:347|21:304,1,197.39999397583,12|8,0:1|0:0,0:0:0:0:
144,140,62329,2,0,P|244:121|305:185,1,197.39999397583,4|2,0:0|0:0,0:0:0:0:
196,358,62808,1,8,0:0:0:0:
72,206,62967,6,0,P|53:106|135:42,1,216.200004123688,14|2,0:0|0:0,0:0:0:0:
304,184,63446,1,10,0:0:0:0:
134,309,63605,1,2,0:0:0:0:
248,18,63765,5,6,0:0:0:0:
454,287,64084,1,10,0:0:0:0:
304,184,64403,6,0,L|207:178,1,89.2999976154328,12|2,0:1|0:0,0:0:0:0:
152,33,64722,1,8,0:0:0:0:
252,88,64882,2,0,P|332:96|394:19,1,178.599995230866,2|2,0:0|0:0,0:0:0:0:
435,153,65361,2,0,P|431:199|429:250,1,89.2999976154328,8|2,0:0|0:0,0:0:0:0:
293,315,65680,6,0,P|248:317|179:257,1,133.949996423149,8|0,0:1|0:0,0:0:0:0:
155,231,65999,2,0,L|58:225,1,89.2999976154328,10|0,0:0|0:0,0:0:0:0:
162,82,66318,2,0,L|251:87,1,89.2999976154328,10|0,0:1|0:0,0:0:0:0:
89,143,66637,2,0,L|-8:137,1,89.2999976154328,10|0,0:0|0:0,0:0:0:0:
88,313,66956,5,12,0:1:0:0:
155,231,67116,1,2,0:0:0:0:
88,313,67276,1,8,0:0:0:0:
242,280,67435,2,0,B|299:272|299:272|357:296|357:296|414:287,1,178.599995230866,2|2,0:0|0:0,0:0:0:0:
470,139,67914,1,8,0:0:0:0:
383,194,68074,1,2,0:0:0:0:
308,84,68233,6,0,L|211:68,1,89.2999976154328,8|0,0:1|0:0,0:0:0:0:
131,206,68552,2,0,P|176:196|215:160,1,89.2999976154328,10|0,0:0|0:0,0:0:0:0:
49,63,68871,2,0,P|44:127|44:166,1,89.2999976154328,10|0,0:1|0:0,0:0:0:0:
49,282,69191,1,10,0:0:0:0:
139,114,69350,1,0,3:0:0:0:
139,114,69430,1,0,3:0:0:0:
139,114,69510,6,0,P|214:78|288:129,1,178.599995230866,12|8,0:1|0:0,0:0:0:0:
257,309,69988,1,2,0:0:0:0:
136,304,70148,2,0,L|45:281,1,89.2999976154328,8|0,0:1|0:0,0:0:0:0:
72,104,70467,2,0,P|84:148|94:199,1,89.2999976154328,10|0,0:0|0:0,0:0:0:0:
257,309,70786,6,0,P|348:308|395:229,1,178.599995230866,12|8,0:1|0:0,0:0:0:0:
325,73,71265,1,2,0:0:0:0:
193,228,71425,1,8,0:1:0:0:
156,103,71584,1,0,0:0:0:0:
311,168,71744,2,0,L|405:154,1,89.2999976154328,10|0,0:0|0:0,0:0:0:0:
220,40,72063,6,0,P|121:21|69:91,1,178.599995230866,12|8,0:1|0:0,0:0:0:0:
155,249,72542,1,2,0:0:0:0:
311,168,72701,2,0,L|321:72,1,89.2999976154328,8|2,0:1|0:0,0:0:0:0:
181,157,73020,1,8,0:0:0:0:
347,259,73180,1,2,0:0:0:0:
233,80,73339,5,8,0:1:0:0:
256,258,73499,1,2,0:0:0:0:
419,121,73659,1,8,0:0:0:0:
267,165,73818,1,2,0:0:0:0:
483,211,73978,5,10,0:1:0:0:
334,68,74137,1,0,3:0:0:0:
334,68,74217,1,0,3:0:0:0:
334,68,74297,1,8,0:0:0:0:
378,282,74456,1,2,0:0:0:0:
419,121,74616,5,12,0:1:0:0:
224,250,74776,1,2,0:0:0:0:
456,341,74935,1,8,0:0:0:0:
267,165,75095,6,0,L|156:154,1,105.280001285156,4|8,0:0|0:1,0:0:0:0:
64,308,75414,1,2,0:0:0:0:
86,45,75574,1,8,0:0:0:0:
257,251,75733,6,0,L|276:380,1,117.5,12|8,0:0|0:1,0:0:0:0:
432,240,76052,1,10,0:0:0:0:
66,141,76212,1,12,0:0:0:0:
345,213,76531,5,2,0:0:0:0:
163,259,76691,1,0,0:0:0:0:
345,213,76850,1,2,0:0:0:0:
153,120,77010,6,0,P|188:60|333:79,1,206.800006311035,12|2,0:1|0:0,0:0:0:0:
411,262,77488,1,8,0:0:0:0:
228,208,77648,1,2,0:0:0:0:
419,122,77808,1,8,0:1:0:0:
228,208,77967,2,0,L|122:200,1,103.400003155518,2|8,0:0|0:0,0:0:0:0:
299,359,78286,6,0,P|319:288|316:156,1,206.800006311035,2|2,0:0|0:0,0:0:0:0:
144,48,78765,1,8,0:0:0:0:
300,19,78925,1,2,0:0:0:0:
191,193,79084,1,8,0:1:0:0:
191,193,79244,1,2,0:0:0:0:
53,54,79403,2,0,L|35:168,1,103.400003155518,8|0,0:0|0:0,0:0:0:0:
198,329,79722,5,12,0:1:0:0:
307,159,79882,1,2,0:0:0:0:
101,252,80042,1,8,3:2:0:0:
101,252,80201,1,2,3:0:0:0:
291,299,80361,1,8,0:1:0:0:
388,123,80520,1,2,0:0:0:0:
444,332,80680,1,8,0:0:0:0:
307,159,80839,6,0,P|228:131|143:204,1,206.800006311035,2|2,0:0|0:0,0:0:0:0:
331,360,81318,2,0,L|345:239,1,103.400003155518,8|0,0:0|0:0,0:0:0:0:
204,84,81637,1,8,0:1:0:0:
239,232,81797,1,2,0:0:0:0:
410,136,81956,1,8,0:0:0:0:
250,336,82116,6,0,P|145:330|34:322,1,206.800006311035,6|2,0:0|0:0,0:0:0:0:
115,98,82595,1,8,0:0:0:0:
292,145,82754,1,2,0:0:0:0:
89,230,82914,1,8,0:1:0:0:
292,145,83074,2,0,L|323:22,1,103.400003155518,2|8,0:0|0:0,0:0:0:0:
345,234,83393,6,0,P|261:245|190:137,1,206.800006311035,2|2,0:0|0:0,0:0:0:0:
317,44,83871,1,8,0:0:0:0:
486,83,84031,1,2,0:0:0:0:
292,145,84191,1,8,0:1:0:0:
486,83,84350,1,2,0:0:0:0:
430,293,84510,1,8,0:0:0:0:
292,145,84669,1,0,0:0:0:0:
147,274,84829,5,12,0:1:0:0:
345,234,84988,1,2,0:0:0:0:
205,52,85148,1,8,0:0:0:0:
205,52,85308,1,2,0:0:0:0:
246,254,85467,1,8,0:1:0:0:
386,139,85627,1,2,3:0:0:0:
314,329,85786,1,8,3:2:0:0:
159,131,85946,6,0,P|57:124|1:201,1,206.800006311035,2|2,0:0|0:0,0:0:0:0:
104,372,86425,1,8,0:0:0:0:
103,220,86584,1,2,0:0:0:0:
314,328,86744,1,8,3:1:0:0:
274,140,86903,1,0,3:0:0:0:
274,140,86983,1,0,3:0:0:0:
274,140,87063,1,8,3:2:0:0:
213,342,87222,1,8,3:2:0:0:
213,342,87302,1,8,3:2:0:0:
213,342,87382,6,0,P|154:341|82:356,1,103.400003155518,12|0,0:1|0:0,0:0:0:0:
113,132,87701,2,0,L|134:247,1,103.400003155518,8|0,0:0|0:0,0:0:0:0:
293,132,88020,1,8,0:1:0:0:
134,34,88180,1,2,0:0:0:0:
313,105,88339,1,8,0:0:0:0:
131,233,88499,6,0,P|59:221|21:89,1,206.800006311035,2|2,0:0|0:0,0:0:0:0:
230,14,88978,2,0,L|218:132,1,103.400003155518,8|2,0:0|0:0,0:0:0:0:
311,279,89297,1,8,0:1:0:0:
408,126,89456,1,2,0:0:0:0:
397,323,89616,1,8,0:0:0:0:
272,193,89776,1,2,0:0:0:0:
141,369,89935,6,0,L|27:353,1,103.400003155518,12|0,0:1|0:0,0:0:0:0:
130,130,90254,2,0,P|136:181|130:234,1,103.400003155518,8|0,0:0|0:0,0:0:0:0:
20,111,90574,1,8,0:1:0:0:
166,43,90733,1,2,0:0:0:0:
253,230,90893,1,8,0:0:0:0:
334,48,91052,6,0,P|405:33|452:40,1,103.400003155518,2|8,0:0|0:1,0:0:0:0:
231,142,91371,2,0,P|179:143|129:129,1,103.400003155518,2|8,0:0|0:0,0:0:0:0:
245,11,91691,1,2,0:0:0:0:
352,188,91850,1,8,0:1:0:0:
435,35,92010,1,2,0:0:0:0:
231,142,92169,2,0,L|214:251,1,103.400003155518,8|2,0:0|0:0,0:0:0:0:
351,366,92488,6,0,P|294:351|255:300,1,103.400003155518,12|0,0:1|0:0,0:0:0:0:
309,76,92808,2,0,P|316:129|321:195,1,103.400003155518,8|0,0:0|0:0,0:0:0:0:
167,300,93127,1,8,0:1:0:0:
225,109,93286,1,2,0:0:0:0:
349,265,93446,1,8,0:0:0:0:
148,201,93605,6,0,B|120:62|120:62|156:4,1,206.800006311035,2|0,0:0|0:0,0:0:0:0:
364,162,94084,2,0,L|348:266,1,103.400003155518,10|0,0:0|0:0,0:0:0:0:
176,343,94403,2,0,P|123:342|74:317,1,103.400003155518,10|0,0:1|0:0,0:0:0:0:
266,184,94722,2,0,P|312:162|363:161,1,103.400003155518,10|0,0:0|0:0,0:0:0:0:
511,311,95042,6,0,P|422:337|347:258,1,206.800006311035,14|8,0:1|0:0,0:0:0:0:
512,52,95520,1,2,0:0:0:0:
443,241,95680,1,8,0:1:0:0:
266,184,95839,1,0,0:0:0:0:
498,152,95999,1,8,0:0:0:0:
377,340,96159,1,2,0:0:0:0:
367,102,96318,5,12,0:1:0:0:
153,217,96478,1,2,0:0:0:0:
382,135,96637,1,8,0:0:0:0:
233,310,96797,1,2,0:0:0:0:
176,108,96956,5,8,0:1:0:0:
352,284,97116,1,2,3:0:0:0:
352,284,97196,1,0,3:0:0:0:
352,284,97276,1,8,0:0:0:0:
264,72,97435,6,0,P|332:0|430:15,1,206.800006311035,14|2,0:1|0:0,0:0:0:0:
486,242,97914,1,8,0:0:0:0:
292,204,98074,1,2,0:0:0:0:
497,130,98233,1,8,0:1:0:0:
292,204,98393,2,0,L|177:180,1,103.400003155518,2|8,0:0|0:0,0:0:0:0:
58,351,98712,6,0,P|116:371|231:289,1,206.800006311035,2|2,0:0|0:0,0:0:0:0:
97,149,99191,1,8,0:0:0:0:
265,94,99350,1,2,0:0:0:0:
111,250,99510,2,0,L|4:239,1,103.400003155518,8|2,0:1|0:0,0:0:0:0:
101,51,99829,1,8,0:0:0:0:
266,122,99988,1,2,0:0:0:0:
198,321,100148,5,12,0:1:0:0:
171,129,100308,1,2,0:0:0:0:
356,283,100467,1,8,0:0:0:0:
356,283,100627,1,2,0:0:0:0:
111,250,100786,1,8,0:1:0:0:
266,122,100946,1,2,3:0:0:0:
292,364,101105,1,8,0:0:0:0:
435,212,101265,6,0,P|452:117|375:32,1,206.800006311035,2|2,0:0|0:0,0:0:0:0:
203,215,101744,1,8,0:0:0:0:
195,41,101903,1,0,0:0:0:0:
343,143,102063,1,8,0:1:0:0:
125,111,102222,1,2,0:0:0:0:
343,143,102382,1,8,0:0:0:0:
210,371,102542,6,0,P|144:337|158:197,1,206.800006311035,6|2,0:0|0:0,0:0:0:0:
287,79,103020,1,8,0:0:0:0:
320,286,103180,1,2,0:0:0:0:
449,105,103339,1,8,0:1:0:0:
320,285,103499,2,0,P|268:287|218:274,1,103.400003155518,2|8,0:0|0:0,0:0:0:0:
48,93,103818,6,0,P|147:81|213:155,1,206.800006311035,2|2,0:0|0:0,0:0:0:0:
117,314,104297,1,8,0:0:0:0:
213,155,104456,1,2,0:0:0:0:
362,352,104616,2,0,L|243:332,1,103.400003155518,8|2,0:1|0:0,0:0:0:0:
105,194,104935,1,8,0:0:0:0:
171,49,105095,1,2,0:0:0:0:
232,249,105254,5,12,0:1:0:0:
46,281,105414,1,2,0:0:0:0:
221,144,105574,1,8,0:0:0:0:
221,144,105733,1,2,0:0:0:0:
261,335,105893,1,8,0:1:0:0:
363,168,106052,1,2,3:0:0:0:
152,292,106212,1,8,3:2:0:0:
299,95,106371,6,0,P|250:38|115:56,1,206.800006311035,2|2,0:0|0:0,0:0:0:0:
61,251,106850,1,8,0:0:0:0:
15,74,107010,1,2,0:0:0:0:
155,228,107169,1,8,3:1:0:0:
196,252,107249,1,0,3:0:0:0:
244,255,107329,1,2,3:0:0:0:
289,238,107409,1,0,3:0:0:0:
321,201,107488,1,8,3:2:0:0:
351,163,107568,1,8,3:2:0:0:
394,142,107648,1,10,3:2:0:0:
442,142,107728,1,8,3:2:0:0:
485,163,107808,6,0,P|494:237|484:370,1,206.800006311035,12|8,0:1|0:0,0:0:0:0:
291,331,108286,1,2,0:0:0:0:
337,135,108446,1,8,0:1:0:0:
195,240,108605,1,2,0:0:0:0:
390,301,108765,1,8,0:0:0:0:
227,133,108925,6,0,L|113:113,1,103.400003155518,6|8,0:0|0:1,0:0:0:0:
51,293,109244,1,2,0:0:0:0:
20,91,109403,1,8,0:0:0:0:
195,240,109563,2,0,P|267:239|337:133,1,206.800006311035,2|2,0:0|0:0,0:0:0:0:
148,14,110042,2,0,L|124:118,1,103.400003155518,8|2,0:0|0:0,0:0:0:0:
70,309,110361,5,12,0:1:0:0:
20,91,110520,1,2,3:0:0:0:
20,91,110600,1,0,3:0:0:0:
20,91,110680,1,8,1:0:0:0:
195,240,110839,6,0,L|309:247,1,112.799996557617,14|8,0:0|0:1,0:0:0:0:
260,20,111159,2,0,L|146:13,1,112.799996557617,10|8,0:0|0:1,0:0:0:0:
290,135,111478,6,0,P|363:115|454:220,1,206.800006311035,14|2,0:0|0:0,0:0:0:0:
325,364,111956,1,8,0:0:0:0:
185,213,112116,1,2,0:0:0:0:
119,366,112276,1,8,0:1:0:0:
53,186,112435,1,8,3:2:0:0:
71,144,112515,1,8,3:2:0:0:
104,112,112595,1,8,3:2:0:0:
147,96,112675,1,8,3:2:0:0:
193,97,112754,1,8,3:2:0:0:
235,116,112834,1,8,3:2:0:0:
266,150,112914,6,0,L|278:269,1,103.400003155518,12|0,0:1|0:0,0:0:0:0:
44,365,113233,2,0,P|43:307|60:254,1,103.400003155518,8|0,0:0|0:0,0:0:0:0:
232,349,113552,1,8,0:1:0:0:
54,263,113712,1,2,0:0:0:0:
197,187,113871,1,8,0:0:0:0:
357,364,114031,6,0,P|416:367|486:249,1,206.800006311035,6|0,0:0|0:0,0:0:0:0:
326,123,114510,2,0,L|184:103,1,103.400003155518,8|0,0:0|0:0,0:0:0:0:
145,311,114829,1,8,0:1:0:0:
345,223,114988,1,2,0:0:0:0:
104,169,115148,1,8,0:0:0:0:
240,371,115308,1,2,0:0:0:0:
326,123,115467,6,0,L|346:8,1,112.799996557617,12|2,0:1|0:0,0:0:0:0:
104,169,115786,1,8,0:0:0:0:
323,324,115946,2,0,L|434:307,1,112.799996557617,6|8,0:0|0:1,0:0:0:0:
512,54,116265,1,2,0:0:0:0:
345,223,116425,1,8,0:0:0:0:
111,63,116584,6,0,L|-25:45,1,112.799996557617,14|0,0:1|0:0,0:0:0:0:
126,358,116903,1,14,0:0:0:0:
469,176,117063,1,14,0:0:0:0:
469,176,117701,6,0,P|402:178|352:116,1,141,8|0,0:0|0:0,0:0:0:0:
321,54,118020,6,0,P|313:148|304:242,1,188,14|8,0:1|0:0,0:0:0:0:
131,238,118499,1,0,0:0:0:0:
277,338,118659,2,0,P|325:339|368:319,1,94,8|0,0:1|0:0,0:0:0:0:
416,111,118978,1,8,0:0:0:0:
213,195,119137,6,0,P|110:198|61:135,1,188,6|0,0:0|0:0,0:0:0:0:
262,21,119616,2,0,L|274:123,1,94,10|0,0:0|0:0,0:0:0:0:
243,281,119935,1,10,0:1:0:0:
378,163,120095,1,0,0:0:0:0:
166,100,120254,1,8,0:0:0:0:
250,308,120414,1,2,0:0:0:0:
467,145,120574,6,0,P|409:78|315:98,1,188,12|8,0:1|0:0,0:0:0:0:
190,195,121052,1,0,0:0:0:0:
332,335,121212,2,0,L|424:317,1,94,8|0,0:1|0:0,0:0:0:0:
378,163,121531,1,8,0:0:0:0:
171,290,121691,6,0,L|158:393,1,94,4|8,0:0|0:1,0:0:0:0:
32,232,122010,1,2,0:0:0:0:
189,171,122169,1,8,0:0:0:0:
266,343,122329,1,2,0:0:0:0:
133,259,122488,1,8,0:1:0:0:
334,210,122648,1,2,3:0:0:0:
334,210,122728,1,0,3:0:0:0:
334,210,122808,1,8,3:2:0:0:
166,346,122967,1,2,3:0:0:0:
166,346,123047,1,0,3:0:0:0:
166,346,123127,6,0,L|51:340,1,94,14|0,0:1|0:0,0:0:0:0:
163,142,123446,2,0,L|256:146,1,94,8|0,0:0|0:0,0:0:0:0:
368,329,123765,1,8,0:1:0:0:
348,151,123925,1,2,0:0:0:0:
163,249,124084,1,8,0:0:0:0:
368,329,124244,6,0,P|434:280|431:177,1,188,4|0,0:0|0:0,0:0:0:0:
243,52,124722,2,0,L|257:150,1,94,10|0,0:0|0:0,0:0:0:0:
278,294,125042,1,10,0:1:0:0:
117,178,125201,1,0,0:0:0:0:
169,375,125361,1,8,0:0:0:0:
316,213,125520,1,2,3:0:0:0:
316,213,125600,1,0,3:0:0:0:
316,213,125680,6,0,L|417:202,1,94,14|0,0:1|0:0,0:0:0:0:
320,25,125999,1,8,0:0:0:0:
171,95,126159,1,2,0:0:0:0:
229,254,126318,2,0,P|240:203|236:152,1,94,8|0,0:1|0:0,0:0:0:0:
47,136,126637,1,8,0:0:0:0:
155,326,126797,6,0,B|217:347|217:347|282:340|282:340|346:362,1,188,4|0,0:0|0:0,0:0:0:0:
447,154,127276,2,0,L|458:260,1,94,8|0,0:0|0:0,0:0:0:0:
238,162,127595,1,8,0:1:0:0:
419,36,127754,1,2,0:0:0:0:
335,233,127914,1,8,0:0:0:0:
442,48,128074,1,2,0:0:0:0:
238,162,128233,6,0,P|192:165|134:155,1,94,12|2,0:1|0:0,0:0:0:0:
25,322,128552,1,8,0:0:0:0:
219,254,128712,1,2,0:0:0:0:
56,176,128871,1,8,0:1:0:0:
166,336,129031,1,10,0:0:0:0:
197,93,129191,1,8,0:0:0:0:
312,312,129350,6,0,P|407:318|473:221,1,216.200004123688,4|2,0:0|0:0,0:0:0:0:
442,48,129829,1,8,0:0:0:0:
363,213,129988,1,0,0:0:0:0:
228,84,130148,1,10,3:1:0:0:
195,68,130228,1,0,3:0:0:0:
160,63,130308,1,8,3:2:0:0:
124,67,130387,1,0,3:0:0:0:
91,80,130467,1,10,3:2:0:0:
63,103,130547,1,0,3:0:0:0:
42,132,130627,1,8,3:2:0:0:
31,166,130706,1,0,3:0:0:0:
28,202,130786,6,0,L|45:309,1,89.2999976154328,12|0,0:1|0:0,0:0:0:0:
180,289,131105,2,0,L|162:396,1,89.2999976154328,8|2,0:0|0:0,0:0:0:0:
127,213,131425,2,0,P|191:197|270:278,1,178.599995230866,8|8,0:1|0:0,0:0:0:0:
290,355,131903,1,2,0:0:0:0:
356,245,132063,6,0,L|370:156,1,89.2999976154328,8|2,0:1|0:0,0:0:0:0:
387,65,132382,1,8,0:0:0:0:
274,149,132542,2,0,P|201:160|131:92,1,178.599995230866,2|2,0:0|0:0,0:0:0:0:
45,179,133020,1,8,0:0:0:0:
116,263,133180,1,2,3:0:0:0:
116,263,133260,1,0,3:0:0:0:
116,263,133339,6,0,P|161:255|208:249,1,89.2999976154328,12|0,0:1|0:0,0:0:0:0:
266,368,133659,2,0,P|221:360|174:354,1,89.2999976154328,8|2,0:0|0:0,0:0:0:0:
204,249,133978,2,0,P|292:259|380:275,1,178.599995230866,8|8,0:1|0:0,0:0:0:0:
475,298,134456,1,2,0:0:0:0:
422,185,134616,6,0,L|408:96,1,89.2999976154328,8|2,0:1|0:0,0:0:0:0:
300,23,134935,1,8,0:0:0:0:
240,104,135095,2,0,B|183:95|183:95|125:119|125:119|68:111,1,178.599995230866,2|2,0:0|0:0,0:0:0:0:
52,241,135574,2,0,P|95:238|138:212,1,89.2999976154328,8|2,0:0|0:0,0:0:0:0:
240,104,135893,5,12,0:1:0:0:
286,194,136052,1,2,0:0:0:0:
240,104,136212,1,8,0:0:0:0:
382,167,136371,2,0,L|471:153,1,89.2999976154328,2|8,0:0|0:1,0:0:0:0:
388,36,136691,2,0,L|299:22,1,89.2999976154328,2|8,0:0|0:0,0:0:0:0:
202,4,137010,1,2,0:0:0:0:
130,178,137169,6,0,P|72:125|99:33,1,178.599995230866,12|8,0:1|0:0,0:0:0:0:
240,104,137648,1,2,0:0:0:0:
225,199,137808,2,0,L|211:288,1,89.2999976154328,8|2,0:1|0:0,0:0:0:0:
329,168,138127,2,0,L|343:79,1,89.2999976154328,8|2,0:0|0:0,0:0:0:0:
417,234,138446,6,0,B|397:355|397:355|339:392,1,178.599995230866,12|8,0:1|0:0,0:0:0:0:
211,287,138925,2,0,P|194:202|256:143,1,178.599995230866,2|0,0:0|0:0,0:0:0:0:
417,234,139403,2,0,L|514:216,1,89.2999976154328,8|2,0:0|0:0,0:0:0:0:
435,80,139722,5,8,0:1:0:0:
329,168,139882,1,2,3:0:0:0:
308,177,139962,1,0,3:0:0:0:
286,180,140042,1,8,3:2:0:0:
264,179,140121,1,0,3:0:0:0:
242,171,140201,1,0,3:0:0:0:
223,159,140281,1,0,3:0:0:0:
211,143,140361,6,0,L|198:39,1,98.6999969879151,14|0,0:1|0:0,0:0:0:0:
417,234,140680,2,0,L|430:338,1,98.6999969879151,12|2,0:0|0:0,0:0:0:0:
270,384,140999,6,0,P|225:379|185:361,1,89.2999976154328,12|2,0:1|0:0,0:0:0:0:
154,222,141318,1,8,0:0:0:0:
255,273,141478,2,0,P|317:207|286:124,1,178.599995230866,2|2,0:0|0:0,0:0:0:0:
188,47,141956,2,0,L|204:134,1,89.2999976154328,8|2,0:0|0:0,0:0:0:0:
93,282,142276,6,0,P|73:246|73:198,1,89.2999976154328,8|0,0:1|0:0,0:0:0:0:
255,273,142595,2,0,P|255:317|234:356,1,89.2999976154328,8|2,0:0|0:0,0:0:0:0:
154,222,142914,2,0,L|197:212,3,44.6499988077164,8|0|0|0,0:1|0:0|0:0|0:0,0:0:0:0:
218,182,143233,2,0,L|261:172,3,44.6499988077164,8|0|2|0,0:0|0:0|0:0|0:0,0:0:0:0:
282,142,143552,6,0,L|265:54,1,89.2999976154328,12|2,0:1|0:0,0:0:0:0:
103,57,143871,1,8,0:0:0:0:
63,149,144031,2,0,P|58:190|75:238,1,89.2999976154328,2|8,0:0|0:1,0:0:0:0:
169,269,144350,2,0,P|174:228|157:180,1,89.2999976154328,2|8,0:0|0:0,0:0:0:0:
98,326,144669,6,0,B|155:318|155:318|213:342|213:342|270:333,1,178.599995230866,6|2,0:0|0:0,0:0:0:0:
371,229,145148,1,8,0:0:0:0:
301,152,145308,2,0,P|259:135|215:133,1,89.2999976154328,2|8,0:0|0:1,0:0:0:0:
276,240,145627,1,2,0:0:0:0:
360,318,145786,2,0,L|448:301,1,89.2999976154328,8|2,0:0|0:0,0:0:0:0:
301,152,146105,6,0,B|244:161|244:161|186:137|186:137|129:145,1,178.599995230866,12|8,0:1|0:0,0:0:0:0:
80,243,146584,2,0,L|168:229,1,89.2999976154328,0|8,0:0|0:1,0:0:0:0:
251,75,146903,1,2,0:0:0:0:
128,145,147063,2,0,P|83:145|41:131,1,89.2999976154328,8|2,0:0|0:0,0:0:0:0:
251,75,147382,6,0,P|337:68|391:157,1,178.599995230866,12|8,0:1|0:0,0:0:0:0:
361,246,147861,1,2,0:0:0:0:
221,171,148020,1,8,0:1:0:0:
163,265,148180,1,2,3:0:0:0:
163,265,148260,1,0,3:0:0:0:
163,265,148339,2,0,L|149:353,1,89.2999976154328,8|2,0:0|0:0,0:0:0:0:
75,212,148659,5,12,0:1:0:0:
220,171,148818,1,10,0:3:0:0:
52,109,148978,1,8,0:1:0:0:
163,265,149137,2,0,P|248:278|326:186,1,197.39999397583,14|2,0:0|0:0,0:0:0:0:
231,63,149616,1,8,0:0:0:0:
75,212,149776,6,0,P|72:317|160:369,1,216.200004123688,14|2,0:0|0:0,0:0:0:0:
322,204,150254,1,10,0:0:0:0:
132,119,150414,1,2,0:0:0:0:
295,378,150574,5,14,0:1:0:0:
452,76,150893,1,10,0:0:0:0:
421,285,151212,6,0,L|404:393,1,89.2999976154328,12|2,0:1|0:0,0:0:0:0:
301,288,151531,1,8,0:0:0:0:
207,337,151691,2,0,P|148:351|62:280,1,178.599995230866,2|2,0:0|0:0,0:0:0:0:
123,139,152169,2,0,L|211:125,1,89.2999976154328,8|2,0:0|0:0,0:0:0:0:
318,214,152488,6,0,P|363:216|432:156,1,133.949996423149,8|0,0:1|0:0,0:0:0:0:
423,122,152808,2,0,L|409:33,1,89.2999976154328,10|0,0:0|0:0,0:0:0:0:
211,125,153127,2,0,L|299:111,1,89.2999976154328,10|0,0:1|0:0,0:0:0:0:
234,13,153446,2,0,L|145:0,1,89.2999976154328,10|0,0:0|0:0,0:0:0:0:
123,139,153765,5,12,0:1:0:0:
59,53,153925,1,2,0:0:0:0:
123,139,154084,1,8,0:0:0:0:
234,13,154244,2,0,P|223:100|213:202,1,178.599995230866,2|2,0:0|0:0,0:0:0:0:
210,335,154722,1,8,0:0:0:0:
125,279,154882,1,2,0:0:0:0:
307,298,155042,6,0,L|395:284,1,89.2999976154328,0|0,0:0|0:0,0:0:0:0:
339,109,155361,2,0,P|331:131|322:204,1,89.2999976154328,8|2,0:0|0:0,0:0:0:0:
454,126,155680,2,0,P|449:80|435:36,1,89.2999976154328,10|2,0:1|0:0,0:0:0:0:
323,196,155999,1,8,0:0:0:0:
244,42,156159,1,0,3:0:0:0:
244,42,156238,1,0,3:0:0:0:
244,42,156318,6,0,P|147:34|98:119,1,178.599995230866,12|8,0:1|0:0,0:0:0:0:
171,230,156797,1,2,0:0:0:0:
298,137,156956,2,0,L|392:125,1,89.2999976154328,8|0,0:1|0:0,0:0:0:0:
314,328,157276,2,0,L|220:317,1,89.2999976154328,8|0,0:0|0:0,0:0:0:0:
355,230,157595,6,0,P|443:248|508:188,1,178.599995230866,12|8,0:1|0:0,0:0:0:0:
403,43,158074,1,2,0:0:0:0:
265,155,158233,1,8,0:1:0:0:
209,36,158393,1,0,0:0:0:0:
167,202,158552,2,0,L|155:327,1,89.2999976154328,8|0,0:0|0:0,0:0:0:0:
364,363,158871,6,0,P|422:313|400:211,1,178.599995230866,12|8,0:1|0:0,0:0:0:0:
194,114,159350,1,2,0:0:0:0:
249,264,159510,2,0,L|342:278,1,89.2999976154328,10|0,0:1|0:0,0:0:0:0:
268,52,159829,1,8,0:0:0:0:
153,196,159988,1,2,0:0:0:0:
283,348,160148,5,8,0:1:0:0:
249,164,160308,1,2,3:0:0:0:
249,164,160387,1,0,3:0:0:0:
249,164,160467,1,8,0:0:0:0:
92,285,160627,1,2,0:0:0:0:
301,235,160786,5,8,0:1:0:0:
67,122,160946,1,2,0:0:0:0:
205,276,161105,1,8,0:0:0:0:
268,56,161265,1,2,0:0:0:0:
381,254,161425,5,12,0:1:0:0:
154,141,161584,1,2,0:0:0:0:
391,24,161744,1,8,0:0:0:0:
301,235,161903,6,0,L|258:355,1,103.400003155518,12|0,0:1|0:1,0:0:0:0:
68,195,162222,1,2,0:0:0:0:
335,126,162382,1,8,0:0:0:0:
161,341,162542,6,0,P|147:268|155:227,1,112.799996557617,12|0,0:1|0:1,0:0:0:0:
391,24,162861,1,10,0:0:0:0:
283,347,163020,1,12,0:0:0:0:
201,103,163339,5,10,0:1:0:0:
394,239,163499,1,2,3:0:0:0:
394,239,163579,1,2,3:0:0:0:
394,239,163659,1,8,0:0:0:0:
311,22,163818,6,0,L|293:229,1,206.800006311035,12|2,0:1|0:0,0:0:0:0:
118,359,164297,1,8,0:0:0:0:
318,333,164456,1,2,0:0:0:0:
102,220,164616,1,8,0:1:0:0:
318,333,164776,2,0,L|424:325,1,103.400003155518,2|8,0:0|0:0,0:0:0:0:
348,117,165095,6,0,P|253:97|182:183,1,206.800006311035,2|2,0:0|0:0,0:0:0:0:
221,367,165574,1,8,0:0:0:0:
383,241,165733,1,2,0:0:0:0:
184,170,165893,1,8,0:1:0:0:
318,333,166052,1,2,0:0:0:0:
451,148,166212,1,8,0:0:0:0:
272,234,166371,1,2,0:0:0:0:
414,57,166531,5,12,0:1:0:0:
383,241,166691,1,2,0:0:0:0:
169,137,166850,1,8,0:0:0:0:
169,137,167010,1,2,0:0:0:0:
365,142,167169,1,8,3:1:0:0:
190,252,167329,1,2,3:0:0:0:
215,64,167488,1,8,0:0:0:0:
284,276,167648,6,0,P|389:257|489:244,1,206.800006311035,2|2,0:0|0:0,0:0:0:0:
451,67,168127,2,0,L|330:53,1,103.400003155518,8|0,0:0|0:0,0:0:0:0:
201,175,168446,1,8,0:1:0:0:
377,208,168605,1,2,0:0:0:0:
275,18,168765,1,8,0:0:0:0:
255,256,168925,6,0,P|174:269|105:166,1,206.800006311035,6|2,0:0|0:0,0:0:0:0:
270,54,169403,1,8,0:0:0:0:
357,233,169563,1,2,0:0:0:0:
423,26,169722,1,8,0:1:0:0:
357,233,169882,2,0,L|342:338,1,103.400003155518,2|8,0:0|0:0,0:0:0:0:
128,211,170201,6,0,B|188:200|188:200|247:148|247:148|313:139,1,206.800006311035,2|2,0:0|0:0,0:0:0:0:
442,317,170680,1,8,0:0:0:0:
405,130,170839,1,2,0:0:0:0:
255,256,170999,1,8,0:1:0:0:
413,337,171159,1,2,0:0:0:0:
501,165,171318,2,0,L|509:61,1,103.400003155518,8|2,0:0|0:0,0:0:0:0:
222,52,171637,5,12,0:1:0:0:
310,227,171797,1,2,0:0:0:0:
431,43,171956,1,8,0:0:0:0:
431,43,172116,1,2,0:0:0:0:
272,135,172276,1,8,3:1:0:0:
442,282,172435,1,2,3:0:0:0:
364,112,172595,1,8,0:0:0:0:
166,276,172754,6,0,P|97:229|112:115,1,206.800006311035,2|2,0:0|0:0,0:0:0:0:
330,193,173233,1,8,0:0:0:0:
236,362,173393,1,2,0:0:0:0:
178,182,173552,1,8,3:1:0:0:
374,291,173712,1,0,3:0:0:0:
374,291,173792,1,0,3:0:0:0:
374,291,173871,1,8,3:2:0:0:
299,93,174031,1,8,3:2:0:0:
299,93,174111,1,8,3:2:0:0:
299,93,174191,6,0,L|285:205,1,103.400003155518,12|0,0:1|0:0,0:0:0:0:
150,189,174510,2,0,L|193:292,1,103.400003155518,8|0,0:0|0:0,0:0:0:0:
390,193,174829,1,8,0:1:0:0:
303,328,174988,1,2,0:0:0:0:
215,125,175148,1,8,0:0:0:0:
414,287,175308,6,0,L|429:79,1,206.800006311035,2|2,0:0|0:0,0:0:0:0:
208,21,175786,2,0,L|215:125,1,103.400003155518,8|2,0:0|0:0,0:0:0:0:
325,246,176105,1,8,0:1:0:0:
143,184,176265,1,2,0:0:0:0:
312,76,176425,1,8,0:0:0:0:
233,265,176584,1,2,0:0:0:0:
120,97,176744,6,0,L|7:84,1,103.400003155518,12|0,0:1|0:0,0:0:0:0:
130,276,177063,2,0,L|233:265,1,103.400003155518,8|0,0:0|0:0,0:0:0:0:
437,153,177382,1,8,0:1:0:0:
280,91,177542,1,2,0:0:0:0:
343,302,177701,1,8,0:0:0:0:
365,102,177861,6,0,L|378:-2,1,103.400003155518,2|8,0:0|0:1,0:0:0:0:
219,162,178180,2,0,L|232:266,1,103.400003155518,2|8,0:0|0:0,0:0:0:0:
437,153,178499,1,2,0:0:0:0:
343,302,178659,1,8,0:1:0:0:
280,91,178818,1,2,0:0:0:0:
140,260,178978,2,0,P|88:252|37:206,1,103.400003155518,8|2,0:0|0:0,0:0:0:0:
232,179,179297,6,0,L|348:199,1,103.400003155518,12|0,0:1|0:0,0:0:0:0:
433,82,179616,2,0,L|523:157,1,103.400003155518,8|0,0:0|0:0,0:0:0:0:
421,384,179935,1,8,0:1:0:0:
455,244,180095,1,2,0:0:0:0:
277,322,180254,1,8,0:0:0:0:
222,139,180414,6,0,P|127:125|47:213,1,206.800006311035,2|0,0:0|0:0,0:0:0:0:
277,322,180893,2,0,P|290:268|292:219,1,103.400003155518,10|0,0:0|0:0,0:0:0:0:
120,46,181212,2,0,L|146:173,1,103.400003155518,10|0,0:1|0:0,0:0:0:0:
386,249,181531,2,0,L|365:147,1,103.400003155518,10|0,0:0|0:0,0:0:0:0:
190,273,181850,6,0,P|101:299|26:220,1,206.800006311035,14|8,0:1|0:0,0:0:0:0:
120,46,182329,1,2,0:0:0:0:
266,184,182488,1,8,0:1:0:0:
337,21,182648,1,2,0:0:0:0:
142,148,182808,1,8,0:0:0:0:
295,285,182967,1,2,0:0:0:0:
220,54,183127,5,12,0:1:0:0:
190,273,183286,1,2,3:0:0:0:
190,273,183366,1,0,3:0:0:0:
190,273,183446,1,8,0:0:0:0:
53,101,183605,2,0,L|114:117,1,51.7000015777588,2|0,3:0|3:0,0:0:0:0:
278,150,183765,5,8,0:1:0:0:
89,322,183925,1,2,3:0:0:0:
89,322,184004,1,0,3:0:0:0:
89,322,184084,1,8,0:0:0:0:
296,237,184244,6,0,P|385:232|445:329,1,206.800006311035,14|2,0:1|0:0,0:0:0:0:
240,376,184722,1,8,0:0:0:0:
184,174,184882,1,2,0:0:0:0:
345,326,185042,1,8,0:1:0:0:
184,174,185201,2,0,L|60:151,1,103.400003155518,2|8,0:0|0:0,0:0:0:0:
307,35,185520,6,0,B|291:101|291:101|309:167|309:167|295:240,1,206.800006311035,2|2,0:0|0:0,0:0:0:0:
111,319,185999,1,8,0:0:0:0:
184,174,186159,1,2,0:0:0:0:
345,326,186318,2,0,L|452:315,1,103.400003155518,8|2,0:1|0:0,0:0:0:0:
420,112,186637,1,8,0:0:0:0:
295,236,186797,1,2,0:0:0:0:
152,57,186956,5,12,0:1:0:0:
347,163,187116,1,2,0:0:0:0:
105,221,187276,1,8,0:0:0:0:
105,221,187435,1,2,0:0:0:0:
325,133,187595,1,8,0:1:0:0:
329,333,187754,1,2,3:0:0:0:
184,174,187914,1,8,0:0:0:0:
421,251,188074,6,0,P|470:206|458:75,1,206.800006311035,2|2,0:0|0:0,0:0:0:0:
191,58,188552,1,8,0:0:0:0:
245,259,188712,1,0,0:0:0:0:
294,78,188871,1,8,0:1:0:0:
98,95,189031,1,2,0:0:0:0:
122,307,189191,1,8,0:0:0:0:
312,166,189350,6,0,B|380:153|380:153|449:175|449:175|533:159,1,206.800006311035,6|2,0:0|0:0,0:0:0:0:
329,333,189829,1,8,0:0:0:0:
214,167,189988,1,2,0:0:0:0:
172,375,190148,1,8,0:1:0:0:
214,167,190308,2,0,L|236:53,1,103.400003155518,2|8,0:0|0:0,0:0:0:0:
480,222,190627,6,0,P|387:239|308:155,1,206.800006311035,2|2,0:0|0:0,0:0:0:0:
402,8,191105,1,8,0:0:0:0:
233,65,191265,1,2,0:0:0:0:
393,204,191425,2,0,L|420:96,1,103.400003155518,8|2,0:1|0:0,0:0:0:0:
214,167,191744,1,8,0:0:0:0:
240,329,191903,1,2,0:0:0:0:
451,285,192063,5,12,0:1:0:0:
240,174,192222,1,2,0:0:0:0:
418,103,192382,1,8,0:0:0:0:
418,103,192542,1,2,0:0:0:0:
355,300,192701,1,8,3:1:0:0:
137,224,192861,1,2,3:0:0:0:
336,163,193020,1,8,0:0:0:0:
123,321,193180,6,0,P|45:257|64:158,1,206.800006311035,2|2,0:0|0:0,0:0:0:0:
305,90,193659,1,8,0:0:0:0:
138,16,193818,1,2,0:0:0:0:
198,184,193978,1,8,3:1:0:0:
234,215,194058,1,0,3:0:0:0:
278,236,194137,1,2,3:0:0:0:
326,243,194217,1,0,3:0:0:0:
374,236,194297,1,8,3:2:0:0:
418,216,194377,1,8,3:2:0:0:
454,184,194456,1,10,3:2:0:0:
480,144,194536,1,8,3:2:0:0:
494,97,194616,6,0,L|518:333,1,206.800006311035,12|8,0:1|0:0,0:0:0:0:
294,329,195095,1,2,0:0:0:0:
383,170,195254,1,8,0:1:0:0:
215,120,195414,1,2,0:0:0:0:
305,303,195574,1,8,0:0:0:0:
381,78,195733,6,0,L|482:60,1,103.400003155518,6|8,0:0|0:1,0:0:0:0:
479,283,196052,1,2,0:0:0:0:
289,193,196212,1,8,0:0:0:0:
228,372,196371,2,0,P|211:326|206:270,1,103.400003155518,2|8,0:0|0:1,0:0:0:0:
280,98,196691,1,2,0:0:0:0:
131,206,196850,1,8,0:0:0:0:
341,292,197010,1,0,3:0:0:0:
341,292,197089,1,0,3:0:0:0:
341,292,197169,6,0,L|456:267,1,103.400003155518,12|0,0:1|0:0,0:0:0:0:
381,78,197488,1,8,0:0:0:0:
224,264,197648,6,0,L|205:384,1,112.799996557617,14|8,0:0|0:1,0:0:0:0:
57,208,197967,2,0,P|35:159|44:89,1,112.799996557617,10|8,0:0|0:1,0:0:0:0:
312,93,198286,6,0,P|216:69|145:138,1,206.800006311035,14|2,0:0|0:0,0:0:0:0:
341,292,198765,1,8,0:0:0:0:
169,231,198925,1,2,0:0:0:0:
357,185,199084,1,8,0:1:0:0:
180,339,199244,1,2,3:0:0:0:
180,339,199324,1,0,3:0:0:0:
180,339,199403,1,8,3:2:0:0:
243,170,199563,1,2,3:0:0:0:
243,170,199643,1,0,3:0:0:0:
243,170,199722,6,0,L|261:290,1,103.400003155518,12|0,0:1|0:0,0:0:0:0:
435,361,200042,2,0,L|417:241,1,103.400003155518,8|0,0:0|0:0,0:0:0:0:
315,106,200361,1,8,0:1:0:0:
160,190,200520,1,2,0:0:0:0:
334,332,200680,1,8,0:0:0:0:
406,133,200839,6,0,P|399:62|282:16,1,206.800006311035,6|0,0:0|0:0,0:0:0:0:
160,190,201318,2,0,L|262:175,1,103.400003155518,8|0,0:0|0:0,0:0:0:0:
435,267,201637,1,8,0:1:0:0:
246,355,201797,1,2,0:0:0:0:
101,125,201956,1,8,0:0:0:0:
239,332,202116,1,2,0:0:0:0:
359,134,202276,6,0,P|373:78|370:16,1,112.799996557617,12|2,0:1|0:0,0:0:0:0:
112,156,202595,1,8,0:0:0:0:
337,345,202754,2,0,L|448:362,1,112.799996557617,6|8,0:0|0:1,0:0:0:0:
505,107,203074,1,2,0:0:0:0:
298,240,203233,1,8,0:0:0:0:
115,23,203393,6,0,L|4:6,1,112.799996557617,14|0,0:1|0:0,0:0:0:0:
62,297,203712,1,10,0:1:0:0:
371,56,203871,1,14,0:0:0:0:
452,254,204031,1,0,3:0:0:0:
452,254,204111,1,0,3:0:0:0:
452,254,204191,1,8,3:1:0:0:
267,363,204350,5,2,3:0:0:0:
225,378,204430,1,0,3:0:0:0:
181,376,204510,1,8,3:2:0:0:
140,358,204589,1,8,3:2:0:0:
109,326,204669,1,8,3:2:0:0:
91,284,204749,1,8,3:2:0:0:
90,240,204829,6,0,P|111:137|130:57,1,188,14|8,0:1|0:0,0:0:0:0:
262,158,205308,1,0,0:0:0:0:
338,33,205467,2,0,L|445:10,1,94,8|2,0:1|0:0,0:0:0:0:
487,197,205786,2,0,L|380:174,1,94,8|0,0:0|0:0,0:0:0:0:
233,257,206105,6,0,P|165:273|83:188,2,188,8|8|8,0:1|0:0|0:1,0:0:0:0:
312,79,206903,1,2,0:0:0:0:
407,223,207063,2,0,L|389:329,1,94,8|0,0:0|0:0,0:0:0:0:
244,166,207382,6,0,L|228:73,1,94,10|0,0:1|0:0,0:0:0:0:
84,198,207701,1,8,0:0:0:0:
173,334,207861,1,2,0:0:0:0:
323,226,208020,2,0,P|332:276|326:326,1,94,8|2,0:1|0:0,0:0:0:0:
228,73,208339,2,0,L|337:64,1,94,8|2,0:0|0:0,0:0:0:0:
452,241,208659,5,12,0:1:0:0:
441,57,208818,1,2,0:0:0:0:
272,153,208978,1,8,0:0:0:0:
484,226,209137,1,2,0:0:0:0:
321,65,209297,5,8,0:1:0:0:
255,260,209456,1,2,3:0:0:0:
255,260,209536,1,0,3:0:0:0:
255,260,209616,1,8,0:0:0:0:
166,61,209776,1,2,3:0:0:0:
166,61,209855,1,0,3:0:0:0:
166,61,209935,6,0,L|68:55,1,94,14|0,0:1|0:0,0:0:0:0:
49,253,210254,1,10,0:0:0:0:
49,253,210574,5,10,0:1:0:0:
276,165,210733,1,10,0:0:0:0:
137,360,210893,1,8,0:0:0:0:
187,138,211052,6,0,P|226:86|347:104,1,188,6|0,0:0|0:0,0:0:0:0:
415,296,211531,1,8,0:0:0:0:
415,296,211850,5,8,0:1:0:0:
209,243,212010,1,0,3:0:0:0:
209,243,212089,1,0,3:0:0:0:
209,243,212169,1,8,0:1:0:0:
324,371,212329,6,0,L|298:165,1,188,14|0,0:0|0:0,0:0:0:0:
79,54,212808,2,0,L|90:147,1,94,8|0,0:0|0:0,0:0:0:0:
220,336,213127,2,0,L|208:242,1,94,8|2,0:1|0:0,0:0:0:0:
321,42,213446,1,8,0:0:0:0:
383,208,213605,1,2,0:0:0:0:
222,125,213765,6,0,L|122:118,1,94,8|2,0:1|0:0,0:0:0:0:
220,336,214084,2,0,L|320:329,1,94,8|2,0:0|0:0,0:0:0:0:
441,129,214403,2,0,P|360:113|287:198,1,188,8|8,0:1|0:0,0:0:0:0:
412,322,214882,1,2,3:0:0:0:
412,322,214962,1,0,3:0:0:0:
412,322,215042,5,12,0:1:0:0:
200,225,215201,1,10,0:3:0:0:
441,129,215361,1,8,0:1:0:0:
172,226,215520,5,10,0:1:0:0:
326,369,215680,1,10,0:3:0:0:
361,75,215839,1,10,0:1:0:0:
512,257,215999,1,2,0:0:0:0:
160,30,216159,5,12,0:1:0:0:
160,30,216478,2,0,P|136:64|128:106,1,84.599997418213,8|8,0:3|0:1,0:0:0:0:
249,170,216797,1,0,0:0:0:0:
96,222,216956,2,0,L|5:208,1,84.599997418213,8|0,0:3|0:0,0:0:0:0:
97,330,217276,2,0,L|181:318,1,84.599997418213,8|0,0:1|0:0,0:0:0:0:
352,368,217595,6,0,P|404:363|449:310,1,122.199994406128,4|2,0:0|0:0,0:0:0:0:
444,156,218233,2,0,L|458:243,2,61.0999972030641,0|2|0,0:0|0:0|0:0,0:0:0:0:
350,119,218712,2,0,P|296:130|214:44,1,183.299991609192,2|0,0:0|0:0,0:0:0:0:
214,45,219510,1,0,0:0:0:0:
150,188,219829,2,0,L|141:248,1,61.0999972030641,2|0,0:0|0:0,0:0:0:0:
216,332,220148,6,0,P|286:344|366:248,1,183.299991609192,2|0,0:0|0:0,0:0:0:0:
439,166,220786,2,0,L|452:229,1,61.0999972030641,2|0,0:0|0:0,0:0:0:0:
358,93,221105,2,0,L|345:30,1,61.0999972030641,2|0,0:0|0:0,0:0:0:0:
291,174,221425,2,0,L|170:150,1,122.199994406128,2|0,0:0|0:0,0:0:0:0:
117,281,221903,5,2,0:0:0:0:
117,281,222063,2,0,L|236:305,2,122.199994406128,0|2|2,0:0|0:0|0:0,0:0:0:0:
185,152,223180,1,0,0:0:0:0:
185,152,223339,2,0,L|244:139,1,61.0999972030641,2|0,0:0|0:0,0:0:0:0:
343,120,223659,1,2,0:0:0:0:
419,249,223818,2,0,P|366:255|311:212,1,122.199994406128,2|0,0:0|0:0,0:0:0:0:
254,65,224297,6,0,L|242:159,1,75.2,0|0,0:0|0:0,0:0:0:0:
419,249,224616,2,0,L|431:155,1,75.2,8|2,0:1|0:0,0:0:0:0:
266,290,224935,2,0,L|254:384,1,75.2,2|0,0:0|0:0,0:0:0:0:
98,209,225254,6,0,P|85:157|100:102,1,94,14|0,0:1|0:0,0:0:0:0:
224,19,225574,1,8,0:0:0:0:
352,185,225733,2,0,L|328:373,1,188,14|0,0:1|0:0,0:0:0:0:
276,112,226212,2,0,B|337:93|337:93|408:108|408:108|471:88,1,188,14|0,0:1|0:0,0:0:0:0:
459,322,226691,2,0,L|447:228,2,94,8|8|8,0:0|0:3|0:1,0:0:0:0:
247,212,227169,5,8,0:0:0:0:
447,228,227329,1,10,0:3:0:0:
328,371,227488,1,8,0:1:0:0:
375,158,227648,1,2,0:0:0:0:
205,297,227808,5,12,0:1:0:0:
355,357,227967,1,2,0:0:0:0:
187,277,228127,1,8,0:1:0:0:
344,230,228286,1,2,0:0:0:0:
129,361,228446,5,8,0:1:0:0:
141,179,228605,1,2,0:0:0:0:
283,316,228765,1,8,0:1:0:0:
74,260,228925,1,14,0:0:0:0:
304,115,229084,5,8,0:1:0:0:
199,308,229244,1,8,0:0:0:0:
114,95,229403,1,8,0:1:0:0:
307,223,229563,1,0,0:0:0:0:
391,34,229722,5,8,0:1:0:0:
175,176,229882,1,2,0:1:0:0:
407,334,230042,1,8,0:0:0:0:
304,115,230201,1,2,0:0:0:0:
110,296,230361,6,0,P|62:289|-2:283,1,94,12|2,0:1|0:0,0:0:0:0:
136,57,230680,1,8,0:0:0:0:
311,196,230839,1,8,0:0:0:0:
180,379,230999,5,8,1:0:0:0:
211,160,231159,1,10,0:0:0:0:
413,298,231318,1,8,1:0:0:0:
292,91,231478,1,12,0:0:0:0:
78,175,231637,5,8,1:0:0:0:
282,303,231797,1,10,0:0:0:0:
296,48,231956,1,8,1:0:0:0:
120,292,232116,1,10,0:0:0:0:
432,171,232276,5,8,1:0:0:0:
105,90,232435,1,10,0:0:0:0:
241,383,232595,1,8,1:0:0:0:
384,80,232754,6,0,L|496:48,1,112.799996557617,14|0,0:1|0:0,0:0:0:0:
385,381,233074,1,10,1:0:0:0:
16,104,233233,1,14,0:0:0:0:
148,303,233552,5,2,0:0:0:0:
355,266,233712,1,0,0:0:0:0:
148,303,233871,1,2,0:0:0:0:
394,172,234031,6,0,P|409:74|332:11,1,206.800006311035,12|2,0:1|0:0,0:0:0:0:
173,156,234510,1,8,0:0:0:0:
355,266,234669,1,2,0:0:0:0:
137,357,234829,1,8,0:1:0:0:
355,266,234988,2,0,L|461:258,1,103.400003155518,2|8,0:0|0:0,0:0:0:0:
314,112,235308,6,0,B|262:127|262:127|206:198|206:198|139:220,1,206.800006311035,2|2,0:0|0:0,0:0:0:0:
304,364,235786,1,8,0:0:0:0:
119,322,235946,1,2,0:0:0:0:
310,204,236105,1,8,0:1:0:0:
333,376,236265,1,2,0:0:0:0:
398,176,236425,2,0,L|403:71,1,103.400003155518,8|0,0:0|0:0,0:0:0:0:
150,113,236744,5,12,0:1:0:0:
323,230,236903,1,2,0:0:0:0:
100,301,237063,1,8,3:2:0:0:
100,301,237222,1,2,3:0:0:0:
119,101,237382,1,8,0:1:0:0:
291,239,237542,1,2,0:0:0:0:
311,38,237701,1,8,0:0:0:0:
121,205,237861,6,0,P|46:175|37:37,1,206.800006311035,2|2,0:0|0:0,0:0:0:0:
303,136,238339,2,0,L|291:238,1,103.400003155518,8|0,0:0|0:0,0:0:0:0:
124,104,238659,1,8,0:1:0:0:
311,38,238818,1,2,3:0:0:0:
311,38,238898,1,0,3:0:0:0:
311,38,238978,1,8,3:2:0:0:
382,254,239137,6,0,P|279:267|214:194,1,206.800006311035,6|2,0:0|0:0,0:0:0:0:
413,44,239616,1,8,0:0:0:0:
203,69,239776,1,2,0:0:0:0:
389,228,239935,1,8,0:1:0:0:
203,69,240095,2,0,L|102:42,1,103.400003155518,2|8,0:0|0:0,0:0:0:0:
214,196,240414,6,0,P|312:167|413:142,1,206.800006311035,2|2,0:0|0:0,0:0:0:0:
343,317,240893,1,8,0:0:0:0:
512,233,241052,1,2,3:0:0:0:
402,50,241212,1,8,3:1:0:0:
401,234,241371,1,2,0:0:0:0:
249,92,241531,1,8,0:0:0:0:
343,317,241691,1,2,0:0:0:0:
492,138,241850,5,12,0:1:0:0:
304,228,242010,1,2,0:0:0:0:
239,57,242169,1,8,0:0:0:0:
239,57,242329,1,2,0:0:0:0:
417,224,242488,1,8,0:1:0:0:
465,52,242648,1,2,3:0:0:0:
241,149,242808,1,8,3:2:0:0:
339,344,242967,6,0,P|436:357|499:280,1,206.800006311035,2|2,0:0|0:0,0:0:0:0:
369,80,243446,1,8,0:0:0:0:
278,244,243605,1,2,0:0:0:0:
500,280,243765,1,8,0:1:0:0:
359,179,243925,1,0,3:0:0:0:
359,179,244004,1,0,3:0:0:0:
359,179,244084,1,8,3:2:0:0:
236,335,244244,1,0,3:0:0:0:
236,335,244324,1,0,3:0:0:0:
236,335,244403,6,0,L|121:319,1,103.400003155518,12|0,0:1|0:0,0:0:0:0:
166,93,244722,2,0,P|180:142|184:207,1,103.400003155518,8|0,0:0|0:0,0:0:0:0:
30,319,245042,1,8,0:1:0:0:
35,157,245201,1,2,0:0:0:0:
190,291,245361,1,8,0:0:0:0:
256,89,245520,6,0,B|388:68|388:68|447:120,1,206.800006311035,2|2,0:0|0:0,0:0:0:0:
351,322,245999,2,0,L|327:213,1,103.400003155518,8|2,0:0|0:0,0:0:0:0:
166,93,246318,1,8,0:1:0:0:
344,116,246478,1,2,0:0:0:0:
196,296,246637,1,8,0:0:0:0:
249,134,246797,1,2,0:0:0:0:
351,322,246956,6,0,P|401:312|465:306,1,103.400003155518,12|0,0:1|0:0,0:0:0:0:
311,200,247276,2,0,P|260:209|197:216,1,103.400003155518,8|0,0:0|0:0,0:0:0:0:
64,377,247595,1,8,0:1:0:0:
223,298,247754,1,2,0:0:0:0:
27,213,247914,1,8,0:0:0:0:
164,384,248074,6,0,L|267:374,1,103.400003155518,2|8,0:0|0:1,0:0:0:0:
383,195,248393,2,0,L|280:185,1,103.400003155518,2|8,0:0|0:0,0:0:0:0:
128,61,248712,1,2,0:0:0:0:
119,273,248871,1,8,0:1:0:0:
196,129,249031,1,2,0:0:0:0:
338,303,249191,2,0,P|392:292|444:251,1,103.400003155518,8|2,0:0|0:0,0:0:0:0:
321,14,249510,6,0,P|301:60|284:110,1,103.400003155518,12|0,0:1|0:0,0:0:0:0:
114,152,249829,2,0,P|119:204|130:254,1,103.400003155518,8|0,0:0|0:0,0:0:0:0:
338,272,250148,1,8,0:1:0:0:
161,366,250308,1,2,0:0:0:0:
212,175,250467,1,8,0:0:0:0:
351,369,250627,6,0,P|434:360|497:251,1,206.800006311035,2|0,0:0|0:0,0:0:0:0:
342,64,251105,2,0,L|326:168,1,103.400003155518,10|0,0:0|0:0,0:0:0:0:
150,315,251425,2,0,L|134:211,1,103.400003155518,10|0,0:1|0:0,0:0:0:0:
244,41,251744,2,0,P|295:41|341:63,1,103.400003155518,10|0,0:0|0:0,0:0:0:0:
134,212,252063,6,0,P|59:155|87:57,1,206.800006311035,12|8,0:1|0:0,0:0:0:0:
326,166,252542,1,2,0:0:0:0:
178,304,252701,1,8,0:1:0:0:
141,124,252861,1,2,0:0:0:0:
296,262,253020,1,8,0:0:0:0:
66,340,253180,1,2,0:0:0:0:
166,141,253339,5,12,0:1:0:0:
221,351,253499,1,0,3:0:0:0:
263,373,253579,1,0,3:0:0:0:
311,376,253659,1,8,3:2:0:0:
357,360,253738,1,0,3:0:0:0:
391,326,253818,1,0,3:0:0:0:
409,281,253898,1,0,3:0:0:0:
407,233,253978,5,14,3:1:0:0:
164,182,254137,1,2,3:0:0:0:
164,182,254217,1,0,3:0:0:0:
164,182,254297,1,8,3:2:0:0:
352,38,254456,6,0,P|444:31|494:127,1,206.800006311035,14|2,0:1|0:0,0:0:0:0:
296,262,254935,1,8,0:0:0:0:
202,73,255095,1,2,0:0:0:0:
395,196,255254,1,8,0:1:0:0:
202,73,255414,2,0,L|73:40,1,103.400003155518,2|8,0:0|0:0,0:0:0:0:
121,328,255733,6,0,P|193:265|176:162,1,206.800006311035,2|2,0:0|0:0,0:0:0:0:
30,307,256212,1,8,0:0:0:0:
210,379,256371,1,2,0:0:0:0:
275,156,256531,2,0,L|286:263,1,103.400003155518,8|2,0:1|0:0,0:0:0:0:
467,285,256850,1,8,0:0:0:0:
424,118,257010,1,2,0:0:0:0:
289,293,257169,5,12,0:1:0:0:
484,236,257329,1,2,0:0:0:0:
298,153,257488,1,8,0:0:0:0:
298,153,257648,1,2,0:0:0:0:
216,346,257808,1,8,0:1:0:0:
381,224,257967,1,2,3:0:0:0:
206,93,258127,1,8,3:2:0:0:
327,314,258286,6,0,P|432:313|485:226,1,206.800006311035,2|2,0:0|0:0,0:0:0:0:
382,49,258765,1,8,0:0:0:0:
199,168,258925,1,2,0:0:0:0:
381,220,259084,1,8,0:1:0:0:
271,40,259244,1,2,3:0:0:0:
271,40,259324,1,0,3:0:0:0:
271,40,259403,1,8,3:2:0:0:
72,180,259563,6,0,P|54:285|41:388,1,206.800006311035,6|2,0:0|0:0,0:0:0:0:
274,344,260042,1,8,0:0:0:0:
199,168,260201,1,2,0:0:0:0:
154,375,260361,1,8,0:1:0:0:
199,167,260520,2,0,L|214:65,1,103.400003155518,2|8,0:0|0:0,0:0:0:0:
364,191,260839,6,0,B|356:257|356:257|317:304|317:304|306:382,1,206.800006311035,2|2,0:0|0:0,0:0:0:0:
499,208,261318,1,8,0:0:0:0:
405,349,261478,1,2,0:0:0:0:
366,159,261637,1,8,0:1:0:0:
512,237,261797,1,2,0:0:0:0:
289,283,261956,1,8,0:0:0:0:
312,79,262116,1,2,0:0:0:0:
424,253,262276,5,12,0:1:0:0:
207,174,262435,1,2,0:0:0:0:
403,38,262595,1,8,3:2:0:0:
403,38,262754,1,2,3:0:0:0:
307,242,262914,1,8,0:1:0:0:
107,191,263074,1,2,0:0:0:0:
312,79,263233,1,8,0:0:0:0:
204,295,263393,6,0,B|64:322|64:322|9:282,1,206.800006311035,2|2,0:0|0:0,0:0:0:0:
170,137,263871,1,8,0:0:0:0:
314,268,264031,1,2,0:0:0:0:
488,212,264191,1,8,3:1:0:0:
505,166,264270,1,0,3:0:0:0:
504,118,264350,1,2,3:0:0:0:
486,73,264430,1,0,3:0:0:0:
452,39,264510,1,8,3:2:0:0:
408,19,264589,1,8,3:2:0:0:
360,17,264669,1,10,3:2:0:0:
314,33,264749,1,8,3:2:0:0:
278,65,264829,6,0,P|288:169|317:279,1,206.800006311035,12|8,0:1|0:0,0:0:0:0:
481,295,265308,1,2,0:0:0:0:
292,355,265467,1,8,0:1:0:0:
374,193,265627,1,2,0:0:0:0:
512,321,265786,1,8,0:0:0:0:
451,117,265946,6,0,L|337:101,1,103.400003155518,6|8,0:0|0:1,0:0:0:0:
217,270,266265,1,2,0:0:0:0:
374,193,266425,1,8,0:0:0:0:
191,362,266584,2,0,B|137:329|137:329|119:178,1,206.800006311035,2|2,0:0|0:0,0:0:0:0:
263,36,267063,1,8,0:0:0:0:
313,258,267222,1,0,3:0:0:0:
313,258,267302,1,0,3:0:0:0:
313,258,267382,5,12,0:1:0:0:
451,117,267542,1,0,0:0:0:0:
230,55,267701,1,8,0:0:0:0:
409,220,267861,6,0,L|523:227,1,112.799996557617,14|8,0:0|0:1,0:0:0:0:
257,154,268180,2,0,L|143:147,1,112.799996557617,10|8,0:0|0:1,0:0:0:0:
53,327,268499,6,0,P|126:347|217:242,1,206.800006311035,14|2,0:0|0:0,0:0:0:0:
59,99,268978,1,8,0:0:0:0:
228,59,269137,1,2,0:0:0:0:
115,245,269297,1,8,0:1:0:0:
265,358,269456,1,8,3:2:0:0:
307,373,269536,1,8,3:2:0:0:
355,370,269616,1,8,3:2:0:0:
395,349,269696,1,8,3:2:0:0:
426,314,269776,1,8,3:2:0:0:
440,270,269855,1,8,3:2:0:0:
437,223,269935,6,0,P|371:148|272:159,1,206.800006311035,12|8,0:1|0:0,0:0:0:0:
185,305,270414,1,2,0:0:0:0:
110,154,270574,2,0,L|99:48,1,103.400003155518,8|2,0:1|0:0,0:0:0:0:
317,91,270893,1,8,0:0:0:0:
185,304,271052,6,0,P|87:323|19:251,1,206.800006311035,6|0,0:0|0:0,0:0:0:0:
272,159,271531,2,0,L|283:265,1,103.400003155518,8|0,0:0|0:0,0:0:0:0:
471,353,271850,1,8,0:1:0:0:
286,291,272010,1,2,0:0:0:0:
364,66,272169,1,8,0:0:0:0:
395,277,272329,1,2,0:0:0:0:
212,74,272488,6,0,L|97:54,1,112.799996557617,12|2,0:1|0:0,0:0:0:0:
35,234,272808,1,8,0:0:0:0:
226,351,272967,2,0,P|280:373|337:365,1,112.799996557617,2|8,0:0|0:1,0:0:0:0:
396,139,273286,1,2,0:0:0:0:
222,238,273446,1,8,0:1:0:0:
493,310,273605,6,0,L|478:198,1,112.799996557617,14|8,0:0|0:1,0:0:0:0:
328,40,273925,1,2,0:0:0:0:
313,270,274084,1,8,0:0:0:0:
130,129,274244,1,2,0:0:0:0:
368,187,274403,5,8,0:1:0:0:
176,261,274563,1,2,3:0:0:0:
129,268,274643,1,0,3:0:0:0:
82,256,274722,1,8,3:2:0:0:
43,227,274802,1,8,3:2:0:0:
18,186,274882,1,8,3:2:0:0:
9,139,274962,1,8,3:2:0:0:
20,91,275042,6,0,P|101:16|203:38,1,206.800006311035,12|8,0:1|0:0,0:0:0:0:
270,164,275520,1,0,0:0:0:0:
108,269,275680,1,8,0:1:0:0:
137,103,275839,1,2,0:0:0:0:
300,251,275999,1,8,0:0:0:0:
108,358,276159,6,0,L|-4:346,1,103.400003155518,6|8,0:0|0:1,0:0:0:0:
182,198,276478,1,2,0:0:0:0:
258,336,276637,1,8,0:0:0:0:
361,159,276797,2,0,P|369:108|361:57,1,103.400003155518,6|8,0:0|0:1,0:0:0:0:
137,103,277116,1,2,0:0:0:0:
268,238,277276,1,8,0:0:0:0:
65,331,277435,1,10,0:0:0:0:
225,146,277595,6,0,P|328:136|437:123,1,206.800006311035,12|8,0:1|0:0,0:0:0:0:
266,20,278074,1,0,0:0:0:0:
133,143,278233,2,0,L|117:245,1,103.400003155518,8|2,0:1|0:0,0:0:0:0:
285,325,278552,1,8,0:0:0:0:
45,360,278712,6,0,B|9:303|9:303|30:165,1,206.800006311035,6|0,0:0|0:0,0:0:0:0:
226,99,279191,1,8,0:0:0:0:
76,54,279350,1,0,0:0:0:0:
189,229,279510,1,8,0:1:0:0:
334,72,279669,1,2,3:0:0:0:
334,72,279749,1,0,3:0:0:0:
334,72,279829,1,8,3:2:0:0:
149,127,279988,1,2,0:0:0:0:
383,235,280148,5,12,0:1:0:0:
176,107,280308,1,2,0:0:0:0:
152,346,280467,1,8,0:0:0:0:
348,144,280627,2,0,L|466:125,1,112.799996557617,14|0,0:1|0:1,0:0:0:0:
352,343,280946,1,10,0:1:0:0:
52,244,281105,1,8,0:0:0:0:
280,28,281265,6,0,L|411:6,1,131.599995983887,14|0,0:1|0:0,0:0:0:0:
456,321,281584,1,14,0:0:0:0:
48,91,281744,1,14,0:0:0:0:
48,91,282382,6,0,B|114:108|151:38|151:38|161:111,1,169.199994836426,8|0,0:0|0:0,0:0:0:0:
200,173,282701,6,0,P|298:178|356:103,1,188,14|8,0:1|0:0,0:0:0:0:
461,21,283180,1,0,0:0:0:0:
440,214,283339,1,8,0:1:0:0:
272,135,283499,1,2,0:0:0:0:
496,114,283659,1,8,0:0:0:0:
339,265,283818,6,0,B|208:254|208:254|175:208,1,188,6|0,0:0|0:0,0:0:0:0:
294,6,284297,2,0,L|306:108,1,94,10|0,0:0|0:0,0:0:0:0:
238,289,284616,1,10,0:1:0:0:
440,214,284776,1,0,0:0:0:0:
219,133,284935,1,10,0:0:0:0:
348,293,285095,1,2,0:0:0:0:
282,66,285254,6,0,P|196:39|125:109,1,188,12|8,0:1|0:0,0:0:0:0:
68,223,285733,1,0,0:0:0:0:
238,289,285893,2,0,L|332:300,1,94,8|0,0:1|0:0,0:0:0:0:
305,100,286212,1,8,0:0:0:0:
137,277,286371,6,0,L|124:380,1,94,6|8,0:0|0:1,0:0:0:0:
67,185,286691,1,2,0:0:0:0:
238,289,286850,1,8,0:0:0:0:
305,100,287010,1,2,0:0:0:0:
137,277,287169,1,8,0:1:0:0:
327,353,287329,1,2,3:0:0:0:
327,353,287409,1,0,3:0:0:0:
327,353,287488,1,8,3:2:0:0:
404,183,287648,1,2,3:0:0:0:
404,183,287728,1,0,3:0:0:0:
404,183,287808,6,0,L|416:78,1,94,14|0,0:1|0:0,0:0:0:0:
248,195,288127,2,0,L|236:300,1,94,8|0,0:0|0:0,0:0:0:0:
422,281,288446,1,8,0:1:0:0:
251,169,288605,1,2,0:0:0:0:
349,18,288765,1,8,0:0:0:0:
316,242,288925,6,0,P|225:264|159:192,1,188,6|0,0:0|0:0,0:0:0:0:
65,359,289403,2,0,L|163:345,1,94,10|0,0:0|0:0,0:0:0:0:
251,169,289722,1,10,0:1:0:0:
71,136,289882,1,0,0:0:0:0:
233,290,290042,1,10,0:0:0:0:
174,89,290201,1,2,3:0:0:0:
174,89,290281,1,0,3:0:0:0:
174,89,290361,6,0,L|156:182,1,94,12|0,0:1|0:0,0:0:0:0:
321,324,290680,1,8,0:0:0:0:
251,169,290839,1,2,0:0:0:0:
91,263,290999,2,0,P|41:262|-2:240,1,94,8|0,0:1|0:0,0:0:0:0:
81,34,291318,1,8,0:0:0:0:
251,169,291478,6,0,P|252:264|227:369,1,188,6|0,0:0|0:0,0:0:0:0:
466,250,291956,2,0,L|357:236,1,94,8|2,0:0|0:0,0:0:0:0:
188,86,292276,1,8,0:1:0:0:
377,137,292435,1,2,0:0:0:0:
213,258,292595,1,8,0:0:0:0:
96,61,292754,1,2,3:0:0:0:
96,61,292834,1,0,3:0:0:0:
96,61,292914,6,0,L|85:191,1,94,12|2,0:1|0:0,0:0:0:0:
171,342,293233,1,8,0:0:0:0:
290,221,293393,1,2,0:0:0:0:
88,154,293552,1,8,0:1:0:0:
183,367,293712,1,2,0:0:0:0:
284,195,293871,1,8,0:0:0:0:
441,380,294031,6,0,B|455:318|455:318|500:273|500:273|513:212,1,188,6|2,0:0|0:0,0:0:0:0:
211,216,294510,1,8,0:0:0:0:
340,340,294669,1,2,0:0:0:0:
334,118,294829,5,10,3:1:0:0:
291,97,294909,1,2,3:0:0:0:
244,95,294988,1,0,3:0:0:0:
200,111,295068,1,0,3:0:0:0:
166,143,295148,1,8,3:2:0:0:
134,178,295228,1,0,3:0:0:0:
91,198,295308,1,2,3:0:0:0:
44,199,295387,1,2,3:0:0:0:
0,182,295467,5,14,3:1:0:0:
300,249,295633,1,8,0:0:0:0:
48,363,295800,1,8,0:3:0:0:
200,111,295967,6,0,B|260:123|315:103|315:103|306:135|321:160,1,169.199994836426,14|0,0:1|0:0,0:0:0:0:
300,249,296335,2,0,P|266:235|244:211,1,56.3999982788086,0|0,0:0|0:0,0:0:0:0:
99,35,296528,5,14,0:1:0:0:
256,192,296630,12,0,300637,0:0:0:0:
