osu file format v14

[General]
AudioFilename: audio.mp3
AudioLeadIn: 0
PreviewTime: 267468
Countdown: 0
SampleSet: Soft
StackLeniency: 0.5
Mode: 0
LetterboxInBreaks: 0
WidescreenStoryboard: 0

[Editor]
Bookmarks: 53442,73653
DistanceSpacing: 1.7
BeatDivisor: 4
GridSize: 4
TimelineZoom: 1

[Metadata]
Title:Yakusoku no Asterism
TitleUnicode:約束のアステリズム
Artist:Inori Minase
ArtistUnicode:水瀬いのり
Creator:Bigger
Version:fortitude
Source:
Tags:lowgraphics midorijeon Catch the Rainbow! Elements Garden Ryutaro Fujinaga 藤永龍太郎 jpop j-pop pop collab collaboration japanese Marathon Female vocalist vaporfly red crewmate god haachama big sis
BeatmapID:4395907
BeatmapSetID:2096353

[Difficulty]
HPDrainRate:5
CircleSize:3.8
OverallDifficulty:9
ApproachRate:9.5
SliderMultiplier:1.76
SliderTickRate:1

[Events]
//Background and Video events
0,0,"bg.jpg",0,0
//Break Periods
2,200168,204022
2,262694,266390
//Storyboard Layer 0 (Background)
//Storyboard Layer 1 (Fail)
//Storyboard Layer 2 (Pass)
//Storyboard Layer 3 (Foreground)
//Storyboard Layer 4 (Overlay)
//Storyboard Sound Samples

[TimingPoints]
390,315.789473684211,4,2,1,60,1,0
390,-142.857142857143,4,2,1,60,0,0
5442,-250.000000000001,4,2,1,60,0,0
10495,-100,4,2,1,75,0,0
15547,-100,4,2,2,75,0,0
20600,-100,4,2,1,75,0,0
25179,-100,4,2,2,75,0,0
25653,-100,4,2,1,75,0,0
29126,-100,4,2,2,75,0,0
30547,-100,4,2,1,75,0,0
31179,-100,4,2,2,75,0,0
33232,-250.000000000001,4,2,1,60,0,0
43337,-125,4,2,1,65,0,0
53442,-100,4,2,2,70,0,0
63232,-76.9230769230769,4,2,2,70,0,0
63547,-83.3333333333333,4,2,2,70,0,0
63863,-100,4,2,2,70,0,0
71442,-100,4,2,1,70,0,0
72074,-100,4,2,2,70,0,0
73179,-100,4,2,1,70,0,0
73653,-133.333333333333,4,2,2,60,0,0
76179,-133.333333333333,4,2,1,60,0,0
78705,-133.333333333333,4,2,2,60,0,0
82968,-133.333333333333,4,2,1,60,0,0
83758,-117.647058823529,4,2,1,60,0,0
86284,-117.647058823529,4,2,2,60,0,0
88811,-117.647058823529,4,2,1,60,0,0
90390,-133.333333333333,4,2,1,60,0,0
90705,-117.647058823529,4,2,2,60,0,0
91021,-105.263157894737,4,2,2,60,0,0
91337,-117.647058823529,4,2,1,70,0,0
91653,-117.647058823529,4,2,1,45,0,0
91811,-117.647058823529,4,2,1,48,0,0
91968,-117.647058823529,4,2,1,51,0,0
92126,-117.647058823529,4,2,1,54,0,0
92284,-117.647058823529,4,2,1,57,0,0
92442,-117.647058823529,4,2,1,60,0,0
92600,-117.647058823529,4,2,1,63,0,0
92758,-117.647058823529,4,2,1,66,0,0
92916,-117.647058823529,4,2,1,69,0,0
93074,-117.647058823529,4,2,1,72,0,0
93232,-117.647058823529,4,2,1,75,0,0
93863,-86.9565217391304,4,2,1,80,0,0
98916,-86.9565217391304,4,2,2,80,0,0
103968,-86.9565217391304,4,2,1,80,0,0
109021,-86.9565217391304,4,2,2,80,0,0
113126,-86.9565217391304,4,2,1,80,0,0
113442,-86.9565217391304,4,2,2,80,0,0
114074,-86.9565217391304,4,2,1,80,0,0
116600,-86.9565217391304,4,2,2,80,0,0
119126,-86.9565217391304,4,2,1,80,0,0
121653,-86.9565217391304,4,2,2,80,0,0
121968,-86.9565217391304,4,2,2,45,0,0
122126,-86.9565217391304,4,2,2,51,0,0
122284,-86.9565217391304,4,2,2,57,0,0
122442,-86.9565217391304,4,2,2,63,0,0
122600,-86.9565217391304,4,2,2,68,0,0
122758,-86.9565217391304,4,2,2,74,0,0
122916,-86.9565217391304,4,2,2,80,0,0
123232,-86.9565217391304,4,2,1,80,0,0
124179,-86.9565217391304,4,2,1,75,0,0
124653,-86.9565217391304,4,2,2,75,0,0
125126,-86.9565217391304,4,2,1,75,0,0
125600,-86.9565217391304,4,2,2,75,0,0
126468,-86.9565217391304,4,2,1,75,0,0
127179,-86.9565217391304,4,2,2,75,0,0
127811,-86.9565217391304,4,2,1,75,0,0
128284,-86.9565217391304,4,2,2,75,0,0
128758,-86.9565217391304,4,2,1,75,0,0
129705,-86.9565217391304,4,2,2,75,0,0
130179,-86.9565217391304,4,2,1,75,0,0
130653,-86.9565217391304,4,2,2,75,0,0
131284,-86.9565217391304,4,2,1,75,0,0
132232,-86.9565217391304,4,2,2,75,0,0
132863,-86.9565217391304,4,2,1,75,0,0
133337,-86.9565217391304,4,2,2,75,0,0
134284,-125,4,2,2,65,0,0
143916,-125,4,2,1,65,0,0
144074,-125,4,2,2,65,0,0
151968,-125,4,2,1,55,0,0
154179,-125,4,2,1,65,0,0
154495,-100,4,2,1,70,0,0
164442,-100,4,2,2,70,0,0
166968,-100,4,2,1,70,0,0
174705,-90.9090909090909,4,2,1,70,0,0
175179,-90.9090909090909,4,2,2,70,0,0
175653,-90.9090909090909,4,2,1,70,0,0
176126,-90.9090909090909,4,2,2,70,0,0
176916,-90.9090909090909,4,2,1,70,0,0
177705,-90.9090909090909,4,2,2,70,0,0
178179,-90.9090909090909,4,2,1,70,0,0
178653,-90.9090909090909,4,2,2,70,0,0
179758,-117.647058823529,4,2,1,70,0,0
180390,-117.647058823529,4,2,2,70,0,0
183705,-117.647058823529,4,2,1,70,0,0
184811,-100,4,2,1,70,0,0
185284,-100,4,2,2,70,0,0
185758,-100,4,2,1,70,0,0
186232,-100,4,2,2,70,0,0
187179,-100,4,2,1,70,0,0
187811,-100,4,2,2,70,0,0
188284,-100,4,2,1,70,0,0
188758,-100,4,2,2,70,0,0
189863,-100,4,2,1,70,0,0
190179,-100,4,2,1,45,0,0
190337,-100,4,2,1,47,0,0
190495,-100,4,2,1,49,0,0
190653,-100,4,2,1,51,0,0
190811,-100,4,2,1,54,0,0
190968,-100,4,2,1,56,0,0
191126,-100,4,2,2,58,0,0
191284,-100,4,2,2,60,0,0
191442,-100,4,2,2,62,0,0
191600,-100,4,2,2,64,0,0
191758,-100,4,2,2,66,0,0
191916,-100,4,2,2,69,0,0
192074,-100,4,2,2,71,0,0
192232,-100,4,2,1,73,0,0
192390,-100,4,2,1,75,0,0
192863,-100,4,2,2,75,0,0
193811,-100,4,2,2,45,0,0
193968,-100,4,2,2,49,0,0
194126,-100,4,2,2,54,0,0
194284,-100,4,2,2,58,0,0
194442,-100,4,2,2,62,0,0
194600,-100,4,2,2,66,0,0
194758,-100,4,2,2,71,0,0
194916,-100,4,2,1,60,0,0
199968,-100,4,2,2,60,0,0
204705,-200,4,2,2,60,0,0
205021,-333.333333333333,4,2,1,65,0,0
215126,-133.333333333333,4,2,1,70,0,0
222705,-100,4,2,1,70,0,0
224600,-76.9230769230769,4,2,1,70,0,0
224916,-100,4,2,1,70,0,0
225232,-86.9565217391304,3,2,2,70,0,0
226653,-86.9565217391304,3,2,1,70,0,0
227126,-86.9565217391304,3,2,2,70,0,0
227442,-86.9565217391304,3,2,1,70,0,0
227916,-86.9565217391304,3,2,2,70,0,0
228547,-86.9565217391304,3,2,1,70,0,0
229495,-86.9565217391304,3,2,2,70,0,0
229968,-86.9565217391304,3,2,1,70,0,0
230916,-86.9565217391304,3,2,2,70,0,0
231390,-86.9565217391304,3,2,1,70,0,0
232653,-86.9565217391304,3,2,2,70,0,0
233284,-86.9565217391304,3,2,1,70,0,0
234705,315.789473684211,4,2,1,75,1,1
234705,-86.9565217391304,4,2,1,75,0,1
239757,-86.9565217391304,4,2,2,75,0,1
243547,-86.9565217391304,4,2,1,75,0,1
244810,-86.9565217391304,4,2,2,75,0,1
245283,-86.9565217391304,4,2,1,75,0,1
249862,-86.9565217391304,4,2,2,75,0,1
250336,-86.9565217391304,4,2,1,75,0,1
253336,-86.9565217391304,4,2,2,75,0,1
253810,-86.9565217391304,4,2,1,75,0,1
254283,-86.9565217391304,4,2,2,75,0,1
254678,-86.9565217391304,4,2,1,75,0,1
256020,-86.9565217391304,4,2,2,75,0,1
257441,-86.9565217391304,4,2,1,60,0,0
266915,-105.263157894737,4,2,1,60,0,0
267231,-105.263157894737,4,2,2,60,0,0
267547,-133.333333333334,4,2,1,65,0,0
268178,-117.64705882353,4,2,1,65,0,0
268810,-105.263157894737,4,2,1,65,0,0
269441,-95.2380952380954,4,2,1,65,0,0
272599,-117.647058823529,4,2,2,65,0,0
272915,-117.647058823529,4,2,2,45,0,0
273073,-117.647058823529,4,2,2,46,0,0
273231,-117.647058823529,4,2,2,47,0,0
273389,-117.647058823529,4,2,2,48,0,0
273547,-117.647058823529,4,2,2,50,0,0
273705,-117.647058823529,4,2,2,51,0,0
273862,-117.647058823529,4,2,2,52,0,0
274020,-117.647058823529,4,2,2,53,0,0
274178,-117.647058823529,4,2,2,54,0,0
274336,-117.647058823529,4,2,2,55,0,0
274494,-117.647058823529,4,2,2,57,0,0
274652,-117.647058823529,4,2,2,58,0,0
274810,-117.647058823529,4,2,2,59,0,0
274968,-117.647058823529,4,2,2,60,0,0
275126,-100,4,2,2,61,0,0
275283,-100,4,2,2,62,0,0
275441,-100,4,2,2,63,0,0
275599,-100,4,2,2,65,0,0
275757,-100,4,2,2,66,0,0
275915,-100,4,2,2,67,0,0
276073,-100,4,2,2,68,0,0
276231,-100,4,2,2,69,0,0
276389,-100,4,2,2,70,0,0
276547,-100,4,2,2,72,0,0
276705,-100,4,2,2,73,0,0
276862,-100,4,2,1,74,0,0
277020,-333.333333333333,4,2,1,75,0,0
277652,-86.9565217391304,4,2,1,80,0,0
282705,-86.9565217391304,4,2,2,80,0,0
287757,-86.9565217391304,4,2,1,80,0,0
288073,-86.9565217391304,4,2,2,80,0,0
296915,-86.9565217391304,4,2,1,80,0,0
297231,-86.9565217391304,4,2,2,80,0,0
297547,-86.9565217391304,4,2,1,80,0,0
297862,-86.9565217391304,4,2,2,80,0,0
302915,-86.9565217391304,4,2,1,80,0,0
305441,-86.9565217391304,4,2,2,80,0,0
306705,-86.9565217391304,4,2,1,80,0,0
307336,-83.3333333333333,4,2,1,80,0,0
307494,-66.6666666666667,4,2,1,80,0,0
307652,-62.5,4,2,1,80,0,0
307810,-58.8235294117647,4,2,1,80,0,0
307968,-86.9565217391304,4,2,1,80,0,0
308441,-86.9565217391304,4,2,2,80,0,0
308915,-86.9565217391304,4,2,1,80,0,0
309862,-86.9565217391304,4,2,2,80,0,0
310178,-86.9565217391304,4,2,1,80,0,0
311441,-86.9565217391304,4,2,2,80,0,0
312389,-86.9565217391304,4,2,1,80,0,0
312705,-86.9565217391304,4,2,2,80,0,0
313020,-86.9565217391304,4,2,1,80,0,0
313494,-86.9565217391304,4,2,2,80,0,0
313968,-86.9565217391304,4,2,1,80,0,0
314915,-86.9565217391304,4,2,2,80,0,0
315231,-86.9565217391304,4,2,1,80,0,0
315547,-86.9565217391304,4,2,2,80,0,0
315862,-86.9565217391304,4,2,2,45,0,0
316020,-86.9565217391304,4,2,2,47,0,0
316178,-86.9565217391304,4,2,2,49,0,0
316336,-86.9565217391304,4,2,2,51,0,0
316494,-86.9565217391304,4,2,2,54,0,0
316652,-86.9565217391304,4,2,2,56,0,0
316810,-86.9565217391304,4,2,2,58,0,0
316968,-86.9565217391304,4,2,2,60,0,0
317126,-86.9565217391304,4,2,2,62,0,0
317283,-86.9565217391304,4,2,2,64,0,0
317441,-86.9565217391304,4,2,2,66,0,0
317599,-86.9565217391304,4,2,2,69,0,0
317757,-86.9565217391304,4,2,2,71,0,0
317915,-86.9565217391304,4,2,2,73,0,0
318073,-100,4,2,1,75,0,0
323126,-100,4,2,2,75,0,0
325652,-100,4,2,1,75,0,0
332757,-100,4,2,2,75,0,0
334810,-100,4,2,1,75,0,0
335757,-100,4,2,2,75,0,0
336231,-100,4,2,1,75,0,0
338757,-100,4,2,2,75,0,0
340810,-100,4,2,1,75,0,0
345862,-100,4,2,1,5,0,0

[Colours]
Combo1 : 221,187,255
Combo2 : 255,255,193
Combo3 : 191,223,255

[HitObjects]
36,275,5442,6,0,B|26:252|7:240|7:240|76:228|121:290|105:351|92:384|92:384|94:388|94:388|101:333|140:304|204:309|226:352|226:352|201:341|168:353,1,492.8,2|0,0:0|0:0,0:0:0:0:
210,195,7968,6,0,B|248:191|273:162|273:162|285:218|225:259|237:226|168:241|142:284|142:284|138:279|138:279|139:237|106:195|103:216|68:139|117:98,1,475.2,2|0,0:0|0:0,0:0:0:0:
124,103,10179,1,8,1:2:0:0:
124,103,10495,6,0,L|221:77,1,88,6|2,1:2|0:0,0:0:0:0:
454,182,10811,1,10,0:0:0:0:
298,53,10968,1,0,1:2:0:0:
468,6,11126,1,2,1:2:0:0:
366,222,11284,2,0,B|348:180|348:180|363:137,1,88,2|8,1:2|0:0,0:0:0:0:
468,92,11600,1,2,0:0:0:0:
419,285,11758,6,0,P|357:269|277:253,1,132,2|0,1:2|0:0,0:0:0:0:
279,263,12074,2,0,P|257:312|264:348,1,88,10|2,0:0|1:2,0:0:0:0:
72,150,12390,2,0,P|125:163|148:257,1,132,2|0,1:2|0:0,0:0:0:0:
151,234,12705,1,10,0:0:0:0:
72,354,12863,2,0,P|61:311|46:269,1,88,2|0,0:0|1:2,0:0:0:0:
244,113,13179,5,2,0:0:0:0:
151,234,13337,1,10,0:0:0:0:
346,135,13495,1,0,1:2:0:0:
346,135,13574,1,8,0:0:0:0:
346,135,13653,1,2,1:2:0:0:
171,59,13811,1,2,1:2:0:0:
272,260,13968,1,8,0:0:0:0:
454,158,14126,5,2,0:0:0:0:
454,158,14205,1,8,0:0:0:0:
454,158,14284,2,0,P|464:115|479:73,1,88,2|0,1:2|0:0,0:0:0:0:
492,321,14600,2,0,P|469:268|353:254,1,176,10|0,0:0|1:2,0:0:0:0:
166,346,15074,1,2,1:2:0:0:
259,172,15232,2,0,L|273:268,1,88,10|8,0:0|0:0,0:0:0:0:
273,265,15468,5,8,0:0:0:0:
274,271,15547,1,6,1:2:0:0:
230,70,15705,1,2,0:0:0:0:
356,160,15863,1,10,0:0:0:0:
145,109,16021,1,0,1:2:0:0:
321,8,16179,1,2,1:2:0:0:
175,232,16337,2,0,P|132:220|86:209,1,88,2|8,1:2|0:0,0:0:0:0:
259,172,16653,1,2,0:0:0:0:
105,346,16811,6,0,B|132:340|159:333|159:333|187:337|187:337|217:327|241:323,1,132,2|0,1:2|0:0,0:0:0:0:
240,332,17126,2,0,P|277:362|324:359,1,88,10|2,0:0|1:2,0:0:0:0:
506,193,17442,2,0,P|456:181|401:240,1,132,2|0,1:2|0:0,0:0:0:0:
405,240,17758,1,10,0:0:0:0:
512,351,17916,2,0,P|469:339|423:328,1,88,2|0,0:0|1:2,0:0:0:0:
255,137,18232,5,2,0:0:0:0:
377,47,18390,2,0,P|365:89|354:136,1,88,10|0,0:0|1:2,0:0:0:0:
165,64,18705,1,2,1:2:0:0:
279,13,18863,1,2,1:2:0:0:
161,184,19021,1,8,0:0:0:0:
44,51,19179,1,2,1:2:0:0:
255,137,19337,5,14,0:0:0:0:
47,299,19495,1,0,1:2:0:0:
337,260,19653,5,14,0:0:0:0:
65,130,19811,1,2,1:2:0:0:
236,326,19968,5,0,1:2:0:0:
354,132,20126,1,10,0:0:0:0:
354,132,20205,1,8,0:0:0:0:
354,132,20284,1,10,1:2:0:0:
59,220,20442,5,8,0:0:0:0:
59,220,20521,1,8,0:0:0:0:
59,220,20600,2,0,B|84:216|113:206|113:206|164:254|240:232,1,176,6|10,1:2|0:0,0:0:0:0:
366,43,21074,1,0,1:2:0:0:
195,140,21232,1,2,1:2:0:0:
395,221,21390,1,2,1:2:0:0:
253,2,21547,2,0,L|269:88,1,88,8|2,0:0|0:0,0:0:0:0:
480,285,21863,6,0,P|492:216|504:156,1,132,2|0,1:2|0:0,0:0:0:0:
507,147,22179,2,0,P|446:151|412:128,1,88,10|2,0:0|1:2,0:0:0:0:
237,346,22495,2,0,P|267:302|352:299,1,132,2|0,1:2|0:0,0:0:0:0:
344,300,22811,1,10,0:0:0:0:
269,88,22968,2,0,L|285:174,1,88,2|0,0:0|1:2,0:0:0:0:
72,343,23284,5,0,0:0:0:0:
178,155,23442,1,10,0:0:0:0:
62,237,23600,1,2,1:2:0:0:
62,237,23679,1,8,0:0:0:0:
62,237,23758,1,0,1:2:0:0:
0,83,23916,1,2,1:2:0:0:
170,241,24074,1,10,0:0:0:0:
122,0,24232,5,0,1:2:0:0:
122,0,24311,1,8,0:0:0:0:
122,0,24390,2,0,B|106:42|106:42|119:83,1,88,2|2,1:2|1:2,0:0:0:0:
348,140,24705,2,0,B|363:97|363:97|350:56,1,88,8|2,0:0|1:2,0:0:0:0:
348,49,24942,1,8,0:0:0:0:
346,43,25021,1,2,1:2:0:0:
170,241,25179,1,12,0:0:0:0:
352,147,25337,1,2,1:2:0:0:
119,83,25495,1,12,0:0:0:0:
295,300,25653,6,0,B|332:262|380:269|380:269|408:310|469:312,1,176,6|10,1:2|0:0,0:0:0:0:
223,374,26126,1,0,1:2:0:0:
269,192,26284,1,2,1:2:0:0:
365,368,26442,1,2,1:2:0:0:
165,248,26600,1,8,0:0:0:0:
352,147,26758,1,2,0:0:0:0:
223,374,26916,6,0,P|157:357|70:339,1,132,2|0,1:2|0:0,0:0:0:0:
16,368,27232,2,0,P|8:324|0:282,1,88,10|2,0:0|1:2,0:0:0:0:
183,116,27547,2,0,L|196:69,1,44,2|8,1:2|0:0,0:0:0:0:
102,3,27705,5,8,0:0:0:0:
68,30,27784,1,8,0:0:0:0:
55,72,27863,1,10,0:0:0:0:
68,113,27942,1,8,0:0:0:0:
101,141,28021,1,6,0:3:0:0:
145,145,28100,1,0,1:2:0:0:
183,125,28179,5,12,0:0:0:0:
5,277,28337,1,2,1:2:0:0:
272,137,28495,1,2,1:2:0:0:
68,30,28653,5,8,0:0:0:0:
338,197,28811,1,2,1:2:0:0:
101,340,28968,1,2,1:2:0:0:
252,47,29126,2,0,L|268:146,1,88,12|2,0:0|1:2,0:0:0:0:
409,72,29442,5,2,1:2:0:0:
218,248,29600,2,0,P|174:237|131:229,1,88,12|2,0:0|1:2,0:0:0:0:
384,293,29916,1,2,1:2:0:0:
272,137,30074,1,12,0:0:0:0:
314,342,30232,2,0,L|326:395,1,44,10|8,0:0|0:0,0:0:0:0:
266,133,30390,1,10,0:0:0:0:
101,340,30547,5,8,0:3:0:0:
101,340,30626,1,8,0:3:0:0:
101,340,30705,1,14,0:0:0:0:
338,197,30863,1,2,1:2:0:0:
126,234,31021,1,2,1:2:0:0:
390,299,31179,5,12,0:0:0:0:
181,156,31337,1,2,1:2:0:0:
314,342,31495,1,2,1:2:0:0:
352,38,31653,5,8,0:0:0:0:
221,258,31811,1,6,1:2:0:0:
440,147,31968,6,0,B|407:145|377:131|377:131|333:149|333:149|299:133|250:134,1,176,2|10,0:0|0:0,0:0:0:0:
26,205,32442,1,2,1:2:0:0:
195,76,32600,2,0,B|172:112|172:112|184:168,1,88,2|8,1:2|0:0,0:0:0:0:
183,162,32837,1,8,0:0:0:0:
185,168,32916,1,10,0:0:0:0:
434,354,33074,5,10,0:0:0:0:
434,354,33153,1,8,0:0:0:0:
434,354,33232,2,0,B|380:353|346:297|346:297|246:232|192:309|225:373|292:405|346:297|346:297|385:254|395:214|395:214|451:166|497:186|540:230|492:307|415:298|395:214|395:214|415:141|394:73|319:70|266:133|325:190,1,1056,6|0,1:2|0:0,0:0:0:0:
91,40,38284,6,0,B|58:47|28:26|28:26|20:28|20:28|28:55|71:118|139:106|127:73|185:58|224:97|224:97|220:105|220:105|151:145|169:227|169:227|131:334|6:282|41:161|132:165|169:227|169:227|197:289|268:303|303:290|303:290|306:286|306:286|271:287|241:258,1,985.6,2|2,0:0|0:0,0:0:0:0:
373,175,43021,2,0,L|313:191,1,52.8,12|0,0:3|0:0,0:0:0:0:
314,184,43337,6,0,L|339:41,1,140.8,6|0,1:2|1:2,0:0:0:0:
220,119,43811,1,2,0:0:0:0:
217,39,43968,2,0,L|236:123,1,70.4,0|0,1:2|0:0,0:0:0:0:
140,179,44284,2,0,P|105:182|71:163,1,70.4,2|0,1:2|0:0,0:0:0:0:
0,362,44600,6,0,P|38:304|105:291,1,140.8,0|0,1:2|1:2,0:0:0:0:
105,291,45074,1,0,0:0:0:0:
225,217,45232,2,0,L|206:301,1,70.4,0|0,1:2|0:0,0:0:0:0:
368,371,45547,2,0,L|352:302,1,70.4,0|0,1:2|0:0,0:0:0:0:
335,226,45784,5,0,3:0:0:0:
334,220,45863,2,0,P|370:191|468:232,1,140.8,2|0,1:2|1:2,0:0:0:0:
348,94,46337,1,2,0:0:0:0:
419,71,46495,2,0,P|389:92|346:94,1,70.4,0|0,1:2|0:0,0:0:0:0:
209,34,46811,2,0,P|242:67|247:147,1,105.6,2|0,1:2|0:0,0:0:0:0:
246,130,47126,6,0,L|177:114,1,70.4,0|0,1:2|0:0,0:0:0:0:
33,226,47442,2,0,L|-10:238,2,35.2,2|0|0,1:2|0:0|0:0,0:0:0:0:
96,80,47758,2,0,B|82:112|82:112|95:148,1,70.4,2|0,1:2|3:3,0:0:0:0:
150,200,47995,1,0,3:3:0:0:
149,207,48074,1,2,1:2:0:0:
148,214,48153,1,0,3:3:0:0:
147,221,48232,1,0,3:3:0:0:
146,228,48311,1,0,3:3:0:0:
145,235,48390,6,0,B|204:225|204:225|229:236|229:236|288:226,1,140.8,0|0,1:2|1:2,0:0:0:0:
281,227,48863,1,0,0:0:0:0:
434,298,49021,2,0,P|443:263|455:228,1,70.4,2|0,1:2|0:0,0:0:0:0:
397,128,49337,2,0,P|388:162|376:195,1,70.4,2|0,1:2|0:0,0:0:0:0:
512,83,49653,6,0,P|477:126|381:117,1,140.8,0|2,1:2|1:2,0:0:0:0:
294,1,50126,1,0,0:0:0:0:
233,111,50284,2,0,P|266:99|300:90,1,70.4,2|0,1:2|0:0,0:0:0:0:
137,184,50600,2,0,P|86:188|39:137,1,105.6,2|0,1:2|0:0,0:0:0:0:
37,148,50916,6,0,P|48:114|57:80,1,70.4,2|0,1:2|0:0,0:0:0:0:
142,186,51232,2,0,P|151:220|163:254,1,70.4,0|2,1:2|0:0,0:0:0:0:
0,349,51547,2,0,P|43:310|99:313,1,105.6,2|0,1:2|0:0,0:0:0:0:
94,316,51863,2,0,P|121:345|156:350,1,70.4,0|2,1:2|0:0,0:0:0:0:
271,204,52179,6,0,P|217:195|162:259,1,140.8,2|0,1:2|1:2,0:0:0:0:
290,114,52653,1,2,0:0:0:0:
349,267,52811,2,0,P|357:232|369:199,1,70.4,2|0,1:2|0:0,0:0:0:0:
167,7,53126,2,0,L|190:124,1,105.6,8|0,1:2|0:0,0:0:0:0:
178,117,53442,6,0,L|83:100,1,88,6|0,1:2|0:0,0:0:0:0:
301,31,53758,2,0,B|275:66|275:66|286:117,1,88,8|0,0:0|0:0,0:0:0:0:
464,46,54074,1,2,1:2:0:0:
404,191,54232,2,0,L|389:102,1,88,2|8,1:2|0:0,0:0:0:0:
322,264,54547,1,2,0:0:0:0:
490,207,54705,6,0,L|395:189,1,88,0|0,1:2|0:0,0:0:0:0:
232,315,55021,2,0,P|161:363|57:331,1,176,8|0,0:0|1:2,0:0:0:0:
230,217,55495,1,0,1:2:0:0:
120,170,55653,2,0,L|136:256,1,88,10|2,0:0|0:0,0:0:0:0:
16,81,55968,6,0,B|43:76|66:78|66:78|95:56|95:56|154:61|193:37,1,176,2|10,1:2|0:0,0:0:0:0:
404,191,56442,2,0,P|388:151|397:103,1,88,2|0,0:0|1:2,0:0:0:0:
509,57,56758,1,0,1:2:0:0:
433,296,56916,2,0,P|388:283|327:268,1,88,10|0,0:0|0:0,0:0:0:0:
338,270,57153,5,8,0:0:0:0:
328,267,57232,2,0,B|348:308|348:308|333:363,1,88,0|0,1:2|1:2,0:0:0:0:
96,229,57547,2,0,L|182:212,1,88,8|0,0:0|1:2,0:0:0:0:
190,211,57784,1,8,0:0:0:0:
197,210,57863,1,0,1:2:0:0:
278,18,58021,1,0,1:2:0:0:
120,106,58179,1,8,0:0:0:0:
331,178,58337,5,8,0:0:0:0:
331,178,58416,1,8,0:0:0:0:
331,178,58495,2,0,B|366:148|411:154|411:154|439:204|496:211,1,176,6|8,1:2|0:0,0:0:0:0:
364,49,58968,1,0,0:0:0:0:
502,110,59126,1,2,1:2:0:0:
340,260,59284,2,0,B|321:221|321:221|330:178,1,88,2|8,1:2|0:0,0:0:0:0:
428,319,59600,1,2,0:0:0:0:
213,272,59758,6,0,B|166:262|166:262|131:266|131:266|63:254,1,132,0|0,1:2|0:0,0:0:0:0:
202,179,60074,2,0,L|218:265,1,88,8|0,0:0|0:0,0:0:0:0:
201,74,60390,1,0,1:2:0:0:
104,172,60547,1,0,1:2:0:0:
294,77,60705,1,10,0:0:0:0:
133,9,60863,1,2,0:0:0:0:
297,173,61021,6,0,L|478:141,1,176,2|10,1:2|0:0,0:0:0:0:
429,322,61495,2,0,B|416:281|416:281|434:231,1,88,2|0,0:0|1:2,0:0:0:0:
294,77,61811,2,0,B|307:118|307:118|289:168,1,88,2|8,1:2|0:0,0:0:0:0:
380,14,62126,1,2,0:0:0:0:
190,116,62284,5,0,1:2:0:0:
336,253,62442,1,0,1:2:0:0:
294,77,62600,1,8,0:0:0:0:
95,256,62758,5,0,1:2:0:0:
95,256,62837,1,8,0:0:0:0:
95,256,62916,1,2,1:2:0:0:
291,160,63074,1,2,1:2:0:0:
67,51,63232,6,0,L|82:114,1,57.1999973815919,8|8,0:0|0:0,0:0:0:0:
217,198,63390,2,0,L|204:254,1,57.1999973815919,8|8,0:0|0:0,0:0:0:0:
39,374,63547,6,0,B|89:363|89:363|127:371|127:371|165:356|226:363,1,158.399995166016,6|0,1:2|0:0,0:0:0:0:
272,303,63863,2,0,B|293:340|293:340|286:393,1,88,8|2,0:0|0:0,0:0:0:0:
500,268,64179,1,0,1:2:0:0:
291,160,64337,1,0,1:2:0:0:
387,316,64495,2,0,L|403:230,1,88,10|0,0:0|0:0,0:0:0:0:
260,49,64811,6,0,P|206:89|208:193,1,176,2|8,1:2|0:0,0:0:0:0:
155,0,65284,1,2,1:2:0:0:
155,0,65363,1,8,0:0:0:0:
155,0,65442,1,2,1:2:0:0:
291,160,65600,1,0,1:2:0:0:
86,119,65758,2,0,L|0:103,1,88,10|0,0:0|0:0,0:0:0:0:
222,277,66074,6,0,L|206:191,1,88,2|0,1:2|0:0,0:0:0:0:
427,43,66390,2,0,L|411:129,1,88,8|2,0:0|1:2,0:0:0:0:
409,136,66626,1,8,0:0:0:0:
408,142,66705,1,0,1:2:0:0:
253,55,66863,1,0,1:2:0:0:
396,251,67021,2,0,L|482:235,1,88,10|0,0:0|0:0,0:0:0:0:
289,347,67337,5,2,1:2:0:0:
324,179,67495,1,2,1:2:0:0:
399,258,67653,1,10,0:0:0:0:
202,184,67811,1,0,0:0:0:0:
336,88,67968,1,2,1:2:0:0:
227,273,68126,1,0,1:2:0:0:
109,153,68284,2,0,P|99:108|117:59,1,88,10|8,0:0|0:0,0:0:0:0:
202,184,68521,5,8,0:0:0:0:
202,184,68600,2,0,B|110:167|130:228|27:209,1,176,6|8,1:2|0:0,0:0:0:0:
336,88,69074,1,0,0:0:0:0:
219,0,69232,2,0,L|235:86,1,88,2|0,1:2|1:2,0:0:0:0:
414,192,69547,2,0,B|459:200|459:200|500:176,1,88,10|0,0:0|0:0,0:0:0:0:
310,218,69863,5,0,1:2:0:0:
483,311,70021,1,0,1:2:0:0:
423,101,70179,2,0,L|407:187,1,88,10|0,0:0|0:0,0:0:0:0:
223,326,70495,2,0,L|207:240,1,88,2|0,1:2|1:2,0:0:0:0:
29,119,70811,2,0,P|68:89|113:95,1,88,10|0,0:0|0:0,0:0:0:0:
310,218,71126,5,2,1:2:0:0:
90,176,71284,1,0,0:0:0:0:
186,14,71442,2,0,L|202:100,1,88,12|2,0:0|0:0,0:0:0:0:
411,302,71758,2,0,B|445:319|445:319|460:244|406:193,1,176,2|12,1:2|0:0,0:0:0:0:
494,118,72232,1,2,1:2:0:0:
310,218,72390,5,2,1:2:0:0:
411,302,72547,1,8,0:0:0:0:
352,121,72705,1,8,0:0:0:0:
198,279,72863,5,10,0:0:0:0:
198,279,72942,1,8,0:0:0:0:
198,279,73021,1,10,1:2:0:0:
412,189,73179,1,8,0:3:0:0:
239,167,73337,5,6,0:3:0:0:
315,223,73495,1,6,0:3:0:0:
254,31,73653,6,0,L|232:169,2,132.000005035401,6|0|0,1:2|1:2|1:2,0:0:0:0:
254,31,74442,1,0,0:0:0:0:
150,82,74600,2,0,P|117:82|81:67,1,66.0000025177003,2|2,1:2|0:0,0:0:0:0:
240,166,74916,6,0,P|287:136|363:144,1,132.000005035401,2|0,1:2|1:2,0:0:0:0:
503,74,75390,1,2,0:0:0:0:
403,0,75547,2,0,L|420:76,1,66.0000025177003,0|2,1:2|0:0,0:0:0:0:
490,151,75863,2,0,L|504:86,1,66.0000025177003,2|2,1:2|0:0,0:0:0:0:
401,238,76179,6,0,P|465:247|503:300,1,132.000005035401,6|2,1:2|1:2,0:0:0:0:
351,149,76653,2,0,P|332:115|336:81,1,66.0000025177003,2|0,0:0|1:2,0:0:0:0:
295,238,76968,2,0,P|260:261|230:262,1,66.0000025177003,2|0,0:0|1:2,0:0:0:0:
91,126,77284,6,0,B|126:123|152:137|152:137|177:118|215:111,1,132.000005035401,2|0,0:0|0:0,0:0:0:0:
97,52,77758,2,0,L|82:116,1,66.0000025177003,0|2,1:2|0:0,0:0:0:0:
237,181,78074,2,0,L|222:116,1,66.0000025177003,0|0,1:2|0:0,0:0:0:0:
118,285,78390,1,2,1:2:0:0:
147,208,78547,1,2,0:0:0:0:
172,346,78705,6,0,P|108:331|44:318,1,132.000005035401,6|2,1:2|1:2,0:0:0:0:
236,258,79179,2,0,L|301:243,1,66.0000025177003,2|0,0:0|1:2,0:0:0:0:
392,355,79495,2,0,B|377:325|377:325|387:285,1,66.0000025177003,2|0,0:0|1:2,0:0:0:0:
506,172,79811,6,0,L|479:308,1,132.000005035401,2|0,0:0|0:0,0:0:0:0:
380,132,80284,2,0,L|395:197,1,66.0000025177003,2|0,1:2|0:0,0:0:0:0:
506,82,80600,2,0,P|478:60|442:61,1,66.0000025177003,2|0,1:2|0:0,0:0:0:0:
282,146,80916,2,0,L|238:138,3,33.0000012588501,2|0|2|0,1:2|0:0|0:0|0:0,0:0:0:0:
243,132,81232,6,0,L|258:67,1,66.0000025177003,2|0,1:2|0:0,0:0:0:0:
77,143,81547,1,2,1:2:0:0:
145,42,81705,2,0,L|160:107,1,66.0000025177003,2|0,0:0|1:2,0:0:0:0:
200,275,82021,1,2,0:0:0:0:
243,132,82179,1,2,1:2:0:0:
135,203,82337,1,2,0:0:0:0:
297,257,82495,6,0,L|417:233,1,99.0000037765504,2|0,1:2|0:0,0:0:0:0:
402,245,82811,5,0,1:2:0:0:
352,160,82968,1,10,0:3:0:0:
431,117,83126,5,0,1:2:0:0:
371,333,83284,1,4,0:3:0:0:
505,233,83442,1,6,1:3:0:0:
352,160,83600,1,6,0:3:0:0:
454,375,83758,6,0,B|471:341|471:341|459:294,1,74.8000014266968,6|0,1:2|0:0,0:0:0:0:
297,257,84074,2,0,B|275:268|243:268|243:268|217:294|217:294|148:309,1,149.600002853394,0|0,1:2|1:2,0:0:0:0:
33,243,84547,1,0,0:0:0:0:
145,145,84705,2,0,B|164:178|164:178|158:214,1,74.8000014266968,2|2,1:2|0:0,0:0:0:0:
57,40,85021,6,0,B|138:26|116:76|218:55,1,149.600002853394,2|0,1:2|1:2,0:0:0:0:
202,58,85495,1,2,0:0:0:0:
340,4,85653,2,0,P|323:45|323:79,1,74.8000014266968,0|2,1:2|0:0,0:0:0:0:
397,131,85968,2,0,P|414:90|414:56,1,74.8000014266968,2|2,1:2|0:0,0:0:0:0:
271,166,86284,6,0,P|303:128|407:139,1,149.600002853394,6|2,1:2|1:2,0:0:0:0:
478,244,86758,2,0,L|404:228,1,74.8000014266968,2|0,0:0|1:2,0:0:0:0:
293,328,87074,2,0,L|366:312,1,74.8000014266968,2|0,0:0|1:2,0:0:0:0:
428,379,87390,1,2,0:0:0:0:
300,248,87547,6,0,L|284:321,1,74.8000014266968,0|0,1:2|0:0,0:0:0:0:
97,362,87863,2,0,P|128:324|197:320,1,112.200002140045,2|0,1:2|0:0,0:0:0:0:
190,309,88179,2,0,P|144:294|127:266,1,74.8000014266968,0|0,1:2|0:0,0:0:0:0:
228,140,88495,1,2,1:2:0:0:
201,225,88653,1,2,0:0:0:0:
75,154,88811,6,0,B|105:152|126:144|126:144|157:149|157:149|188:139|229:137,1,149.600002853394,6|2,1:2|1:2,0:0:0:0:
334,28,89284,2,0,P|327:64|318:106,1,74.8000014266968,2|0,0:0|1:2,0:0:0:0:
444,171,89600,2,0,P|450:134|460:93,1,74.8000014266968,2|0,0:0|1:2,0:0:0:0:
367,327,89916,6,0,P|396:294|502:314,1,149.600002853394,2|0,0:0|0:0,0:0:0:0:
293,184,90390,2,0,L|308:257,1,66.0000025177003,2|0,1:2|0:0,0:0:0:0:
179,362,90705,2,0,L|194:288,1,74.8000014266968,6|0,1:2|0:0,0:0:0:0:
35,75,91021,2,0,L|52:160,1,83.5999977676392,6|0,1:2|0:0,0:0:0:0:
0,276,91337,6,0,L|130:253,1,112.200002140045,6|0,1:2|0:0,0:0:0:0:
119,264,91653,5,8,1:2:0:0:
52,157,91811,1,8,0:0:0:0:
199,294,91968,5,8,1:2:0:0:
280,46,92126,1,8,0:0:0:0:
418,353,92284,5,10,1:2:0:0:
352,118,92442,1,10,0:0:0:0:
264,372,92600,5,8,1:2:0:0:
512,178,92758,1,8,0:0:0:0:
478,165,92837,1,8,0:0:0:0:
441,167,92916,1,8,1:2:0:0:
407,183,92995,1,8,0:0:0:0:
382,210,93074,2,0,L|394:256,1,37.4000007133484,8|8,0:0|0:0,0:0:0:0:
418,353,93232,5,8,1:2:0:0:
512,64,93390,1,8,0:0:0:0:
501,256,93863,6,0,B|430:240|430:240|385:266|385:266|298:247,2,202.400003860474,6|8|0,1:2|1:2|1:2,0:0:0:0:
402,80,94653,1,0,0:0:0:0:
240,165,94811,1,10,1:2:0:0:
287,0,94968,6,0,L|309:110,1,101.200001930237,2|0,0:0|1:2,0:0:0:0:
151,232,95284,2,0,L|131:331,1,101.200001930237,2|8,0:0|1:2,0:0:0:0:
0,174,95600,6,0,P|50:148|102:161,1,101.200001930237,2|0,0:0|1:2,0:0:0:0:
238,316,95916,2,0,P|277:350|333:350,1,101.200001930237,2|8,0:0|1:2,0:0:0:0:
474,184,96232,1,2,0:0:0:0:
315,245,96390,6,0,P|365:256|423:270,1,101.200001930237,2|0,1:2|0:0,0:0:0:0:
219,55,96705,2,0,B|196:99|196:99|212:165,1,101.200001930237,8|0,1:2|0:0,0:0:0:0:
489,89,97021,2,0,P|449:12|375:15,1,151.800002895355,2|0,1:2|0:0,0:0:0:0:
327,52,97337,2,0,L|345:163,1,101.200001930237,10|0,1:2|0:0,0:0:0:0:
40,301,97653,6,0,P|72:238|157:236,1,151.800002895355,2|0,1:2|0:0,0:0:0:0:
156,237,97968,1,8,1:2:0:0:
6,142,98126,1,0,0:0:0:0:
125,340,98284,2,0,P|173:327|223:317,1,101.200001930237,2|0,1:2|0:0,0:0:0:0:
382,122,98600,2,0,B|408:165|408:165|391:221,1,101.200001930237,8|8,1:2|0:0,0:0:0:0:
315,178,98837,5,8,0:0:0:0:
315,178,98916,2,0,B|422:156|398:225|523:200,2,202.400003860474,6|8|0,1:2|1:2|1:2,0:0:0:0:
129,74,99705,1,0,0:0:0:0:
311,0,99863,1,10,1:2:0:0:
187,214,100021,6,0,P|113:197|31:182,1,151.800002895355,2|0,0:0|0:0,0:0:0:0:
32,190,100337,2,0,P|57:237|45:288,1,101.200001930237,2|8,0:0|1:2,0:0:0:0:
246,89,100653,6,0,P|194:134|191:225,1,151.800002895355,2|0,0:0|0:0,0:0:0:0:
377,203,100968,2,0,L|278:179,1,101.200001930237,2|8,0:0|1:2,0:0:0:0:
482,302,101284,1,2,0:0:0:0:
435,107,101442,6,0,L|412:9,1,101.200001930237,2|0,1:2|0:0,0:0:0:0:
275,186,101758,2,0,L|252:285,1,101.200001930237,8|0,1:2|0:0,0:0:0:0:
47,46,102074,6,0,P|105:38|172:122,1,151.800002895355,2|0,1:2|0:0,0:0:0:0:
167,107,102390,1,8,1:2:0:0:
0,246,102547,1,0,0:0:0:0:
80,129,102705,6,0,L|103:227,1,101.200001930237,2|0,1:2|0:0,0:0:0:0:
363,70,103021,1,8,1:2:0:0:
197,205,103179,1,8,0:0:0:0:
368,335,103337,1,2,1:2:0:0:
280,125,103495,1,8,0:0:0:0:
280,125,103574,1,8,0:0:0:0:
280,125,103653,1,8,1:2:0:0:
78,340,103811,5,8,0:0:0:0:
78,340,103890,1,8,0:0:0:0:
78,340,103968,2,0,B|108:336|140:325|140:325|163:328|185:335|185:335|233:314|280:321,1,202.400003860474,6|8,1:2|1:2,0:0:0:0:
483,209,104442,1,0,0:0:0:0:
280,125,104600,1,0,1:2:0:0:
368,222,104758,1,0,0:0:0:0:
329,3,104916,1,10,1:2:0:0:
164,132,105074,6,0,P|179:175|192:235,1,101.200001930237,2|0,0:0|1:2,0:0:0:0:
249,34,105390,2,0,P|199:23|151:6,1,101.200001930237,2|8,0:0|1:2,0:0:0:0:
33,188,105705,6,0,P|102:193|157:125,1,151.800002895355,2|0,0:0|0:0,0:0:0:0:
43,7,106021,2,0,P|59:54|70:104,1,101.200001930237,2|8,0:0|1:2,0:0:0:0:
117,323,106337,1,2,0:0:0:0:
281,133,106495,6,0,P|355:118|445:227,1,202.400003860474,2|8,1:2|1:2,0:0:0:0:
313,364,106968,1,0,0:0:0:0:
481,318,107126,2,0,L|383:290,1,101.200001930237,2|0,1:2|0:0,0:0:0:0:
124,213,107442,1,8,1:2:0:0:
281,133,107600,1,0,0:0:0:0:
224,240,107758,5,2,1:2:0:0:
96,60,107916,1,0,0:0:0:0:
285,137,108074,1,8,1:2:0:0:
45,271,108232,1,0,0:0:0:0:
182,24,108390,2,0,L|194:125,1,101.200001930237,2|0,1:2|0:0,0:0:0:0:
448,75,108705,2,0,B|414:24|340:38|340:38|359:78,1,151.800002895355,8|8,1:2|0:0,0:0:0:0:
426,182,109021,6,0,P|439:132|457:70,1,101.200001930237,6|0,1:2|0:0,0:0:0:0:
512,304,109337,2,0,B|457:274|457:274|392:323|319:304,1,202.400003860474,8|0,1:2|1:2,0:0:0:0:
99,212,109811,1,0,0:0:0:0:
240,365,109968,1,10,1:2:0:0:
189,163,110126,6,0,B|214:206|214:206|199:264,1,101.200001930237,2|0,0:0|1:2,0:0:0:0:
81,108,110442,1,2,0:0:0:0:
246,28,110600,1,8,1:2:0:0:
99,212,110758,6,0,P|45:215|6:182,1,101.200001930237,10|0,0:0|1:2,0:0:0:0:
204,262,111074,1,2,0:0:0:0:
98,8,111232,2,0,L|80:108,1,101.200001930237,8|2,1:2|0:0,0:0:0:0:
322,250,111547,6,0,B|374:253|419:276|419:276|456:248|520:224,1,202.400003860474,2|8,1:2|1:2,0:0:0:0:
420,161,112021,1,0,0:0:0:0:
339,349,112179,2,0,P|333:298|321:249,1,101.200001930237,2|0,1:2|0:0,0:0:0:0:
437,61,112495,2,0,P|425:110|419:160,1,101.200001930237,8|0,1:2|0:0,0:0:0:0:
101,14,112811,5,14,0:0:0:0:
328,111,112968,1,0,1:2:0:0:
37,217,113126,5,14,0:0:0:0:
318,103,113284,1,0,1:2:0:0:
91,26,113442,5,14,1:2:0:0:
221,324,113600,1,8,0:0:0:0:
318,103,113758,6,0,L|334:55,1,50.6000009651184,10|8,1:2|0:0,0:0:0:0:
150,248,113916,1,8,0:0:0:0:
408,166,114074,6,0,B|366:159|339:145|339:145|311:148|284:162|284:162|249:149|198:141,1,202.400003860474,6|10,1:2|0:0,0:0:0:0:
443,75,114547,1,2,1:2:0:0:
351,337,114705,2,0,B|335:291|335:291|358:235,1,101.200001930237,0|0,1:2|1:2,0:0:0:0:
461,282,115021,1,10,0:0:0:0:
241,366,115179,1,2,1:2:0:0:
328,137,115337,6,0,L|346:237,1,101.200001930237,0|0,1:2|1:2,0:0:0:0:
94,160,115653,2,0,B|134:89|229:101|229:101|209:156,1,202.400003860474,10|0,0:0|1:2,0:0:0:0:
16,80,116126,1,0,1:2:0:0:
154,317,116284,2,0,B|175:269|175:269|164:219,1,101.200001930237,10|10,0:0|0:0,0:0:0:0:
163,213,116521,5,8,0:0:0:0:
161,205,116600,1,6,1:2:0:0:
246,381,116758,1,0,1:2:0:0:
63,265,116916,1,10,0:0:0:0:
303,131,117074,2,0,L|285:231,1,101.200001930237,2|0,1:2|1:2,0:0:0:0:
432,107,117390,1,0,1:2:0:0:
246,21,117547,1,10,0:0:0:0:
390,242,117705,1,2,1:2:0:0:
349,31,117863,5,0,1:2:0:0:
349,31,118021,1,0,1:2:0:0:
203,113,118179,2,0,L|303:131,1,101.200001930237,10|2,0:0|1:2,0:0:0:0:
59,342,118495,1,0,1:2:0:0:
233,216,118653,1,0,1:2:0:0:
22,140,118811,1,10,0:0:0:0:
180,351,118968,5,10,0:0:0:0:
180,351,119047,1,8,0:0:0:0:
180,351,119126,2,0,B|224:304|275:316|275:316|311:365|376:372,1,202.400003860474,6|8,1:2|0:0,0:0:0:0:
512,280,119600,1,2,1:2:0:0:
380,171,119758,2,0,B|351:211|351:211|362:266,1,101.200001930237,2|0,1:2|1:2,0:0:0:0:
462,85,120074,2,0,P|414:75|363:61,1,101.200001930237,10|0,0:0|1:2,0:0:0:0:
179,217,120390,6,0,B|133:229|133:229|101:221|101:221|66:245|13:243,1,151.800002895355,2|0,1:2|0:0,0:0:0:0:
28,249,120705,1,10,0:0:0:0:
242,39,120863,2,0,L|255:141,1,101.200001930237,2|0,1:2|1:2,0:0:0:0:
283,353,121179,1,0,1:2:0:0:
380,171,121337,1,10,0:0:0:0:
174,301,121495,1,2,1:2:0:0:
464,328,121653,6,0,P|395:303|318:277,1,151.800002895355,14|0,0:0|0:0,0:0:0:0:
313,272,121968,5,8,1:2:0:0:
367,384,122126,1,8,0:0:0:0:
406,254,122284,1,10,1:2:0:0:
277,353,122442,1,8,0:0:0:0:
502,255,122600,1,8,1:2:0:0:
254,139,122758,1,8,0:0:0:0:
367,384,122916,5,10,0:0:0:0:
470,98,123074,1,0,1:2:0:0:
269,348,123232,5,12,0:0:0:0:
212,31,123390,1,0,1:2:0:0:
51,257,123547,5,2,1:2:0:0:
51,257,123626,1,8,0:0:0:0:
51,257,123705,2,0,L|116:240,1,50.6000009651184,8|8,0:0|0:0,0:0:0:0:
302,126,123863,2,0,L|237:143,1,50.6000009651184,8|8,0:0|0:0,0:0:0:0:
153,134,124021,2,0,L|165:182,1,50.6000009651184,6|0,0:3|1:2,0:0:0:0:
189,280,124179,5,14,0:0:0:0:
128,43,124337,1,2,1:2:0:0:
51,257,124495,1,2,1:2:0:0:
302,126,124653,5,12,0:0:0:0:
37,33,124811,1,2,1:2:0:0:
310,129,124968,1,2,1:2:0:0:
165,182,125126,5,12,0:0:0:0:
440,82,125284,1,2,1:2:0:0:
227,11,125442,1,2,1:2:0:0:
411,224,125600,5,12,0:0:0:0:
346,31,125758,1,2,1:2:0:0:
252,278,125916,1,2,1:2:0:0:
486,173,126074,5,12,0:0:0:0:
221,102,126232,1,2,1:2:0:0:
400,325,126390,1,10,0:0:0:0:
346,31,126547,5,6,0:3:0:0:
346,31,126626,1,0,1:2:0:0:
346,31,126705,2,0,L|326:139,1,101.200001930237,14|2,0:0|1:2,0:0:0:0:
97,228,127021,1,2,1:2:0:0:
221,102,127179,5,12,0:0:0:0:
281,362,127337,1,2,1:2:0:0:
90,234,127495,1,2,1:2:0:0:
328,246,127653,5,8,0:0:0:0:
51,370,127811,1,6,1:2:0:0:
205,184,127968,6,0,L|223:283,1,101.200001930237,2|0,0:0|1:2,0:0:0:0:
90,234,128284,1,14,0:0:0:0:
309,134,128442,1,2,1:2:0:0:
309,134,128521,1,8,0:0:0:0:
309,134,128600,1,2,1:2:0:0:
131,367,128758,5,8,0:3:0:0:
131,367,128837,1,8,0:0:0:0:
131,367,128916,2,0,L|145:310,1,50.6000009651184,10|8,0:0|0:0,0:0:0:0:
350,300,129074,2,0,L|336:243,1,50.6000009651184,6|0,0:3|1:2,0:0:0:0:
10,142,129232,6,0,B|38:145|62:157|62:157|106:154|106:154|147:182|208:183,1,202.400003860474,12|2,0:0|1:2,0:0:0:0:
439,83,129705,1,12,0:0:0:0:
286,9,129863,5,2,1:2:0:0:
414,203,130021,2,0,P|463:189|519:180,1,101.200001930237,2|12,1:2|0:0,0:0:0:0:
235,318,130337,5,2,1:2:0:0:
342,146,130495,2,0,B|315:190|315:190|328:242,1,101.200001930237,2|12,1:2|0:0,0:0:0:0:
89,86,130811,5,2,1:2:0:0:
204,183,130968,1,2,1:2:0:0:
174,8,131126,1,12,0:0:0:0:
64,210,131284,1,10,0:3:0:0:
269,113,131442,1,10,0:3:0:0:
48,9,131600,5,6,0:3:0:0:
48,9,131679,1,0,1:2:0:0:
48,9,131758,1,14,0:0:0:0:
208,191,131916,1,2,1:2:0:0:
360,32,132074,1,2,1:2:0:0:
183,102,132232,5,12,0:0:0:0:
420,212,132390,1,2,1:2:0:0:
262,4,132547,1,2,1:2:0:0:
315,293,132705,1,8,0:0:0:0:
498,141,132863,5,6,1:2:0:0:
252,8,133021,2,0,P|262:53|276:118,1,101.200001930237,2|0,0:0|1:2,0:0:0:0:
125,331,133337,5,14,0:0:0:0:
330,186,133495,1,2,1:2:0:0:
81,85,133653,5,2,1:2:0:0:
225,339,133811,1,8,0:0:0:0:
225,339,133890,1,8,0:0:0:0:
225,339,133968,2,0,L|211:284,1,50.6000009651184,10|8,0:0|0:0,0:0:0:0:
414,107,134126,5,10,0:0:0:0:
414,107,134205,1,8,0:0:0:0:
414,107,134284,2,0,B|432:123|452:134|452:134|435:172|415:235,1,140.8,6|0,1:2|1:2,0:0:0:0:
419,222,134916,1,2,1:2:0:0:
463,334,135074,2,0,P|489:301|491:268,1,70.4,2|0,0:0|1:2,0:0:0:0:
330,186,135390,1,2,0:0:0:0:
309,317,135547,6,0,P|343:309|378:302,1,70.4,0|0,1:2|0:0,0:0:0:0:
236,257,135863,2,0,P|227:291|220:325,1,70.4,0|0,1:2|0:0,0:0:0:0:
142,242,136179,2,0,P|150:207|157:173,1,70.4,2|0,1:2|0:0,0:0:0:0:
330,186,136495,1,2,1:2:0:0:
141,248,136653,1,2,0:0:0:0:
202,46,136811,6,0,P|236:78|239:174,1,140.8,2|0,1:2|1:2,0:0:0:0:
243,168,137284,1,2,0:0:0:0:
76,120,137442,2,0,P|68:85|60:51,1,70.4,0|0,1:2|0:0,0:0:0:0:
157,173,137758,1,2,1:2:0:0:
48,246,137916,1,2,0:0:0:0:
210,328,138074,6,0,P|276:310|366:292,1,140.8,2|0,1:2|1:2,0:0:0:0:
417,148,138547,1,0,0:0:0:0:
509,251,138705,2,0,P|479:241|431:230,1,70.4,2|0,1:2|0:0,0:0:0:0:
395,62,139021,2,0,P|426:42|462:43,1,70.4,0|0,1:2|0:0,0:0:0:0:
324,170,139337,6,0,B|285:169|254:185|254:185|232:163|192:152,1,140.8,2|0,1:2|1:2,0:0:0:0:
7,206,139811,1,2,0:0:0:0:
80,120,139968,2,0,P|88:154|95:188,1,70.4,2|2,1:2|0:0,0:0:0:0:
227,311,140284,1,0,1:2:0:0:
101,272,140442,1,2,0:0:0:0:
201,161,140600,6,0,P|192:195|185:229,1,70.4,2|0,1:2|0:0,0:0:0:0:
308,351,140916,2,0,P|361:361|419:297,1,140.8,0|2,1:2|1:2,0:0:0:0:
417,303,141547,2,0,P|409:268|401:234,1,70.4,2|2,1:2|0:0,0:0:0:0:
512,130,141863,6,0,B|463:117|463:117|425:127|425:127|370:113,1,140.8,2|2,1:2|1:2,0:0:0:0:
261,21,142337,2,0,P|279:55|276:94,1,70.4,2|0,0:0|1:2,0:0:0:0:
134,185,142653,2,0,P|116:154|116:119,1,70.4,2|0,0:0|1:2,0:0:0:0:
189,69,142968,1,2,0:0:0:0:
172,291,143126,6,0,P|102:302|34:319,1,140.8,2|0,1:2|1:2,0:0:0:0:
134,185,143600,1,2,0:0:0:0:
263,321,143758,1,2,1:2:0:0:
241,228,143916,1,2,3:2:0:0:
172,291,144074,1,2,1:3:0:0:
331,250,144232,1,0,0:0:0:0:
267,89,144390,6,0,L|240:227,1,140.8,6|0,1:2|1:2,0:0:0:0:
450,96,144863,1,2,0:0:0:0:
367,170,145021,2,0,L|353:92,1,70.4,0|0,1:2|0:0,0:0:0:0:
475,222,145337,2,0,P|445:257|443:329,1,105.6,2|0,1:2|0:0,0:0:0:0:
443,324,145653,6,0,P|477:334|511:349,1,70.4,0|2,1:2|0:0,0:0:0:0:
339,294,145968,2,0,P|365:269|394:247,1,70.4,0|0,1:2|0:0,0:0:0:0:
261,369,146284,2,0,P|252:333|248:297,1,70.4,2|0,1:2|0:0,0:0:0:0:
38,145,146600,2,0,P|68:180|70:252,1,105.6,2|0,1:2|0:0,0:0:0:0:
70,247,146916,6,0,P|35:257|2:272,1,70.4,2|0,1:2|0:0,0:0:0:0:
152,95,147232,2,0,P|117:84|84:70,1,70.4,0|2,1:2|0:0,0:0:0:0:
230,180,147547,2,0,P|195:190|162:205,1,70.4,0|0,1:2|0:0,0:0:0:0:
414,50,147863,2,0,P|389:90|396:160,1,105.6,2|0,1:2|0:0,0:0:0:0:
396,157,148179,6,0,P|430:167|464:182,1,70.4,0|2,1:2|0:0,0:0:0:0:
319,217,148495,2,0,P|293:241|265:263,1,70.4,0|0,1:2|0:0,0:0:0:0:
305,120,148811,2,0,P|297:85|292:50,1,70.4,2|0,1:2|0:0,0:0:0:0:
409,255,149126,2,0,P|421:305|398:351,1,105.6,2|0,1:2|0:0,0:0:0:0:
387,358,149442,6,0,P|354:344|320:333,1,70.4,2|0,1:2|0:0,0:0:0:0:
157,208,149758,2,0,P|168:256|179:328,1,105.6,0|0,1:2|0:0,0:0:0:0:
172,320,150074,2,0,P|131:323|104:348,1,70.4,2|0,1:2|0:0,0:0:0:0:
51,148,150390,6,0,P|82:200|177:194,1,140.8,2|0,1:2|1:2,0:0:0:0:
156,207,151021,2,0,P|151:172|143:137,1,70.4,2|0,1:2|0:0,0:0:0:0:
261,114,151337,2,0,P|253:148|248:183,1,70.4,2|0,1:2|0:0,0:0:0:0:
47,144,151653,2,0,P|54:109|59:74,1,70.4,2|0,1:2|0:0,0:0:0:0:
256,192,151968,5,2,1:1:0:0:
256,192,152047,12,8,154179,1:2:0:0:
501,89,154495,6,0,B|408:63|422:130|309:96,2,176,6|8|2,1:2|1:2|1:2,0:0:0:0:
349,15,155284,2,0,P|339:58|328:100,1,88,2|8,0:0|1:2,0:0:0:0:
508,0,155600,1,2,0:0:0:0:
441,205,155758,6,0,P|431:161|420:119,1,88,0|0,1:2|0:0,0:0:0:0:
416,310,156074,2,0,P|458:298|501:289,1,88,8|0,1:2|0:0,0:0:0:0:
346,230,156390,1,0,1:2:0:0:
303,329,156547,1,0,0:0:0:0:
193,196,156705,1,10,1:2:0:0:
104,362,156863,1,10,0:3:0:0:
219,296,157021,6,0,P|176:284|133:275,1,88,2|0,1:2|0:0,0:0:0:0:
41,263,157337,1,10,1:2:0:0:
178,105,157495,2,0,P|187:148|198:190,1,88,2|0,0:0|1:2,0:0:0:0:
144,21,157811,1,0,0:0:0:0:
293,171,157968,1,10,1:2:0:0:
82,121,158126,1,2,0:0:0:0:
288,0,158284,6,0,L|267:85,1,88,2|0,1:2|0:0,0:0:0:0:
413,213,158600,2,0,L|392:127,1,88,8|2,1:2|0:0,0:0:0:0:
327,273,158916,1,0,1:2:0:0:
193,196,159074,1,0,0:0:0:0:
119,358,159232,1,10,1:2:0:0:
234,288,159390,5,4,0:3:0:0:
234,288,159468,1,4,0:3:0:0:
234,288,159547,2,0,L|147:270,1,88,6|0,1:2|0:0,0:0:0:0:
361,364,159863,2,0,P|420:380|502:311,1,176,8|2,1:2|1:2,0:0:0:0:
328,184,160337,2,0,B|310:224|310:224|322:276,1,88,2|8,0:0|1:2,0:0:0:0:
237,141,160653,1,2,0:0:0:0:
416,227,160811,6,0,L|503:209,1,88,0|0,1:2|0:0,0:0:0:0:
234,288,161126,2,0,B|169:276|169:276|125:285|125:285|51:275,2,176,8|0|10,1:2|1:2|1:2,0:0:0:0:
407,137,161916,5,10,0:3:0:0:
407,137,161995,1,8,0:3:0:0:
407,137,162074,2,0,P|426:94|417:50,1,88,2|0,1:2|0:0,0:0:0:0:
210,127,162390,1,10,1:2:0:0:
285,37,162547,2,0,P|292:77|303:124,1,88,2|0,0:0|1:2,0:0:0:0:
136,229,162863,2,0,P|113:190|118:142,1,88,2|8,0:0|1:2,0:0:0:0:
182,38,163179,1,2,0:0:0:0:
321,213,163337,5,0,1:2:0:0:
210,127,163495,1,8,0:0:0:0:
419,54,163653,1,0,1:2:0:0:
302,123,163811,1,4,0:3:0:0:
302,123,163890,1,4,0:3:0:0:
302,123,163968,1,2,1:2:0:0:
489,232,164126,1,14,0:0:0:0:
407,137,164284,1,0,1:2:0:0:
318,301,164442,1,12,0:0:0:0:
494,240,164600,6,0,L|351:215,1,132,2|0,1:2|0:0,0:0:0:0:
318,301,164916,2,0,P|360:314|405:295,1,88,8|2,1:2|0:0,0:0:0:0:
240,184,165232,2,0,P|185:182|125:240,1,132,0|0,1:2|0:0,0:0:0:0:
56,209,165547,2,0,P|28:174|30:125,1,88,10|0,1:2|0:0,0:0:0:0:
270,15,165863,6,0,B|268:40|253:70|253:70|261:111|261:111|237:147|240:200,2,176,2|8|2,1:2|1:2|1:2,0:0:0:0:
351,102,166653,1,0,0:0:0:0:
140,7,166811,2,0,L|158:94,1,88,10|8,1:2|0:3,0:0:0:0:
337,232,167126,6,0,P|393:248|483:176,1,176,2|8,1:2|1:2,0:0:0:0:
258,284,167600,2,0,P|234:328|239:376,1,88,2|0,0:0|1:2,0:0:0:0:
342,332,167916,1,0,0:0:0:0:
176,227,168074,2,0,P|119:257|49:250,1,132,10|0,1:2|0:0,0:0:0:0:
24,176,168390,6,0,P|34:218|46:271,1,88,2|2,1:2|0:0,0:0:0:0:
152,74,168705,2,0,P|141:114|132:159,1,88,10|0,1:2|0:0,0:0:0:0:
241,48,169021,1,2,1:2:0:0:
89,6,169179,1,8,0:0:0:0:
247,58,169337,1,2,1:2:0:0:
79,11,169495,1,8,0:0:0:0:
240,154,169653,6,0,B|287:150|324:164|324:164|359:143|411:134,1,176,2|8,1:2|1:2,0:0:0:0:
409,134,170284,2,0,P|401:191|424:232,1,88,2|0,1:2|0:0,0:0:0:0:
510,364,170600,2,0,P|478:315|397:317,1,132,10|0,1:2|0:0,0:0:0:0:
405,319,170916,5,0,1:2:0:0:
405,319,171232,2,0,P|368:342|324:343,1,88,10|0,1:2|0:0,0:0:0:0:
204,237,171547,2,0,P|162:207|80:214,1,132,2|0,1:2|0:0,0:0:0:0:
34,294,171863,2,0,P|86:301|123:280,1,88,10|4,1:2|0:3,0:0:0:0:
265,163,172179,6,0,L|289:27,1,132,6|0,1:2|0:0,0:0:0:0:
282,27,172495,5,8,1:2:0:0:
179,92,172653,1,2,0:0:0:0:
373,91,172811,5,2,1:2:0:0:
192,0,172968,1,8,0:0:0:0:
269,171,173126,5,0,1:2:0:0:
400,0,173284,1,2,0:0:0:0:
173,97,173442,5,10,1:2:0:0:
435,179,173600,2,0,L|482:195,1,44,8|8,0:0|0:0,0:0:0:0:
164,284,173758,5,0,1:2:0:0:
278,41,173916,2,0,L|290:98,1,44,10|8,0:0|0:0,0:0:0:0:
333,300,174074,5,10,1:2:0:0:
335,310,174153,1,8,0:0:0:0:
337,321,174232,1,8,0:0:0:0:
339,332,174311,1,8,0:0:0:0:
342,343,174390,5,10,1:2:0:0:
364,305,174468,1,8,0:3:0:0:
368,262,174547,1,4,0:3:0:0:
352,221,174626,1,0,1:2:0:0:
320,191,174705,5,14,0:0:0:0:
240,339,174863,1,0,1:2:0:0:
438,187,175021,1,0,1:2:0:0:
198,62,175179,6,0,B|175:105|175:105|189:156,1,96.8000029541017,14|0,0:0|1:2,0:0:0:0:
79,35,175495,1,0,1:2:0:0:
282,111,175653,6,0,L|389:92,1,96.8000029541017,14|2,0:0|1:2,0:0:0:0:
107,253,175968,1,0,1:2:0:0:
198,62,176126,5,14,0:0:0:0:
250,251,176284,1,0,1:2:0:0:
61,140,176442,1,0,1:2:0:0:
298,15,176600,6,0,L|279:122,1,96.8000029541017,14|2,0:0|1:2,0:0:0:0:
181,12,176916,1,10,0:3:0:0:
181,12,176995,1,8,0:3:0:0:
181,12,177074,2,0,L|190:59,1,48.4000014770508,4|4,0:3|0:3,0:0:0:0:
367,188,177232,6,0,B|306:181|306:181|275:159|275:159|222:170|176:156,1,193.600005908203,14|2,0:0|1:2,0:0:0:0:
440,128,177705,2,0,B|468:169|468:169|456:228,1,96.8000029541017,14|0,0:0|1:2,0:0:0:0:
287,296,178021,2,0,B|259:255|259:255|271:196,1,96.8000029541017,2|14,1:2|0:0,0:0:0:0:
384,292,178337,1,0,1:2:0:0:
213,377,178495,1,2,1:2:0:0:
367,188,178653,6,0,L|386:295,1,96.8000029541017,14|0,0:0|1:2,0:0:0:0:
167,99,178968,1,2,1:2:0:0:
97,177,179126,5,14,0:0:0:0:
268,208,179284,1,10,0:0:0:0:
299,37,179442,1,10,0:0:0:0:
128,5,179600,1,8,0:0:0:0:
305,121,179758,6,0,B|368:110|368:110|397:115|397:115|465:104,1,149.600002853394,6|2,1:2|1:2,0:0:0:0:
268,208,180232,2,0,B|258:242|258:242|269:296,1,74.8000014266968,2|12,1:2|0:0,0:0:0:0:
430,263,180547,2,0,L|347:247,1,74.8000014266968,10|0,0:0|0:0,0:0:0:0:
175,211,180863,1,10,0:0:0:0:
284,359,181021,6,0,L|268:276,1,74.8000014266968,0|8,1:2|0:0,0:0:0:0:
168,208,181337,2,0,L|152:125,1,74.8000014266968,2|0,0:0|1:2,0:0:0:0:
321,3,181653,2,0,L|302:123,1,112.200002140045,10|0,0:0|0:0,0:0:0:0:
305,121,181968,2,0,P|340:147|382:139,1,74.8000014266968,2|8,0:0|0:0,0:0:0:0:
413,61,182284,5,6,1:2:0:0:
198,0,182442,2,0,L|212:73,1,74.8000014266968,8|2,0:0|0:0,0:0:0:0:
212,73,182758,1,2,1:2:0:0:
22,0,182916,1,8,0:0:0:0:
65,147,183074,2,0,L|79:73,1,74.8000014266968,10|2,0:0|0:0,0:0:0:0:
79,73,183390,1,10,0:0:0:0:
9,216,183547,5,0,1:2:0:0:
153,134,183705,1,10,0:3:0:0:
16,224,183863,5,0,0:0:0:0:
201,300,184021,1,6,0:3:0:0:
21,372,184179,5,10,0:0:0:0:
103,222,184337,2,0,B|114:258|114:258|110:291|110:291|131:322|125:384,1,149.600002853394,4|2,1:2|1:2,0:0:0:0:
127,374,184732,5,0,1:2:0:0:
127,380,184811,1,14,0:0:0:0:
337,229,184968,1,0,1:2:0:0:
201,300,185126,1,0,1:2:0:0:
439,309,185284,5,14,0:0:0:0:
256,138,185442,1,0,1:2:0:0:
323,318,185600,1,0,1:2:0:0:
380,78,185758,5,14,0:0:0:0:
238,219,185916,1,2,1:2:0:0:
464,146,186074,1,0,1:2:0:0:
167,90,186232,6,0,L|80:73,1,88,14|2,0:0|1:2,0:0:0:0:
329,224,186547,1,0,1:2:0:0:
127,380,186705,5,12,0:0:0:0:
257,134,186863,1,10,0:0:0:0:
257,134,186942,1,8,0:0:0:0:
257,134,187021,1,10,0:0:0:0:
439,309,187179,5,6,0:3:0:0:
439,309,187258,1,0,1:2:0:0:
439,309,187337,1,14,0:0:0:0:
329,224,187495,1,0,1:2:0:0:
381,120,187653,1,2,1:2:0:0:
207,248,187811,5,14,0:0:0:0:
415,209,187968,1,0,1:2:0:0:
142,168,188126,1,2,1:2:0:0:
307,318,188284,6,0,L|324:232,1,88,12|2,0:0|1:2,0:0:0:0:
364,15,188600,1,0,1:2:0:0:
207,248,188758,5,12,0:0:0:0:
381,120,188916,1,2,1:2:0:0:
169,44,189074,1,2,1:2:0:0:
324,231,189232,6,0,P|382:219|427:214,1,88,12|0,0:0|1:2,0:0:0:0:
124,334,189547,2,0,P|66:318|22:311,1,88,14|2,0:0|1:2,0:0:0:0:
248,170,189863,6,0,B|237:222|237:222|242:258|242:258|213:297|220:354,1,176,14|10,0:0|1:2,0:0:0:0:
218,339,190337,1,10,0:0:0:0:
324,231,190495,5,8,1:2:0:0:
151,167,190653,1,10,0:0:0:0:
381,120,190811,5,8,1:2:0:0:
92,233,190968,1,10,0:0:0:0:
205,16,191126,6,0,L|218:70,3,44,12|8|8|8,1:2|0:0|0:0|0:0,0:0:0:0:
259,128,191442,5,10,1:2:0:0:
256,138,191521,1,8,0:0:0:0:
253,149,191600,1,8,0:0:0:0:
251,160,191679,1,8,0:0:0:0:
248,170,191758,5,10,1:2:0:0:
290,161,191837,1,8,0:0:0:0:
331,175,191916,1,8,0:0:0:0:
358,209,191995,1,8,0:0:0:0:
364,252,192074,1,10,1:2:0:0:
347,291,192153,1,8,0:0:0:0:
311,316,192232,1,12,0:3:0:0:
268,319,192311,1,0,1:2:0:0:
230,299,192390,5,14,0:0:0:0:
378,111,192547,1,0,1:2:0:0:
448,294,192705,1,0,1:2:0:0:
185,223,192863,6,0,B|140:211|140:211|100:216|100:216|42:204,1,132,14|0,0:0|0:0,0:0:0:0:
47,212,193179,1,0,1:2:0:0:
283,240,193337,1,14,0:0:0:0:
97,312,193495,1,10,0:0:0:0:
190,90,193653,5,0,1:2:0:0:
190,90,193732,1,8,0:0:0:0:
190,90,193811,2,0,L|198:144,1,44,8|8,0:0|0:0,0:0:0:0:
367,294,193968,5,8,1:2:0:0:
367,294,194047,1,8,0:0:0:0:
367,294,194126,2,0,L|375:240,1,44,8|8,0:0|0:0,0:0:0:0:
465,57,194284,5,10,1:2:0:0:
428,32,194363,1,8,0:0:0:0:
384,32,194442,1,8,0:0:0:0:
349,57,194521,1,8,0:0:0:0:
334,97,194600,1,8,1:2:0:0:
318,137,194679,1,8,0:0:0:0:
283,162,194758,1,8,0:0:0:0:
240,163,194837,1,8,0:0:0:0:
204,138,194916,1,6,1:2:0:0:
256,192,194995,12,6,199968,1:2:0:0:
409,59,204547,5,2,0:3:0:0:
409,59,204626,1,2,0:3:0:0:
409,59,204705,2,0,B|391:29|391:29|400:-5,1,66,2|0,0:3|0:0,0:0:0:0:
461,161,205021,6,0,B|507:124|480:76|443:52|395:48|353:85|326:160|397:220|389:177|453:200|488:225|498:287|446:338|446:338|385:366|332:333|320:284|360:292|311:183|211:231|200:311|252:358|309:336,1,791.999975830079,6|2,1:2|0:0,0:0:0:0:
69,169,210074,6,0,B|17:138|17:138|79:102|79:102|80:102|80:102|94:31|94:31|148:77|148:77|148:78|148:78|221:70|221:70|192:136|192:136|223:203|223:203|151:195|151:195|151:195|151:195|96:250,1,633.599980664063,6|2,1:2|0:0,0:0:0:0:
105,243,214495,5,2,0:0:0:0:
183,259,214653,1,2,0:0:0:0:
199,181,214811,1,10,1:2:0:0:
121,165,214968,1,2,0:0:0:0:
186,265,215126,5,14,1:2:0:0:
128,68,215284,1,10,0:0:0:0:
292,13,215600,5,10,0:0:0:0:
189,271,215758,1,10,0:0:0:0:
364,326,216074,5,10,0:0:0:0:
244,91,216232,1,10,0:0:0:0:
102,375,216547,5,10,0:0:0:0:
305,160,216705,1,10,0:0:0:0:
305,160,217021,5,10,0:0:0:0:
393,213,217179,1,0,1:2:0:0:
209,180,217337,1,10,0:0:0:0:
373,92,217495,5,0,1:2:0:0:
373,92,217574,1,0,1:2:0:0:
373,92,217653,1,14,1:2:0:0:
286,292,217811,1,10,0:0:0:0:
290,298,218126,5,10,0:0:0:0:
163,54,218284,1,10,0:0:0:0:
232,10,218600,5,10,0:0:0:0:
121,287,218758,1,10,0:0:0:0:
200,344,219074,5,10,0:0:0:0:
89,92,219232,1,10,0:0:0:0:
85,97,219547,5,10,0:0:0:0:
27,186,219705,1,0,1:2:0:0:
205,128,219863,1,10,0:0:0:0:
68,0,220021,5,0,1:2:0:0:
68,0,220100,1,0,1:2:0:0:
68,0,220179,2,0,L|87:109,1,99.0000037765504,14|0,0:0|0:0,0:0:0:0:
80,103,220495,5,10,1:2:0:0:
163,54,220653,1,10,0:0:0:0:
128,191,220811,5,8,1:2:0:0:
160,50,220968,1,10,0:0:0:0:
244,219,221126,5,10,1:2:0:0:
157,46,221284,1,8,0:0:0:0:
348,167,221442,5,8,1:2:0:0:
154,42,221600,1,8,0:0:0:0:
166,278,221758,5,10,1:2:0:0:
291,106,221916,1,8,0:0:0:0:
128,191,222074,5,10,1:2:0:0:
397,263,222232,1,8,0:0:0:0:
299,17,222390,5,10,1:2:0:0:
246,325,222547,1,8,0:0:0:0:
512,135,222705,6,0,L|423:118,1,88,10|8,1:2|0:0,0:0:0:0:
418,118,222942,1,8,0:0:0:0:
411,117,223021,1,8,1:2:0:0:
299,17,223179,5,8,0:0:0:0:
299,17,223258,1,8,0:0:0:0:
299,17,223337,1,8,1:2:0:0:
258,1,223416,1,8,0:0:0:0:
215,11,223495,1,8,0:0:0:0:
185,41,223574,1,8,0:0:0:0:
176,84,223653,1,10,1:2:0:0:
166,126,223732,1,8,0:0:0:0:
136,157,223811,1,8,0:0:0:0:
93,166,223890,1,8,0:0:0:0:
53,151,223968,5,10,1:2:0:0:
101,125,224047,1,8,0:0:0:0:
155,131,224126,1,8,0:0:0:0:
197,164,224205,1,8,0:0:0:0:
214,216,224284,1,10,1:2:0:0:
201,268,224363,1,8,0:0:0:0:
161,305,224442,1,10,0:0:0:0:
107,314,224521,1,8,0:0:0:0:
58,292,224600,6,0,L|44:238,1,57.1999973815919,8|8,1:2|0:3,0:0:0:0:
295,169,224758,2,0,L|309:114,1,57.1999973815919,4|0,0:3|1:2,0:0:0:0:
118,0,224916,6,0,B|123:22|132:49|132:49|127:71|127:71|141:95|145:128,1,132,14|0,0:0|0:0,0:0:0:0:
155,131,225232,5,14,0:0:0:0:
231,4,225390,1,2,0:0:0:0:
25,81,225547,1,2,1:2:0:0:
214,216,225705,6,0,B|319:190|296:263|426:233,1,202.400003860474,10|2,0:0|1:2,0:0:0:0:
329,14,226179,2,0,L|308:113,1,101.200001930237,14|2,0:0|0:0,0:0:0:0:
512,101,226495,1,0,1:2:0:0:
410,236,226653,2,0,B|392:189|392:189|408:138,1,101.200001930237,14|2,0:0|0:0,0:0:0:0:
461,2,226968,1,0,1:2:0:0:
308,113,227126,1,14,0:0:0:0:
505,194,227284,1,0,0:0:0:0:
329,14,227442,6,0,B|257:30|257:30|222:71|222:71|143:87,1,202.400003860474,14|2,0:0|1:2,0:0:0:0:
21,10,227916,2,0,B|39:57|39:57|23:108,1,101.200001930237,14|0,0:0|0:0,0:0:0:0:
180,255,228232,1,2,1:2:0:0:
148,85,228390,1,10,0:0:0:0:
0,217,228547,2,0,L|99:196,1,101.200001930237,4|2,1:2|0:0,0:0:0:0:
339,148,228863,5,10,0:3:0:0:
175,263,229021,1,6,0:3:0:0:
382,340,229179,1,2,1:2:0:0:
234,156,229337,1,8,0:0:0:0:
251,375,229495,2,0,L|271:275,1,101.200001930237,6|0,1:2|0:0,0:0:0:0:
502,97,229811,5,0,1:2:0:0:
502,97,229890,1,0,1:2:0:0:
502,97,229968,1,14,0:0:0:0:
340,231,230126,1,2,1:2:0:0:
502,326,230284,1,2,1:2:0:0:
420,131,230442,6,0,L|440:231,1,101.200001930237,10|0,0:3|1:2,0:0:0:0:
402,40,230758,1,2,1:2:0:0:
236,150,230916,1,14,0:0:0:0:
340,231,231074,1,2,1:2:0:0:
135,141,231232,1,0,1:2:0:0:
265,45,231390,6,0,L|245:145,1,101.200001930237,14|2,0:0|1:2,0:0:0:0:
136,29,231705,1,2,1:2:0:0:
359,136,231863,2,0,L|461:114,1,101.200001930237,10|0,0:0|1:2,0:0:0:0:
183,277,232179,6,0,P|138:235|146:141,1,151.800002895355,14|0,0:0|0:0,0:0:0:0:
149,142,232495,1,2,1:2:0:0:
274,238,232653,1,14,0:0:0:0:
370,34,232811,1,0,1:2:0:0:
243,145,232968,1,2,1:2:0:0:
491,213,233126,1,10,0:0:0:0:
281,334,233284,6,0,B|210:323|210:323|163:340|163:340|129:325|81:329,1,202.400003860474,6|10,1:2|0:0,0:0:0:0:
77,330,233679,1,8,0:0:0:0:
70,333,233758,1,10,1:2:0:0:
274,238,233916,1,10,0:0:0:0:
274,238,233995,1,8,0:0:0:0:
274,238,234074,1,8,1:2:0:0:
100,61,234232,5,10,0:0:0:0:
44,71,234311,1,8,0:0:0:0:
10,112,234390,1,8,1:2:0:0:
7,168,234468,1,8,0:0:0:0:
40,212,234547,1,8,0:0:0:0:
93,227,234626,1,8,0:0:0:0:
144,206,234705,6,0,L|111:56,1,151.800002895355,6|0,1:2|0:0,0:0:0:0:
178,15,235020,2,0,P|223:44|273:34,1,101.200001930237,8|2,0:0|1:2,0:0:0:0:
460,208,235336,1,2,1:2:0:0:
265,131,235494,1,0,1:2:0:0:
408,25,235652,6,0,L|388:125,1,101.200001930237,10|2,0:0|1:2,0:0:0:0:
387,131,235889,1,10,0:0:0:0:
385,138,235968,1,0,1:2:0:0:
267,36,236126,1,2,0:0:0:0:
369,233,236283,2,0,P|437:228|467:193,1,101.200001930237,10|0,0:0|1:2,0:0:0:0:
295,362,236599,2,0,P|247:322|157:329,1,151.800002895355,2|0,1:2|0:0,0:0:0:0:
68,283,236915,2,0,L|88:383,1,101.200001930237,10|0,0:0|0:0,0:0:0:0:
0,133,237231,6,0,B|72:146|72:146|106:187|106:187|196:203,1,202.400003860474,2|8,1:2|0:0,0:0:0:0:
350,95,237705,1,2,1:2:0:0:
181,9,237862,2,0,B|157:54|157:54|176:112,1,101.200001930237,2|0,1:2|1:2,0:0:0:0:
331,239,238178,6,0,B|399:227|399:227|429:233|429:233|456:217|456:217|531:202,1,202.400003860474,10|0,0:0|1:2,0:0:0:0:
235,286,238652,2,0,P|205:342|218:387,1,101.200001930237,2|10,1:2|0:0,0:0:0:0:
359,323,238968,1,0,1:2:0:0:
188,193,239126,1,2,1:2:0:0:
371,101,239283,1,0,1:2:0:0:
236,294,239441,2,0,P|186:283|136:274,1,101.200001930237,10|8,0:0|0:0,0:0:0:0:
35,64,239757,6,0,P|-6:121|32:198,1,151.800002895355,6|0,1:2|0:0,0:0:0:0:
28,196,240073,1,10,0:0:0:0:
226,73,240231,2,0,B|190:85|190:85|173:99|173:99|116:115,1,101.200001930237,2|0,1:2|1:2,0:0:0:0:
357,194,240547,1,2,1:2:0:0:
283,10,240705,2,0,B|252:54|252:54|280:149,1,151.800002895355,10|0,0:0|0:0,0:0:0:0:
272,155,241020,5,2,1:2:0:0:
436,322,241178,2,0,P|414:266|281:272,1,202.400003860474,2|2,0:0|1:2,0:0:0:0:
482,183,241652,1,2,1:2:0:0:
482,183,241731,1,8,0:0:0:0:
482,183,241810,1,2,1:2:0:0:
338,371,241968,2,0,P|289:360|238:351,1,101.200001930237,10|2,0:0|0:0,0:0:0:0:
18,304,242283,5,6,1:2:0:0:
177,194,242441,1,2,1:2:0:0:
14,313,242599,1,8,0:0:0:0:
175,277,242757,1,2,1:2:0:0:
69,134,242915,2,0,B|48:177|48:177|66:228,1,101.200001930237,2|2,1:2|1:2,0:0:0:0:
269,82,243231,1,8,0:0:0:0:
80,7,243389,1,2,1:2:0:0:
177,194,243547,5,14,0:0:0:0:
402,116,243705,1,2,1:2:0:0:
160,60,243862,5,12,0:0:0:0:
404,213,244020,1,2,1:2:0:0:
336,4,244178,5,12,0:0:0:0:
286,276,244336,1,10,0:0:0:0:
286,276,244415,1,8,0:0:0:0:
286,276,244494,1,10,1:2:0:0:
501,156,244652,5,8,0:0:0:0:
501,156,244731,1,8,0:0:0:0:
501,156,244810,2,0,B|391:124|414:206|285:165,1,202.400003860474,6|8,1:2|1:2,0:0:0:0:
68,94,245283,1,6,0:3:0:0:
173,254,245441,2,0,P|194:203|185:157,1,101.200001930237,4|6,1:3|0:3,0:0:0:0:
45,298,245757,2,0,P|98:248|185:261,1,151.800002895355,10|4,1:2|0:3,0:0:0:0:
179,263,246073,5,6,1:3:0:0:
134,347,246231,1,2,0:0:0:0:
267,236,246389,1,10,1:2:0:0:
376,373,246547,1,6,0:3:0:0:
376,373,246626,1,8,0:3:0:0:
376,373,246705,1,4,1:3:0:0:
257,328,246862,1,6,0:3:0:0:
474,228,247020,1,10,1:2:0:0:
353,168,247178,5,4,0:3:0:0:
353,168,247257,1,4,0:3:0:0:
353,168,247336,2,0,L|367:268,1,101.200001930237,6|2,1:2|0:0,0:0:0:0:
434,67,247652,2,0,P|373:24|301:40,1,151.800002895355,10|8,1:2|0:3,0:0:0:0:
259,107,247968,2,0,P|221:145|161:143,1,101.200001930237,4|6,1:3|0:3,0:0:0:0:
25,7,248283,1,10,1:2:0:0:
184,58,248441,1,6,0:3:0:0:
38,245,248599,6,0,P|0:210|21:108,1,151.800002895355,4|0,1:3|0:0,0:0:0:0:
99,67,248915,2,0,L|84:167,1,101.200001930237,10|6,1:2|0:3,0:0:0:0:
276,289,249231,1,6,1:3:0:0:
175,148,249389,1,4,0:3:0:0:
36,349,249547,1,10,1:2:0:0:
186,263,249705,5,4,0:3:0:0:
186,263,249783,1,4,0:3:0:0:
186,263,249862,1,6,1:2:0:0:
84,167,250020,1,2,0:0:0:0:
161,363,250178,1,10,1:2:0:0:
327,210,250336,1,6,0:3:0:0:
327,210,250415,1,8,0:3:0:0:
327,210,250494,2,0,P|315:157|306:112,1,101.200001930237,4|6,1:3|0:3,0:0:0:0:
492,203,250810,2,0,P|480:256|471:301,1,101.200001930237,10|4,1:2|0:3,0:0:0:0:
240,58,251126,6,0,P|277:25|326:27,1,101.200001930237,6|2,1:3|0:0,0:0:0:0:
149,197,251441,2,0,P|99:207|51:218,1,101.200001930237,8|6,1:2|0:3,0:0:0:0:
249,279,251757,1,2,1:2:0:0:
111,114,251915,1,2,1:2:0:0:
31,329,252073,1,14,0:0:0:0:
238,180,252231,1,0,1:2:0:0:
37,35,252389,5,14,0:0:0:0:
149,197,252547,1,2,1:2:0:0:
240,58,252705,1,2,1:2:0:0:
133,308,252862,1,8,0:0:0:0:
382,198,253020,2,0,L|480:165,1,101.200001930237,2|2,1:2|1:2,0:0:0:0:
321,109,253336,1,14,0:0:0:0:
367,367,253494,6,0,P|409:325|367:188,1,202.400003860474,2|14,1:2|0:0,0:0:0:0:
240,58,253968,1,2,1:2:0:0:
477,165,254126,1,2,1:2:0:0:
292,272,254283,1,12,0:0:0:0:
401,46,254441,1,10,0:0:0:0:
401,46,254520,1,8,0:0:0:0:
401,46,254599,2,0,L|413:100,1,50.6000009651184,10|8,1:2|0:3,0:0:0:0:
464,308,254757,5,6,0:3:0:0:
464,308,254836,1,2,1:2:0:0:
464,308,254915,1,14,0:0:0:0:
242,181,255073,1,2,1:2:0:0:
411,95,255231,1,2,1:2:0:0:
292,272,255389,5,14,0:0:0:0:
240,58,255547,1,0,1:2:0:0:
90,287,255705,1,2,1:2:0:0:
381,197,255862,1,10,0:0:0:0:
88,17,256020,6,0,P|44:63|138:98,1,202.400003860474,6|10,1:2|0:0,0:0:0:0:
381,197,256494,5,10,0:0:0:0:
328,23,256652,1,10,0:0:0:0:
292,272,256810,5,10,0:0:0:0:
497,135,256968,1,10,0:0:0:0:
240,58,257126,5,10,0:0:0:0:
474,215,257283,1,10,0:0:0:0:
90,287,257441,5,6,1:2:0:0:
256,192,257520,12,2,262494,0:0:0:0:
116,104,266915,6,0,L|75:93,3,41.7999988838196,2|0|0|0,3:2|3:3|3:3|3:3,0:0:0:0:
3,138,267231,6,0,L|133:110,1,125.399996651459,2|0,0:3|0:0,0:0:0:0:
220,74,267547,6,0,P|208:103|209:148,1,66.0000025177003,6|0,1:2|0:0,0:0:0:0:
272,182,267862,2,0,P|284:153|283:108,1,66.0000025177003,0|0,1:2|0:0,0:0:0:0:
354,71,268178,6,0,P|367:105|366:142,1,74.8000014266968,0|0,1:2|0:0,0:0:0:0:
136,183,268494,2,0,P|123:149|125:111,1,74.8000014266968,2|2,1:2|0:0,0:0:0:0:
135,26,268810,6,0,P|119:64|118:105,1,83.5999977676392,0|2,1:2|0:0,0:0:0:0:
353,230,269126,2,0,P|367:192|369:150,1,83.5999977676392,0|2,1:2|0:0,0:0:0:0:
145,320,269441,6,0,P|180:277|269:282,1,138.599995770264,0|0,1:2|0:0,0:0:0:0:
262,284,269757,2,0,P|294:320|338:326,1,92.3999971801759,0|2,1:2|0:0,0:0:0:0:
488,159,270073,6,0,P|431:146|354:239,2,184.799994360352,0|0|2,1:2|1:2|1:2,0:0:0:0:
488,159,271020,2,0,P|516:105|510:68,1,92.3999971801759,0|0,1:2|0:0,0:0:0:0:
281,78,271336,6,0,P|320:125|398:126,1,138.599995770264,2|0,1:2|0:0,0:0:0:0:
418,44,271652,2,0,P|390:98|396:135,1,92.3999971801759,0|0,1:2|0:0,0:0:0:0:
512,289,271968,2,0,P|477:250|425:247,1,92.3999971801759,2|0,1:2|0:0,0:0:0:0:
389,304,272205,1,2,0:3:0:0:
389,304,272283,2,0,P|351:336|299:336,1,92.3999971801759,0|0,1:2|0:0,0:0:0:0:
64,128,272599,6,0,L|87:245,1,112.200002140045,6|0,1:2|0:0,0:0:0:0:
92,244,272915,5,8,1:2:0:0:
7,294,273073,1,8,0:0:0:0:
180,267,273231,5,8,1:2:0:0:
64,128,273389,1,8,0:0:0:0:
146,346,273547,5,10,1:2:0:0:
248,96,273705,1,10,0:0:0:0:
92,244,273862,5,8,1:2:0:0:
314,346,274020,1,10,0:0:0:0:
150,103,274178,5,8,1:2:0:0:
312,352,274336,1,10,0:0:0:0:
315,40,274494,5,8,1:2:0:0:
310,358,274652,1,10,0:0:0:0:
496,72,274810,5,8,1:2:0:0:
308,364,274968,1,10,0:0:0:0:
512,173,275126,6,0,L|427:155,1,88,8|8,1:2|0:0,0:0:0:0:
416,152,275362,1,8,0:0:0:0:
407,150,275441,1,8,1:2:0:0:
129,52,275599,2,0,L|140:94,1,44,8|8,0:0|0:0,0:0:0:0:
215,134,275757,5,10,1:2:0:0:
213,139,275836,1,8,0:0:0:0:
212,144,275915,1,8,0:0:0:0:
210,149,275994,1,8,0:0:0:0:
209,155,276073,1,8,1:2:0:0:
208,160,276152,1,8,0:0:0:0:
206,165,276231,1,8,0:0:0:0:
205,171,276310,1,8,0:0:0:0:
203,176,276389,5,10,1:2:0:0:
260,166,276468,1,8,0:0:0:0:
314,189,276547,1,8,0:0:0:0:
348,237,276626,1,8,0:0:0:0:
356,294,276705,1,10,1:2:0:0:
322,349,276783,1,8,0:3:0:0:
259,383,276862,1,4,0:3:0:0:
186,368,276941,1,0,1:2:0:0:
135,313,277020,6,0,B|119:269|119:269|137:217,1,92.3999971801759,10|0,0:0|0:0,0:0:0:0:
216,274,277652,6,0,B|108:253|129:323|1:298,2,202.400003860474,6|8|0,1:2|1:2|1:2,0:0:0:0:
452,169,278441,1,0,0:0:0:0:
233,84,278599,1,10,1:2:0:0:
356,296,278757,6,0,B|377:247|377:247|362:196,1,101.200001930237,2|0,0:0|1:2,0:0:0:0:
206,0,279073,2,0,P|153:45|163:138,1,151.800002895355,2|0,0:0|0:0,0:0:0:0:
124,218,279389,6,0,P|173:204|234:190,1,101.200001930237,2|0,0:0|1:2,0:0:0:0:
401,49,279705,2,0,P|351:19|294:29,1,101.200001930237,2|8,0:0|1:2,0:0:0:0:
356,296,280020,5,2,0:0:0:0:
356,296,280099,1,2,0:0:0:0:
356,296,280178,2,0,P|405:308|454:321,1,101.200001930237,2|0,1:2|0:0,0:0:0:0:
222,192,280494,2,0,P|172:205|124:218,1,101.200001930237,8|0,1:2|0:0,0:0:0:0:
309,21,280810,2,0,P|348:72|319:172,1,151.800002895355,2|0,1:2|0:0,0:0:0:0:
391,211,281126,2,0,P|447:218|484:188,1,101.200001930237,8|0,1:2|0:0,0:0:0:0:
260,96,281441,6,0,B|203:84|203:84|173:92|173:92|96:79,1,151.800002895355,2|0,1:2|0:0,0:0:0:0:
50,23,281757,2,0,B|27:68|27:68|38:120,1,101.200001930237,8|0,1:2|0:0,0:0:0:0:
259,316,282073,2,0,P|279:257|205:179,1,151.800002895355,2|0,1:2|0:0,0:0:0:0:
222,192,282389,1,8,1:2:0:0:
163,375,282547,5,8,0:0:0:0:
163,375,282626,1,8,0:0:0:0:
163,375,282705,2,0,P|242:356|372:332,2,202.400003860474,6|8|0,1:2|1:2|1:2,0:0:0:0:
371,234,283494,1,0,0:0:0:0:
166,143,283652,5,10,1:2:0:0:
166,143,283731,1,2,0:0:0:0:
166,143,283810,2,0,P|180:191|192:241,1,101.200001930237,2|0,0:0|1:2,0:0:0:0:
366,76,284126,2,0,P|311:44|263:58,1,101.200001930237,2|8,0:0|1:2,0:0:0:0:
45,187,284441,6,0,P|104:200|167:135,1,151.800002895355,2|0,0:0|0:0,0:0:0:0:
115,7,284757,2,0,P|103:56|89:104,1,101.200001930237,2|8,0:0|1:2,0:0:0:0:
279,237,285073,5,2,0:0:0:0:
279,237,285152,1,2,0:0:0:0:
279,237,285231,2,0,P|290:187|304:139,1,101.200001930237,2|0,1:2|0:0,0:0:0:0:
366,323,285547,1,8,1:2:0:0:
191,240,285705,1,0,0:0:0:0:
410,113,285862,5,2,1:2:0:0:
279,237,286020,1,0,0:0:0:0:
206,15,286178,1,8,1:2:0:0:
416,209,286336,1,0,0:0:0:0:
111,265,286494,6,0,P|61:276|13:290,1,101.200001930237,6|8,1:2|0:0,0:0:0:0:
163,144,286810,2,0,P|169:167|175:199,1,50.6000009651184,8|8,1:2|0:0,0:0:0:0:
273,292,286968,2,0,P|277:267|284:242,1,50.6000009651184,8|8,0:0|0:0,0:0:0:0:
364,3,287126,5,10,1:2:0:0:
315,11,287205,1,8,0:0:0:0:
285,51,287283,1,8,0:0:0:0:
290,100,287362,1,8,0:0:0:0:
327,133,287441,5,8,1:2:0:0:
351,127,287520,1,8,0:0:0:0:
376,122,287599,1,8,0:0:0:0:
401,116,287678,1,8,0:0:0:0:
426,109,287757,6,0,B|363:92|363:92|303:142|228:122,1,202.400003860474,6|12,1:2|1:2,0:0:0:0:
56,59,288231,1,0,0:0:0:0:
180,202,288389,1,0,1:2:0:0:
153,79,288547,1,0,0:0:0:0:
16,302,288705,1,10,1:2:0:0:
267,245,288862,6,0,P|224:209|176:211,1,101.200001930237,2|0,0:0|1:2,0:0:0:0:
426,109,289178,2,0,P|412:183|399:264,1,151.800002895355,2|0,0:0|0:0,0:0:0:0:
467,329,289494,6,0,B|502:291|502:291|493:236,1,101.200001930237,2|0,0:0|1:2,0:0:0:0:
236,121,289810,1,2,0:0:0:0:
399,258,289968,1,8,1:2:0:0:
200,368,290126,1,2,0:0:0:0:
318,77,290283,6,0,L|334:185,1,101.200001930237,2|0,1:2|0:0,0:0:0:0:
493,40,290599,2,0,P|443:12|388:24,1,101.200001930237,8|0,1:2|0:0,0:0:0:0:
236,121,290915,2,0,P|163:133|108:84,1,151.800002895355,2|0,1:2|0:0,0:0:0:0:
247,12,291231,2,0,L|231:120,1,101.200001930237,8|0,1:2|0:0,0:0:0:0:
132,0,291547,5,2,1:2:0:0:
332,177,291705,1,0,0:0:0:0:
80,263,291862,1,8,1:2:0:0:
232,112,292020,1,0,0:0:0:0:
156,358,292178,2,0,P|106:369|58:384,1,101.200001930237,2|0,1:2|0:0,0:0:0:0:
373,277,292494,2,0,P|418:291|474:304,1,101.200001930237,8|8,1:2|0:0,0:0:0:0:
232,112,292810,6,0,B|244:169|244:169|236:214|236:214|255:253|249:323,2,202.400003860474,6|8|0,1:2|1:2|1:2,0:0:0:0:
373,277,293599,1,0,0:0:0:0:
143,169,293757,1,10,1:2:0:0:
358,79,293915,6,0,P|343:124|331:180,1,101.200001930237,2|0,0:0|1:2,0:0:0:0:
160,40,294231,2,0,P|202:9|257:13,1,101.200001930237,2|8,0:0|1:2,0:0:0:0:
47,241,294547,6,0,P|35:191|20:143,1,101.200001930237,2|0,0:0|1:2,0:0:0:0:
164,269,294862,1,2,0:0:0:0:
0,375,295020,1,8,1:2:0:0:
143,169,295178,5,2,0:0:0:0:
143,169,295257,1,2,0:0:0:0:
143,169,295336,2,0,B|210:187|210:187|239:224|239:224|324:247,1,202.400003860474,6|8,1:2|1:2,0:0:0:0:
469,92,295810,1,0,0:0:0:0:
321,145,295968,2,0,B|298:98|298:98|312:45,1,101.200001930237,2|0,1:2|1:2,0:0:0:0:
443,196,296283,2,0,P|434:245|426:295,1,101.200001930237,8|0,0:0|1:2,0:0:0:0:
426,303,296520,5,0,1:2:0:0:
425,310,296599,1,14,0:0:0:0:
321,145,296757,1,0,1:2:0:0:
219,383,296915,5,14,0:0:0:0:
310,149,297073,1,0,1:2:0:0:
150,335,297231,5,14,0:0:0:0:
59,60,297389,1,0,1:2:0:0:
314,248,297547,1,14,0:0:0:0:
0,208,297705,5,8,0:0:0:0:
0,208,297783,1,8,0:0:0:0:
0,208,297862,2,0,B|41:163|87:169|87:169|121:213|183:214,1,202.400003860474,6|10,1:2|0:0,0:0:0:0:
366,78,298336,2,0,P|321:57|271:66,1,101.200001930237,2|0,1:2|1:2,0:0:0:0:
176,213,298652,1,0,1:2:0:0:
307,149,298810,1,10,0:0:0:0:
152,15,298968,5,2,1:2:0:0:
152,15,299047,1,8,0:0:0:0:
152,15,299126,2,0,P|161:57|171:116,1,101.200001930237,0|0,1:2|1:2,0:0:0:0:
51,317,299441,2,0,P|61:249|182:215,1,202.400003860474,10|0,0:0|1:2,0:0:0:0:
404,286,299915,1,0,1:2:0:0:
307,149,300073,1,10,0:0:0:0:
239,335,300231,2,0,L|221:386,1,50.6000009651184,10|8,0:0|0:0,0:0:0:0:
485,249,300389,6,0,B|444:251|409:232|409:232|366:251|366:251|330:232|284:236,1,202.400003860474,6|10,1:2|0:0,0:0:0:0:
401,102,300862,2,0,B|419:148|419:148|400:209,1,101.200001930237,2|0,1:2|1:2,0:0:0:0:
314,53,301178,1,0,1:2:0:0:
466,0,301336,1,10,0:0:0:0:
307,149,301494,5,2,1:2:0:0:
307,149,301573,1,8,0:0:0:0:
307,149,301652,2,0,P|231:135|134:121,1,151.800002895355,0|0,1:2|0:0,0:0:0:0:
151,128,301968,1,10,0:0:0:0:
211,237,302126,1,2,1:2:0:0:
162,6,302283,1,0,1:2:0:0:
40,176,302441,1,0,1:2:0:0:
244,89,302599,1,10,0:0:0:0:
52,0,302757,2,0,L|67:58,1,50.6000009651184,10|8,0:0|0:0,0:0:0:0:
18,289,302915,6,0,P|66:275|117:265,1,101.200001930237,6|2,1:2|1:2,0:0:0:0:
372,210,303231,2,0,P|404:251|391:313,1,101.200001930237,8|2,0:0|1:2,0:0:0:0:
444,104,303547,1,2,1:2:0:0:
299,260,303705,1,0,1:2:0:0:
505,193,303862,1,10,0:0:0:0:
319,89,304020,1,0,1:2:0:0:
400,297,304178,6,0,L|498:320,1,101.200001930237,2|0,1:2|1:2,0:0:0:0:
304,384,304494,1,10,0:0:0:0:
377,199,304652,2,0,L|400:297,1,101.200001930237,2|0,1:2|1:2,0:0:0:0:
236,149,304968,1,0,1:2:0:0:
120,362,305126,1,10,0:0:0:0:
299,260,305283,5,2,1:2:0:0:
299,260,305362,1,0,1:2:0:0:
299,260,305441,2,0,B|217:239|234:295|145:274,1,151.800002895355,14|0,0:0|0:0,0:0:0:0:
147,280,305757,5,8,1:2:0:0:
78,125,305915,1,8,0:0:0:0:
227,313,306073,5,10,1:2:0:0:
310,57,306231,1,8,0:0:0:0:
161,192,306389,5,8,1:2:0:0:
402,119,306547,1,8,0:0:0:0:
106,37,306705,5,14,1:2:0:0:
299,260,306862,1,8,0:0:0:0:
323,255,306941,1,8,0:0:0:0:
348,251,307020,1,8,1:2:0:0:
373,246,307099,1,8,0:0:0:0:
398,242,307178,1,8,0:0:0:0:
423,238,307257,1,8,0:0:0:0:
448,233,307336,6,0,L|434:287,1,52.7999983886719,10|8,1:2|0:3,0:0:0:0:
266,177,307494,6,0,P|275:208|281:241,1,66.0000025177003,4|4,0:3|0:3,0:0:0:0:
284,328,307652,6,0,P|291:292|299:258,1,70.4,8|8,1:2|0:3,0:0:0:0:
174,111,307810,6,0,P|166:147|157:183,1,74.8000014266968,4|0,0:3|1:2,0:0:0:0:
109,339,307968,5,14,0:0:0:0:
266,177,308126,1,0,1:2:0:0:
88,254,308283,1,2,1:2:0:0:
32,17,308441,5,14,0:0:0:0:
156,183,308599,1,0,1:2:0:0:
265,11,308757,1,0,1:2:0:0:
35,177,308915,5,14,0:0:0:0:
311,83,309073,1,2,1:2:0:0:
122,2,309231,1,0,1:2:0:0:
212,253,309389,5,12,0:0:0:0:
413,120,309547,1,2,1:2:0:0:
156,183,309705,1,0,1:2:0:0:
452,283,309862,5,12,0:0:0:0:
197,344,310020,1,0,1:2:0:0:
413,120,310178,1,6,0:3:0:0:
306,344,310336,5,2,1:2:0:0:
306,344,310415,1,0,1:2:0:0:
306,344,310494,1,14,0:0:0:0:
158,183,310652,1,0,1:2:0:0:
336,268,310810,1,2,1:2:0:0:
64,341,310968,5,14,0:0:0:0:
297,196,311126,1,0,1:2:0:0:
43,117,311283,1,0,1:2:0:0:
204,324,311441,5,14,0:0:0:0:
153,43,311599,1,2,1:2:0:0:
0,259,311757,2,0,P|47:248|104:237,1,101.200001930237,0|12,1:2|0:0,0:0:0:0:
306,344,312073,5,2,1:2:0:0:
336,105,312231,1,2,1:2:0:0:
231,246,312389,5,12,0:0:0:0:
451,145,312547,1,0,1:2:0:0:
253,27,312705,1,14,0:0:0:0:
388,277,312862,5,2,1:2:0:0:
388,277,312941,1,0,1:2:0:0:
388,277,313020,1,14,0:0:0:0:
362,191,313178,1,0,1:2:0:0:
336,105,313336,1,0,1:2:0:0:
480,245,313494,5,14,0:0:0:0:
255,149,313652,1,0,1:2:0:0:
474,40,313810,1,0,1:2:0:0:
278,279,313968,6,0,P|207:265|126:251,1,151.800002895355,14|0,0:0|0:0,0:0:0:0:
35,223,314283,2,0,P|47:265|60:326,1,101.200001930237,2|12,1:2|0:0,0:0:0:0:
255,149,314599,5,2,1:2:0:0:
64,71,314757,1,2,1:2:0:0:
209,231,314915,5,12,0:0:0:0:
267,0,315073,1,0,1:2:0:0:
128,251,315231,5,14,0:0:0:0:
382,112,315389,1,2,1:2:0:0:
132,3,315547,6,0,P|150:66|169:157,1,151.800002895355,14|0,0:0|0:0,0:0:0:0:
174,156,315862,5,8,1:2:0:0:
392,215,316020,1,8,0:0:0:0:
130,259,316178,5,10,1:2:0:0:
399,206,316336,1,8,0:0:0:0:
72,180,316494,5,8,1:2:0:0:
456,269,316652,1,8,0:0:0:0:
79,356,316810,5,10,1:2:0:0:
183,68,316968,1,8,0:0:0:0:
317,292,317126,5,8,1:2:0:0:
254,5,317283,1,8,0:0:0:0:
376,348,317441,5,10,1:2:0:0:
487,65,317599,1,8,0:0:0:0:
435,45,317678,1,8,0:0:0:0:
384,63,317757,1,8,1:2:0:0:
360,112,317836,1,8,0:0:0:0:
335,160,317915,1,10,0:0:0:0:
284,179,317994,1,8,0:0:0:0:
233,159,318073,6,0,P|168:148|94:135,1,132,6|0,1:2|0:0,0:0:0:0:
93,142,318389,2,0,P|82:96|69:51,1,88,10|0,0:0|1:2,0:0:0:0:
118,233,318705,1,2,1:2:0:0:
182,61,318862,1,2,1:2:0:0:
18,198,319020,2,0,P|-2:236|0:279,1,88,8|2,0:0|1:2,0:0:0:0:
201,357,319336,6,0,B|268:344|268:344|307:357|307:357|383:340,1,176,2|10,1:2|0:0,0:0:0:0:
450,151,319810,1,2,1:2:0:0:
337,229,319968,2,0,P|379:240|421:253,1,88,2|0,1:2|1:2,0:0:0:0:
506,289,320283,1,10,0:0:0:0:
334,108,320441,6,0,P|286:142|200:134,1,132,2|0,1:2|0:0,0:0:0:0:
206,146,320757,1,2,0:0:0:0:
309,23,320915,2,0,P|320:65|333:107,1,88,10|0,0:0|1:2,0:0:0:0:
154,25,321231,1,2,1:2:0:0:
199,229,321389,2,0,B|216:189|216:189|205:143,1,88,2|8,1:2|0:0,0:0:0:0:
268,352,321705,1,2,1:2:0:0:
103,281,321862,6,0,B|137:278|163:267|163:267|209:276|209:276|239:260|279:259,1,176,2|10,1:2|0:0,0:0:0:0:
502,214,322336,1,2,1:2:0:0:
502,214,322415,1,8,0:0:0:0:
502,214,322494,1,0,1:2:0:0:
334,108,322652,1,2,1:2:0:0:
431,309,322810,1,10,0:0:0:0:
493,41,322968,1,8,0:0:0:0:
315,189,323126,6,0,P|357:200|399:213,1,88,6|2,1:2|0:0,0:0:0:0:
169,85,323441,2,0,B|189:123|189:123|176:174,1,88,10|0,0:0|1:2,0:0:0:0:
280,11,323757,1,2,1:2:0:0:
87,140,323915,2,0,P|45:128|3:116,1,88,2|8,1:2|0:0,0:0:0:0:
201,259,324231,1,2,1:2:0:0:
127,0,324389,6,0,P|77:38|100:153,1,176,2|10,1:2|0:0,0:0:0:0:
218,352,324862,1,2,1:2:0:0:
18,290,325020,2,0,P|61:277|103:265,1,88,2|0,1:2|1:2,0:0:0:0:
357,304,325336,1,10,0:0:0:0:
177,166,325494,1,2,1:2:0:0:
334,40,325652,6,0,L|312:143,1,88,4|2,1:2|0:0,0:0:0:0:
224,21,325968,1,10,0:0:0:0:
418,199,326126,1,0,1:2:0:0:
480,79,326283,1,2,1:2:0:0:
281,239,326441,1,2,1:2:0:0:
506,331,326599,1,8,0:0:0:0:
315,126,326757,2,0,L|327:180,1,44,10|8,0:0|0:0,0:0:0:0:
192,355,326915,5,6,1:2:0:0:
192,355,326994,1,8,0:0:0:0:
192,355,327073,2,0,L|201:312,1,44,8|8,0:0|0:0,0:0:0:0:
40,80,327231,5,10,1:2:0:0:
12,113,327310,1,8,0:0:0:0:
8,156,327389,1,10,0:0:0:0:
29,193,327468,1,8,0:0:0:0:
69,211,327547,5,8,1:2:0:0:
120,198,327626,1,8,0:0:0:0:
171,211,327705,1,10,0:0:0:0:
201,253,327783,1,8,0:0:0:0:
200,305,327862,1,10,1:2:0:0:
171,349,327941,1,8,0:0:0:0:
122,370,328020,1,8,0:0:0:0:
71,355,328099,1,8,0:0:0:0:
42,310,328178,6,0,B|108:297|108:297|143:311|143:311|214:295,1,176,6|10,1:2|1:2,0:0:0:0:
438,179,328652,1,0,0:0:0:0:
262,74,328810,1,2,1:2:0:0:
383,290,328968,2,0,P|427:278|468:270,1,88,2|8,0:0|1:2,0:0:0:0:
241,166,329283,1,2,0:0:0:0:
377,15,329441,6,0,L|354:154,1,132,2|0,1:2|0:0,0:0:0:0:
361,156,329757,2,0,P|402:184|443:176,1,88,10|2,1:2|0:0,0:0:0:0:
262,74,330073,2,0,P|210:66|155:126,1,132,2|0,1:2|0:0,0:0:0:0:
160,126,330389,1,10,1:2:0:0:
29,34,330547,2,0,L|48:119,1,88,2|0,0:0|1:2,0:0:0:0:
17,328,330862,5,2,0:0:0:0:
179,217,331020,1,10,1:2:0:0:
48,244,331178,1,0,0:0:0:0:
264,338,331336,1,2,1:2:0:0:
172,221,331494,2,0,L|152:306,1,88,2|8,0:0|1:2,0:0:0:0:
48,119,331810,1,2,0:0:0:0:
274,232,331968,6,0,L|404:210,1,132,2|0,1:2|0:0,0:0:0:0:
411,217,332283,2,0,B|396:258|396:258|413:305,1,88,10|2,1:2|0:0,0:0:0:0:
486,114,332599,2,0,L|394:96,1,88,0|14,1:2|0:0,0:0:0:0:
172,221,332915,1,2,1:2:0:0:
411,299,333073,1,12,0:0:0:0:
253,61,333231,6,0,B|265:115|265:115|257:149|257:149|279:182|273:243,1,176,2|10,1:2|1:2,0:0:0:0:
130,119,333705,1,0,0:0:0:0:
90,251,333862,2,0,P|130:232|172:220,1,88,2|2,1:2|0:0,0:0:0:0:
253,61,334178,2,0,P|210:48|170:30,1,88,8|2,1:2|0:0,0:0:0:0:
273,231,334494,6,0,P|339:249|419:171,1,176,2|14,1:2|0:0,0:0:0:0:
331,354,334968,1,2,1:2:0:0:
171,220,335126,2,0,P|189:260|203:310,1,88,10|8,0:0|0:0,0:0:0:0:
204,309,335362,1,8,0:0:0:0:
206,316,335441,1,10,0:0:0:0:
130,119,335599,5,2,1:2:0:0:
130,119,335678,1,0,1:2:0:0:
130,119,335757,1,12,0:0:0:0:
63,256,335915,1,2,1:2:0:0:
250,113,336073,1,2,1:2:0:0:
35,49,336231,5,8,0:3:0:0:
306,181,336389,1,2,1:2:0:0:
63,256,336547,1,2,1:2:0:0:
198,39,336705,5,12,0:0:0:0:
116,335,336862,1,2,1:2:0:0:
250,113,337020,1,2,1:2:0:0:
339,358,337178,5,8,0:3:0:0:
171,220,337336,1,2,1:2:0:0:
463,137,337494,1,2,1:2:0:0:
276,271,337652,5,8,0:0:0:0:
370,44,337810,1,2,1:2:0:0:
504,234,337968,1,6,0:3:0:0:
244,121,338126,1,0,1:2:0:0:
483,44,338283,6,0,L|459:140,1,88,14|2,0:0|1:2,0:0:0:0:
276,271,338599,1,2,1:2:0:0:
490,368,338757,1,12,0:0:0:0:
362,170,338915,5,2,1:2:0:0:
208,379,339073,1,2,1:2:0:0:
407,269,339231,1,8,0:0:0:0:
175,172,339389,1,6,1:2:0:0:
310,365,339547,6,0,L|288:279,1,88,2|8,0:0|0:0,0:0:0:0:
227,13,339862,5,10,0:0:0:0:
96,273,340020,1,10,0:0:0:0:
303,69,340178,5,10,0:0:0:0:
411,369,340336,1,8,0:0:0:0:
175,172,340494,5,10,0:0:0:0:
485,67,340652,1,10,0:0:0:0:
96,273,340810,5,6,1:2:0:0:
256,192,340889,12,0,345862,0:0:0:0:
