osu file format v14

[General]
AudioFilename: audio.mp3
AudioLeadIn: 0
PreviewTime: 185953
Countdown: 0
SampleSet: Soft
StackLeniency: 0.7
Mode: 0
LetterboxInBreaks: 0
WidescreenStoryboard: 1

[Editor]
Bookmarks: 17814,37349,56709,67872,84790,98744,112697,126476,137639,147407,155779,170256,183860,198163,215779,235314
DistanceSpacing: 1.1
BeatDivisor: 4
GridSize: 32
TimelineZoom: 2.4

[Metadata]
Title:Well Wishing Word
TitleUnicode:Well Wishing Word
Artist:Inori Minase
ArtistUnicode:水瀬いのり
Creator:Sekai
Version:litoluna's Insane
Source:
Tags:いのりん Inorin SkyFlame Sekaii Sekai-nyan litoluna arronchu1207 japanese jpop pop j-pop ココロソマリ Kokoro Somali
BeatmapID:3450044
BeatmapSetID:1688136

[Difficulty]
HPDrainRate:5
CircleSize:3.8
OverallDifficulty:7.2
ApproachRate:9
SliderMultiplier:1.6
SliderTickRate:1

[Events]
//Background and Video events
0,0,"bg.jpg",0,0
//Break Periods
2,150397,155179
//Storyboard Layer 0 (Background)
//Storyboard Layer 1 (Fail)
//Storyboard Layer 2 (Pass)
//Storyboard Layer 3 (Foreground)
//Storyboard Layer 4 (Overlay)
//Storyboard Sound Samples

[TimingPoints]
1070,348.837209302326,4,2,1,60,1,0
8918,-100,4,2,2,60,0,0
9354,-100,4,2,1,60,0,0
11709,-100,4,2,2,60,0,0
12232,-125,4,2,1,60,0,0
14325,-100,4,2,1,60,0,0
15023,-125,4,2,1,60,0,0
17814,-100,4,2,1,60,0,0
19732,-100,4,2,20,40,0,0
20430,-100,4,2,1,60,0,0
21302,-100,4,2,20,40,0,0
21825,-100,4,2,1,60,0,0
26186,-125,4,2,1,60,0,0
28976,-100,4,2,1,60,0,0
37349,-111.111111111111,4,2,1,60,0,0
37697,-111.111111111111,4,2,2,60,0,0
39965,-111.111111111111,4,2,1,60,0,0
40488,-111.111111111111,4,2,2,60,0,0
41709,-111.111111111111,4,2,1,60,0,0
41883,-111.111111111111,4,2,2,60,0,0
42058,-111.111111111111,4,2,1,60,0,0
46070,-111.111111111111,4,2,2,60,0,0
46418,-111.111111111111,4,2,1,60,0,0
46593,-111.111111111111,4,2,2,60,0,0
46942,-111.111111111111,4,2,1,60,0,0
47465,-111.111111111111,4,2,2,60,0,0
47814,-111.111111111111,4,2,1,60,0,0
47988,-111.111111111111,4,2,2,60,0,0
48337,-111.111111111111,4,2,1,60,0,0
48860,-111.111111111111,4,2,2,60,0,0
49209,-111.111111111111,4,2,1,60,0,0
49383,-111.111111111111,4,2,2,60,0,0
49732,-111.111111111111,4,2,1,60,0,0
50256,-111.111111111111,4,2,2,60,0,0
50604,-111.111111111111,4,2,1,60,0,0
50779,-111.111111111111,4,2,2,60,0,0
51128,-111.111111111111,4,2,1,60,0,0
53918,-100,4,2,1,60,0,0
56186,-333.333333333333,4,2,1,60,0,0
56709,-90.9090909090909,4,2,3,60,0,1
57232,-90.9090909090909,4,2,1,60,0,1
57581,-90.9090909090909,4,2,20,70,0,1
58279,-90.9090909090909,4,2,1,60,0,1
58976,-90.9090909090909,4,2,20,70,0,1
59674,-90.9090909090909,4,2,1,60,0,1
63163,-90.9090909090909,4,2,20,70,0,1
63860,-90.9090909090909,4,2,1,60,0,1
64558,-90.9090909090909,4,2,20,70,0,1
65255,-90.9090909090909,4,2,1,60,0,1
67872,-90.9090909090909,4,2,4,60,0,1
68395,-90.9090909090909,4,2,1,60,0,1
68744,-90.9090909090909,4,2,20,70,0,1
69442,-90.9090909090909,4,2,1,60,0,1
70139,-90.9090909090909,4,2,20,70,0,1
70750,-90.9090909090909,4,2,20,60,0,1
70837,-90.9090909090909,4,2,1,60,0,1
74500,-90.9090909090909,4,2,2,60,0,1
74849,-90.9090909090909,4,2,1,60,0,1
75372,-90.9090909090909,4,2,2,60,0,1
75546,-90.9090909090909,4,2,1,60,0,1
75895,-90.9090909090909,4,2,2,60,0,1
76418,-90.9090909090909,4,2,1,60,0,1
79209,-125,4,2,5,60,0,0
79732,-125,4,2,1,60,0,0
81302,-125,4,2,20,40,0,0
81476,-125,4,2,1,60,0,0
82000,-90.9090909090909,4,2,1,60,0,0
84965,-100,4,2,1,60,0,0
92639,-100,4,2,2,60,0,0
93075,-100,4,2,1,60,0,0
95953,-125,4,2,1,60,0,0
98744,-100,4,2,1,60,0,0
107116,-125,4,2,1,60,0,0
112697,-100,4,2,1,60,0,0
115837,-100,4,2,2,60,0,0
116186,-100,4,2,1,60,0,0
116360,-100,4,2,2,60,0,0
116709,-100,4,2,1,60,0,0
117232,-100,4,2,2,60,0,0
117581,-100,4,2,1,60,0,0
117756,-100,4,2,2,60,0,0
118104,-100,4,2,1,60,0,0
118628,-100,4,2,3,60,0,0
119151,-100,4,2,2,60,0,0
119500,-100,4,2,1,60,0,0
120023,-100,4,2,2,60,0,0
120372,-100,4,2,1,60,0,0
120546,-100,4,2,2,60,0,0
120895,-100,4,2,1,60,0,0
126476,-90.9090909090909,4,2,3,60,0,1
127000,-90.9090909090909,4,2,1,60,0,1
127349,-90.9090909090909,4,2,20,70,0,1
128046,-90.9090909090909,4,2,1,60,0,1
128744,-90.9090909090909,4,2,20,70,0,1
129441,-90.9090909090909,4,2,1,60,0,1
132930,-90.9090909090909,4,2,20,70,0,1
133628,-90.9090909090909,4,2,1,60,0,1
134325,-90.9090909090909,4,2,20,70,0,1
135023,-90.9090909090909,4,2,1,60,0,1
137639,-90.9090909090909,4,2,4,60,0,1
138163,-90.9090909090909,4,2,1,60,0,1
138511,-90.9090909090909,4,2,20,70,0,1
139209,-90.9090909090909,4,2,1,60,0,1
139907,-90.9090909090909,4,2,20,70,0,1
140517,-90.9090909090909,4,2,20,60,0,1
140604,-90.9090909090909,4,2,1,60,0,1
143744,-90.9090909090909,4,2,2,60,0,1
143918,-90.9090909090909,4,2,1,60,0,1
144267,-90.9090909090909,4,2,2,60,0,1
144616,-90.9090909090909,4,2,1,60,0,1
145139,-90.9090909090909,4,2,2,60,0,1
145314,-90.9090909090909,4,2,1,60,0,1
145663,-90.9090909090909,4,2,2,60,0,1
146011,-90.9090909090909,4,2,1,60,0,1
147407,-90.9090909090908,4,2,1,60,0,0
155779,-100,4,2,1,60,0,0
178279,-125,4,2,1,60,0,0
181069,-100,4,2,1,60,0,0
183860,-125,4,2,5,60,0,0
184558,-125,4,2,1,60,0,0
185953,-125,4,2,6,60,0,0
186476,-125,4,2,7,60,0,0
186651,-250,4,2,7,60,0,0
187349,-250,4,2,6,60,0,0
187872,-250,4,2,7,60,0,0
188744,-250,4,2,8,60,0,0
189093,-250,4,2,9,60,0,0
189616,-250,4,2,6,60,0,0
189790,-250,4,2,7,60,0,0
189965,-250,4,2,10,60,0,0
190314,-250,4,2,7,60,0,0
190488,-250,4,2,10,60,0,0
190663,-250,4,2,11,60,0,0
191535,-250,4,2,9,60,0,0
192058,-250,4,2,6,60,0,0
192232,-250,4,2,9,60,0,0
192581,-250,4,2,6,60,0,0
192930,-250,4,2,9,60,0,0
193453,-250,4,2,6,60,0,0
193627,-250,4,2,9,60,0,0
193976,-250,4,2,6,60,0,0
194325,-125,4,2,6,60,0,0
194500,-125,4,2,7,60,0,0
194674,-125,4,2,10,60,0,0
194849,-100,4,2,6,60,0,0
195721,-100,4,2,12,60,0,0
195895,-100,4,2,9,60,0,0
196070,-100,4,2,13,60,0,0
196244,-100,4,2,14,60,0,0
196593,-100,4,2,1,60,0,0
197639,-333.333333333333,4,2,1,60,0,0
197988,-90.9090909090909,4,2,1,60,0,0
198163,-71.4285714285714,4,2,15,60,0,1
198337,-71.4285714285714,4,2,1,60,0,1
198424,-71.4285714285714,4,2,15,60,0,1
198511,-71.4285714285714,4,2,1,60,0,1
199383,-83.3333333333333,4,2,20,70,0,1
199907,-83.3333333333333,4,2,1,60,0,1
203744,-83.3333333333333,4,2,2,60,0,1
203918,-83.3333333333333,4,2,1,60,0,1
204267,-83.3333333333333,4,2,2,60,0,1
204616,-83.3333333333333,4,2,1,60,0,1
205139,-83.3333333333333,4,2,2,60,0,1
205314,-83.3333333333333,4,2,1,60,0,1
205663,-83.3333333333333,4,2,2,60,0,1
206011,-83.3333333333333,4,2,1,60,0,1
206535,-83.3333333333333,4,2,2,60,0,1
206709,-83.3333333333333,4,2,1,60,0,1
208628,-83.3333333333333,4,2,16,60,0,1
208744,-83.3333333333333,4,2,1,60,0,1
208976,-125,4,2,12,60,0,0
209500,-125,4,2,8,60,0,0
209674,-125,4,2,10,60,0,0
210023,-125,4,2,8,60,0,0
210197,-125,4,2,7,60,0,0
210546,-125,4,2,6,60,0,0
210721,-125,4,2,7,60,0,0
210895,-125,4,2,10,60,0,0
211070,-125,4,2,2,60,0,0
211244,-125,4,2,1,60,0,0
211767,-100,4,2,1,60,0,0
215256,-125,4,2,6,60,0,0
215779,-100,4,2,17,60,0,0
216128,-100,4,2,1,60,0,0
235314,-100,4,2,18,60,0,0

[Colours]
Combo1 : 255,4,4
Combo2 : 255,149,149
SliderBorder : 255,55,55
SliderTrackOverride : 255,206,183

[HitObjects]
103,174,372,6,0,P|136:146|171:144,1,80,8|8,2:3|2:2,0:0:0:0:
230,204,633,1,8,2:2:0:0:
228,213,721,2,0,L|219:257,2,40,8|8|8,2:2|2:2|2:3,0:0:0:0:
265,32,1070,1,6,1:2:0:0:
354,357,2116,5,10,2:2:0:0:
293,274,2290,1,10,2:3:0:0:
293,274,2378,1,4,2:3:0:0:
293,274,2465,2,0,L|315:180,2,80,6|2|10,1:2|2:2|2:2,0:0:0:0:
395,196,2988,2,0,P|348:124|269:129,1,160,6|0,1:2|1:1,0:0:0:0:
151,165,3511,1,8,2:2:0:0:
274,350,3686,1,8,2:2:0:0:
274,350,3773,1,8,2:2:0:0:
274,350,3860,1,0,1:1:0:0:
34,139,4558,5,10,2:2:0:0:
119,80,4732,1,2,1:2:0:0:
119,80,4820,1,0,1:1:0:0:
119,80,4907,2,0,P|139:84|161:91,1,40,10|0,2:2|0:0,0:0:0:0:
224,134,5081,2,0,P|243:128|262:124,1,40,10|4,2:3|2:3,0:0:0:0:
348,88,5256,2,0,P|388:91|426:113,2,80,6|2|10,1:2|1:2|2:2,0:0:0:0:
253,245,5779,2,0,P|346:234|358:172,1,160,6|2,1:2|1:2,0:0:0:0:
247,26,6302,5,10,2:2:0:0:
247,26,6389,1,10,2:2:0:0:
247,26,6476,1,2,1:2:0:0:
247,26,6564,1,2,0:0:0:0:
247,26,6651,2,0,L|233:109,1,80,4|0,1:2|0:0,0:0:0:0:
140,181,7000,2,0,P|122:144|94:115,1,80,10|0,2:2|0:0,0:0:0:0:
11,289,7349,2,0,P|50:282|91:276,1,80,2|0,1:2|0:0,0:0:0:0:
278,229,7697,1,10,2:2:0:0:
305,329,7872,6,0,P|266:322|225:316,1,80,2|0,2:2|1:1,0:0:0:0:
386,263,8221,2,0,P|391:302|398:341,1,80,2|8,2:2|2:2,0:0:0:0:
428,168,8570,1,2,2:2:0:0:
278,229,8744,2,0,P|207:227|167:156,1,160,2|10,1:2|2:2,0:0:0:0:
229,52,9267,5,8,2:3:0:0:
229,52,9354,1,4,2:3:0:0:
229,52,9442,2,0,P|268:43|305:30,1,80,0|0,1:1|0:0,0:0:0:0:
432,140,9790,2,0,P|394:126|355:118,1,80,10|0,2:2|0:0,0:0:0:0:
166,155,10139,2,0,P|205:176|229:203,1,80,2|0,1:2|0:0,0:0:0:0:
300,309,10488,1,10,2:2:0:0:
165,380,10663,6,0,P|150:337|151:300,1,80,2|0,2:2|1:1,0:0:0:0:
61,187,11011,2,0,P|46:230|47:267,1,80,2|8,2:2|2:2,0:0:0:0:
224,325,11360,1,2,2:2:0:0:
166,155,11535,1,2,1:2:0:0:
75,337,11709,1,8,2:2:0:0:
234,224,11883,2,0,P|296:212|360:227,1,120,10|0,2:2|0:0,0:0:0:0:
362,233,12232,6,0,B|307:275|247:233|241:234|186:192|118:242,3,256,6|2|2|2,1:2|2:2|2:2|1:2,0:0:0:0:
34,328,14500,1,8,2:2:0:0:
1,164,14674,1,8,2:2:0:0:
166,301,14849,1,8,2:2:0:0:
181,301,14936,1,8,0:0:0:0:
192,297,15023,1,14,1:2:0:0:
360,169,16244,5,2,0:0:0:0:
360,169,16331,1,2,0:0:0:0:
360,169,16418,2,0,B|328:221|336:262|336:262|338:187|400:173|383:154|449:149|429:62,1,320,2|2,2:2|1:2,0:0:0:0:
348,88,17465,6,0,B|321:97|302:78|299:78|277:62|251:66,1,96,8|0,2:2|0:0,0:0:0:0:
226,85,17814,6,0,P|191:99|150:99,1,80,4|2,1:2|2:2,0:0:0:0:
21,202,18163,2,0,P|56:188|97:188,1,80,8|2,2:2|2:2,0:0:0:0:
228,290,18511,1,2,1:2:0:0:
228,290,18686,2,0,P|234:248|245:207,1,80,2|8,2:2|2:2,0:0:0:0:
70,322,19035,2,0,P|109:329|147:340,1,80,2|0,2:2|1:1,0:0:0:0:
307,318,19383,5,2,2:2:0:0:
307,318,19471,1,0,0:0:0:0:
307,318,19558,1,10,2:2:0:0:
195,130,19732,5,2,2:2:0:0:
228,290,19907,1,2,1:2:0:0:
295,140,20081,1,2,2:2:0:0:
154,221,20256,1,10,2:2:0:0:
315,239,20430,2,0,P|353:232|393:225,1,80,2|0,2:2|1:1,0:0:0:0:
252,74,20779,5,2,0:0:0:0:
252,74,20866,1,2,0:0:0:0:
252,74,20953,1,8,2:2:0:0:
228,290,21128,5,2,2:2:0:0:
295,140,21302,1,2,1:2:0:0:
154,221,21476,1,2,2:2:0:0:
315,239,21651,1,10,2:2:0:0:
195,130,21825,2,0,P|156:123|116:116,1,80,2|0,2:2|1:1,0:0:0:0:
150,300,22174,5,2,0:0:0:0:
150,300,22261,1,2,0:0:0:0:
150,300,22349,1,8,2:2:0:0:
295,140,22523,5,2,2:2:0:0:
315,239,22697,1,2,1:2:0:0:
228,290,22872,1,2,2:2:0:0:
154,221,23046,1,10,2:2:0:0:
195,130,23221,1,2,2:2:0:0:
295,140,23395,2,0,P|334:132|373:126,1,80,0|0,1:1|0:0,0:0:0:0:
443,286,23744,6,0,P|363:294|311:221,1,160,10|2,2:2|1:2,0:0:0:0:
328,43,24267,1,0,0:0:0:0:
394,217,24442,1,10,2:2:0:0:
225,132,24616,2,0,B|180:123|156:152|152:152|120:182|74:160,1,160,6|2,1:2|1:2,0:0:0:0:
1,283,25139,2,0,P|38:266|78:258,1,80,10|0,2:2|1:1,0:0:0:0:
234,317,25488,6,0,P|241:272|254:220,1,80,12|0,2:2|1:1,0:0:0:0:
117,77,25837,2,0,P|154:125|211:125,1,120,12|0,2:2|0:0,0:0:0:0:
235,112,26186,1,6,1:2:0:0:
300,287,27581,6,0,P|317:281|339:275,8,32,2|0|2|0|2|0|2|0|0,2:2|0:0|2:2|0:0|2:2|0:0|2:2|0:0|0:0,0:0:0:0:
442,311,28453,5,2,1:2:0:0:
474,234,28628,2,0,P|424:229|382:252,1,96,12|0,2:2|0:0,0:0:0:0:
351,263,28976,6,0,P|311:257|273:248,1,80,4|2,1:2|2:2,0:0:0:0:
156,346,29325,2,0,P|196:340|234:331,1,80,8|2,2:2|2:2,0:0:0:0:
110,174,29674,1,2,1:2:0:0:
110,174,29849,2,0,P|102:219|89:262,1,80,2|8,2:2|2:2,0:0:0:0:
250,160,30197,2,0,P|239:121|232:82,1,80,2|0,2:2|1:1,0:0:0:0:
70,51,30546,6,0,B|58:75|38:88|38:88|67:80,1,80,2|10,2:2|2:2,0:0:0:0:
251,14,30895,5,2,2:2:0:0:
196,207,31070,1,2,1:2:0:0:
151,104,31244,5,2,2:2:0:0:
309,226,31418,1,10,2:2:0:0:
97,322,31593,6,0,P|45:253|55:176,1,160,6|2,1:2|1:2,0:0:0:0:
65,170,32029,1,2,1:2:0:0:
81,160,32116,2,0,P|119:171|165:179,1,80,10|2,2:2|2:2,0:0:0:0:
309,226,32465,2,0,P|269:233|231:244,1,80,2|2,1:2|1:2,0:0:0:0:
281,101,32814,1,10,2:2:0:0:
375,174,32988,6,0,P|357:258|347:339,1,160,6|2,1:2|1:2,0:0:0:0:
211,248,33511,1,10,2:2:0:0:
417,372,33686,2,0,P|424:296|431:249,1,120,2|0,1:2|0:0,0:0:0:0:
434,237,34035,1,0,1:1:0:0:
282,366,34209,1,8,2:2:0:0:
211,248,34383,5,10,2:2:0:0:
211,248,34471,1,8,2:2:0:0:
211,248,34558,2,0,P|265:227|336:217,1,120,6|0,1:2|0:0,0:0:0:0:
360,227,34907,2,0,P|371:188|379:145,1,80,10|0,2:2|1:1,0:0:0:0:
249,68,35256,2,0,P|238:107|230:150,1,80,10|0,2:2|1:1,0:0:0:0:
194,329,35604,1,10,2:2:0:0:
74,193,35779,6,0,B|123:205|152:180|156:180|186:149|225:161,1,160,6|2,1:2|1:2,0:0:0:0:
304,292,36302,1,10,2:2:0:0:
194,329,36476,5,8,2:3:0:0:
181,331,36564,1,4,2:3:0:0:
167,333,36651,2,0,P|136:324|108:308,2,53.3333333333333,6|0|8,1:2|0:0|2:3,0:0:0:0:
169,249,37000,6,0,P|159:224|158:198,2,53.3333333333333,4|4|4,2:3|2:3|2:3,0:0:0:0:
242,207,37349,5,6,1:2:0:0:
158,54,39965,5,0,1:1:0:0:
122,141,40139,1,2,1:2:0:0:
185,345,41709,5,0,1:1:0:0:
278,333,41883,1,14,2:2:0:0:
424,176,42232,5,2,1:2:0:0:
367,101,42406,1,8,2:2:0:0:
357,106,42494,1,8,2:2:0:0:
347,111,42581,1,10,2:2:0:0:
338,117,42668,1,8,2:2:0:0:
329,123,42756,2,0,L|283:148,1,35.9999989013672,8|0,2:2|0:0,0:0:0:0:
228,177,42930,5,6,1:2:0:0:
424,176,43279,1,2,1:2:0:0:
185,345,43628,1,6,1:2:0:0:
158,54,43976,1,2,1:2:0:0:
121,141,44151,5,10,2:2:0:0:
121,141,44238,1,8,2:2:0:0:
121,141,44325,1,6,1:2:0:0:
278,333,44674,1,6,1:2:0:0:
367,101,45023,1,6,1:2:0:0:
424,176,45197,1,0,1:1:0:0:
424,176,45285,1,0,1:2:0:0:
424,176,45372,1,8,2:2:0:0:
352,238,45546,6,0,B|318:250|283:225|274:223|239:202|208:214,1,143.999995605469,6|2,1:2|1:2,0:0:0:0:
95,268,46070,2,0,P|128:277|165:295,1,71.9999978027344,10|2,2:2|2:2,0:0:0:0:
238,349,46418,1,2,1:2:0:0:
198,129,46593,1,8,2:2:0:0:
198,129,46767,1,8,2:2:0:0:
138,193,46942,5,2,1:2:0:0:
258,69,47290,1,2,1:2:0:0:
258,69,47465,2,0,P|295:73|327:86,1,71.9999978027344,10|2,2:2|2:2,0:0:0:0:
418,180,47814,2,0,P|382:183|348:197,1,71.9999978027344,2|10,1:2|2:2,0:0:0:0:
271,145,48163,1,10,2:2:0:0:
470,116,48337,6,0,P|457:183|446:261,1,143.999995605469,6|2,1:2|1:2,0:0:0:0:
348,362,48860,2,0,P|344:325|338:291,1,71.9999978027344,10|2,2:2|2:2,0:0:0:0:
262,236,49209,1,2,1:2:0:0:
459,339,49383,1,8,2:2:0:0:
459,339,49558,1,8,2:2:0:0:
418,180,49732,6,0,P|355:159|274:147,1,143.999995605469,2|2,1:2|1:2,0:0:0:0:
132,227,50256,2,0,P|121:186|125:151,1,71.9999978027344,10|2,2:2|2:2,0:0:0:0:
187,79,50604,1,2,1:2:0:0:
42,250,50779,1,10,2:2:0:0:
42,250,50953,1,10,2:2:0:0:
188,290,51128,6,0,B|235:305|261:279|266:279|289:259|327:266,1,143.999995605469,6|2,1:2|1:2,0:0:0:0:
443,322,51651,1,10,2:2:0:0:
282,359,51825,1,10,2:3:0:0:
271,362,51913,1,4,2:3:0:0:
261,366,52000,1,2,1:2:0:0:
322,182,52174,1,0,1:1:0:0:
361,366,52349,1,8,2:2:0:0:
483,206,52523,6,0,P|467:133|463:58,1,143.999995605469,6|2,1:2|1:2,0:0:0:0:
319,22,53046,2,0,P|313:62|316:116,1,71.9999978027344,10|6,2:2|2:3,0:0:0:0:
320,172,53308,1,8,2:3:0:0:
322,182,53395,1,2,1:2:0:0:
219,52,53570,1,2,1:2:0:0:
394,126,53744,1,10,2:2:0:0:
248,237,53918,6,0,P|169:217|82:206,1,160,6|0,1:2|1:1,0:0:0:0:
3,247,54442,1,8,2:2:0:0:
85,120,54616,1,0,1:1:0:0:
172,317,54790,5,8,2:2:0:0:
75,209,54965,1,0,1:1:0:0:
248,147,55139,1,8,2:2:0:0:
330,359,55314,6,0,P|263:329|166:310,1,160,4|8,1:2|2:2,0:0:0:0:
31,345,55837,1,8,2:2:0:0:
85,120,56011,1,8,2:2:0:0:
248,237,56186,6,0,P|278:224|305:219,1,59.9999981689454,10|0,2:2|0:0,0:0:0:0:
329,231,56709,6,0,P|242:219|154:203,1,176.000005371094,6|0,1:2|1:1,0:0:0:0:
45,125,57232,2,0,P|86:121|143:105,1,88.000002685547,8|0,2:2|0:0,0:0:0:0:
359,146,57581,6,0,P|344:92|266:97,1,132.00000402832,2|0,1:2|0:0,0:0:0:0:
263,102,57930,1,10,2:2:0:0:
324,274,58104,1,2,2:2:0:0:
477,201,58279,2,0,P|434:208|379:221,1,88.000002685547,0|0,1:1|0:0,0:0:0:0:
305,372,58628,2,0,P|312:328|321:285,1,88.000002685547,8|0,2:2|0:0,0:0:0:0:
425,131,58976,5,2,1:2:0:0:
455,296,59151,1,2,2:2:0:0:
420,111,59325,1,10,2:2:0:0:
306,208,59500,6,0,P|345:223|398:214,1,88.000002685547,2|0,2:2|1:1,0:0:0:0:
286,134,59849,1,2,2:2:0:0:
246,278,60023,1,10,2:2:0:0:
138,203,60197,6,0,P|178:189|222:196,1,88.000002685547,2|0,2:2|1:1,0:0:0:0:
120,280,60546,1,2,2:2:0:0:
85,143,60721,1,10,2:2:0:0:
2,229,60895,6,0,P|61:243|130:211,1,132.00000402832,2|0,2:2|0:0,0:0:0:0:
138,203,61244,1,0,0:0:0:0:
102,355,61418,1,8,2:2:0:0:
154,125,61593,5,0,0:0:0:0:
194,290,61767,1,6,1:2:0:0:
169,53,61942,6,0,L|158:109,1,44.0000013427735,0|0,1:1|0:0,0:0:0:0:
138,203,62116,1,8,2:2:0:0:
360,174,62290,6,0,P|313:91|238:87,1,176.000005371094,6|0,1:2|1:1,0:0:0:0:
300,272,62814,2,0,P|342:261|405:253,1,88.000002685547,8|0,2:2|0:0,0:0:0:0:
205,348,63163,6,0,P|146:327|69:310,1,132.00000402832,2|0,1:2|0:0,0:0:0:0:
51,321,63511,1,10,2:2:0:0:
112,120,63686,1,2,2:2:0:0:
230,185,63860,2,0,P|236:232|209:278,1,88.000002685547,0|0,1:1|0:0,0:0:0:0:
13,143,64209,2,0,P|55:137|98:124,1,88.000002685547,8|0,2:2|0:0,0:0:0:0:
315,106,64558,5,2,1:2:0:0:
138,203,64732,1,2,2:2:0:0:
257,308,64907,1,10,2:2:0:0:
122,197,65081,6,0,L|30:210,1,88.000002685547,2|0,2:2|1:1,0:0:0:0:
249,182,65430,5,2,2:2:0:0:
117,298,65605,1,10,2:2:0:0:
263,173,65779,6,0,L|350:185,1,88.000002685547,2|2,2:2|1:2,0:0:0:0:
193,104,66128,5,2,2:2:0:0:
257,308,66302,1,10,2:2:0:0:
182,88,66476,6,0,L|90:101,1,88.000002685547,6|0,1:2|0:0,0:0:0:0:
302,13,66825,6,0,L|289:58,1,44.0000013427735,2|2,1:2|1:2,0:0:0:0:
249,182,67000,1,10,2:2:0:0:
401,70,67174,1,0,1:1:0:0:
182,88,67349,5,10,2:2:0:0:
167,90,67436,1,8,2:2:0:0:
152,92,67523,1,8,2:2:0:0:
138,94,67610,1,8,2:2:0:0:
123,96,67697,1,8,2:2:0:0:
109,98,67785,1,8,2:2:0:0:
83,82,67872,6,0,B|127:64|164:101|168:101|197:136|247:118,1,176.000005371094,6|0,1:2|1:1,0:0:0:0:
401,70,68395,2,0,P|357:60|316:40,1,88.000002685547,8|0,2:2|0:0,0:0:0:0:
371,256,68744,6,0,P|399:206|467:206,1,132.00000402832,2|0,1:2|0:0,0:0:0:0:
489,229,69093,1,8,2:2:0:0:
361,362,69267,1,2,2:2:0:0:
231,306,69442,2,0,P|191:291|141:281,1,88.000002685547,0|0,1:1|0:0,0:0:0:0:
107,71,69790,6,0,P|149:80|167:160,1,132.00000402832,10|0,2:2|0:0,0:0:0:0:
141,187,70139,2,0,P|93:192|39:210,1,88.000002685547,2|0,1:2|0:0,0:0:0:0:
231,306,70488,1,8,2:2:0:0:
325,152,70663,1,2,2:2:0:0:
325,152,70750,1,2,0:0:0:0:
325,152,70837,2,0,P|335:195|339:239,1,88.000002685547,0|0,1:1|0:0,0:0:0:0:
273,75,71186,6,0,B|328:41|361:72|366:68|402:93|443:61,2,176.000005371094,8|0|10,2:2|1:1|2:2,0:0:0:0:
150,135,72058,5,10,2:3:0:0:
150,135,72145,1,4,2:3:0:0:
150,135,72232,2,0,P|146:179|126:234,1,88.000002685547,6|0,1:2|0:0,0:0:0:0:
362,249,72581,2,0,P|366:205|386:150,1,88.000002685547,14|0,2:2|0:0,0:0:0:0:
199,298,72930,2,0,P|243:302|298:322,1,88.000002685547,6|0,1:2|0:0,0:0:0:0:
313,86,73279,2,0,P|269:82|214:62,1,88.000002685547,14|0,2:2|0:0,0:0:0:0:
256,192,73628,1,6,1:2:0:0:
450,27,73976,5,8,2:2:0:0:
450,27,74151,1,2,1:2:0:0:
313,86,74325,1,2,1:2:0:0:
400,99,74500,1,8,2:2:0:0:
360,11,74674,1,10,2:2:0:0:
345,179,74849,6,0,B|301:199|263:171|273:163|228:139|176:161,1,176.000005371094,2|2,1:2|1:2,0:0:0:0:
162,310,75372,1,10,2:2:0:0:
122,222,75546,1,2,1:2:0:0:
212,238,75721,1,2,1:2:0:0:
75,297,75895,1,8,2:2:0:0:
75,297,76070,1,12,2:2:0:0:
248,318,76244,5,2,2:2:0:0:
248,318,76331,1,0,0:0:0:0:
248,318,76418,2,0,P|290:304|340:293,1,88.000002685547,6|0,1:2|0:0,0:0:0:0:
507,209,76767,2,0,P|463:204|420:195,1,88.000002685547,8|2,2:2|1:2,0:0:0:0:
256,130,77116,5,10,2:2:0:0:
406,290,77290,1,0,1:1:0:0:
431,115,77465,1,10,2:2:0:0:
243,229,77639,6,0,P|150:205|66:206,1,176.000005371094,6|0,1:2|1:1,0:0:0:0:
0,103,78163,1,8,2:2:0:0:
149,51,78337,5,0,1:1:0:0:
149,51,78424,1,0,0:0:0:0:
149,51,78511,6,0,P|179:49|207:57,2,58.6666684570313,8|8|8,2:2|2:3|2:3,0:0:0:0:
167,132,78860,2,0,P|195:147|214:171,2,58.6666684570313,6|4|4,2:3|2:3|2:3,0:0:0:0:
89,105,79209,5,6,1:2:0:0:
471,235,81302,5,2,1:2:0:0:
413,319,81476,1,0,1:1:0:0:
353,170,81651,2,0,P|308:150|261:150,1,96,12|0,2:2|0:0,0:0:0:0:
248,159,82000,6,0,L|381:137,1,132.00000402832,6|8,1:2|2:2,0:0:0:0:
400,133,82349,1,8,2:2:0:0:
178,275,82523,1,10,2:2:0:0:
178,275,82610,1,8,2:2:0:0:
178,275,82697,2,0,B|139:266|119:280|115:281|87:305|47:290,1,132.00000402832,10|8,2:2|2:2,0:0:0:0:
28,258,83046,2,0,P|32:232|37:204,1,44.0000013427735,10|0,2:2|0:0,0:0:0:0:
158,31,83221,6,0,P|146:94|138:167,1,132.00000402832,6|0,1:2|0:0,0:0:0:0:
137,178,83570,1,8,2:3:0:0:
259,52,83744,1,4,2:3:0:0:
57,117,83918,1,4,2:3:0:0:
280,259,84093,2,0,B|353:231|371:302|387:279|410:346|479:320,1,220.000006713867,10|0,2:2|0:0,0:0:0:0:
494,307,84616,1,6,1:2:0:0:
272,64,84965,5,2,2:2:0:0:
272,64,85052,1,2,0:0:0:0:
272,64,85139,2,0,P|232:84|187:95,1,80,2|2,2:2|2:2,0:0:0:0:
46,43,85488,1,2,1:2:0:0:
75,157,85663,5,10,2:2:0:0:
75,157,85750,1,8,2:2:0:0:
75,157,85837,2,0,P|81:177|86:201,1,40,10|8,2:2|2:2,0:0:0:0:
79,291,86011,2,0,P|59:284|40:280,1,40,2|0,1:2|0:0,0:0:0:0:
171,233,86186,2,0,P|207:215|265:210,2,80,6|2|10,1:2|2:2|2:2,0:0:0:0:
298,367,86709,2,0,P|310:288|329:209,1,160,6|0,1:2|1:1,0:0:0:0:
408,331,87232,1,8,2:2:0:0:
194,308,87407,6,0,P|167:315|143:324,1,40,8|8,2:2|2:2,0:0:0:0:
83,350,87581,1,0,1:1:0:0:
38,146,87756,5,2,2:2:0:0:
50,148,87843,1,0,0:0:0:0:
62,150,87930,1,2,1:2:0:0:
193,45,88104,5,2,2:2:0:0:
173,49,88191,1,0,0:0:0:0:
153,52,88278,1,6,1:2:0:0:
218,225,88453,5,10,2:3:0:0:
218,225,88540,1,0,0:0:0:0:
218,225,88628,2,0,P|211:200|201:175,1,40,10|8,2:2|2:2,0:0:0:0:
299,85,88802,2,0,P|292:103|287:123,1,40,10|8,2:2|2:2,0:0:0:0:
349,216,88976,2,0,P|386:204|427:203,2,80,6|2|10,1:2|1:2|2:2,0:0:0:0:
174,301,89500,2,0,P|110:256|30:262,1,160,6|0,1:2|1:1,0:0:0:0:
5,112,90023,6,0,P|24:107|44:104,1,40,8|8,2:2|2:2,0:0:0:0:
151,28,90197,2,0,P|146:47|143:67,1,40,8|8,2:2|2:2,0:0:0:0:
120,207,90372,2,0,P|177:217|213:172,1,120,6|0,1:2|0:0,0:0:0:0:
239,148,90721,6,0,P|280:157|320:177,1,80,10|0,2:2|0:0,0:0:0:0:
456,68,91070,2,0,P|419:84|380:93,1,80,2|0,1:2|0:0,0:0:0:0:
308,260,91418,1,10,2:2:0:0:
406,330,91593,6,0,P|413:287|423:250,1,80,2|0,2:2|1:1,0:0:0:0:
297,95,91942,2,0,P|307:133|313:173,1,80,2|8,2:2|2:2,0:0:0:0:
473,177,92290,1,2,2:2:0:0:
345,22,92465,5,2,1:2:0:0:
233,187,92639,1,8,2:2:0:0:
378,118,92814,1,14,2:2:0:0:
210,68,92988,5,8,2:3:0:0:
210,68,93075,1,4,2:3:0:0:
210,68,93163,2,0,P|168:74|128:83,1,80,4|0,1:2|0:0,0:0:0:0:
7,154,93511,2,0,P|49:160|89:169,1,80,10|0,2:2|0:0,0:0:0:0:
156,339,93860,2,0,P|174:298|167:241,1,80,2|0,1:2|0:0,0:0:0:0:
55,278,94209,1,10,2:2:0:0:
248,322,94383,6,0,P|284:313|329:310,1,80,2|0,2:2|1:1,0:0:0:0:
443,238,94732,2,0,P|402:235|362:226,1,80,2|8,2:2|2:2,0:0:0:0:
239,126,95081,5,10,2:2:0:0:
239,126,95168,1,8,2:2:0:0:
239,126,95256,2,0,P|252:167|258:212,1,80,10|4,2:2|2:3,0:0:0:0:
439,120,95604,2,0,P|396:70|344:73,1,120,14|0,2:2|0:0,0:0:0:0:
324,86,95953,1,6,1:2:0:0:
107,109,97174,5,0,1:1:0:0:
107,109,97261,1,0,1:1:0:0:
107,109,97349,2,0,P|60:130|15:138,2,96,10|8|10,2:2|0:0|2:2,0:0:0:0:
215,30,98046,1,8,2:3:0:0:
222,33,98133,1,8,2:3:0:0:
229,36,98220,1,6,2:3:0:0:
236,40,98307,1,0,1:1:0:0:
251,58,98395,6,0,B|285:68|310:47|314:50|337:28|377:36,1,128,12|4,2:2|1:2,0:0:0:0:
487,176,98918,6,0,L|444:168,1,40,2|0,2:2|0:0,0:0:0:0:
372,156,99093,1,8,2:2:0:0:
282,267,99267,6,0,L|325:259,1,40,2|0,2:2|0:0,0:0:0:0:
397,247,99442,1,2,1:2:0:0:
291,139,99616,6,0,L|248:131,1,40,2|2,2:2|1:2,0:0:0:0:
176,119,99791,1,10,2:2:0:0:
86,220,99965,6,0,L|129:212,1,40,2|2,2:2|1:2,0:0:0:0:
201,200,100140,1,2,1:2:0:0:
90,97,100314,5,2,2:2:0:0:
197,284,100488,1,10,2:2:0:0:
372,156,100663,5,2,2:2:0:0:
201,200,100837,1,2,1:2:0:0:
335,310,101011,5,2,2:2:0:0:
291,139,101185,1,10,2:2:0:0:
197,284,101360,6,0,B|153:292|128:261|123:261|90:232|45:251,1,160,6|2,1:2|1:2,0:0:0:0:
17,241,101796,1,2,0:0:0:0:
17,241,101883,2,0,P|12:184|61:147,1,120,10|0,2:2|0:0,0:0:0:0:
81,155,102232,1,2,1:2:0:0:
269,248,102407,1,2,1:2:0:0:
78,343,102581,1,10,2:2:0:0:
197,284,102756,6,0,P|279:305|356:318,1,160,6|2,1:2|1:2,0:0:0:0:
455,239,103279,1,10,2:2:0:0:
313,384,103453,2,0,P|277:318|324:247,1,160,2|0,1:2|1:1,0:0:0:0:
443,336,103976,1,8,2:2:0:0:
478,130,104151,5,2,1:2:0:0:
478,130,104238,1,0,1:1:0:0:
478,130,104325,2,0,P|432:142|392:146,1,80,6|0,1:2|1:1,0:0:0:0:
238,235,104674,2,0,P|277:240|316:250,1,80,10|0,2:2|1:1,0:0:0:0:
233,75,105023,2,0,P|210:112|194:160,1,80,10|0,2:2|1:1,0:0:0:0:
260,321,105372,1,10,2:2:0:0:
395,239,105546,2,0,B|349:221|318:234|311:234|281:252|238:235,1,160,6|2,1:2|1:2,0:0:0:0:
134,90,106070,5,14,2:2:0:0:
136,82,106157,1,0,0:0:0:0:
140,75,106244,1,8,2:2:0:0:
144,68,106331,1,8,2:2:0:0:
151,63,106418,6,0,P|173:57|198:55,1,40,2|0,1:2|0:0,0:0:0:0:
317,87,106593,2,0,P|295:93|270:95,1,40,8|0,2:3|0:0,0:0:0:0:
207,5,106767,6,0,P|221:19|234:38,1,40,4|0,2:3|0:0,0:0:0:0:
262,146,106942,2,0,P|247:131|234:112,1,40,4|0,2:3|0:0,0:0:0:0:
233,75,107116,5,6,1:2:0:0:
375,33,107465,6,0,P|395:40|416:44,3,42.6666666666667,10|8|8|10,2:2|2:2|2:2|2:2,0:0:0:0:
341,114,108163,6,0,P|354:130|371:144,3,42.6666666666667,10|8|8|10,2:2|2:2|2:2|2:2,0:0:0:0:
243,148,108860,6,0,P|246:168|253:189,2,42.6666666666667,10|8|8,2:2|2:2|2:2,0:0:0:0:
228,145,109209,2,0,P|221:165|216:186,2,42.6666666666667,10|8|8,2:2|2:2|2:2,0:0:0:0:
215,137,109558,2,0,P|198:150|184:167,2,42.6666666666667,8|8|8,2:2|2:2|2:2,0:0:0:0:
234,128,109907,1,10,1:2:0:0:
66,189,110256,6,0,P|46:196|25:200,3,42.6666666666667,10|8|8|10,2:2|2:2|2:2|2:2,0:0:0:0:
100,270,110954,6,0,P|86:286|69:300,3,42.6666666666667,10|8|8|10,2:2|2:2|2:2|2:2,0:0:0:0:
198,304,111651,6,0,P|194:324|187:345,2,42.6666666666667,10|8|8,2:2|2:2|2:2,0:0:0:0:
216,292,112000,6,0,P|251:301|285:322,1,64,10|0,2:2|1:1,0:0:0:0:
370,217,112349,2,0,P|335:226|301:247,1,64,10|8,2:2|2:2,0:0:0:0:
408,321,112697,6,0,P|416:241|425:161,1,160,6|10,1:2|2:2,0:0:0:0:
277,37,113221,1,10,2:2:0:0:
277,37,113308,1,8,2:2:0:0:
277,37,113395,2,0,B|231:21|197:48|192:48|167:77|121:67,1,160,6|10,1:2|2:2,0:0:0:0:
42,285,113918,5,0,1:1:0:0:
42,285,114006,1,0,1:1:0:0:
42,285,114093,2,0,P|83:269|122:263,1,80,14|8,2:2|2:2,0:0:0:0:
323,139,114442,2,0,P|283:132|246:117,1,80,6|10,1:2|2:2,0:0:0:0:
163,330,114790,5,6,1:2:0:0:
125,182,114965,1,8,2:3:0:0:
273,224,115139,1,8,2:2:0:0:
188,245,115314,6,0,B|138:252|118:226|113:226|88:193|39:195,1,160,6|2,1:2|1:2,0:0:0:0:
76,360,115837,2,0,P|116:342|156:332,1,80,10|2,2:2|2:2,0:0:0:0:
292,364,116186,1,2,1:2:0:0:
345,136,116360,1,8,2:2:0:0:
345,136,116535,1,8,2:2:0:0:
438,217,116709,6,0,P|412:272|401:332,1,120,2|0,1:2|0:0,0:0:0:0:
403,345,117058,1,2,1:2:0:0:
258,261,117232,2,0,P|300:243|351:238,1,80,10|2,2:2|2:2,0:0:0:0:
493,293,117581,1,2,1:2:0:0:
439,91,117756,1,10,2:2:0:0:
439,91,117930,1,10,2:2:0:0:
345,136,118104,6,0,P|258:124|185:101,1,160,6|2,1:2|1:2,0:0:0:0:
70,212,118628,2,0,P|110:202|150:187,1,80,10|2,2:2|2:2,0:0:0:0:
277,82,118976,1,2,1:2:0:0:
238,287,119151,1,8,2:2:0:0:
238,287,119325,1,8,2:2:0:0:
318,231,119500,6,0,P|357:234|401:253,2,80,2|0|2,1:2|0:0|1:2,0:0:0:0:
160,299,120023,2,0,P|200:300|238:287,1,80,10|2,2:2|2:2,0:0:0:0:
307,115,120372,1,2,1:2:0:0:
328,337,120546,1,10,2:2:0:0:
328,337,120721,1,10,2:2:0:0:
468,195,120895,6,0,B|422:180|395:212|390:212|360:244|315:230,1,160,6|2,1:2|1:2,0:0:0:0:
180,85,121418,2,0,P|215:66|266:49,1,80,10|10,1:2|2:3,0:0:0:0:
327,39,121680,1,4,2:3:0:0:
340,39,121767,1,10,1:3:0:0:
230,187,121942,1,8,2:3:0:0:
140,10,122116,1,8,2:2:0:0:
78,213,122290,6,0,P|83:268|151:303,1,120,6|0,1:2|0:0,0:0:0:0:
167,315,122639,2,0,P|205:300|244:293,1,80,2|10,1:2|2:2,0:0:0:0:
433,320,122988,1,2,1:2:0:0:
447,326,123075,1,8,2:3:0:0:
459,330,123163,1,2,1:2:0:0:
338,214,123337,1,2,1:2:0:0:
233,373,123511,1,10,2:2:0:0:
78,213,123686,6,0,P|115:143|202:127,1,160,6|0,1:2|1:1,0:0:0:0:
343,225,124209,1,8,2:2:0:0:
293,40,124383,1,0,1:1:0:0:
181,231,124558,5,8,2:2:0:0:
330,124,124732,1,0,1:1:0:0:
159,37,124906,1,8,2:2:0:0:
28,217,125081,6,0,P|98:217|106:138,1,160,4|8,1:2|2:3,0:0:0:0:
82,112,125517,1,8,2:3:0:0:
67,117,125604,1,4,2:3:0:0:
52,123,125691,1,0,0:0:0:0:
37,129,125778,1,0,1:1:0:0:
22,134,125865,1,0,1:1:0:0:
7,140,125953,5,14,2:2:0:0:
181,231,126215,5,8,0:0:0:0:
298,108,126476,6,0,B|351:103|377:142|383:142|407:177|460:171,1,176.000005371094,6|0,1:2|1:1,0:0:0:0:
325,27,127000,2,0,P|278:26|233:49,1,88.000002685547,8|0,2:2|0:0,0:0:0:0:
81,207,127349,6,0,P|143:214|168:151,1,132.00000402832,2|0,1:2|0:0,0:0:0:0:
160,140,127697,1,10,2:2:0:0:
338,206,127872,1,2,2:2:0:0:
267,345,128046,2,0,P|240:311|234:268,1,88.000002685547,0|0,1:1|0:0,0:0:0:0:
315,87,128395,2,0,P|352:64|399:61,1,88.000002685547,8|0,2:2|0:0,0:0:0:0:
339,206,128744,5,2,1:2:0:0:
195,76,128918,1,2,2:2:0:0:
234,268,129093,1,10,2:2:0:0:
315,87,129267,2,0,P|314:44|296:3,1,88.000002685547,2|0,2:2|1:1,0:0:0:0:
145,185,129616,5,2,2:2:0:0:
339,206,129790,1,10,2:2:0:0:
195,76,129965,2,0,P|153:63|109:68,1,88.000002685547,2|0,2:2|1:1,0:0:0:0:
234,268,130314,5,2,2:2:0:0:
315,87,130488,1,10,2:2:0:0:
145,185,130663,2,0,P|120:220|110:264,1,88.000002685547,2|0,2:2|1:1,0:0:0:0:
355,208,131011,5,0,0:0:0:0:
182,52,131185,1,8,2:2:0:0:
229,283,131360,1,0,0:0:0:0:
326,66,131535,1,2,1:2:0:0:
122,183,131709,1,0,1:1:0:0:
122,183,131796,1,0,0:0:0:0:
122,183,131883,1,8,2:2:0:0:
326,299,132058,6,0,B|382:319|414:286|420:286|443:253|494:261,1,176.000005371094,6|0,1:2|1:1,0:0:0:0:
378,147,132581,2,0,P|329:153|291:178,1,88.000002685547,8|0,2:2|0:0,0:0:0:0:
92,107,132930,6,0,P|160:113|203:71,1,132.00000402832,2|0,1:2|0:0,0:0:0:0:
203,44,133279,1,10,2:2:0:0:
271,193,133453,1,2,2:2:0:0:
155,322,133628,2,0,P|132:282|128:232,1,88.000002685547,0|0,1:1|0:0,0:0:0:0:
328,265,133976,2,0,L|311:367,1,88.000002685547,8|0,2:2|0:0,0:0:0:0:
181,136,134325,5,2,1:2:0:0:
331,248,134500,1,2,2:2:0:0:
312,117,134674,1,10,2:2:0:0:
200,267,134849,2,0,P|199:314|242:365,1,88.000002685547,2|0,2:2|1:1,0:0:0:0:
389,172,135197,5,2,2:2:0:0:
122,211,135372,1,10,2:2:0:0:
236,58,135546,1,2,2:2:0:0:
275,325,135721,2,0,P|319:342|377:335,1,88.000002685547,2|2,1:2|2:2,0:0:0:0:
312,117,136070,5,10,2:2:0:0:
207,228,136244,2,0,P|164:226|123:211,1,88.000002685547,6|0,1:2|0:0,0:0:0:0:
157,31,136593,5,8,2:3:0:0:
172,28,136680,1,8,2:3:0:0:
187,25,136767,1,8,2:2:0:0:
202,22,136854,1,8,2:2:0:0:
234,37,136942,2,0,L|278:46,2,44.0000013427735,8|8|2,2:2|2:2|1:2,0:0:0:0:
64,160,137290,5,8,2:2:0:0:
45,187,137377,1,8,2:2:0:0:
41,219,137464,1,8,2:2:0:0:
51,250,137551,1,8,2:2:0:0:
74,274,137639,2,0,P|161:252|249:244,1,176.000005371094,6|0,1:2|1:1,0:0:0:0:
434,346,138163,2,0,P|392:326|351:316,1,88.000002685547,8|0,2:2|0:0,0:0:0:0:
267,133,138511,6,0,P|306:85|371:94,1,132.00000402832,2|0,1:2|0:0,0:0:0:0:
390,111,138860,1,10,2:2:0:0:
261,248,139035,1,2,2:2:0:0:
434,346,139209,2,0,P|443:300|419:255,1,88.000002685547,0|0,1:1|0:0,0:0:0:0:
252,357,139558,6,0,B|217:361|198:336|193:336|170:310|130:316,1,132.00000402832,10|0,2:2|0:0,0:0:0:0:
105,330,139907,2,0,P|59:289|74:226,1,132.00000402832,2|0,1:2|0:0,0:0:0:0:
96,220,140256,1,10,2:2:0:0:
225,85,140430,2,0,P|198:77|176:69,1,44.0000013427735,2|0,2:2|0:0,0:0:0:0:
150,65,140604,2,0,P|159:109|168:159,1,88.000002685547,0|0,1:1|0:0,0:0:0:0:
332,284,140953,6,0,P|420:260|507:250,2,176.000005371094,8|0|10,2:2|1:1|2:2,0:0:0:0:
293,302,141738,1,8,2:3:0:0:
271,296,141825,1,10,2:3:0:0:
250,290,141912,1,8,2:3:0:0:
229,284,142000,6,0,L|140:299,1,88.000002685547,6|0,1:2|0:0,0:0:0:0:
295,176,142349,2,0,L|384:191,1,88.000002685547,14|0,2:2|0:0,0:0:0:0:
166,157,142697,6,0,L|151:68,1,88.000002685547,6|0,1:2|0:0,0:0:0:0:
321,9,143046,2,0,L|306:98,1,88.000002685547,10|0,2:2|0:0,0:0:0:0:
256,352,143395,5,6,1:2:0:0:
166,157,143744,5,8,2:2:0:0:
212,271,143918,1,2,1:2:0:0:
261,181,144093,2,0,P|262:135|241:93,1,88.000002685547,2|8,1:2|2:2,0:0:0:0:
122,237,144442,1,10,2:2:0:0:
305,259,144616,6,0,P|395:234|484:222,1,176.000005371094,2|2,1:2|1:2,0:0:0:0:
407,335,145139,1,10,2:2:0:0:
340,167,145314,1,2,1:2:0:0:
280,333,145488,1,2,1:2:0:0:
201,108,145663,1,8,2:2:0:0:
201,108,145837,2,0,P|186:154|178:199,1,88.000002685547,12|2,2:2|1:2,0:0:0:0:
6,344,146186,6,0,P|38:279|135:279,1,176.000005371094,6|0,1:2|0:0,0:0:0:0:
196,363,146709,1,2,1:2:0:0:
351,225,146883,5,10,2:2:0:0:
271,188,147058,1,8,2:3:0:0:
186,209,147232,1,6,2:3:0:0:
280,81,147407,1,6,1:2:0:0:
256,192,147494,12,6,150197,1:2:0:0:
67,174,155779,6,0,P|140:163|224:146,1,160,6|0,1:2|1:1,0:0:0:0:
360,97,156302,1,8,2:2:0:0:
438,308,156476,6,0,P|385:276|328:277,1,120,6|0,1:2|0:0,0:0:0:0:
304,285,156825,1,0,1:1:0:0:
149,343,157000,5,8,2:2:0:0:
149,343,157087,1,0,0:0:0:0:
149,343,157174,2,0,P|160:256|167:183,1,160,6|0,1:2|1:1,0:0:0:0:
307,20,157697,5,8,2:2:0:0:
307,20,157785,1,0,0:0:0:0:
307,20,157872,2,0,P|311:82|386:80,1,120,6|0,1:2|0:0,0:0:0:0:
399,84,158221,6,0,L|433:93,12,20,2|0|0|0|8|0|0|0|0|0|0|0|0,1:2|0:0|0:0|2:2|0:0|0:0|0:0|0:0|0:0|0:0|0:0|0:0|0:0,0:0:0:0:
113,120,158918,5,0,1:1:0:0:
113,120,159006,1,0,1:1:0:0:
113,120,159093,2,0,P|193:99|272:86,1,160,14|0,2:2|1:1,0:0:0:0:
435,182,159616,5,10,2:2:0:0:
437,197,159703,1,8,2:2:0:0:
440,213,159790,1,10,2:2:0:0:
443,229,159877,1,8,2:2:0:0:
446,245,159964,1,10,2:2:0:0:
448,260,160052,1,8,2:2:0:0:
434,284,160139,6,0,P|353:285|334:220,1,160,6|8,1:2|2:2,0:0:0:0:
204,316,160663,1,2,1:2:0:0:
161,212,160837,2,0,P|172:165|178:116,2,80,10|0|10,2:2|1:1|2:2,0:0:0:0:
100,73,161360,5,2,1:2:0:0:
100,73,161447,1,0,1:1:0:0:
100,73,161535,2,0,B|152:59|172:89|178:89|201:123|249:113,1,160,10|8,2:2|2:2,0:0:0:0:
373,74,162058,1,2,1:2:0:0:
424,259,162232,1,10,2:2:0:0:
449,170,162407,5,2,1:2:0:0:
398,355,162581,1,10,2:2:0:0:
291,236,162756,5,2,1:2:0:0:
291,236,162843,1,0,1:1:0:0:
291,236,162930,2,0,P|247:249|194:257,1,80,10|0,2:2|1:1,0:0:0:0:
59,317,163279,2,0,P|98:324|136:335,1,80,8|2,2:2|1:2,0:0:0:0:
91,134,163628,6,0,P|105:173|119:219,1,80,10|0,2:2|1:1,0:0:0:0:
154,71,163976,1,12,2:2:0:0:
24,202,164151,1,2,1:2:0:0:
237,133,164325,6,0,P|322:146|403:162,1,160,14|8,2:2|2:2,0:0:0:0:
496,68,164849,2,0,P|454:72|416:79,1,80,2|10,1:2|2:2,0:0:0:0:
310,187,165197,1,2,1:2:0:0:
260,43,165372,1,10,2:2:0:0:
168,229,165546,5,2,1:2:0:0:
168,229,165633,1,0,1:1:0:0:
168,229,165721,2,0,P|115:174|124:126,1,120,10|0,2:2|0:0,0:0:0:0:
123,102,166070,2,0,P|81:113|33:121,1,80,10|0,2:2|1:1,0:0:0:0:
209,153,166418,2,0,P|248:160|287:169,1,80,10|0,2:2|1:1,0:0:0:0:
435,53,166767,6,0,P|391:58|345:71,1,80,10|8,2:2|2:2,0:0:0:0:
342,75,167029,1,8,2:2:0:0:
329,86,167116,2,0,B|287:99|256:68|251:68|225:42|179:48,1,160,6|8,1:2|2:2,0:0:0:0:
19,207,167639,6,0,P|102:217|129:155,1,160,6|0,1:2|1:1,0:0:0:0:
64,75,168163,1,8,2:2:0:0:
161,275,168337,6,0,L|320:253,1,160,4|0,1:2|1:1,0:0:0:0:
465,320,168860,2,0,L|385:309,1,80,12|2,2:2|1:2,0:0:0:0:
196,180,169209,5,2,1:2:0:0:
301,327,169383,1,8,2:2:0:0:
283,187,169558,1,8,2:2:0:0:
218,354,169732,1,8,2:2:0:0:
161,275,170081,5,0,1:1:0:0:
161,275,170168,1,0,1:1:0:0:
161,275,170256,2,0,L|2:256,1,160,12|8,2:2|2:2,0:0:0:0:
196,180,170779,5,2,1:2:0:0:
301,327,170953,2,0,P|339:318|384:315,1,80,10|2,2:2|1:2,0:0:0:0:
445,160,171302,2,0,B|397:147|371:173|365:173|339:209|295:199,1,160,10|8,2:2|2:2,0:0:0:0:
155,102,171825,1,2,1:2:0:0:
177,254,172000,6,0,P|197:209|195:176,1,80,10|0,2:2|1:1,0:0:0:0:
35,103,172349,2,0,P|55:148|53:181,1,80,8|2,2:2|1:2,0:0:0:0:
45,188,172610,1,0,1:1:0:0:
36,196,172697,2,0,L|212:177,1,160,14|8,2:2|2:2,0:0:0:0:
383,225,173221,5,2,1:2:0:0:
266,276,173395,1,10,2:2:0:0:
281,150,173570,1,2,1:2:0:0:
371,310,173744,5,10,2:2:0:0:
284,131,173918,1,2,1:2:0:0:
158,287,174093,6,0,P|117:279|95:249,1,80,10|0,2:2|1:1,0:0:0:0:
90,234,174354,1,2,2:2:0:0:
91,217,174442,2,0,P|128:211|169:201,1,80,8|2,2:2|1:2,0:0:0:0:
320,20,174790,5,10,2:3:0:0:
290,7,174878,1,8,2:3:0:0:
258,8,174965,1,4,2:3:0:0:
230,23,175052,1,4,2:3:0:0:
217,50,175139,2,0,P|221:89|229:130,1,80,14|2,2:2|2:2,0:0:0:0:
403,210,175488,6,0,P|372:176|341:159,1,80,14|0,2:2|1:1,0:0:0:0:
166,167,175837,1,0,1:1:0:0:
284,337,176011,6,0,P|307:297|313:262,1,80,14|0,2:2|1:1,0:0:0:0:
251,98,176360,1,0,1:1:0:0:
126,263,176535,6,0,P|171:273|206:268,1,80,14|0,2:2|1:1,0:0:0:0:
342,159,176883,1,0,1:1:0:0:
147,91,177058,6,0,P|152:136|167:168,1,80,14|0,2:2|1:1,0:0:0:0:
312,264,177407,1,0,1:1:0:0:
318,57,177581,6,0,P|276:76|250:100,1,80,14|0,2:2|1:1,0:0:0:0:
284,337,177930,2,0,P|307:297|313:262,1,80,10|0,2:2|1:1,0:0:0:0:
147,91,178279,5,14,2:2:0:0:
235,101,180546,5,10,2:3:0:0:
187,254,180721,1,4,2:3:0:0:
344,220,180895,1,0,1:1:0:0:
256,192,181070,6,0,P|193:193|134:211,1,120,6|8,1:2|2:3,0:0:0:0:
114,222,181418,1,6,2:3:0:0:
273,288,181593,1,8,2:3:0:0:
374,116,181767,1,6,2:3:0:0:
393,138,181854,1,4,2:3:0:0:
404,166,181941,1,8,2:3:0:0:
403,196,182028,1,8,2:3:0:0:
393,224,182115,1,10,3:3:0:0:
239,57,182290,5,0,1:1:0:0:
239,57,182378,1,0,1:1:0:0:
239,57,182465,2,0,P|282:49|321:44,1,80,2|0,1:2|1:1,0:0:0:0:
154,130,182814,1,10,2:2:0:0:
135,108,182901,1,8,2:2:0:0:
124,80,182988,1,2,1:2:0:0:
125,50,183075,1,8,0:0:0:0:
135,22,183162,1,8,2:2:0:0:
315,216,183337,5,10,2:3:0:0:
313,229,183424,1,8,2:3:0:0:
311,243,183511,1,4,2:3:0:0:
310,258,183598,1,4,2:3:0:0:
308,272,183685,1,0,1:1:0:0:
306,288,183773,1,0,1:1:0:0:
290,303,183860,70,0,B|312:246|351:222|424:207|424:207|489:190|491:97|402:66|353:124|353:124|358:50|269:12|200:101|273:173|273:173|205:121|153:149|148:149|93:204|36:156|18:117|26:80|53:53|95:40|122:72,1,1024,4|4,1:2|0:0,0:0:0:0:
205,179,187349,6,0,P|218:243|182:295,1,128,2|0,2:2|0:0,0:0:0:0:
47,117,188744,6,0,P|63:113|82:110,1,32,2|2,2:2|2:2,0:0:0:0:
149,74,189093,2,0,P|166:78|184:81,1,32,2|2,2:2|2:2,0:0:0:0:
249,117,189442,2,0,P|312:103|376:103,1,128
422,289,190837,6,0,P|437:259|433:221,1,64
329,185,191535,2,0,B|296:179|273:202|266:202|246:226|207:220,1,128,2|0,2:2|0:0,0:0:0:0:
112,137,192581,1,0,0:0:0:0:
238,18,192930,6,0,P|228:81|217:144,1,128,2|0,2:2|0:0,0:0:0:0:
124,250,193976,1,0,0:0:0:0:
27,147,194325,5,6,1:2:0:0:
210,222,194500,1,10,2:2:0:0:
210,222,194587,1,8,2:2:0:0:
210,222,194674,2,0,L|251:217,1,32,10|0,2:2|0:0,0:0:0:0:
372,99,194849,2,0,P|326:57|272:79,1,120,6|0,1:2|0:0,0:0:0:0:
262,89,195197,1,2,1:2:0:0:
420,225,195372,1,2,1:2:0:0:
311,253,195546,5,10,2:2:0:0:
450,131,195721,1,10,2:2:0:0:
487,311,195895,1,6,2:2:0:0:
305,172,196070,5,2,1:2:0:0:
205,335,196244,2,0,P|137:318|88:323,1,120,14|0,2:2|0:0,0:0:0:0:
47,305,196593,2,0,P|42:281|38:260,1,40,0|0,1:1|0:0,0:0:0:0:
130,200,196767,2,0,P|126:219|122:239,1,40,10|0,1:2|1:2,0:0:0:0:
51,154,196942,2,0,P|46:130|42:109,1,40,2|0,1:2|0:0,0:0:0:0:
117,47,197116,1,2,1:2:0:0:
136,49,197203,1,8,2:2:0:0:
156,52,197290,1,10,2:2:0:0:
176,55,197377,1,8,2:2:0:0:
196,58,197464,1,10,2:2:0:0:
215,61,197552,1,0,0:0:0:0:
247,91,197639,6,0,L|298:83,1,47.9999985351563,2|0,1:2|1:1,0:0:0:0:
372,60,198075,5,0,1:1:0:0:
378,49,198163,2,0,P|441:81|377:120,1,167.999994873047,14|0,2:2|0:0,0:0:0:0:
360,139,198511,2,0,P|362:163|370:194,1,55.9999982910157,14|0,2:2|0:0,0:0:0:0:
315,315,198686,1,8,2:2:0:0:
315,315,198773,1,8,2:2:0:0:
315,315,198860,2,0,P|304:286|298:260,1,55.9999982910157,8|0,2:2|0:0,0:0:0:0:
205,255,199035,2,0,P|278:285|249:193,1,223.999993164063,6|2,1:2|1:2,0:0:0:0:
63,112,199558,6,0,P|81:153|89:205,1,95.9999970703126,10|2,2:2|0:0,0:0:0:0:
6,314,199907,2,0,B|49:303|76:327|81:327|101:357|144:348,1,143.999995605469,2|0,1:2|0:0,0:0:0:0:
160,343,200256,1,8,2:2:0:0:
323,263,200430,2,0,L|273:271,1,47.9999985351563,2|0,2:2|0:0,0:0:0:0:
246,275,200604,2,0,L|258:177,1,95.9999970703126,0|0,1:1|0:0,0:0:0:0:
400,36,200953,6,0,P|476:92|461:185,2,191.999994140625,8|0|10,2:2|1:1|2:2,0:0:0:0:
377,44,201738,1,8,2:2:0:0:
355,53,201825,1,10,2:2:0:0:
332,62,201913,1,8,2:2:0:0:
307,74,202000,6,0,L|211:53,1,95.9999970703126,6|0,1:2|0:0,0:0:0:0:
345,213,202349,2,0,L|441:192,1,95.9999970703126,6|0,1:2|0:0,0:0:0:0:
208,207,202697,6,0,L|112:186,1,95.9999970703126,6|0,1:2|0:0,0:0:0:0:
246,346,203046,2,0,L|342:325,1,95.9999970703126,6|0,1:2|0:0,0:0:0:0:
275,144,203395,1,6,1:2:0:0:
450,298,203744,5,8,2:2:0:0:
490,216,203918,1,2,1:2:0:0:
374,245,204093,2,0,P|327:235|281:224,1,95.9999970703126,2|8,1:2|2:2,0:0:0:0:
129,285,204442,1,10,2:2:0:0:
25,192,204616,6,0,P|96:161|163:154,1,143.999995605469,6|0,1:2|0:0,0:0:0:0:
186,159,204965,1,2,1:2:0:0:
310,26,205139,2,0,P|320:80|295:127,1,95.9999970703126,10|2,2:2|1:2,0:0:0:0:
167,71,205488,1,2,1:2:0:0:
215,287,205663,1,8,2:2:0:0:
215,287,205837,1,8,2:2:0:0:
302,198,206011,5,2,1:2:0:0:
302,198,206099,1,0,1:1:0:0:
302,198,206186,2,0,P|350:202|395:216,1,95.9999970703126,6|0,1:2|0:0,0:0:0:0:
490,83,206535,2,0,P|442:87|397:101,1,95.9999970703126,8|2,2:2|1:2,0:0:0:0:
333,281,206883,5,10,2:2:0:0:
269,120,207058,1,0,1:1:0:0:
455,166,207232,1,10,2:2:0:0:
250,269,207407,6,0,B|197:289|154:253|162:253|122:221|68:236,1,191.999994140625,6|2,1:2|1:2,0:0:0:0:
14,61,207930,2,0,P|70:57|137:95,1,127.99999609375,10|8,2:2|2:3,0:0:0:0:
159,117,208279,6,0,P|191:109|220:91,2,63.9999980468751,8|8|4,2:3|2:3|2:3,0:0:0:0:
207,186,208628,2,0,P|240:191|267:204,2,63.9999980468751,6|0|0,2:2|1:1|1:1,0:0:0:0:
129,193,208976,6,0,P|80:220|88:286,1,128,6|0,2:2|0:0,0:0:0:0:
162,334,209500,1,2,2:2:0:0:
234,281,209674,2,0,B|273:277|294:297|299:298|318:320|354:316,1,128,2|2,2:2|2:2,0:0:0:0:
430,377,210197,2,0,P|447:350|450:316,1,64,2|0,2:2|0:0,0:0:0:0:
461,217,210546,5,2,2:2:0:0:
392,251,210721,1,2,2:2:0:0:
358,182,210895,1,2,2:2:0:0:
427,148,211070,1,10,2:3:0:0:
312,246,211244,5,0,1:1:0:0:
312,246,211331,1,0,1:1:0:0:
312,246,211418,2,0,P|262:236|216:231,1,96,12|0,2:2|0:0,0:0:0:0:
178,210,211767,6,0,P|137:216|96:218,1,80,10|8,2:2|2:2,0:0:0:0:
24,188,212029,1,8,2:2:0:0:
13,189,212116,1,0,1:1:0:0:
135,47,212290,5,10,2:2:0:0:
135,47,212378,1,8,2:2:0:0:
135,47,212465,2,0,P|174:53|211:69,1,80,2|8,1:2|2:2,0:0:0:0:
276,115,212726,1,8,2:2:0:0:
287,120,212814,2,0,P|307:118|326:114,1,40,10|0,2:2|0:0,0:0:0:0:
436,136,212988,2,0,P|363:128|324:197,1,160,6|0,1:2|1:1,0:0:0:0:
511,287,213511,5,8,2:2:0:0:
396,195,213686,1,8,2:2:0:0:
227,315,213860,5,0,1:1:0:0:
479,202,214122,5,8,1:2:0:0:
266,27,214383,5,12,1:2:0:0:
266,27,215779,6,0,P|251:99|240:187,1,160,6|2,1:2|2:2,0:0:0:0:
283,348,216302,1,10,2:2:0:0:
343,235,216476,1,2,2:2:0:0:
193,311,216651,6,0,P|153:298|113:293,1,80,2|2,1:2|2:2,0:0:0:0:
38,171,217000,2,0,P|78:158|118:153,1,80,10|2,2:2|2:2,0:0:0:0:
240,184,217349,1,0,1:1:0:0:
286,26,217523,5,2,2:2:0:0:
345,157,217697,1,10,2:2:0:0:
192,108,217872,1,2,2:2:0:0:
383,73,218046,6,0,P|383:112|363:147,1,80,2|2,1:2|2:2,0:0:0:0:
450,283,218395,2,0,P|409:282|368:262,1,80,10|2,2:2|2:2,0:0:0:0:
277,109,218744,1,0,1:1:0:0:
156,213,218918,6,0,P|116:227|65:227,2,80,2|10|2,2:2|2:2|2:2,0:0:0:0:
282,323,219442,2,0,P|295:281|288:242,1,80,2|2,1:2|2:2,0:0:0:0:
212,62,219790,2,0,P|199:104|206:143,1,80,10|2,2:2|2:2,0:0:0:0:
417,180,220139,5,2,1:2:0:0:
309,102,220314,1,10,2:2:0:0:
293,106,220401,1,8,2:2:0:0:
277,109,220488,1,10,2:2:0:0:
113,148,220663,1,6,1:2:0:0:
225,288,220837,5,10,2:2:0:0:
233,277,220924,1,8,2:2:0:0:
241,267,221011,1,8,2:2:0:0:
248,258,221099,1,8,2:2:0:0:
258,247,221186,2,0,L|283:217,1,40,8|0,2:2|0:0,0:0:0:0:
368,333,221360,6,0,B|324:344|304:314|297:314|261:279|219:299,1,160,6|2,1:2|2:2,0:0:0:0:
49,227,221883,1,14,2:2:0:0:
7,358,222058,1,2,2:2:0:0:
57,207,222232,6,0,P|96:193|137:192,1,80,2|2,1:2|2:2,0:0:0:0:
167,34,222581,2,0,P|197:63|213:99,1,80,10|0,2:2|0:0,0:0:0:0:
137,275,222930,1,0,1:1:0:0:
90,114,223104,5,2,2:2:0:0:
300,168,223279,1,10,2:2:0:0:
236,333,223453,5,2,2:2:0:0:
236,333,223540,1,0,0:0:0:0:
236,333,223628,2,0,P|218:292|213:254,2,80,2|2|10,1:2|2:2|2:2,0:0:0:0:
403,281,224151,2,0,P|361:276|316:258,1,80,2|0,2:2|1:1,0:0:0:0:
417,151,224500,2,0,P|459:141|505:140,1,80,2|8,2:2|2:2,0:0:0:0:
336,19,224849,2,0,P|318:59|313:100,1,80,2|2,2:2|1:2,0:0:0:0:
320,254,225197,5,2,2:2:0:0:
391,78,225372,1,10,2:2:0:0:
204,120,225546,1,10,2:3:0:0:
190,116,225633,1,0,0:0:0:0:
176,113,225721,2,0,L|136:127,1,40,6|0,1:2|0:0,0:0:0:0:
54,211,225895,5,10,2:3:0:0:
59,223,225982,1,0,0:0:0:0:
70,234,226070,1,10,2:2:0:0:
82,239,226157,1,0,0:0:0:0:
94,239,226244,2,0,B|182:209|182:209|214:216|245:243,1,160,6|8,1:2|2:2,0:0:0:0:
361,358,226767,5,8,2:2:0:0:
342,355,226854,1,8,2:2:0:0:
323,340,226942,1,8,2:2:0:0:
314,313,227029,1,8,2:2:0:0:
326,276,227116,2,0,P|375:276|434:313,1,120,4|0,1:2|0:0,0:0:0:0:
468,326,227465,2,0,P|483:285|479:248,1,80,14|0,2:2|0:0,0:0:0:0:
348,109,227814,2,0,P|344:148|359:185,1,80,2|0,1:2|0:0,0:0:0:0:
444,65,228163,1,10,2:2:0:0:
278,39,228337,6,0,P|240:48|199:54,1,80,2|0,2:2|1:1,0:0:0:0:
63,139,228686,2,0,P|102:144|141:153,1,80,2|8,2:2|2:2,0:0:0:0:
257,188,229035,1,2,2:2:0:0:
123,317,229209,6,0,P|111:272|110:230,1,80,2|12,1:2|2:2,0:0:0:0:
275,352,229558,1,10,2:2:0:0:
420,240,229732,5,8,2:2:0:0:
420,240,229820,1,8,2:2:0:0:
420,240,229907,2,0,P|363:243|304:267,1,120,4|0,1:2|0:0,0:0:0:0:
269,273,230256,2,0,P|228:264|181:259,1,80,10|0,2:2|0:0,0:0:0:0:
53,171,230604,2,0,P|95:159|133:153,1,80,2|0,1:2|0:0,0:0:0:0:
196,335,230953,1,10,2:2:0:0:
277,193,231128,6,0,P|275:154|267:114,1,80,10|0,2:2|1:1,0:0:0:0:
167,48,231476,1,14,2:2:0:0:
356,87,231651,1,0,1:1:0:0:
229,261,231825,1,2,2:2:0:0:
229,261,231913,1,8,2:2:0:0:
229,261,232000,1,10,2:2:0:0:
268,33,232174,5,8,2:3:0:0:
122,214,232349,1,10,2:2:0:0:
125,243,232436,1,8,2:2:0:0:
129,273,232523,1,8,2:2:0:0:
132,303,232610,1,8,2:2:0:0:
136,333,232697,1,6,1:2:0:0:
139,325,234791,5,10,1:2:0:0:
215,192,234965,1,8,1:2:0:0:
243,296,235140,1,8,1:2:0:0:
88,205,235314,1,14,1:2:0:0:
