osu file format v14

[General]
AudioFilename: audio.mp3
AudioLeadIn: 0
PreviewTime: 185953
Countdown: 0
SampleSet: Soft
StackLeniency: 0.7
Mode: 0
LetterboxInBreaks: 0
WidescreenStoryboard: 0

[Editor]
Bookmarks: 895,3337,17814,37349,56709,67872,84790,98744,112697,126476,137639,147407,155779,170256,183860,198163,204267,205663,215779,235314
DistanceSpacing: 1.1
BeatDivisor: 4
GridSize: 32
TimelineZoom: 2.5

[Metadata]
Title:Well Wishing Word
TitleUnicode:Well Wishing Word
Artist:Inori Minase
ArtistUnicode:水瀬いのり
Creator:Sekai
Version:Affection
Source:
Tags:いのりん Inorin SkyFlame Sekaii Sekai-nyan litoluna arronchu1207 japanese jpop pop j-pop ココロソマリ Kokoro Somali
BeatmapID:3450042
BeatmapSetID:1688136

[Difficulty]
HPDrainRate:6.5
CircleSize:4
OverallDifficulty:8
ApproachRate:9
SliderMultiplier:1.6
SliderTickRate:1

[Events]
//Background and Video events
0,0,"bg.jpg",0,0
//Break Periods
2,178628,179946
//Storyboard Layer 0 (Background)
//Storyboard Layer 1 (Fail)
//Storyboard Layer 2 (Pass)
//Storyboard Layer 3 (Foreground)
//Storyboard Layer 4 (Overlay)
//Storyboard Sound Samples

[TimingPoints]
1070,348.837209302326,4,2,1,60,1,0
8918,-100,4,2,2,60,0,0
9354,-100,4,2,1,60,0,0
11709,-100,4,2,2,60,0,0
12232,-100,4,2,1,60,0,0
15023,-125,4,2,1,60,0,0
17814,-100,4,2,1,60,0,0
19732,-100,4,2,20,40,0,0
20430,-100,4,2,1,60,0,0
21302,-100,4,2,20,40,0,0
21825,-100,4,2,1,60,0,0
26186,-125,4,2,1,60,0,0
28976,-100,4,2,1,60,0,0
37349,-111.111111111111,4,2,1,60,0,0
37697,-111.111111111111,4,2,2,60,0,0
39965,-111.111111111111,4,2,1,60,0,0
40488,-111.111111111111,4,2,2,60,0,0
41709,-111.111111111111,4,2,1,60,0,0
41883,-111.111111111111,4,2,2,60,0,0
42058,-111.111111111111,4,2,1,60,0,0
44674,-100,4,2,1,60,0,0
46070,-100,4,2,2,60,0,0
46418,-100,4,2,1,60,0,0
46593,-100,4,2,2,60,0,0
46942,-100,4,2,1,60,0,0
47465,-100,4,2,2,60,0,0
47814,-100,4,2,1,60,0,0
47988,-100,4,2,2,60,0,0
48337,-100,4,2,1,60,0,0
48860,-100,4,2,2,60,0,0
49209,-100,4,2,1,60,0,0
49383,-100,4,2,2,60,0,0
49732,-100,4,2,1,60,0,0
50256,-100,4,2,2,60,0,0
50604,-100,4,2,1,60,0,0
50779,-100,4,2,2,60,0,0
51128,-100,4,2,1,60,0,0
53918,-100,4,2,1,60,0,0
56186,-142.857142857143,4,2,1,60,0,0
56709,-71.4285714285714,4,2,3,60,0,1
57232,-90.9090909090909,4,2,1,60,0,1
57581,-90.9090909090909,4,2,20,70,0,1
58192,-90.9090909090909,4,2,1,60,0,1
58628,-76.9230769230769,4,2,1,60,0,1
58976,-90.9090909090909,4,2,20,70,0,1
59587,-90.9090909090909,4,2,1,60,0,1
62290,-76.9230769230769,4,2,1,60,0,1
62814,-76.9230769230769,4,2,1,60,0,1
63163,-90.9090909090909,4,2,20,70,0,1
63773,-90.9090909090909,4,2,1,60,0,1
64209,-76.9230769230769,4,2,1,60,0,1
64558,-90.9090909090909,4,2,20,70,0,1
65168,-90.9090909090909,4,2,1,60,0,1
67872,-90.9090909090909,4,2,4,60,0,1
68395,-76.9230769230769,4,2,1,60,0,1
68744,-90.9090909090909,4,2,20,70,0,1
69354,-90.9090909090909,4,2,1,60,0,1
70139,-90.9090909090909,4,2,20,70,0,1
70750,-90.9090909090909,4,2,1,60,0,1
74500,-90.9090909090909,4,2,2,60,0,1
74849,-90.9090909090909,4,2,1,60,0,1
75372,-90.9090909090909,4,2,2,60,0,1
75546,-90.9090909090909,4,2,1,60,0,1
75895,-90.9090909090909,4,2,2,60,0,1
76418,-90.9090909090909,4,2,1,60,0,1
79209,-111.111111111111,4,2,5,60,0,0
79732,-111.111111111111,4,2,5,60,0,0
80430,-111.111111111111,4,2,20,40,0,0
81476,-111.111111111111,4,2,1,60,0,0
82000,-100,4,2,1,60,0,0
84093,-166.666666666667,4,2,1,60,0,0
84616,-66.6666666666667,4,2,1,60,0,0
84790,-100,4,2,1,60,0,0
92639,-100,4,2,2,60,0,0
93075,-100,4,2,1,60,0,0
95953,-125,4,2,1,60,0,0
98744,-100,4,2,1,60,0,0
107116,-125,4,2,1,60,0,0
112697,-100,4,2,1,60,0,0
115837,-100,4,2,2,60,0,0
116186,-100,4,2,1,60,0,0
116360,-100,4,2,2,60,0,0
116709,-100,4,2,1,60,0,0
117232,-100,4,2,2,60,0,0
117581,-100,4,2,1,60,0,0
117756,-100,4,2,2,60,0,0
118104,-100,4,2,1,60,0,0
118628,-100,4,2,3,60,0,0
119151,-100,4,2,2,60,0,0
119500,-100,4,2,1,60,0,0
120023,-100,4,2,2,60,0,0
120372,-100,4,2,1,60,0,0
120546,-100,4,2,2,60,0,0
120895,-100,4,2,1,60,0,0
126476,-71.4285714285714,4,2,3,60,0,1
127000,-90.9090909090909,4,2,1,60,0,1
127349,-90.9090909090909,4,2,20,70,0,1
127959,-90.9090909090909,4,2,1,60,0,1
128395,-76.9230769230769,4,2,1,60,0,1
128744,-90.9090909090909,4,2,20,70,0,1
129354,-90.9090909090909,4,2,1,60,0,1
132581,-76.9230769230769,4,2,1,60,0,1
132930,-90.9090909090909,4,2,20,70,0,1
133540,-90.9090909090909,4,2,1,60,0,1
133976,-76.9230769230769,4,2,1,60,0,1
134325,-90.9090909090909,4,2,20,70,0,1
134936,-90.9090909090909,4,2,1,60,0,1
137639,-90.9090909090909,4,2,4,60,0,1
138163,-76.9230769230769,4,2,1,60,0,1
138511,-90.9090909090909,4,2,20,70,0,1
139122,-90.9090909090909,4,2,1,60,0,1
139907,-90.9090909090909,4,2,20,70,0,1
140517,-90.9090909090909,4,2,1,60,0,1
143744,-90.9090909090909,4,2,2,60,0,1
143918,-90.9090909090909,4,2,1,60,0,1
144267,-90.9090909090909,4,2,2,60,0,1
144616,-90.9090909090909,4,2,1,60,0,1
145139,-90.9090909090909,4,2,2,60,0,1
145314,-90.9090909090909,4,2,1,60,0,1
145663,-90.9090909090909,4,2,2,60,0,1
146011,-90.9090909090909,4,2,1,60,0,1
146186,-125,4,2,1,60,0,1
146883,-90.9090909090909,4,2,1,60,0,1
147407,-111.111111111111,4,2,1,60,0,0
155779,-100,4,2,1,60,0,0
178279,-125,4,2,1,60,0,0
181069,-100,4,2,1,60,0,0
183860,-125,4,2,5,60,0,0
184558,-125,4,2,5,60,0,0
185953,-125,4,2,6,60,0,0
186476,-125,4,2,7,60,0,0
187349,-125,4,2,6,60,0,0
187872,-125,4,2,7,60,0,0
188744,-125,4,2,8,60,0,0
189093,-125,4,2,9,60,0,0
189616,-125,4,2,6,60,0,0
189790,-125,4,2,7,60,0,0
189965,-125,4,2,10,60,0,0
190314,-125,4,2,7,60,0,0
190488,-125,4,2,10,60,0,0
190663,-125,4,2,11,60,0,0
191535,-125,4,2,9,60,0,0
192058,-125,4,2,6,60,0,0
192930,-125,4,2,9,60,0,0
193453,-125,4,2,6,60,0,0
194325,-125,4,2,6,60,0,0
194500,-125,4,2,7,60,0,0
194674,-125,4,2,10,60,0,0
194849,-100,4,2,6,60,0,0
195023,-100,4,2,6,60,0,0
195721,-100,4,2,12,60,0,0
195895,-100,4,2,9,60,0,0
196070,-100,4,2,13,60,0,0
196244,-100,4,2,14,60,0,0
196593,-100,4,2,1,60,0,0
198163,-66.6666666666667,4,2,15,60,0,1
198337,-90.9090909090909,4,2,1,60,0,1
199209,-90.9090909090909,4,2,20,70,0,1
199907,-90.9090909090909,4,2,1,60,0,1
203744,-90.9090909090909,4,2,2,60,0,1
203918,-90.9090909090909,4,2,1,60,0,1
204267,-90.9090909090909,4,2,2,60,0,1
204616,-90.9090909090909,4,2,1,60,0,1
205139,-90.9090909090909,4,2,2,60,0,1
205314,-90.9090909090909,4,2,1,60,0,1
205663,-90.9090909090909,4,2,2,60,0,1
206011,-90.9090909090909,4,2,1,60,0,1
206535,-90.9090909090909,4,2,2,60,0,1
206709,-90.9090909090909,4,2,1,60,0,1
208628,-90.9090909090909,4,2,16,60,0,1
208744,-90.9090909090909,4,2,1,60,0,1
208976,-125,4,2,12,60,0,0
209500,-125,4,2,8,60,0,0
209674,-125,4,2,10,60,0,0
210023,-125,4,2,8,60,0,0
210197,-125,4,2,7,60,0,0
210546,-125,4,2,6,60,0,0
210721,-125,4,2,7,60,0,0
210895,-125,4,2,10,60,0,0
211070,-125,4,2,2,60,0,0
211244,-125,4,2,1,60,0,0
211767,-100,4,2,1,60,0,0
215256,-125,4,2,6,60,0,0
215779,-100,4,2,17,60,0,0
216128,-100,4,2,1,60,0,0
235314,-100,4,2,18,60,0,0

[Colours]
Combo1 : 255,4,4
Combo2 : 255,149,149
SliderBorder : 255,55,55
SliderTrackOverride : 255,206,183

[HitObjects]
118,118,372,5,8,2:3:0:0:
253,214,546,1,8,2:2:0:0:
253,214,633,1,8,2:2:0:0:
253,214,721,2,0,P|257:172|253:156,1,40,8|8,2:2|2:2,0:0:0:0:
122,274,895,1,8,2:3:0:0:
328,120,1070,5,6,1:2:0:0:
327,277,1244,1,2,2:2:0:0:
421,163,1418,1,2,2:2:0:0:
253,214,1593,1,2,2:2:0:0:
426,274,1767,1,2,2:2:0:0:
328,120,1942,1,2,2:2:0:0:
323,296,2116,1,10,2:2:0:0:
441,164,2290,1,10,2:3:0:0:
441,164,2378,1,4,2:3:0:0:
441,164,2465,5,6,1:2:0:0:
253,278,2639,1,2,2:2:0:0:
314,79,2814,1,10,2:2:0:0:
411,243,2988,2,0,P|360:215|323:199,1,80,6|0,1:2|0:0,0:0:0:0:
314,79,3337,1,0,1:1:0:0:
253,278,3511,1,8,2:2:0:0:
225,272,3598,1,0,0:0:0:0:
197,267,3685,1,8,2:2:0:0:
170,262,3772,1,8,2:2:0:0:
142,257,3860,5,0,1:1:0:0:
0,192,4035,1,2,2:2:0:0:
121,130,4209,1,2,2:2:0:0:
57,272,4383,1,2,2:2:0:0:
24,97,4558,1,10,2:2:0:0:
177,190,4732,1,2,1:2:0:0:
0,192,4907,1,10,2:2:0:0:
0,192,4994,1,0,0:0:0:0:
0,192,5081,1,10,2:3:0:0:
0,192,5168,1,4,2:3:0:0:
0,192,5256,5,6,1:2:0:0:
113,29,5430,1,2,1:2:0:0:
207,191,5604,1,10,2:2:0:0:
24,97,5779,1,6,1:2:0:0:
203,10,5953,1,0,0:0:0:0:
97,192,6128,2,2,L|104:163,11,20,2|2|2|2|10|2|10|2|2|2|2|2,1:2|0:0|0:0|0:0|2:2|0:0|2:2|0:0|1:2|0:0|0:0|0:0,0:0:0:0:
87,226,6651,6,0,P|128:242|166:261,1,80,4|0,1:2|0:0,0:0:0:0:
334,154,7000,2,0,P|293:138|255:119,1,80,10|0,2:2|0:0,0:0:0:0:
446,31,7349,1,2,1:2:0:0:
460,191,7523,1,0,0:0:0:0:
346,59,7697,1,10,2:2:0:0:
460,191,7872,6,0,P|457:236|447:277,1,80,2|0,2:2|1:1,0:0:0:0:
261,336,8221,2,0,P|264:291|274:250,1,80,2|8,2:2|2:2,0:0:0:0:
339,105,8570,1,2,2:2:0:0:
160,73,8744,2,0,P|203:74|242:78,1,80,2|8,1:2|2:2,0:0:0:0:
142,208,9093,1,10,2:2:0:0:
21,130,9267,1,8,2:3:0:0:
21,130,9354,1,4,2:3:0:0:
21,130,9442,6,0,P|22:87|32:43,1,80,0|0,1:1|0:0,0:0:0:0:
142,208,9790,2,0,P|108:226|59:252,1,80,10|0,2:2|0:0,0:0:0:0:
160,73,10139,2,0,P|203:74|247:84,1,80,2|0,1:2|0:0,0:0:0:0:
360,188,10488,1,10,2:2:0:0:
398,48,10663,6,0,P|360:71|327:96,1,80,2|0,2:2|1:1,0:0:0:0:
184,174,11011,2,0,P|222:197|255:222,1,80,2|8,2:2|2:2,0:0:0:0:
382,331,11360,1,2,2:2:0:0:
470,227,11535,1,2,1:2:0:0:
372,144,11709,1,8,2:2:0:0:
382,331,11883,2,0,P|419:334|471:343,1,80,10|0,2:2|0:0,0:0:0:0:
372,144,12232,6,0,P|288:139|213:121,1,160,6|0,1:2|0:0,0:0:0:0:
31,319,12930,2,0,P|115:324|190:342,1,160,2|0,2:2|0:0,0:0:0:0:
77,215,13453,1,2,0:0:0:0:
77,215,13540,1,2,0:0:0:0:
77,215,13628,2,0,B|68:107|68:107|85:131|111:143,1,160,2|0,2:2|0:0,0:0:0:0:
374,54,14325,5,2,1:2:0:0:
456,148,14500,1,8,2:2:0:0:
456,148,14587,1,2,0:0:0:0:
456,148,14674,2,0,P|426:155|391:156,1,40,8|0,2:2|0:0,0:0:0:0:
300,262,14849,1,8,2:2:0:0:
160,113,15023,6,0,P|195:116|227:117,1,64,14|0,1:2|0:0,0:0:0:0:
325,154,15372,2,0,P|323:122|321:90,1,64,2|0,2:2|0:0,0:0:0:0:
211,197,15721,2,0,P|212:228|214:260,1,64,2|0,2:2|0:0,0:0:0:0:
363,265,16070,2,0,P|331:262|299:261,1,64,2|2,2:2|0:0,0:0:0:0:
336,338,16331,1,2,0:0:0:0:
336,338,16418,6,0,P|400:340|466:343,1,128,2|2,2:2|2:2,0:0:0:0:
483,183,16942,2,0,P|472:216|466:247,1,64,2|0,2:2|0:0,0:0:0:0:
463,342,17290,1,2,1:2:0:0:
270,149,17465,2,0,P|316:153|371:152,1,96,8|0,2:2|0:0,0:0:0:0:
399,153,17814,5,4,1:2:0:0:
203,250,17988,2,0,P|192:205|182:163,1,80,2|8,2:2|2:2,0:0:0:0:
115,249,18337,1,2,2:2:0:0:
270,149,18511,1,2,1:2:0:0:
119,92,18686,2,0,P|164:81|206:71,1,80,2|8,2:2|2:2,0:0:0:0:
372,219,19035,2,0,P|327:230|285:240,1,80,2|0,2:2|1:1,0:0:0:0:
416,321,19383,5,2,2:2:0:0:
322,141,19558,1,10,2:2:0:0:
492,181,19732,1,2,2:2:0:0:
330,291,19907,1,2,1:2:0:0:
408,115,20081,1,2,2:2:0:0:
497,279,20256,1,10,2:2:0:0:
322,141,20430,2,0,P|321:103|336:57,1,80,2|0,2:2|1:1,0:0:0:0:
196,220,20779,5,2,0:0:0:0:
196,220,20866,1,2,0:0:0:0:
196,220,20953,2,0,P|151:224|105:232,1,80,8|2,2:2|2:2,0:0:0:0:
220,322,21302,1,2,1:2:0:0:
167,131,21476,1,2,2:2:0:0:
326,194,21651,1,10,2:2:0:0:
146,297,21825,2,0,P|140:335|137:384,1,80,2|0,2:2|1:1,0:0:0:0:
325,273,22174,5,2,0:0:0:0:
325,273,22261,1,2,0:0:0:0:
325,273,22349,2,0,P|327:232|325:188,1,80,8|2,2:2|2:2,0:0:0:0:
222,54,22697,1,2,1:2:0:0:
352,107,22872,1,2,2:2:0:0:
201,211,23046,1,10,2:2:0:0:
302,47,23221,1,2,2:2:0:0:
201,211,23395,6,0,P|157:218|119:218,1,80,0|0,1:1|0:0,0:0:0:0:
222,54,23744,2,0,P|266:47|304:47,1,80,10|0,2:2|0:0,0:0:0:0:
116,113,24093,2,0,P|113:61|122:25,1,80,2|0,1:2|0:0,0:0:0:0:
255,145,24442,1,10,2:2:0:0:
29,140,24616,6,0,P|26:85|40:20,1,120,6|0,1:2|0:0,0:0:0:0:
54,0,24965,1,2,1:2:0:0:
255,145,25139,2,0,P|222:165|180:197,1,80,10|0,2:2|1:1,0:0:0:0:
333,272,25488,2,0,P|365:251|408:220,1,80,12|0,2:2|1:1,0:0:0:0:
302,70,25837,2,0,P|250:63|183:91,1,120,12|0,2:2|0:0,0:0:0:0:
165,114,26186,6,0,P|159:84|159:46,1,64,6|0,1:2|0:0,0:0:0:0:
207,203,26535,2,0,P|177:209|139:209,1,64,2|0,2:2|0:0,0:0:0:0:
292,176,26883,2,0,P|298:206|298:244,1,64,2|0,2:2|0:0,0:0:0:0:
256,337,27232,1,2,2:2:0:0:
381,306,27407,1,2,0:0:0:0:
381,306,27494,1,2,0:0:0:0:
381,306,27581,5,2,2:2:0:0:
298,239,27756,1,2,2:2:0:0:
256,337,27930,1,2,2:2:0:0:
375,227,28104,2,0,P|374:193|364:160,1,64,2|0,2:2|0:0,0:0:0:0:
256,76,28453,1,2,1:2:0:0:
256,76,28540,1,0,0:0:0:0:
256,76,28628,2,0,P|244:129|261:180,1,96,12|0,2:2|0:0,0:0:0:0:
272,204,28976,5,4,1:2:0:0:
329,348,29151,1,2,2:2:0:0:
417,231,29325,1,8,2:2:0:0:
256,300,29500,1,2,2:2:0:0:
347,170,29674,1,2,1:2:0:0:
423,328,29849,1,2,2:2:0:0:
272,204,30023,1,8,2:2:0:0:
424,152,30197,2,0,P|425:200|414:238,1,80,2|0,2:2|1:1,0:0:0:0:
272,204,30546,5,2,2:2:0:0:
364,63,30721,1,10,2:2:0:0:
184,78,30895,2,0,P|225:81|268:93,1,80,2|2,2:2|1:2,0:0:0:0:
147,211,31244,1,2,2:2:0:0:
119,20,31418,1,10,2:2:0:0:
147,211,31593,2,0,P|105:214|63:226,1,80,6|0,1:2|0:0,0:0:0:0:
197,321,31942,5,2,1:2:0:0:
197,321,32029,1,2,1:2:0:0:
197,321,32116,2,0,P|229:294|259:263,1,80,10|2,2:2|2:2,0:0:0:0:
340,121,32465,1,2,1:2:0:0:
393,267,32639,1,2,1:2:0:0:
253,174,32814,1,10,2:2:0:0:
423,75,32988,2,0,P|424:120|421:157,1,80,6|0,1:2|0:0,0:0:0:0:
285,276,33337,5,2,1:2:0:0:
323,93,33511,1,10,2:2:0:0:
471,283,33686,2,0,P|426:276|387:265,1,80,2|0,1:2|0:0,0:0:0:0:
253,174,34035,1,0,1:1:0:0:
423,75,34209,1,8,2:2:0:0:
292,278,34383,1,10,2:2:0:0:
292,278,34471,1,8,2:2:0:0:
292,278,34558,6,0,P|307:240|326:197,1,80,6|0,1:2|0:0,0:0:0:0:
174,63,34907,1,10,2:2:0:0:
354,128,35081,1,0,1:1:0:0:
192,252,35256,5,10,2:2:0:0:
255,54,35430,1,0,1:1:0:0:
370,230,35604,1,10,2:2:0:0:
167,141,35779,2,0,B|69:115|95:171|-3:152,1,160,6|2,1:2|1:2,0:0:0:0:
255,54,36302,1,10,2:2:0:0:
120,229,36476,1,8,2:3:0:0:
115,260,36563,1,4,2:3:0:0:
118,292,36650,1,6,1:2:0:0:
265,259,36883,5,8,2:3:0:0:
265,259,37000,2,0,P|294:279|312:298,2,53.3333333333333,4|4|4,2:3|2:3|2:3,0:0:0:0:
259,152,37349,6,0,P|317:148|354:152,1,71.9999978027344,6|2,1:2|2:2,0:0:0:0:
449,242,37697,2,0,P|391:246|354:242,1,71.9999978027344,10|2,2:2|2:2,0:0:0:0:
259,152,38046,1,10,2:2:0:0:
255,283,38221,1,2,2:2:0:0:
353,182,38395,1,10,2:2:0:0:
181,136,38570,1,2,2:2:0:0:
181,136,38657,1,2,0:0:0:0:
181,136,38744,6,0,P|176:171|188:209,1,71.9999978027344,10|0,2:2|0:0,0:0:0:0:
236,62,39093,2,0,P|191:49|154:47,1,71.9999978027344,10|0,2:2|0:0,0:0:0:0:
302,163,39442,1,10,2:2:0:0:
433,67,39616,1,0,0:0:0:0:
383,222,39790,1,8,2:2:0:0:
333,67,39965,1,0,1:1:0:0:
465,163,40139,6,0,P|431:145|395:132,1,71.9999978027344,2|2,1:2|2:2,0:0:0:0:
254,219,40488,1,10,2:2:0:0:
333,67,40663,1,2,2:2:0:0:
383,222,40837,1,10,2:2:0:0:
245,114,41011,1,2,2:2:0:0:
314,264,41186,1,10,2:2:0:0:
399,133,41360,1,2,2:2:0:0:
245,114,41535,6,0,P|205:108|164:105,1,71.9999978027344,10|0,2:2|1:1,0:0:0:0:
76,233,41883,2,0,P|115:227|157:224,1,71.9999978027344,14|0,2:2|1:1,0:0:0:0:
120,331,42232,1,2,1:2:0:0:
62,152,42407,1,8,2:2:0:0:
62,152,42494,1,8,2:2:0:0:
62,152,42581,6,0,P|28:161|4:180,1,35.9999989013672,10|8,2:2|2:2,0:0:0:0:
186,291,42756,2,0,P|220:282|244:263,1,35.9999989013672,8|0,2:2|0:0,0:0:0:0:
357,196,42930,6,0,P|311:194|258:182,1,71.9999978027344,6|0,1:2|0:0,0:0:0:0:
393,68,43279,1,2,1:2:0:0:
393,68,43453,1,2,2:2:0:0:
488,177,43628,2,0,P|489:220|484:252,1,71.9999978027344,6|0,1:2|0:0,0:0:0:0:
418,374,43976,1,2,1:2:0:0:
305,284,44151,1,10,2:2:0:0:
305,284,44238,1,8,2:2:0:0:
305,284,44325,2,0,P|254:288|202:326,1,107.999996704102,6|0,1:2|0:0,0:0:0:0:
182,384,44674,6,0,P|178:333|139:277,1,120,6|0,1:2|0:0,0:0:0:0:
109,254,45023,1,6,1:2:0:0:
41,135,45197,1,0,1:1:0:0:
41,135,45285,1,0,1:2:0:0:
41,135,45372,1,8,2:2:0:0:
189,118,45546,6,0,P|153:143|121:162,1,80,6|0,1:2|0:0,0:0:0:0:
141,22,45895,1,2,1:2:0:0:
265,32,46070,2,0,P|292:65|312:107,1,80,10|2,2:2|2:2,0:0:0:0:
327,232,46418,1,2,1:2:0:0:
456,110,46593,1,8,2:2:0:0:
456,110,46767,1,8,2:2:0:0:
327,232,46942,6,0,P|384:231|420:217,1,80,2|0,1:2|0:0,0:0:0:0:
308,98,47290,1,2,1:2:0:0:
193,159,47465,2,0,P|178:208|173:250,1,80,10|2,2:2|2:2,0:0:0:0:
256,368,47814,1,2,1:2:0:0:
80,311,47988,1,10,2:2:0:0:
80,311,48163,1,10,2:2:0:0:
256,368,48337,6,0,P|264:326|278:285,1,80,6|0,1:2|0:0,0:0:0:0:
371,341,48686,1,2,1:2:0:0:
206,251,48860,2,0,P|215:217|222:160,1,80,10|2,2:2|2:2,0:0:0:0:
178,41,49209,1,2,1:2:0:0:
335,77,49383,1,8,2:2:0:0:
335,77,49558,1,8,2:2:0:0:
178,41,49732,6,0,P|131:45|95:43,1,80,2|0,1:2|0:0,0:0:0:0:
235,157,50081,1,2,1:2:0:0:
335,77,50256,2,0,P|339:36|339:-6,1,80,10|2,2:2|2:2,0:0:0:0:
235,157,50604,1,2,1:2:0:0:
417,98,50779,1,10,2:2:0:0:
417,98,50953,1,10,2:2:0:0:
255,234,51128,6,0,P|239:184|233:145,1,80,6|0,1:2|0:0,0:0:0:0:
408,195,51476,1,2,1:2:0:0:
347,342,51651,2,0,P|293:348|250:347,1,80,10|10,2:2|2:3,0:0:0:0:
234,350,51913,1,4,2:3:0:0:
234,350,52000,1,2,1:2:0:0:
126,190,52174,1,0,1:1:0:0:
126,190,52349,1,8,2:2:0:0:
316,183,52523,6,0,P|281:215|248:238,1,80,6|0,1:2|0:0,0:0:0:0:
196,89,52872,1,2,1:2:0:0:
342,70,53046,2,0,P|388:84|420:99,1,80,10|6,2:2|2:3,0:0:0:0:
447,116,53308,1,8,2:3:0:0:
447,116,53395,1,2,1:2:0:0:
316,183,53570,1,2,1:2:0:0:
288,0,53744,1,10,2:2:0:0:
123,121,53918,6,0,P|170:98|211:84,1,80,6|0,1:2|0:0,0:0:0:0:
255,138,54267,1,0,1:1:0:0:
86,39,54442,1,8,2:2:0:0:
95,253,54616,1,0,1:1:0:0:
228,38,54790,1,8,2:2:0:0:
0,119,54965,1,0,1:1:0:0:
230,231,55139,1,8,2:2:0:0:
86,39,55314,6,0,P|112:79|130:125,1,80,4|0,1:2|0:0,0:0:0:0:
227,345,55663,1,8,2:2:0:0:
355,131,55837,1,8,2:2:0:0:
99,196,56011,1,8,2:2:0:0:
350,305,56186,6,0,B|391:305|417:259|417:259|452:270|490:258,1,139.999995727539,10|0,2:2|0:0,0:0:0:0:
498,361,56709,6,0,B|484:284|484:284|506:241|506:241|496:131,1,223.999993164063,6|0,1:2|1:1,0:0:0:0:
406,27,57232,1,8,2:2:0:0:
497,143,57407,1,0,0:0:0:0:
406,27,57581,2,0,P|366:26|342:38,1,44.0000013427735,2|0,1:2|0:0,0:0:0:0:
261,11,57756,2,0,P|259:54|281:85,1,44.0000013427735,2|0,0:0|0:0,0:0:0:0:
185,132,57930,2,0,P|229:152|254:148,1,44.0000013427735,10|0,2:2|0:0,0:0:0:0:
324,108,58104,1,2,2:2:0:0:
192,259,58279,6,0,P|129:260|56:283,1,132.00000402832,0|0,1:1|0:0,0:0:0:0:
26,287,58628,2,0,P|27:234|36:177,1,103.999995239258,8|0,2:2|0:0,0:0:0:0:
108,47,58976,2,0,P|132:72|144:96,1,44.0000013427735,2|0,1:2|0:0,0:0:0:0:
205,186,59151,2,0,P|170:189|144:185,1,44.0000013427735,2|0,2:2|0:0,0:0:0:0:
34,183,59325,2,0,P|57:159|80:149,1,44.0000013427735,10|0,2:2|0:0,0:0:0:0:
108,47,59500,1,2,2:2:0:0:
205,186,59674,6,0,P|265:184|314:161,1,88.000002685547,0|2,1:1|2:2,0:0:0:0:
405,111,60023,2,0,P|416:158|416:203,1,88.000002685547,10|2,2:2|2:2,0:0:0:0:
257,321,60372,1,0,1:1:0:0:
401,316,60546,1,2,2:2:0:0:
205,186,60721,2,0,P|194:139|194:94,1,88.000002685547,10|2,2:2|2:2,0:0:0:0:
389,50,61070,5,0,1:1:0:0:
300,241,61244,1,0,0:0:0:0:
462,203,61418,1,8,2:2:0:0:
293,81,61593,1,0,0:0:0:0:
462,203,61767,2,0,P|467:266|432:323,1,132.00000402832,6|0,1:2|0:0,0:0:0:0:
398,349,62116,1,8,2:2:0:0:
196,238,62290,6,0,P|246:234|301:241,1,103.999995239258,6|0,1:2|0:0,0:0:0:0:
137,355,62639,1,0,1:1:0:0:
73,235,62814,2,0,P|70:184|81:128,1,103.999995239258,8|0,2:2|0:0,0:0:0:0:
170,20,63163,2,0,L|180:63,1,44.0000013427735,2|0,1:2|0:0,0:0:0:0:
318,135,63337,2,0,L|308:92,1,44.0000013427735,2|0,0:0|0:0,0:0:0:0:
197,170,63511,2,0,L|187:213,1,44.0000013427735,10|0,2:2|0:0,0:0:0:0:
256,300,63686,1,2,2:2:0:0:
404,190,63860,6,0,P|412:139|381:60,1,132.00000402832,0|0,1:1|0:0,0:0:0:0:
363,37,64209,2,0,P|407:19|474:14,1,103.999995239258,8|0,2:2|0:0,0:0:0:0:
316,190,64558,2,0,P|298:198|266:196,1,44.0000013427735,2|0,1:2|0:0,0:0:0:0:
146,308,64732,2,0,P|152:261|162:241,1,44.0000013427735,2|0,2:2|0:0,0:0:0:0:
156,85,64907,2,0,P|177:115|190:143,1,44.0000013427735,10|0,2:2|0:0,0:0:0:0:
224,251,65081,1,2,2:2:0:0:
65,139,65256,6,0,P|28:93|-6:63,1,88.000002685547,0|2,1:1|2:2,0:0:0:0:
122,1,65604,2,0,P|165:0|213:16,1,88.000002685547,10|2,2:2|2:2,0:0:0:0:
292,141,65953,1,2,1:2:0:0:
338,7,66128,1,2,2:2:0:0:
166,110,66302,1,10,2:2:0:0:
369,184,66476,6,0,P|349:228|335:267,1,88.000002685547,6|0,1:2|0:0,0:0:0:0:
138,341,66825,1,2,1:2:0:0:
138,341,66913,1,2,1:2:0:0:
138,341,67000,2,0,P|157:296|172:258,1,88.000002685547,10|0,2:2|1:1,0:0:0:0:
256,120,67349,1,10,2:2:0:0:
210,106,67436,1,8,2:2:0:0:
193,61,67523,1,8,2:2:0:0:
217,21,67610,1,8,2:2:0:0:
263,13,67697,1,8,2:2:0:0:
297,45,67785,1,8,2:2:0:0:
294,92,67872,6,0,P|327:92|383:83,1,88.000002685547,6|0,1:2|0:0,0:0:0:0:
388,214,68221,1,0,1:1:0:0:
242,203,68395,2,0,P|215:144|209:102,1,103.999995239258,8|0,2:2|0:0,0:0:0:0:
388,214,68744,2,0,P|386:251|377:282,1,44.0000013427735,2|0,1:2|0:0,0:0:0:0:
234,324,68918,2,0,P|197:322|166:313,1,44.0000013427735
124,170,69093,2,0,P|126:133|135:102,1,44.0000013427735,8|0,2:2|0:0,0:0:0:0:
256,38,69267,1,2,2:2:0:0:
174,240,69442,6,0,P|109:251|40:284,1,132.00000402832,0|0,1:1|0:0,0:0:0:0:
17,300,69790,2,0,P|20:256|25:199,1,88.000002685547,10|0,2:2|0:0,0:0:0:0:
151,80,70139,2,0,L|185:119,1,44.0000013427735,2|0,1:2|0:0,0:0:0:0:
334,173,70314,2,0,L|284:188,1,44.0000013427735
187,281,70488,2,0,L|171:231,1,44.0000013427735,8|0,2:2|0:0,0:0:0:0:
257,110,70663,1,2,2:2:0:0:
333,294,70837,6,0,P|379:276|468:261,1,132.00000402832,0|0,1:1|0:0,0:0:0:0:
492,261,71186,2,0,P|488:214|490:166,1,88.000002685547,8|0,2:2|0:0,0:0:0:0:
490,28,71535,1,0,1:1:0:0:
361,111,71709,1,2,2:2:0:0:
489,173,71883,1,10,2:2:0:0:
400,8,72058,1,10,2:3:0:0:
400,8,72145,1,4,2:3:0:0:
400,8,72232,6,0,B|385:58|398:100|398:100|358:106|349:123,1,132.00000402832,6|0,1:2|0:0,0:0:0:0:
303,169,72581,2,0,P|375:161|423:197,1,132.00000402832,14|0,2:2|0:0,0:0:0:0:
410,277,72930,2,0,P|338:285|290:249,1,132.00000402832,6|0,1:2|0:0,0:0:0:0:
217,189,73279,2,0,B|141:165|157:221|75:200,1,132.00000402832,14|0,2:2|0:0,0:0:0:0:
52,196,73628,6,0,P|48:234|64:287,1,88.000002685547,6|0,1:2|0:0,0:0:0:0:
217,189,73976,1,8,2:2:0:0:
129,87,74151,2,0,P|88:74|30:64,1,88.000002685547,2|2,1:2|1:2,0:0:0:0:
256,20,74500,1,8,2:2:0:0:
256,20,74674,1,10,2:2:0:0:
402,145,74849,6,0,P|362:165|311:193,1,88.000002685547,2|0,1:2|0:0,0:0:0:0:
472,267,75197,1,2,1:2:0:0:
489,95,75372,1,10,2:2:0:0:
323,185,75546,2,0,P|324:138|326:92,1,88.000002685547,2|2,1:2|1:2,0:0:0:0:
472,267,75895,1,8,2:2:0:0:
472,267,76070,1,12,2:2:0:0:
315,339,76244,1,2,2:2:0:0:
188,134,76418,5,6,1:2:0:0:
154,314,76593,1,0,0:0:0:0:
299,203,76767,1,8,2:2:0:0:
97,192,76942,1,2,1:2:0:0:
252,350,77116,1,10,2:2:0:0:
76,178,77290,1,0,1:1:0:0:
362,168,77465,1,10,2:2:0:0:
122,323,77639,6,0,P|198:266|272:211,1,176.000005371094,6|0,1:2|1:1,0:0:0:0:
256,380,78163,1,8,2:2:0:0:
130,221,78337,1,0,1:1:0:0:
328,238,78511,6,0,P|340:195|336:174,1,58.6666684570313,8|8,2:2|2:3,0:0:0:0:
270,81,78744,2,0,P|232:80|193:94,1,58.6666684570313,8|6,2:3|2:3,0:0:0:0:
143,164,78976,2,0,P|132:193|131:238,1,58.6666684570313,4|4,2:3|2:3,0:0:0:0:
223,289,79209,6,0,P|237:247|250:213,1,71.9999978027344,6|0,1:2|0:0,0:0:0:0:
325,325,79558,1,0,0:0:0:0:
204,381,79732,2,0,P|164:361|129:334,1,71.9999978027344,2|2,2:2|2:2,0:0:0:0:
74,266,80081,1,0,0:0:0:0:
74,266,80256,1,2,2:2:0:0:
183,150,80430,6,0,P|184:195|182:237,1,71.9999978027344,2|0,2:2|0:0,0:0:0:0:
127,88,80779,2,0,P|162:64|193:43,1,71.9999978027344,2|2,2:2|2:2,0:0:0:0:
183,150,81128,1,2,2:2:0:0:
71,186,81302,2,0,P|46:162|27:131,1,71.9999978027344,2|0,1:2|1:1,0:0:0:0:
5,242,81651,1,12,2:2:0:0:
183,150,81825,1,2,2:2:0:0:
185,358,82000,6,0,P|182:317|186:272,1,80,6|8,1:2|2:2,0:0:0:0:
189,238,82261,1,8,2:2:0:0:
189,238,82349,1,8,2:2:0:0:
350,347,82523,1,10,2:2:0:0:
350,347,82610,1,8,2:2:0:0:
350,347,82697,1,10,2:2:0:0:
357,139,82872,1,8,2:2:0:0:
357,139,82959,1,8,2:2:0:0:
357,139,83046,1,10,2:2:0:0:
109,249,83221,6,0,P|160:241|196:236,1,80,6|0,1:2|0:0,0:0:0:0:
58,366,83570,1,8,2:3:0:0:
124,130,83744,1,4,2:3:0:0:
257,325,83918,1,4,2:3:0:0:
18,232,84093,6,0,P|37:162|46:101,1,119.999996337891,10|0,2:2|0:0,0:0:0:0:
0,66,84616,6,0,P|42:65|124:51,1,120.000004577637,6|0,1:2|0:0,0:0:0:0:
264,23,84965,1,2,2:2:0:0:
205,184,85139,1,2,2:2:0:0:
161,2,85314,1,2,2:2:0:0:
313,116,85488,1,2,1:2:0:0:
95,189,85663,2,0,P|96:216|102:235,1,40,10|8,2:2|2:2,0:0:0:0:
275,260,85837,2,0,P|274:233|268:214,1,40,10|8,2:2|2:2,0:0:0:0:
196,94,86011,1,2,1:2:0:0:
188,305,86186,5,6,1:2:0:0:
379,191,86360,1,2,2:2:0:0:
196,94,86535,1,10,2:2:0:0:
275,260,86709,2,0,P|316:262|362:263,1,80,6|0,1:2|0:0,0:0:0:0:
250,367,87058,1,0,1:1:0:0:
308,168,87232,1,8,2:2:0:0:
120,240,87407,1,8,2:2:0:0:
120,240,87494,1,8,2:2:0:0:
120,240,87581,5,0,1:1:0:0:
256,91,87756,1,2,2:2:0:0:
322,268,87930,1,2,1:2:0:0:
148,159,88104,1,2,2:2:0:0:
343,96,88279,1,6,1:2:0:0:
191,263,88453,1,10,2:3:0:0:
128,61,88628,2,0,P|167:61|198:75,1,40,10|8,2:2|2:2,0:0:0:0:
275,204,88802,2,0,P|242:203|226:198,1,40,10|8,2:2|2:2,0:0:0:0:
256,57,88976,5,6,1:2:0:0:
382,193,89151,1,2,1:2:0:0:
191,263,89325,1,10,2:2:0:0:
343,96,89500,1,6,1:2:0:0:
409,277,89674,2,0,P|371:278|352:270,1,40,8|8,2:3|2:3,0:0:0:0:
191,302,89849,2,0,P|190:264|198:245,1,40,0|0,1:1|1:1,0:0:0:0:
177,119,90023,2,0,P|215:118|234:126,1,40,8|8,2:2|2:2,0:0:0:0:
332,190,90197,1,8,2:2:0:0:
332,190,90285,1,8,2:2:0:0:
332,190,90372,6,0,P|299:238|263:293,1,120,6|0,1:2|0:0,0:0:0:0:
250,313,90721,2,0,P|285:339|330:349,1,80,10|0,2:2|0:0,0:0:0:0:
129,360,91070,2,0,P|138:305|134:269,1,80,2|0,1:2|0:0,0:0:0:0:
54,147,91418,1,10,2:2:0:0:
136,281,91593,1,2,2:2:0:0:
213,141,91767,5,0,1:1:0:0:
54,247,91942,1,2,2:2:0:0:
132,59,92116,1,8,2:2:0:0:
239,237,92290,1,2,2:2:0:0:
54,147,92465,2,0,P|99:139|151:142,1,80,2|8,1:2|2:2,0:0:0:0:
226,47,92814,1,14,2:2:0:0:
239,237,92988,1,8,2:3:0:0:
239,237,93075,1,4,2:3:0:0:
239,237,93163,6,0,P|289:235|368:240,1,120,4|0,1:2|0:0,0:0:0:0:
384,245,93511,1,10,2:2:0:0:
298,364,93686,1,0,0:0:0:0:
435,169,93860,2,0,P|390:157|347:154,1,80,2|0,1:2|0:0,0:0:0:0:
477,270,94209,1,10,2:2:0:0:
455,79,94383,1,2,2:2:0:0:
258,58,94558,6,0,P|297:53|336:42,1,80,0|2,1:1|2:2,0:0:0:0:
122,190,94907,2,0,P|117:150|106:111,1,80,8|10,2:2|2:2,0:0:0:0:
93,84,95168,1,8,2:2:0:0:
93,84,95256,2,0,P|118:79|149:76,1,40,10|8,2:2|2:3,0:0:0:0:
268,190,95430,2,0,P|240:196|218:195,1,40,4|0,2:3|1:1,0:0:0:0:
97,281,95604,2,0,P|144:272|218:282,1,120,14|0,2:2|0:0,0:0:0:0:
241,297,95953,6,0,P|234:322|218:356,1,64,6|0,1:2|0:0,0:0:0:0:
96,280,96302,2,0,P|100:249|119:213,1,64,2|0,2:2|0:0,0:0:0:0:
234,212,96651,2,0,P|278:217|312:237,1,64,2|0,2:2|0:0,0:0:0:0:
408,154,97000,2,0,P|364:149|330:129,1,64,2|0,2:2|1:1,0:0:0:0:
317,123,97261,1,0,1:1:0:0:
317,123,97349,1,10,2:2:0:0:
185,24,97610,1,8,0:0:0:0:
163,192,97872,5,10,2:2:0:0:
163,192,97959,1,8,2:2:0:0:
163,192,98046,2,0,P|156:151|161:131,1,32,8|8,2:3|2:3,0:0:0:0:
185,24,98221,2,0,P|224:37|236:50,1,32,6|0,2:3|1:1,0:0:0:0:
317,123,98395,2,0,P|322:168|298:224,1,96,12|0,2:2|0:0,0:0:0:0:
274,247,98744,5,4,1:2:0:0:
163,192,98918,1,2,2:2:0:0:
164,325,99093,1,8,2:2:0:0:
250,154,99267,1,2,2:2:0:0:
345,314,99442,1,2,1:2:0:0:
163,192,99616,1,2,2:2:0:0:
163,192,99703,1,2,1:2:0:0:
163,192,99790,2,0,P|158:147|158:106,1,80,10|2,2:2|2:2,0:0:0:0:
155,74,100052,1,2,1:2:0:0:
155,74,100139,6,0,P|115:84|68:100,1,80,2|2,1:2|2:2,0:0:0:0:
97,259,100488,1,10,2:2:0:0:
231,137,100663,1,2,2:2:0:0:
55,105,100837,1,2,1:2:0:0:
187,239,101011,1,2,2:2:0:0:
232,51,101186,1,10,2:2:0:0:
355,206,101360,6,0,P|310:205|261:208,1,80,6|0,1:2|0:0,0:0:0:0:
398,318,101709,1,2,1:2:0:0:
398,318,101796,1,2,0:0:0:0:
398,318,101883,2,0,P|442:317|492:320,1,80,10|0,2:2|0:0,0:0:0:0:
424,166,102232,1,2,1:2:0:0:
304,335,102407,1,2,1:2:0:0:
249,152,102581,1,10,2:2:0:0:
422,244,102756,6,0,P|429:203|419:153,1,80,6|0,1:2|0:0,0:0:0:0:
307,246,103104,1,2,1:2:0:0:
384,70,103279,1,10,2:2:0:0:
500,188,103453,1,2,1:2:0:0:
314,136,103628,2,0,P|296:85|292:53,1,80,2|0,0:0|1:1,0:0:0:0:
105,76,103976,2,0,P|147:108|168:133,1,80,8|2,2:2|1:2,0:0:0:0:
183,153,104238,1,0,1:1:0:0:
183,153,104325,5,6,1:2:0:0:
256,330,104500,1,0,1:1:0:0:
116,288,104674,1,10,2:2:0:0:
257,175,104849,1,0,1:1:0:0:
116,288,105023,2,0,P|166:279|198:279,1,80,10|0,2:2|1:1,0:0:0:0:
87,154,105372,1,10,2:2:0:0:
4,260,105546,6,0,P|-3:297|1:344,1,80,6|0,1:2|0:0,0:0:0:0:
87,154,105895,1,2,1:2:0:0:
195,278,106070,2,0,P|145:287|113:287,1,80,14|8,2:2|2:2,0:0:0:0:
254,145,106418,1,2,1:2:0:0:
315,301,106593,1,8,2:3:0:0:
169,209,106767,1,4,2:3:0:0:
337,114,106942,1,4,2:3:0:0:
315,301,107116,6,0,P|327:259|328:230,1,64,6|2,1:2|2:2,0:0:0:0:
337,114,107465,2,0,L|386:117,2,42.6666666666667,10|8|8,2:2|2:2|2:2,0:0:0:0:
300,47,107814,2,0,P|260:48|222:44,1,64,10|2,2:2|2:2,0:0:0:0:
121,147,108163,2,0,L|124:98,2,42.6666666666667,10|8|8,2:2|2:2|2:2,0:0:0:0:
54,184,108511,6,0,P|55:223|51:262,1,64,10|0,2:2|0:0,0:0:0:0:
198,272,108860,1,10,2:2:0:0:
198,272,108976,2,0,P|195:244|198:228,1,42.6666666666667,8|8,2:2|2:2,0:0:0:0:
210,98,109209,1,10,2:2:0:0:
210,98,109325,2,0,P|230:114|240:127,1,42.6666666666667,8|8,2:2|2:2,0:0:0:0:
335,216,109558,1,8,2:2:0:0:
335,216,109674,2,0,P|307:218|282:212,1,42.6666666666667,8|8,2:2|2:2,0:0:0:0:
432,172,109907,6,0,P|432:134|439:103,1,64,10|2,1:2|2:2,0:0:0:0:
410,257,110256,2,0,L|465:276,2,42.6666666666667,10|8|8,2:2|2:2|2:2,0:0:0:0:
367,336,110604,2,0,P|345:324|302:316,1,64,10|2,2:2|2:2,0:0:0:0:
111,353,110953,2,0,P|112:324|111:303,2,42.6666666666667,10|8|8,2:2|2:2|2:2,0:0:0:0:
37,241,111302,2,0,P|75:241|111:228,1,64,10|0,2:2|0:0,0:0:0:0:
124,89,111651,2,0,P|106:114|98:134,2,42.6666666666667,10|8|8,2:2|2:2|2:2,0:0:0:0:
191,162,112000,1,10,2:2:0:0:
70,34,112174,1,0,1:1:0:0:
257,1,112349,2,0,L|282:9,6,16,10|0|8|0|8|0|8,2:2|0:0|2:2|0:0|2:2|0:0|2:2,0:0:0:0:
304,12,112697,6,0,P|343:18|396:16,1,80,6|0,1:2|0:0,0:0:0:0:
504,66,113046,1,10,2:2:0:0:
448,176,113221,1,10,2:2:0:0:
448,176,113308,1,10,0:0:0:0:
448,176,113395,2,0,P|409:170|356:172,1,80,6|0,1:2|0:0,0:0:0:0:
277,283,113744,1,10,2:2:0:0:
165,191,113918,1,0,1:1:0:0:
165,191,114006,1,0,1:1:0:0:
165,191,114093,6,0,P|170:158|183:113,1,80,14|8,2:2|2:2,0:0:0:0:
201,75,114354,1,8,2:2:0:0:
201,75,114442,2,0,P|152:64|100:56,1,80,6|10,1:2|2:2,0:0:0:0:
95,52,114703,1,8,2:2:0:0:
95,51,114790,1,6,1:2:0:0:
253,199,114965,1,8,2:3:0:0:
290,29,115139,1,8,2:2:0:0:
78,179,115314,6,0,P|72:220|68:260,1,80,6|0,1:2|0:0,0:0:0:0:
92,377,115663,1,2,1:2:0:0:
227,292,115837,2,0,P|181:282|142:279,1,80,10|2,2:2|2:2,0:0:0:0:
204,379,116186,1,2,1:2:0:0:
184,188,116360,1,8,2:2:0:0:
184,188,116535,1,8,2:2:0:0:
312,297,116709,6,0,P|319:252|324:218,1,80,2|0,1:2|0:0,0:0:0:0:
441,130,117058,1,2,1:2:0:0:
486,253,117232,2,0,P|446:245|402:239,1,80,10|2,2:2|2:2,0:0:0:0:
424,343,117581,1,2,1:2:0:0:
334,147,117756,1,10,2:2:0:0:
334,147,117930,1,10,2:2:0:0:
162,279,118104,6,0,P|167:230|172:194,1,80,6|0,1:2|0:0,0:0:0:0:
58,267,118453,1,2,1:2:0:0:
208,106,118628,2,0,P|168:109|124:114,1,80,10|2,2:2|2:2,0:0:0:0:
255,229,118976,1,2,1:2:0:0:
255,29,119151,1,8,2:2:0:0:
255,29,119325,1,8,2:2:0:0:
403,141,119500,6,0,P|360:137|315:133,1,80,2|0,1:2|0:0,0:0:0:0:
399,262,119849,1,2,1:2:0:0:
507,171,120023,2,0,P|506:125|499:88,1,80,10|2,2:2|2:2,0:0:0:0:
403,141,120372,1,2,1:2:0:0:
512,260,120546,1,10,2:2:0:0:
512,260,120721,1,10,2:2:0:0:
344,320,120895,6,0,P|375:288|402:258,1,80,6|0,1:2|0:0,0:0:0:0:
256,192,121244,1,2,1:2:0:0:
205,327,121418,2,0,P|227:354|265:388,1,80,10|10,1:2|2:3,0:0:0:0:
260,384,121680,1,4,2:3:0:0:
260,384,121767,1,10,1:3:0:0:
256,192,121942,1,8,2:3:0:0:
256,192,122116,1,8,2:2:0:0:
131,370,122290,6,0,P|93:348|37:331,1,80,6|0,1:2|0:0,0:0:0:0:
151,190,122639,1,2,1:2:0:0:
297,275,122814,2,0,P|253:280|206:279,1,80,10|2,2:2|1:2,0:0:0:0:
185,279,123075,1,8,2:3:0:0:
185,279,123163,1,2,1:2:0:0:
257,108,123337,1,2,1:2:0:0:
386,230,123511,1,10,2:2:0:0:
151,190,123686,6,0,P|149:145|148:108,1,80,6|0,1:2|0:0,0:0:0:0:
277,206,124035,1,0,1:1:0:0:
87,68,124209,1,8,2:2:0:0:
260,6,124383,1,0,1:1:0:0:
151,190,124558,1,8,2:2:0:0:
35,13,124732,1,0,1:1:0:0:
256,105,124907,1,8,2:2:0:0:
55,178,125081,2,0,P|61:220|66:264,1,80,4|0,1:2|0:0,0:0:0:0:
242,288,125430,6,0,P|267:292|293:291,1,40,8|8,2:3|2:3,0:0:0:0:
363,198,125604,2,0,P|367:173|366:147,1,40,4|0,2:3|0:0,0:0:0:0:
265,65,125779,2,0,P|240:61|214:62,1,40,0|0,1:1|1:1,0:0:0:0:
115,167,125953,5,14,2:2:0:0:
335,104,126215,1,8,0:0:0:0:
280,309,126476,6,0,B|221:287|224:218|224:218|255:171|203:115,1,223.999993164063,6|0,1:2|1:1,0:0:0:0:
139,275,127000,1,8,2:2:0:0:
286,97,127174,1,0,0:0:0:0:
139,275,127349,2,0,P|138:232|143:214,1,44.0000013427735,2|0,1:2|0:0,0:0:0:0:
67,104,127523,2,0,P|110:103|128:108,1,44.0000013427735,2|0,0:0|0:0,0:0:0:0:
286,97,127697,2,0,P|251:135|229:146,1,44.0000013427735,10|0,2:2|0:0,0:0:0:0:
139,275,127872,1,2,2:2:0:0:
319,357,128046,6,0,P|325:290|332:224,1,132.00000402832,0|0,1:1|0:0,0:0:0:0:
333,191,128395,2,0,P|382:191|439:195,1,103.999995239258,8|0,2:2|0:0,0:0:0:0:
291,46,128744,2,0,P|246:42|221:53,1,44.0000013427735,2|0,1:2|0:0,0:0:0:0:
67,9,128918,2,0,P|86:34|109:48,1,44.0000013427735,2|0,2:2|0:0,0:0:0:0:
166,214,129093,2,0,P|173:182|174:158,1,44.0000013427735,10|0,2:2|0:0,0:0:0:0:
291,46,129267,1,2,2:2:0:0:
81,200,129442,6,0,P|124:197|165:213,1,88.000002685547,0|2,1:1|2:2,0:0:0:0:
296,301,129790,2,0,P|252:309|209:312,1,88.000002685547,10|2,2:2|2:2,0:0:0:0:
479,248,130139,1,0,1:1:0:0:
415,372,130314,1,2,2:2:0:0:
332,191,130488,1,10,2:2:0:0:
510,248,130663,1,2,2:2:0:0:
252,244,130837,5,0,1:1:0:0:
412,98,131011,1,0,0:0:0:0:
418,285,131186,1,8,2:2:0:0:
289,101,131360,1,0,0:0:0:0:
491,170,131535,1,2,1:2:0:0:
252,244,131709,1,0,1:1:0:0:
252,244,131796,1,0,0:0:0:0:
252,244,131883,2,0,P|217:252|198:251,1,44.0000013427735,8|0,2:2|0:0,0:0:0:0:
109,343,132058,6,0,P|123:253|127:199,1,132.00000402832,6|0,1:2|0:0,0:0:0:0:
128,180,132407,1,0,1:1:0:0:
251,89,132581,2,0,P|204:85|142:73,1,103.999995239258,8|0,2:2|0:0,0:0:0:0:
392,42,132930,2,0,P|394:82|394:106,1,44.0000013427735,2|0,1:2|0:0,0:0:0:0:
459,251,133104,2,0,P|427:248|404:246,1,44.0000013427735,2|0,0:0|0:0,0:0:0:0:
241,218,133279,2,0,P|255:201|283:180,1,44.0000013427735,10|0,2:2|0:0,0:0:0:0:
392,42,133453,1,2,2:2:0:0:
298,276,133628,6,0,P|230:265|159:282,1,132.00000402832,0|0,1:1|0:0,0:0:0:0:
138,306,133976,2,0,P|136:255|140:198,1,103.999995239258,8|0,2:2|0:0,0:0:0:0:
227,48,134325,2,0,P|258:44|288:49,1,44.0000013427735,2|0,1:2|0:0,0:0:0:0:
400,163,134500,2,0,P|404:194|399:224,1,44.0000013427735,2|0,2:2|0:0,0:0:0:0:
285,336,134674,2,0,P|254:340|224:335,1,44.0000013427735,10|0,2:2|0:0,0:0:0:0:
109,190,134849,1,2,2:2:0:0:
298,148,135023,6,0,P|310:195|303:238,1,88.000002685547,0|2,1:1|2:2,0:0:0:0:
173,129,135372,1,10,2:2:0:0:
282,31,135546,2,0,P|325:25|376:20,1,88.000002685547,2|2,2:2|1:2,0:0:0:0:
254,175,135895,1,2,2:2:0:0:
101,54,136070,1,10,2:2:0:0:
29,250,136244,6,0,P|62:226|109:198,1,88.000002685547,6|0,1:2|0:0,0:0:0:0:
256,46,136593,1,8,2:3:0:0:
256,46,136680,1,8,2:3:0:0:
256,46,136767,2,0,P|259:83|255:108,1,44.0000013427735,8|8,2:2|2:2,0:0:0:0:
402,192,136942,2,0,P|365:195|340:191,1,44.0000013427735,8|8,2:2|2:2,0:0:0:0:
256,338,137116,2,0,P|253:301|257:276,1,44.0000013427735,2|8,1:2|2:2,0:0:0:0:
110,192,137290,2,0,P|147:189|172:193,1,44.0000013427735,8|8,2:2|2:2,0:0:0:0:
330,109,137465,1,8,2:2:0:0:
78,275,137639,6,0,P|64:213|39:127,1,132.00000402832,6|0,1:2|0:0,0:0:0:0:
34,111,137988,1,0,1:1:0:0:
216,48,138163,2,0,P|168:47|109:30,1,103.999995239258,8|0,2:2|0:0,0:0:0:0:
297,135,138511,2,0,P|282:151|266:166,1,44.0000013427735,2|0,1:2|0:0,0:0:0:0:
129,192,138686,2,0,P|134:226|142:251,1,44.0000013427735,2|0,0:0|0:0,0:0:0:0:
281,338,138860,2,0,P|263:295|244:275,1,44.0000013427735,10|0,2:2|0:0,0:0:0:0:
297,135,139035,1,2,2:2:0:0:
500,255,139209,6,0,P|440:238|373:256,1,132.00000402832,0|0,1:1|0:0,0:0:0:0:
340,255,139558,2,0,P|349:207|364:163,1,88.000002685547,10|0,2:2|0:0,0:0:0:0:
178,286,139907,2,0,P|130:290|109:284,1,44.0000013427735,2|0,1:2|0:0,0:0:0:0:
192,160,140081,2,0,P|188:112|194:91,1,44.0000013427735,2|0,0:0|0:0,0:0:0:0:
318,174,140256,2,0,P|366:170|387:176,1,44.0000013427735,10|0,2:2|0:0,0:0:0:0:
283,321,140430,1,2,2:2:0:0:
488,112,140604,6,0,P|439:110|363:68,1,132.00000402832,0|0,1:1|0:0,0:0:0:0:
332,48,140953,1,8,2:2:0:0:
410,209,141128,1,0,0:0:0:0:
506,31,141302,1,0,1:1:0:0:
291,153,141476,1,10,2:2:0:0:
291,153,141564,1,0,0:0:0:0:
291,153,141651,1,10,2:2:0:0:
251,134,141738,1,8,2:3:0:0:
207,129,141825,1,10,2:3:0:0:
164,137,141912,1,8,2:3:0:0:
125,157,142000,6,0,P|107:207|142:279,1,132.00000402832,6|0,1:2|0:0,0:0:0:0:
143,366,142349,2,0,P|181:305|218:243,1,132.00000402832,14|0,2:2|0:0,0:0:0:0:
341,256,142697,2,0,P|302:316|266:379,1,132.00000402832,6|0,1:2|0:0,0:0:0:0:
385,334,143046,2,0,P|454:320|486:259,1,132.00000402832,10|0,2:2|0:0,0:0:0:0:
495,235,143395,6,0,P|452:220|408:204,1,88.000002685547,6|0,1:2|0:0,0:0:0:0:
355,69,143744,1,8,2:2:0:0:
231,136,143918,2,0,P|212:185|207:223,1,88.000002685547,2|2,1:2|1:2,0:0:0:0:
265,353,144267,1,8,2:2:0:0:
265,353,144442,1,10,2:2:0:0:
75,269,144616,6,0,P|82:216|83:172,1,88.000002685547,2|0,1:2|0:0,0:0:0:0:
40,42,144965,1,2,1:2:0:0:
195,44,145139,2,0,P|239:42|287:38,1,88.000002685547,10|2,2:2|1:2,0:0:0:0:
483,7,145488,1,2,1:2:0:0:
384,174,145663,1,8,2:2:0:0:
344,0,145837,1,12,2:2:0:0:
491,113,146011,1,2,1:2:0:0:
307,202,146186,6,0,B|249:177|196:201|196:201|170:254|92:240,1,224,6|0,1:2|0:0,0:0:0:0:
122,166,146883,1,10,2:2:0:0:
254,340,147058,1,8,2:3:0:0:
359,145,147232,1,6,2:3:0:0:
102,235,147407,6,0,P|109:202|124:160,1,71.9999978027344,6|0,1:2|0:0,0:0:0:0:
254,340,147756,2,0,P|221:333|179:318,1,71.9999978027344,0|2,1:1|2:2,0:0:0:0:
294,212,148104,1,0,1:1:0:0:
382,288,148279,2,0,P|392:319|399:364,1,71.9999978027344,14|0,2:2|0:0,0:0:0:0:
294,212,148628,2,0,P|330:188|367:176,1,71.9999978027344,2|2,2:2|1:2,0:0:0:0:
389,171,148889,1,2,0:0:0:0:
389,171,148976,6,0,P|392:131|396:96,1,71.9999978027344,2|10,0:0|2:2,0:0:0:0:
187,81,149325,2,0,P|211:112|231:141,1,71.9999978027344,2|2,2:2|1:2,0:0:0:0:
88,182,149674,1,10,2:2:0:0:
81,19,149849,1,8,2:2:0:0:
187,81,150023,1,10,2:2:0:0:
3,125,150197,6,0,P|40:109|77:95,1,71.9999978027344,6|0,1:2|0:0,0:0:0:0:
151,266,150546,1,2,1:2:0:0:
151,266,150633,1,2,0:0:0:0:
151,266,150721,2,0,P|114:250|77:236,1,71.9999978027344,2|0,2:2|1:1,0:0:0:0:
192,369,151070,1,10,2:2:0:0:
285,287,151244,2,0,P|287:246|289:211,1,71.9999978027344,0|2,0:0|1:2,0:0:0:0:
154,96,151593,6,0,P|151:136|150:172,1,71.9999978027344,10|0,2:2|0:0,0:0:0:0:
283,108,151942,1,10,2:2:0:0:
205,10,152116,2,0,P|167:3|126:-4,1,71.9999978027344,2|2,2:2|1:2,0:0:0:0:
247,184,152465,1,10,2:2:0:0:
312,12,152639,1,10,2:3:0:0:
154,96,152814,1,6,2:3:0:0:
348,137,152988,6,0,P|311:120|267:101,1,71.9999978027344,4|0,1:2|0:0,0:0:0:0:
469,89,153337,2,0,P|486:126|505:170,1,71.9999978027344,0|2,1:1|2:2,0:0:0:0:
348,137,153686,1,0,1:1:0:0:
377,15,153860,2,0,P|422:-3|456:-11,1,71.9999978027344,14|0,2:2|0:0,0:0:0:0:
348,137,154209,1,2,1:2:0:0:
255,10,154383,1,2,1:2:0:0:
209,153,154558,5,6,1:2:0:0:
152,271,154732,1,2,3:3:0:0:
152,271,154820,1,2,3:3:0:0:
152,271,154907,1,2,3:3:0:0:
280,242,155081,1,2,0:0:0:0:
209,153,155256,5,14,2:2:0:0:
254,359,155430,1,0,1:1:0:0:
412,192,155604,1,10,2:2:0:0:
152,271,155779,6,0,P|146:223|141:184,1,80,6|0,1:2|0:0,0:0:0:0:
97,29,156128,1,0,1:1:0:0:
28,192,156302,1,8,2:2:0:0:
244,148,156476,6,0,P|214:113|180:75,1,80,6|0,1:2|0:0,0:0:0:0:
28,192,156825,1,0,1:1:0:0:
97,29,157000,1,8,2:2:0:0:
205,231,157174,6,0,P|247:236|288:233,1,80,6|0,1:2|0:0,0:0:0:0:
437,196,157523,1,0,1:1:0:0:
376,330,157697,1,8,2:2:0:0:
335,84,157872,6,0,P|332:123|337:163,1,80,6|0,1:2|0:0,0:0:0:0:
258,290,158221,2,0,P|182:278|89:269,1,160,2|0,1:2|0:0,0:0:0:0:
256,87,158918,5,0,1:1:0:0:
256,87,159006,1,0,1:1:0:0:
256,87,159093,2,0,P|299:84|340:89,1,80,14|0,2:2|0:0,0:0:0:0:
429,227,159442,1,0,1:1:0:0:
429,227,159529,1,0,1:2:0:0:
429,227,159616,2,0,P|431:198|429:173,1,40,10|8,2:2|2:2,0:0:0:0:
402,342,159790,2,0,P|430:350|458:352,1,40,10|8,2:2|2:2,0:0:0:0:
304,240,159965,2,0,P|293:266|287:291,1,40,10|8,2:2|2:2,0:0:0:0:
402,341,160139,5,6,1:2:0:0:
331,128,160314,1,0,0:0:0:0:
194,307,160488,2,0,P|193:260|202:220,1,80,8|2,2:2|1:2,0:0:0:0:
208,133,160837,1,10,2:2:0:0:
117,359,161011,1,0,1:1:0:0:
208,133,161186,2,0,P|240:143|279:176,1,80,10|2,2:2|1:2,0:0:0:0:
290,204,161447,1,0,1:1:0:0:
290,204,161535,5,10,2:2:0:0:
103,236,161709,1,0,1:1:0:0:
226,40,161883,2,0,P|187:46|145:64,1,80,8|2,2:2|1:2,0:0:0:0:
290,204,162232,1,10,2:2:0:0:
372,19,162407,1,2,1:2:0:0:
481,182,162581,2,0,P|427:162|397:143,1,80,10|2,2:2|1:2,0:0:0:0:
376,133,162843,1,0,1:1:0:0:
376,133,162930,5,10,2:2:0:0:
511,91,163104,1,0,1:1:0:0:
413,290,163279,2,0,P|455:291|493:298,1,80,8|2,2:2|1:2,0:0:0:0:
362,371,163628,1,10,2:2:0:0:
481,182,163802,1,0,1:1:0:0:
261,246,163976,2,0,P|297:240|339:231,1,80,12|2,2:2|1:2,0:0:0:0:
183,114,164325,5,14,2:2:0:0:
256,331,164500,1,0,1:1:0:0:
183,114,164674,2,0,P|136:109|90:102,1,80,8|2,2:2|1:2,0:0:0:0:
26,276,165023,2,0,P|72:267|118:261,1,80,10|2,2:2|1:2,0:0:0:0:
256,331,165372,2,0,P|251:284|244:238,1,80,10|2,2:2|1:2,0:0:0:0:
242,221,165633,1,0,1:1:0:0:
242,221,165721,5,10,2:2:0:0:
370,306,165895,1,0,1:1:0:0:
174,370,166070,1,10,2:2:0:0:
255,138,166244,1,0,1:1:0:0:
370,306,166418,2,0,P|370:257|364:221,1,80,10|0,2:2|1:1,0:0:0:0:
169,63,166767,2,0,P|163:102|164:142,1,80,10|8,2:2|2:2,0:0:0:0:
168,183,167029,1,8,2:2:0:0:
168,183,167116,6,0,P|248:168|328:164,1,160,6|8,1:2|2:2,0:0:0:0:
484,352,167639,2,0,P|403:337|324:333,1,160,6|0,1:2|1:1,0:0:0:0:
461,163,168163,1,8,2:2:0:0:
250,367,168337,6,0,P|248:323|255:279,1,80,4|2,1:2|2:2,0:0:0:0:
323,156,168686,1,0,1:1:0:0:
427,293,168860,2,0,P|388:279|347:261,1,80,12|2,2:2|1:2,0:0:0:0:
250,64,169209,5,2,1:2:0:0:
178,287,169383,1,8,2:2:0:0:
394,92,169558,1,8,2:2:0:0:
178,287,169732,1,8,2:2:0:0:
323,156,169907,2,0,P|304:115|281:81,1,80,0|0,0:0|1:1,0:0:0:0:
250,64,170168,1,0,1:1:0:0:
250,64,170256,5,12,2:2:0:0:
278,302,170430,1,0,1:2:0:0:
397,122,170604,2,0,P|400:80|387:35,1,80,8|2,2:2|1:2,0:0:0:0:
235,151,170953,2,0,P|232:193|245:238,1,80,10|2,2:2|1:2,0:0:0:0:
101,346,171302,5,10,2:2:0:0:
141,99,171476,1,0,1:1:0:0:
0,245,171651,2,0,P|51:230|99:223,1,80,8|2,2:2|1:2,0:0:0:0:
178,365,172000,2,0,P|127:350|79:343,1,80,10|0,2:2|1:1,0:0:0:0:
259,173,172349,1,8,2:2:0:0:
327,366,172523,1,2,1:2:0:0:
327,366,172610,1,0,1:1:0:0:
327,366,172697,6,0,P|340:323|351:288,1,80,14|0,2:2|1:1,0:0:0:0:
468,177,173046,2,0,P|429:165|391:153,1,80,8|2,2:2|1:2,0:0:0:0:
253,269,173395,1,10,2:2:0:0:
338,85,173570,1,2,1:2:0:0:
443,258,173744,1,10,2:2:0:0:
236,145,173918,1,2,1:2:0:0:
504,40,174093,6,0,P|460:52|422:81,1,80,10|0,2:2|1:1,0:0:0:0:
338,85,174354,2,0,P|363:123|392:147,1,80,2|0,2:2|0:0,0:0:0:0:
484,132,174616,1,2,1:2:0:0:
257,40,174790,5,10,2:3:0:0:
257,40,174878,1,8,2:3:0:0:
257,40,174965,2,0,P|213:51|194:62,1,40,4|4,2:3|2:3,0:0:0:0:
300,224,175139,1,14,2:2:0:0:
81,131,175314,1,2,2:2:0:0:
300,224,175488,6,0,P|349:230|396:228,1,80,14|0,2:2|1:1,0:0:0:0:
480,193,175837,1,0,1:1:0:0:
348,49,176011,2,0,P|342:98|344:145,1,80,14|0,2:2|1:1,0:0:0:0:
379,229,176360,1,0,1:1:0:0:
184,188,176535,2,0,P|221:155|251:119,1,80,14|0,2:2|1:1,0:0:0:0:
34,128,176883,5,0,1:1:0:0:
93,279,177058,2,0,P|137:284|185:292,1,80,14|0,2:2|1:1,0:0:0:0:
296,374,177407,1,0,1:1:0:0:
379,229,177581,2,0,P|337:248|294:262,1,80,14|0,2:2|1:1,0:0:0:0:
356,92,177930,1,10,2:2:0:0:
457,268,178104,1,0,1:1:0:0:
248,182,178279,1,14,2:2:0:0:
168,338,180546,5,10,2:3:0:0:
345,138,180721,1,4,2:3:0:0:
345,351,180895,1,0,1:1:0:0:
139,130,181070,5,6,1:2:0:0:
287,253,181244,1,8,2:3:0:0:
318,253,181331,1,8,2:3:0:0:
349,243,181418,1,6,2:3:0:0:
253,36,181593,1,8,2:3:0:0:
139,130,181767,1,6,2:3:0:0:
139,161,181854,1,4,2:3:0:0:
149,192,181941,1,8,2:3:0:0:
255,350,182116,1,10,3:3:0:0:
380,162,182290,1,0,1:1:0:0:
380,162,182377,1,0,1:1:0:0:
380,162,182465,6,0,P|383:120|384:80,1,80,2|0,1:2|1:1,0:0:0:0:
252,190,182814,1,10,2:2:0:0:
252,190,182901,1,8,2:2:0:0:
252,190,182988,1,2,1:2:0:0:
362,303,183163,2,0,P|413:299|448:292,1,80,8|10,2:2|2:3,0:0:0:0:
470,284,183424,1,8,2:3:0:0:
470,284,183511,2,0,P|468:252|463:219,1,40,4|4,2:3|2:3,0:0:0:0:
364,148,183686,2,0,P|366:179|371:213,1,40,0|0,1:1|1:1,0:0:0:0:
414,79,183860,6,0,B|362:51|318:72|318:72|266:54|252:5,1,192,4|0,1:2|0:0,0:0:0:0:
142,71,184558,2,0,B|107:135|141:199|141:199|130:231|96:247,1,192,6|0,2:2|0:0,0:0:0:0:
8,331,185256,2,0,B|65:319|129:355|129:355|173:344|182:307,1,192,2|0,2:2|0:0,0:0:0:0:
259,174,185953,2,0,P|348:152|439:217,1,192,2|4,2:2|2:2,0:0:0:0:
447,311,186651,6,0,P|378:301|309:296,1,128,4|0,0:0|0:0,0:0:0:0:
184,353,187174,1,0,0:0:0:0:
184,353,187349,2,0,P|193:284|199:215,1,128,2|0,2:2|0:0,0:0:0:0:
95,120,187872,1,2,2:2:0:0:
95,120,188047,2,0,P|163:129|233:135,1,128
358,126,188570,1,0,0:0:0:0:
253,48,188744,6,0,P|202:46|178:43,1,64,2|2,2:2|2:2,0:0:0:0:
358,126,189093,2,0,P|360:75|363:51,1,64,2|2,2:2|2:2,0:0:0:0:
456,204,189442,2,0,P|393:207|313:223,1,128,0|2,0:0|2:2,0:0:0:0:
213,267,189965,1,2,2:2:0:0:
213,267,190139,6,0,P|214:225|221:188,1,64,0|2,0:0|2:2,0:0:0:0:
150,103,190488,2,0,P|187:91|219:91,1,64,2|2,2:2|2:2,0:0:0:0:
83,198,190837,2,0,P|76:127|64:59,1,128
2,244,191360,1,0,0:0:0:0:
2,244,191535,2,0,P|48:240|133:260,1,128,2|0,2:2|0:0,0:0:0:0:
218,364,192058,2,0,P|218:295|234:233,1,128,2|0,2:2|0:0,0:0:0:0:
332,140,192581,6,0,P|288:145|247:146,1,64
329,237,192930,2,0,P|388:226|465:228,1,128,2|0,2:2|0:0,0:0:0:0:
332,140,193453,2,0,P|321:81|323:4,1,128,2|0,2:2|0:0,0:0:0:0:
431,128,193976,2,0,P|419:93|415:60,1,64
213,106,194325,1,6,1:2:0:0:
213,106,194413,1,0,0:0:0:0:
213,106,194500,2,0,P|201:137|198:162,1,32,10|8,2:2|2:2,0:0:0:0:
153,239,194674,2,0,P|184:251|209:254,1,32,10|0,2:2|0:0,0:0:0:0:
324,193,194849,5,6,1:2:0:0:
297,356,195023,1,0,0:0:0:0:
153,239,195197,1,2,1:2:0:0:
365,267,195372,5,2,1:2:0:0:
209,179,195546,1,10,2:2:0:0:
371,105,195721,1,10,2:2:0:0:
256,280,195895,5,6,2:2:0:0:
224,82,196070,1,2,1:2:0:0:
403,189,196244,2,0,P|359:189|316:193,1,80,14|0,2:2|0:0,0:0:0:0:
128,301,196593,5,0,1:1:0:0:
224,82,196767,1,10,1:2:0:0:
224,82,196854,1,0,1:2:0:0:
224,82,196942,2,0,P|271:78|284:77,1,40,2|0,1:2|0:0,0:0:0:0:
408,272,197116,2,0,P|361:276|348:277,1,40,2|8,1:2|2:2,0:0:0:0:
128,301,197290,5,10,2:2:0:0:
115,263,197377,1,8,2:2:0:0:
114,223,197464,1,10,2:2:0:0:
125,184,197551,1,0,0:0:0:0:
146,151,197639,2,0,P|208:156|278:159,1,120,2|0,1:2|0:0,0:0:0:0:
347,241,197988,1,0,1:1:0:0:
347,241,198075,1,0,1:1:0:0:
347,241,198163,6,0,P|288:242|211:240,1,120.000004577637,14|0,2:2|1:1,0:0:0:0:
362,341,198511,1,14,2:2:0:0:
468,275,198686,1,8,2:2:0:0:
468,275,198773,1,8,2:2:0:0:
468,275,198860,2,0,P|476:237|474:181,1,88.000002685547,8|6,2:2|1:2,0:0:0:0:
352,39,199209,6,0,P|323:43|284:45,1,44.0000013427735,2|0,0:0|0:0,0:0:0:0:
160,39,199383,2,0,P|189:43|228:45,1,44.0000013427735,2|0,1:2|0:0,0:0:0:0:
348,128,199558,2,0,P|319:132|280:134,1,44.0000013427735,10|0,2:2|0:0,0:0:0:0:
164,128,199732,2,0,P|193:132|232:134,1,44.0000013427735,2|0,0:0|0:0,0:0:0:0:
340,221,199907,2,0,P|284:221|209:247,1,132.00000402832,2|0,1:2|0:0,0:0:0:0:
191,260,200256,2,0,P|183:292|182:353,1,88.000002685547,8|2,2:2|2:2,0:0:0:0:
414,254,200604,6,0,P|413:195|365:140,1,132.00000402832,0|0,1:1|0:0,0:0:0:0:
336,127,200953,1,8,2:2:0:0:
181,234,201128,1,0,0:0:0:0:
201,80,201302,1,0,1:1:0:0:
329,209,201476,1,10,2:2:0:0:
112,298,201651,1,10,2:2:0:0:
100,268,201738,1,8,2:2:0:0:
97,237,201825,1,10,2:2:0:0:
103,207,201912,1,8,2:2:0:0:
116,179,202000,6,0,B|119:131|101:95|101:95|131:55,1,132.00000402832,6|0,1:2|0:0,0:0:0:0:
269,10,202349,2,0,B|266:58|284:94|284:94|254:134,1,132.00000402832,6|0,1:2|0:0,0:0:0:0:
176,249,202697,2,0,P|229:233|307:253,1,132.00000402832,6|0,1:2|0:0,0:0:0:0:
385,337,203046,2,0,P|321:353|258:336,1,132.00000402832,6|0,1:2|0:0,0:0:0:0:
390,227,203395,5,6,1:2:0:0:
469,379,203570,1,0,0:0:0:0:
512,201,203744,2,0,P|485:250|465:280,1,88.000002685547,8|2,2:2|1:2,0:0:0:0:
385,337,204093,1,2,1:2:0:0:
324,174,204267,1,8,2:2:0:0:
324,174,204442,1,10,2:2:0:0:
192,251,204616,6,0,P|252:254|286:259,1,88.000002685547,6|0,1:2|0:0,0:0:0:0:
108,348,204965,1,2,1:2:0:0:
174,152,205139,1,10,2:2:0:0:
256,329,205314,1,2,1:2:0:0:
86,224,205488,1,2,1:2:0:0:
254,120,205663,1,8,2:2:0:0:
254,120,205837,1,8,2:2:0:0:
256,329,206011,1,2,1:2:0:0:
86,224,206186,6,0,P|97:182|105:133,1,88.000002685547,6|0,1:2|0:0,0:0:0:0:
235,34,206535,2,0,P|241:77|253:119,1,88.000002685547,8|2,2:2|1:2,0:0:0:0:
299,283,206883,1,10,2:2:0:0:
376,124,207058,1,0,1:1:0:0:
214,190,207232,1,10,2:2:0:0:
417,236,207407,6,0,P|368:211|332:200,1,88.000002685547,6|0,1:2|0:0,0:0:0:0:
397,363,207756,1,2,1:2:0:0:
506,265,207930,2,0,P|512:218|513:172,1,88.000002685547,10|8,2:2|2:3,0:0:0:0:
496,101,208163,5,8,2:3:0:0:
496,101,208221,1,8,2:3:0:0:
496,101,208279,2,0,P|506:50|507:27,2,58.6666684570313,8|8|4,2:3|2:3|2:3,0:0:0:0:
376,124,208628,2,0,P|379:153|386:181,2,58.6666684570313,6|0|0,2:2|1:1|1:1,0:0:0:0:
414,20,208976,6,0,P|353:33|279:40,1,128,6|0,2:2|0:0,0:0:0:0:
195,140,209500,1,2,2:2:0:0:
195,140,209674,2,0,P|182:79|175:5,1,128,2|2,2:2|2:2,0:0:0:0:
95,119,210197,6,0,P|104:168|110:194,1,64,2|0,2:2|0:0,0:0:0:0:
86,310,210546,2,0,P|135:301|161:295,1,64,2|2,2:2|2:2,0:0:0:0:
297,265,210895,1,2,2:2:0:0:
228,371,211070,1,10,2:3:0:0:
192,219,211244,1,0,1:1:0:0:
192,219,211331,1,0,1:1:0:0:
192,219,211418,2,0,P|227:203|259:196,1,64,12|2,2:2|2:2,0:0:0:0:
426,266,211767,5,10,2:2:0:0:
426,266,211854,1,8,2:2:0:0:
426,266,211942,1,8,2:2:0:0:
426,266,212029,1,8,2:2:0:0:
426,266,212116,1,0,1:1:0:0:
371,114,212290,1,10,2:2:0:0:
371,114,212377,1,8,2:2:0:0:
371,114,212465,2,0,P|331:107|289:99,1,80,2|8,1:2|2:2,0:0:0:0:
255,87,212726,1,8,2:2:0:0:
255,87,212814,1,10,2:2:0:0:
153,209,212988,6,0,P|146:169|138:130,1,80,6|0,1:2|0:0,0:0:0:0:
59,280,213337,1,0,1:1:0:0:
173,65,213511,1,8,2:2:0:0:
255,270,213686,1,8,2:2:0:0:
56,170,213860,5,0,1:1:0:0:
255,30,214122,1,8,1:2:0:0:
251,305,214383,1,12,1:2:0:0:
251,305,214558,2,0,B|298:289|345:321|345:321|414:319|483:279|451:189,1,280,2|0,0:0|0:0,0:0:0:0:
450,176,215256,2,0,B|412:159|376:179|376:179|325:178|304:133,1,160,2|0,2:2|0:0,0:0:0:0:
285,112,215779,5,6,1:2:0:0:
144,233,215953,1,0,0:0:0:0:
138,48,216128,1,2,2:2:0:0:
259,206,216302,1,10,2:2:0:0:
57,149,216476,1,2,2:2:0:0:
233,30,216651,2,0,P|285:32|327:38,1,80,2|2,1:2|2:2,0:0:0:0:
136,143,217000,2,0,P|84:145|42:151,1,80,10|2,2:2|2:2,0:0:0:0:
211,288,217349,5,0,1:1:0:0:
302,123,217523,1,2,2:2:0:0:
364,286,217697,1,10,2:2:0:0:
214,192,217872,1,2,2:2:0:0:
372,84,218046,2,0,P|381:132|376:167,1,80,2|2,1:2|2:2,0:0:0:0:
275,327,218395,2,0,P|271:287|280:248,1,80,10|2,2:2|2:2,0:0:0:0:
124,79,218744,5,0,1:1:0:0:
163,248,218918,1,2,2:2:0:0:
281,93,219093,1,10,2:2:0:0:
69,142,219267,1,2,2:2:0:0:
234,179,219442,2,0,P|248:216|260:255,1,80,2|2,1:2|2:2,0:0:0:0:
54,309,219790,2,0,P|70:259|84:223,1,80,10|2,2:2|2:2,0:0:0:0:
255,356,220139,5,2,1:2:0:0:
140,132,220314,1,10,2:2:0:0:
140,132,220401,1,8,2:2:0:0:
140,132,220488,2,0,P|175:113|200:108,1,40,10|8,2:2|2:2,0:0:0:0:
291,85,220663,1,6,1:2:0:0:
340,192,220837,1,10,2:2:0:0:
332,222,220924,1,8,2:2:0:0:
315,249,221011,1,8,2:2:0:0:
290,270,221098,1,8,2:2:0:0:
260,281,221185,1,8,2:2:0:0:
291,85,221360,6,0,P|355:83|393:84,1,80,6|0,1:2|0:0,0:0:0:0:
440,228,221709,1,2,2:2:0:0:
500,60,221883,1,14,2:2:0:0:
340,192,222058,1,2,2:2:0:0:
511,266,222232,1,2,1:2:0:0:
370,83,222407,1,2,2:2:0:0:
333,282,222581,1,10,2:2:0:0:
463,127,222756,1,0,0:0:0:0:
255,151,222930,5,0,1:1:0:0:
409,252,223104,1,2,2:2:0:0:
254,362,223279,1,10,2:2:0:0:
341,155,223453,1,2,2:2:0:0:
400,362,223628,1,2,1:2:0:0:
213,236,223802,1,2,2:2:0:0:
412,120,223976,1,10,2:2:0:0:
312,285,224151,6,0,P|370:276|398:273,1,80,2|0,2:2|1:1,0:0:0:0:
184,348,224500,2,0,P|144:343|104:336,1,80,2|8,2:2|2:2,0:0:0:0:
323,364,224849,2,0,P|318:324|311:284,1,80,2|2,2:2|1:2,0:0:0:0:
155,154,225197,2,0,P|159:193|166:233,1,80,2|10,2:2|2:2,0:0:0:0:
310,130,225546,1,10,2:3:0:0:
86,238,225721,5,6,1:2:0:0:
137,29,225895,1,10,2:3:0:0:
255,207,226070,1,10,2:2:0:0:
42,111,226244,1,6,1:2:0:0:
257,24,226418,2,0,L|242:0,6,20,0|0|0|0|8|0|0,0:0|0:0|0:0|0:0|2:2|0:0|0:0,0:0:0:0:
285,41,226767,1,8,2:2:0:0:
312,45,226854,1,8,2:2:0:0:
340,41,226941,1,8,2:2:0:0:
366,31,227028,1,8,2:2:0:0:
390,15,227116,6,0,P|394:87|391:137,1,120,4|0,1:2|0:0,0:0:0:0:
380,166,227465,2,0,P|421:160|464:159,1,80,14|0,2:2|0:0,0:0:0:0:
349,311,227814,1,2,1:2:0:0:
459,158,227988,1,0,0:0:0:0:
282,70,228163,2,0,P|280:109|281:149,1,80,10|2,2:2|2:2,0:0:0:0:
210,315,228511,6,0,P|185:283|159:253,1,80,0|2,1:1|2:2,0:0:0:0:
29,134,228860,1,8,2:2:0:0:
46,329,229035,1,2,2:2:0:0:
191,122,229209,2,0,P|159:146|129:172,1,80,2|12,1:2|2:2,0:0:0:0:
148,365,229558,2,0,P|179:340|209:314,1,80,10|8,2:2|2:2,0:0:0:0:
236,293,229820,1,8,2:2:0:0:
236,293,229907,6,0,P|301:286|356:295,1,120,4|0,1:2|0:0,0:0:0:0:
384,306,230256,2,0,P|396:270|409:219,1,80,10|0,2:2|0:0,0:0:0:0:
418,86,230604,2,0,P|382:98|331:111,1,80,2|0,1:2|0:0,0:0:0:0:
138,163,230953,1,10,2:2:0:0:
211,29,231128,1,10,2:2:0:0:
250,254,231302,6,0,P|255:200|254:164,1,80,0|14,1:1|2:2,0:0:0:0:
256,362,231651,1,0,1:1:0:0:
256,362,231738,1,8,2:2:0:0:
256,362,231825,1,2,2:2:0:0:
256,362,231913,1,8,2:2:0:0:
256,362,232000,2,0,P|298:348|338:328,1,80,10|8,2:2|2:3,0:0:0:0:
328,144,232349,2,0,P|286:158|246:178,1,80,10|8,2:2|2:2,0:0:0:0:
224,193,232610,1,8,2:2:0:0:
224,193,232697,6,0,B|170:181|129:204|129:204|21:143|85:38,1,280,6|0,1:2|0:0,0:0:0:0:
91,23,233395,2,0,B|152:9|194:58|194:58|298:89|355:3,1,280,2|0,2:2|0:0,0:0:0:0:
373,0,234093,2,0,B|442:35|435:109|435:109|390:191|476:251,1,280,2|0,2:2|0:0,0:0:0:0:
486,259,234790,5,10,1:2:0:0:
337,82,234965,1,8,1:2:0:0:
512,68,235139,1,8,1:2:0:0:
346,279,235314,1,14,1:2:0:0:
