osu file format v14

[General]
AudioFilename: audio.mp3
AudioLeadIn: 0
PreviewTime: 180628
Countdown: 0
SampleSet: Soft
StackLeniency: 0.7
Mode: 0
LetterboxInBreaks: 0
WidescreenStoryboard: 1

[Editor]
DistanceSpacing: 1
BeatDivisor: 2
GridSize: 32
TimelineZoom: 1.6

[Metadata]
Title:Snow White
TitleUnicode:Snow White
Artist:Inori Minase
ArtistUnicode:水瀬いのり
Creator:Wen
Version:Normal
Source:
Tags:wonder caravan! inorin いのりん j-pop jpop japanese pop female vocalist kowari christmas xmas x-mas winter FURUTA Dr.Lilcom
BeatmapID:3325730
BeatmapSetID:1629102

[Difficulty]
HPDrainRate:3.5
CircleSize:3.2
OverallDifficulty:4
ApproachRate:5
SliderMultiplier:1
SliderTickRate:1

[Events]
//Background and Video events
0,0,"Snow White Bg.jpg",0,0
//Break Periods
2,83376,85073
2,180724,182041
2,208795,209911
2,218085,219200
//Storyboard Layer 0 (Background)
//Storyboard Layer 1 (Fail)
//Storyboard Layer 2 (Pass)
//Storyboard Layer 3 (Foreground)
//Storyboard Layer 4 (Overlay)
//Storyboard Sound Samples

[TimingPoints]
1112,387.096774193548,4,2,1,45,1,0
1112,-100,4,2,1,45,0,0
7305,-100,4,2,1,60,0,0
18144,-100,4,2,1,45,0,0
29176,-100,4,2,1,60,0,0
30531,-100,4,2,1,55,0,0
55305,-100,4,2,1,70,0,1
59757,-100,4,2,2,70,0,1
59853,-100,4,2,1,70,0,1
72144,-100,4,2,2,70,0,1
72241,-100,4,2,1,70,0,1
80079,-100,4,2,1,50,0,0
86273,-100,4,2,1,55,0,0
92079,-100,4,2,1,55,0,0
92466,-100,4,2,1,55,0,0
103499,-100,4,2,1,45,0,0
103886,-100,4,2,1,50,0,0
104273,-100,4,2,1,55,0,0
104853,-100,4,2,1,55,0,0
129628,-100,4,2,1,70,0,1
134079,-100,4,2,2,70,0,1
134176,-100,4,2,1,70,0,1
146466,-100,4,2,2,70,0,1
146563,-100,4,2,1,70,0,1
154402,-100,4,2,1,65,0,0
167176,-100,4,2,1,55,0,0
179950,-100,4,2,1,40,0,0
180724,-100,4,2,1,45,0,0
185176,-100,4,2,1,60,0,0
187305,-100,4,2,1,70,0,1
188273,-100,4,2,2,70,0,1
188370,-100,4,2,1,70,0,1
200660,-100,4,2,2,70,0,1
200757,-100,4,2,1,70,0,1
208595,-100,4,2,1,60,0,0
210918,-100,4,2,1,65,0,0
211692,383.386581469649,4,2,1,65,1,0
214375,413.793103448276,4,2,1,65,1,0
214788,387.096774193548,4,2,1,65,1,0
215175,-100,4,2,1,50,0,0
220981,-100,4,2,1,55,0,0
227175,-100,4,2,1,60,0,0
230271,-100,4,2,1,45,0,0
233368,-100,4,2,1,40,0,0
234723,-100,4,2,1,30,0,0
236271,-100,4,2,1,20,0,0
237820,-100,4,2,1,10,0,0
239368,-100,4,2,1,5,0,0

[Colours]
Combo1 : 128,128,128
Combo2 : 243,166,129
Combo3 : 64,179,89
Combo4 : 61,131,235
Combo5 : 243,90,90
Combo6 : 192,192,192

[HitObjects]
463,32,7305,5,4,1:0:0:0:
398,107,7692,2,0,L|298:121,1,100,10|0,0:0|1:2,0:0:0:0:
255,108,8273,1,2,1:2:0:0:
255,108,8466,1,8,0:0:0:0:
170,54,8853,1,2,0:0:0:0:
94,120,9241,2,0,L|80:220,1,100,10|2,0:0|1:2,0:0:0:0:
52,261,9821,1,2,1:2:0:0:
52,261,10015,1,10,0:0:0:0:
121,332,10402,5,2,1:2:0:0:
194,264,10789,2,0,B|215:218|215:218|206:169,2,100,10|2|10,0:0|1:2|0:0,0:0:0:0:
245,349,11950,1,2,1:2:0:0:
330,297,12337,1,10,0:0:0:0:
410,356,12724,2,0,L|459:363,1,50,10|8,0:0|0:3,0:0:0:0:
501,337,13111,1,10,0:0:0:0:
475,239,13499,6,0,L|482:189,1,50,6|2,1:0|0:0,0:0:0:0:
512,151,13886,1,2,1:2:0:0:
512,151,14079,2,0,B|476:142|476:142|459:124|459:124|422:115,1,100,10|2,0:0|1:2,0:0:0:0:
407,66,14660,2,0,B|371:74|371:74|354:92|354:92|317:101,1,100,14|0,0:0|1:2,0:0:0:0:
273,121,15241,1,10,0:0:0:0:
273,121,15434,1,0,1:2:0:0:
203,48,15821,2,0,L|153:39,1,50,10|0,0:0|1:2,0:0:0:0:
112,11,16208,2,0,L|13:27,1,100,14|2,0:0|0:0,0:0:0:0:
22,384,18144,22,0,L|37:285,1,100,6|0,1:2|1:2,0:0:0:0:
85,272,18724,2,0,L|70:173,1,100,2|2,0:0|0:0,0:0:0:0:
30,142,19305,1,0,1:2:0:0:
52,44,19692,2,0,P|100:34|145:54,1,100,2|0,1:2|1:2,0:0:0:0:
205,133,20466,1,0,1:2:0:0:
295,91,20853,2,0,L|303:41,1,50,2|2,1:2|1:2,0:0:0:0:
354,32,21241,6,0,B|394:38|394:38|407:50|407:50|448:57,1,100,2|2,1:2|1:2,0:0:0:0:
510,135,22015,2,0,B|470:141|470:141|456:153|456:153|416:160,1,100,2|2,1:2|1:2,0:0:0:0:
384,255,22789,2,0,L|394:354,1,100,2|0,1:2|1:2,0:0:0:0:
300,319,23563,1,0,1:2:0:0:
219,378,23950,2,0,L|169:383,1,50,2|2,1:2|0:0,0:0:0:0:
119,380,24337,70,0,P|100:334|115:287,1,100,2|0,1:2|1:2,0:0:0:0:
99,246,24918,1,2,0:0:0:0:
99,246,25111,2,0,L|49:251,2,50,2|2|2,1:2|0:0|1:2,0:0:0:0:
165,171,25886,2,0,B|205:177|205:177|218:189|218:189|259:196,2,100,2|0|2,1:2|1:2|1:2,0:0:0:0:
136,137,26853,1,2,0:0:0:0:
136,137,27047,2,0,L|131:87,1,50,2|2,1:2|1:2,0:0:0:0:
163,49,27434,6,0,B|203:43|203:43|216:31|216:31|257:24,1,100,0|0,1:2|1:2,0:0:0:0:
351,58,28208,1,2,1:2:0:0:
438,9,28595,2,0,P|457:55|442:102,1,100,2|2,1:2|0:0,0:0:0:0:
415,144,29176,1,10,0:0:0:0:
415,144,29370,2,0,L|365:148,1,50,10|2,0:0|1:2,0:0:0:0:
340,191,29757,2,0,L|290:195,1,50,10|2,0:0|1:2,0:0:0:0:
240,196,30144,1,14,0:0:0:0:
181,277,30531,5,4,1:0:0:0:
271,319,30918,1,10,0:0:0:0:
365,364,31305,1,0,1:2:0:0:
365,364,31499,2,0,L|374:264,1,100,2|0,1:2|0:0,0:0:0:0:
414,235,32079,2,0,P|450:238|480:261,2,75,2|2|2,1:2|1:2|1:2,0:0:0:0:
375,202,32853,2,0,P|338:198|308:175,2,75,2|2|2,1:2|1:2|1:2,0:0:0:0:
418,177,33628,6,0,L|409:78,1,100,2|8,1:2|0:0,0:0:0:0:
408,31,34208,1,2,1:2:0:0:
408,31,34402,1,0,1:2:0:0:
321,81,34789,1,8,0:0:0:0:
235,29,35176,1,0,1:2:0:0:
168,103,35563,2,0,P|138:63|136:14,2,100,10|2|10,0:0|1:2|0:0,0:0:0:0:
144,203,36724,6,0,L|45:218,1,100,6|8,1:2|0:0,0:0:0:0:
6,250,37305,1,2,0:0:0:0:
88,306,37692,2,0,L|187:321,1,100,0|0,1:2|1:2,0:0:0:0:
221,357,38273,2,0,L|319:373,1,100,2|10,1:2|0:0,0:0:0:0:
355,338,38853,1,2,1:2:0:0:
355,338,39047,2,0,P|361:314|355:290,1,50,0|2,1:2|0:0,0:0:0:0:
326,248,39434,1,8,0:0:0:0:
285,131,39821,6,0,L|295:31,1,100,2|8,1:2|0:0,0:0:0:0:
397,4,40595,2,0,L|386:103,1,100,0|8,1:2|0:0,0:0:0:0:
435,190,41370,2,0,L|440:239,1,50,10|8,0:0|0:0,0:0:0:0:
472,277,41757,1,10,0:0:0:0:
388,329,42144,2,0,L|339:324,1,50,2|8,0:0|0:3,0:0:0:0:
291,341,42531,1,8,0:0:0:0:
200,298,42918,38,0,B|159:305|159:305|147:319|147:319|107:327,1,100,6|10,1:0|0:0,0:0:0:0:
65,312,43499,1,2,0:0:0:0:
65,312,43692,2,0,L|56:262,1,50,2|2,1:2|1:2,0:0:0:0:
29,220,44079,1,10,0:0:0:0:
90,140,44466,2,0,L|99:90,1,50,2|2,1:2|0:0,0:0:0:0:
124,47,44853,2,0,L|223:35,1,100,10|2,0:0|1:2,0:0:0:0:
275,53,45434,1,0,1:2:0:0:
275,53,45628,1,10,0:0:0:0:
338,130,46015,1,0,1:2:0:0:
415,193,46402,6,0,L|424:243,2,50,10|2|2,0:0|1:2|1:2,0:0:0:0:
439,151,46982,1,2,1:2:0:0:
439,151,47176,1,10,0:0:0:0:
494,69,47563,1,2,0:0:0:0:
494,69,47757,2,0,L|445:62,1,50,10|2,0:0|0:0,0:0:0:0:
406,29,48144,2,0,L|308:44,1,100,14|0,0:0|1:2,0:0:0:0:
261,23,48724,1,10,0:0:0:0:
189,92,49111,6,0,P|169:137|179:185,1,100,6|8,1:0|0:0,0:0:0:0:
212,223,49692,2,0,L|310:238,1,100,2|0,1:2|1:2,0:0:0:0:
359,224,50273,1,10,0:0:0:0:
457,239,50660,2,0,L|468:164,2,75,2|2|2,1:2|1:2|1:2,0:0:0:0:
439,286,51434,2,0,L|446:335,1,50,2|0,1:2|1:2,0:0:0:0:
435,384,51821,1,8,0:0:0:0:
356,322,52208,5,6,1:2:0:0:
275,381,52595,1,10,0:0:0:0:
189,330,52982,2,0,L|139:322,1,50,4|8,0:3|0:3,0:0:0:0:
96,344,53370,1,8,0:0:0:0:
96,344,53563,1,6,1:0:0:0:
20,278,53950,2,0,L|33:178,1,100,2|2,1:2|0:0,0:0:0:0:
18,136,54531,1,10,0:0:0:0:
18,136,54724,1,10,0:0:0:0:
124,29,55305,38,0,P|173:32|209:65,1,100,6|10,1:0|0:0,0:0:0:0:
232,111,55886,2,0,P|276:132|324:123,1,100,2|2,1:2|1:2,0:0:0:0:
422,103,56660,2,0,L|436:5,2,100,2|2|0,1:2|1:2|1:2,0:0:0:0:
447,146,57628,2,0,L|455:195,1,50,0|0,1:2|1:2,0:0:0:0:
441,243,58015,1,8,0:0:0:0:
361,307,58402,6,0,P|387:332|424:340,2,75,2|2|2,1:2|1:2|1:2,0:0:0:0:
311,301,59176,2,0,L|262:309,1,50,0|10,1:2|0:3,0:0:0:0:
222,338,59563,1,8,0:0:0:0:
222,338,59757,2,0,B|180:345|180:345|168:358|168:358|129:365,1,100,6|2,1:2|1:2,0:0:0:0:
84,357,60337,1,8,0:0:0:0:
84,357,60531,2,0,P|62:312|72:264,1,100,2|0,1:2|1:2,0:0:0:0:
106,227,61111,1,8,0:0:0:0:
45,147,61499,5,6,1:0:0:0:
113,66,61886,1,10,0:0:0:0:
113,66,62079,2,0,L|163:76,1,50,2|2,1:2|1:2,0:0:0:0:
198,110,62466,2,0,L|248:100,1,50,10|10,0:3|0:0,0:0:0:0:
288,72,62853,1,2,1:2:0:0:
320,166,63241,2,0,P|341:210|331:258,1,100,2|2,1:2|1:2,0:0:0:0:
300,297,63821,2,0,B|342:303|342:303|354:317|354:317|393:324,1,100,2|8,1:2|0:0,0:0:0:0:
491,311,64595,5,6,1:2:0:0:
475,212,64982,2,0,L|485:162,1,50,8|2,0:0|1:2,0:0:0:0:
444,132,65370,2,0,L|434:32,1,100,10|0,0:0|1:2,0:0:0:0:
398,5,65950,1,14,0:0:0:0:
398,5,66144,2,0,P|349:7|313:40,1,100,2|8,0:0|0:0,0:0:0:0:
237,107,66918,1,2,1:2:0:0:
237,107,67111,1,8,0:0:0:0:
237,107,67305,2,0,L|187:100,1,50,8|8,0:0|0:3,0:0:0:0:
149,67,67692,38,0,P|111:35|62:35,1,100,6|10,1:0|0:0,0:0:0:0:
23,65,68273,2,0,L|29:164,1,100,2|10,1:2|0:3,0:0:0:0:
62,209,68853,1,8,0:0:0:0:
62,209,69047,2,0,B|110:224|110:224|157:208,1,100,2|2,1:2|1:2,0:0:0:0:
247,165,69821,2,0,B|295:150|295:150|342:166,1,100,2|8,1:2|0:3,0:0:0:0:
373,205,70402,1,8,0:0:0:0:
464,165,70789,6,0,L|471:90,2,75,2|2|2,1:2|1:2|1:2,0:0:0:0:
488,214,71563,1,0,1:2:0:0:
488,214,71757,2,0,L|493:263,1,50,2|8,1:2|0:0,0:0:0:0:
473,309,72144,2,0,B|420:315|443:348|386:353,1,100,6|2,1:2|1:2,0:0:0:0:
347,332,72724,1,8,0:0:0:0:
347,332,72918,2,0,L|247:342,1,100,2|8,1:2|0:3,0:0:0:0:
216,303,73499,1,8,0:0:0:0:
131,248,73886,38,0,L|139:348,2,100,4|0|2,1:2|1:2|1:2,0:0:0:0:
209,187,75047,1,0,1:2:0:0:
115,151,75434,2,0,L|15:159,2,100,2|0|2,1:2|1:2|1:2,0:0:0:0:
189,84,76595,1,0,1:2:0:0:
268,23,76982,21,14,0:0:0:0:
355,72,77370,1,10,0:0:0:0:
304,158,77757,2,0,L|313:207,1,50,10|8,0:0|0:0,0:0:0:0:
351,239,78144,2,0,L|341:288,1,50,8|2,0:0|1:2,0:0:0:0:
334,337,78531,1,2,0:0:0:0:
422,383,78918,1,12,0:0:0:0:
489,309,79305,2,0,L|479:260,1,50,4|8,0:3|0:3,0:0:0:0:
485,210,79692,1,8,0:0:0:0:
410,143,80079,5,6,1:2:0:0:
256,192,80273,12,2,83176,1:2:0:0:
74,340,86273,70,0,L|0:346,2,75,6|2|2,1:0|1:2|1:2,0:0:0:0:
141,266,87241,1,2,1:2:0:0:
141,266,87434,1,8,0:0:0:0:
201,186,87821,2,0,L|195:112,2,75,2|2|10,1:2|1:2|0:0,0:0:0:0:
290,242,88789,1,0,1:2:0:0:
290,242,88982,2,0,L|339:237,1,50,10|10,0:0|0:3,0:0:0:0:
386,255,89370,6,0,L|485:244,1,100,6|8,1:0|0:0,0:0:0:0:
430,160,90144,2,0,L|425:110,1,50,0|0,1:2|1:2,0:0:0:0:
450,66,90531,1,8,0:0:0:0:
367,9,90918,2,0,P|318:0|274:20,1,100,6|0,1:0|1:2,0:0:0:0:
194,81,91692,2,0,P|145:89|101:69,1,100,2|8,1:2|0:0,0:0:0:0:
7,33,92466,38,0,L|22:132,1,100,6|8,1:2|0:0,0:0:0:0:
64,158,93047,2,0,L|49:257,1,100,2|2,1:2|1:2,0:0:0:0:
10,288,93628,1,8,0:0:0:0:
88,350,94015,2,0,P|136:360|181:340,1,100,2|8,1:2|0:0,0:0:0:0:
249,266,94789,1,0,1:2:0:0:
300,350,95176,2,0,L|349:343,1,50,10|0,0:0|1:2,0:0:0:0:
397,357,95563,6,0,B|443:369|443:369|492:350,1,100,2|10,1:2|0:0,0:0:0:0:
491,250,96337,2,0,B|445:238|445:238|395:257,1,100,2|10,0:0|0:0,0:0:0:0:
296,255,97111,2,0,L|306:156,1,100,2|8,1:2|0:0,0:0:0:0:
406,150,97886,1,2,1:2:0:0:
461,67,98273,2,0,L|466:17,1,50,8|2,0:0|1:2,0:0:0:0:
417,29,98660,70,0,L|317:20,1,100,2|8,1:2|0:0,0:0:0:0:
279,51,99241,1,2,0:0:0:0:
279,51,99434,2,0,L|284:101,2,50,2|2|10,0:0|1:2|0:0,0:0:0:0:
178,46,100208,2,0,B|138:40|138:40|125:28|125:28|84:21,1,100,2|8,1:2|0:0,0:0:0:0:
41,48,100789,1,0,1:2:0:0:
110,127,101176,1,2,1:2:0:0:
110,127,101370,2,0,L|115:177,1,50,10|2,0:0|0:0,0:0:0:0:
81,214,101757,6,0,L|71:312,1,100,0|8,1:2|0:0,0:0:0:0:
157,362,102531,1,2,1:2:0:0:
246,316,102918,2,0,P|292:301|338:320,1,100,10|2,0:0|0:0,0:0:0:0:
379,358,103499,1,2,1:2:0:0:
379,358,103692,2,0,L|429:363,1,50,2|2,1:2|1:2,0:0:0:0:
468,332,104079,2,0,L|473:282,1,50,2|2,1:2|1:2,0:0:0:0:
459,234,104466,1,10,0:0:0:0:
369,188,104853,6,0,B|326:192|326:192|311:207|311:207|275:210,1,100,6|10,1:0|0:0,0:0:0:0:
185,248,105628,1,0,1:2:0:0:
185,248,105821,2,0,B|132:259|132:259|89:242,1,100,2|2,1:2|0:0,0:0:0:0:
73,195,106402,2,0,L|-1:183,2,75,2|2|2,1:2|1:2|1:2,0:0:0:0:
112,164,107176,2,0,L|186:152,2,75,2|2|0,1:2|1:2|1:2,0:0:0:0:
79,126,107950,5,6,1:2:0:0:
141,48,108337,1,8,0:0:0:0:
234,82,108724,2,0,L|332:98,1,100,0|8,1:2|0:0,0:0:0:0:
376,132,109305,1,0,1:2:0:0:
376,132,109499,1,0,1:2:0:0:
470,163,109886,6,0,P|499:124|502:75,2,100,10|2|10,0:0|1:2|0:0,0:0:0:0:
394,228,111047,2,0,L|294:235,1,100,6|8,1:2|0:0,0:0:0:0:
249,228,111628,1,2,1:2:0:0:
249,228,111821,1,0,1:2:0:0:
185,306,112208,1,8,0:0:0:0:
125,226,112595,2,0,L|133:126,1,100,2|8,1:2|0:0,0:0:0:0:
154,83,113176,1,2,1:2:0:0:
154,83,113370,2,0,P|175:70|200:70,1,50,0|2,1:2|0:0,0:0:0:0:
242,97,113757,1,8,0:0:0:0:
318,160,114144,6,0,B|362:169|362:169|371:180|371:180|411:188,1,100,2|10,1:2|0:0,0:0:0:0:
470,268,114918,2,0,B|425:277|425:277|416:288|416:288|376:296,1,100,2|10,1:2|0:0,0:0:0:0:
294,350,115692,1,14,0:0:0:0:
294,350,115886,2,0,L|245:345,1,50,8|10,0:0|0:0,0:0:0:0:
161,289,116466,2,0,L|112:294,1,50,2|8,0:0|0:3,0:0:0:0:
70,323,116853,1,10,0:0:0:0:
6,245,117241,38,0,B|-7:196|-7:196|8:148,1,100,6|10,1:0|0:0,0:0:0:0:
57,132,117821,1,2,0:0:0:0:
57,132,118015,2,0,L|107:123,1,50,2|2,1:2|1:2,0:0:0:0:
153,140,118402,1,10,0:0:0:0:
227,73,118789,2,0,L|277:82,1,50,2|2,1:2|0:0,0:0:0:0:
326,78,119176,2,0,B|382:85|355:110|415:115,1,100,10|2,0:0|1:2,0:0:0:0:
469,111,119757,1,0,1:2:0:0:
469,111,119950,1,10,0:0:0:0:
415,195,120337,1,2,1:2:0:0:
324,237,120724,6,0,L|274:228,2,50,10|2|2,0:0|1:2|1:2,0:0:0:0:
361,278,121305,1,2,1:2:0:0:
361,278,121499,1,10,0:0:0:0:
428,359,121886,1,10,0:0:0:0:
428,359,122079,2,0,L|378:368,1,50,2|2,1:2|0:0,0:0:0:0:
331,383,122466,2,0,L|232:364,1,100,14|8,0:0|0:3,0:0:0:0:
191,335,123047,1,10,0:0:0:0:
91,328,123434,6,0,P|71:283|81:235,1,100,6|8,1:2|0:0,0:0:0:0:
111,194,124015,2,0,L|209:179,1,100,2|0,1:2|1:2,0:0:0:0:
248,146,124595,1,10,0:0:0:0:
322,212,124982,2,0,L|333:287,2,75,2|2|0,1:2|1:2|1:2,0:0:0:0:
352,172,125757,2,0,L|359:123,1,50,2|0,1:2|1:2,0:0:0:0:
396,88,126144,1,10,0:0:0:0:
319,23,126531,5,6,1:2:0:0:
232,72,126918,1,10,0:0:0:0:
151,12,127305,2,0,L|101:4,1,50,10|8,0:3|0:0,0:0:0:0:
58,26,127692,1,10,0:0:0:0:
58,26,127886,1,6,1:0:0:0:
15,116,128273,2,0,L|27:215,1,100,2|2,1:2|1:2,0:0:0:0:
18,267,128853,1,10,0:0:0:0:
18,267,129047,1,10,0:0:0:0:
149,339,129628,38,0,B|196:354|196:354|243:335,1,100,6|10,1:0|0:0,0:0:0:0:
268,292,130208,2,0,L|367:283,1,100,2|2,1:2|1:2,0:0:0:0:
457,239,130982,2,0,P|480:282|472:330,2,100,2|2|2,1:2|1:2|1:2,0:0:0:0:
427,198,131950,2,0,L|435:149,1,50,0|0,1:2|1:2,0:0:0:0:
472,115,132337,1,8,0:0:0:0:
386,62,132724,6,0,P|412:37|449:29,2,75,2|2|0,1:2|1:2|1:2,0:0:0:0:
346,92,133499,2,0,L|297:84,1,50,0|2,1:2|1:2,0:0:0:0:
260,57,133886,1,8,0:0:0:0:
260,57,134079,2,0,B|218:64|218:64|206:77|206:77|167:84,1,100,6|2,1:2|1:2,0:0:0:0:
123,72,134660,1,8,0:0:0:0:
123,72,134853,2,0,B|103:117|103:117|118:165,1,100,0|2,1:2|1:2,0:0:0:0:
132,214,135434,1,8,0:0:0:0:
59,283,135821,5,6,1:0:0:0:
122,373,136208,1,10,0:0:0:0:
122,373,136402,2,0,L|172:383,1,50,2|2,1:2|1:2,0:0:0:0:
213,356,136789,2,0,L|263:346,1,50,2|10,1:2|0:0,0:0:0:0:
285,301,137176,1,2,1:2:0:0:
244,209,137563,2,0,P|227:162|244:116,1,100,2|2,1:2|1:2,0:0:0:0:
290,95,138144,2,0,B|332:101|332:101|344:115|344:115|383:122,1,100,2|8,1:2|0:0,0:0:0:0:
471,76,138918,5,6,1:2:0:0:
394,11,139305,2,0,L|344:16,1,50,10|2,0:0|1:2,0:0:0:0:
306,49,139692,2,0,L|206:37,1,100,10|0,0:0|1:2,0:0:0:0:
174,7,140273,1,14,0:0:0:0:
174,7,140466,2,0,P|143:44|148:93,1,100,2|8,0:0|0:0,0:0:0:0:
96,181,141241,1,10,0:3:0:0:
96,181,141434,1,0,1:2:0:0:
96,181,141628,2,0,L|103:231,1,50,8|8,0:0|0:3,0:0:0:0:
139,264,142015,38,0,P|181:288|229:280,1,100,6|10,1:0|0:0,0:0:0:0:
261,241,142595,2,0,L|360:235,1,100,2|2,1:2|1:2,0:0:0:0:
414,233,143176,1,8,0:0:0:0:
414,233,143370,2,0,B|429:281|429:281|413:328,1,100,2|2,1:2|1:2,0:0:0:0:
316,355,144144,2,0,B|269:371|269:371|221:356,1,100,2|0,1:2|1:2,0:0:0:0:
177,331,144724,1,8,0:0:0:0:
80,302,145111,6,0,L|5:295,2,75,2|2|2,1:2|1:2|1:2,0:0:0:0:
119,270,145886,1,0,1:2:0:0:
119,270,146079,2,0,L|124:221,1,50,2|8,1:2|0:0,0:0:0:0:
156,182,146466,2,0,L|145:82,1,100,6|2,1:2|1:2,0:0:0:0:
171,41,147047,1,8,0:0:0:0:
171,41,147241,2,0,P|212:14|260:22,1,100,2|2,1:2|1:2,0:0:0:0:
294,58,147821,1,8,0:0:0:0:
380,107,148208,38,0,L|388:7,2,100,4|0|2,1:2|1:2|1:2,0:0:0:0:
441,185,149370,1,0,1:2:0:0:
352,231,149757,2,0,B|305:243|305:243|257:225,2,100,2|0|2,1:2|1:2|1:2,0:0:0:0:
437,282,150918,1,0,1:2:0:0:
383,366,151305,21,14,0:0:0:0:
290,328,151692,1,10,0:0:0:0:
200,283,152079,2,0,L|151:292,1,50,10|8,0:0|0:3,0:0:0:0:
117,329,152466,2,0,L|68:319,1,50,4|4,0:3|1:2,0:0:0:0:
18,327,152853,1,2,0:0:0:0:
57,235,153241,1,8,0:0:0:0:
117,155,153628,2,0,L|166:145,1,50,8|6,0:3|0:3,0:0:0:0:
201,109,154015,1,10,0:0:0:0:
287,159,154402,6,0,P|272:192|241:212,2,75,6|2|2,1:0|1:2|1:2,0:0:0:0:
302,111,155176,2,0,P|280:82|278:44,2,75,2|2|2,1:2|1:2|1:2,0:0:0:0:
336,148,155950,2,0,P|371:143|405:161,2,75,2|2|2,1:2|1:2|1:2,0:0:0:0:
287,159,156724,1,2,1:2:0:0:
350,236,157111,1,8,0:0:0:0:
416,310,157499,6,0,L|421:360,1,50,2|2,1:2|1:2,0:0:0:0:
376,377,157886,1,10,0:0:0:0:
376,377,158079,2,0,B|339:371|339:371|323:378|323:378|278:370,1,100,2|2,1:2|1:2,0:0:0:0:
260,270,158853,2,0,B|223:275|223:275|207:268|207:268|162:276,1,100,6|0,1:2|1:2,0:0:0:0:
121,304,159434,1,10,0:0:0:0:
50,241,159821,1,2,1:2:0:0:
50,241,160015,2,0,L|0:234,2,50,2|2|6,1:2|1:2|0:3,0:0:0:0:
86,206,160595,6,0,L|184:185,1,100,6|8,1:0|0:0,0:0:0:0:
229,204,161176,2,0,L|327:225,1,100,2|0,1:2|1:2,0:0:0:0:
364,191,161757,1,10,0:0:0:0:
451,142,162144,2,0,P|468:174|462:211,2,75,6|2|2,1:0|1:2|1:2,0:0:0:0:
458,92,162918,2,0,P|468:56|498:34,2,75,10|2|2,0:0|1:2|1:2,0:0:0:0:
412,113,163692,38,0,L|339:94,2,75,6|6|2,1:0|1:2|1:2,0:0:0:0:
451,142,164466,1,14,0:0:0:0:
368,193,164853,1,8,0:0:0:0:
368,193,165047,1,8,0:3:0:0:
368,193,165241,2,0,P|320:203|291:243,1,100,6|10,1:0|0:0,0:0:0:0:
262,284,165821,2,0,P|224:315|175:313,1,100,6|2,1:0|1:2,0:0:0:0:
129,317,166402,1,10,0:0:0:0:
129,317,166595,1,8,0:3:0:0:
46,193,167176,6,0,L|95:198,1,50,14|2,0:0|0:0,0:0:0:0:
146,203,167563,2,0,B|161:169|161:169|154:131,2,75,2|2|2,1:2|1:2|0:0,0:0:0:0:
175,243,168337,2,0,B|160:277|160:277|166:314,2,75,2|2|2,1:2|1:2|1:2,0:0:0:0:
216,214,169111,1,2,1:2:0:0:
304,274,169499,1,8,0:0:0:0:
373,201,169886,6,0,L|472:187,1,100,2|8,1:2|0:0,0:0:0:0:
508,155,170466,1,2,0:0:0:0:
508,155,170660,2,0,P|523:108|505:63,1,100,2|8,1:2|0:0,0:0:0:0:
470,35,171241,1,2,1:2:0:0:
470,35,171434,1,14,0:0:0:0:
388,92,171821,1,12,0:0:0:0:
313,36,172208,1,10,0:3:0:0:
236,100,172595,2,0,L|186:92,1,50,8|0,0:0|1:2,0:0:0:0:
140,73,172982,6,0,L|132:-2,2,75,6|2|6,1:2|1:2|1:0,0:0:0:0:
85,158,173950,1,2,1:2:0:0:
85,158,174144,2,0,P|74:205|97:249,1,100,10|8,0:0|0:0,0:0:0:0:
145,262,174724,2,0,L|195:256,1,50,6|2,1:2|0:0,0:0:0:0:
231,222,175111,2,0,L|331:233,1,100,6|2,1:0|1:2,0:0:0:0:
369,202,175692,1,8,0:0:0:0:
467,183,176079,38,0,L|473:233,1,50,6|2,1:2|1:2,0:0:0:0:
461,281,176466,2,0,B|403:296|434:323|382:337,1,100,8|0,0:0|1:2,0:0:0:0:
346,371,177047,1,2,1:2:0:0:
346,371,177241,1,8,0:0:0:0:
246,376,177628,2,0,L|146:365,1,100,2|2,1:2|1:2,0:0:0:0:
121,328,178208,1,2,0:0:0:0:
121,328,178402,2,0,L|21:317,1,100,2|2,1:2|1:2,0:0:0:0:
0,222,179176,1,2,0:0:0:0:
442,39,183241,53,2,1:2:0:0:
442,39,183434,1,10,0:3:0:0:
482,130,183821,1,14,0:0:0:0:
188,96,184982,21,8,0:0:0:0:
188,96,185176,1,14,0:0:0:0:
111,31,185563,1,2,1:2:0:0:
44,105,185950,1,6,1:2:0:0:
125,172,186337,1,2,1:2:0:0:
125,172,186531,1,10,0:0:0:0:
47,341,187305,6,0,L|145:323,1,100,6|0,1:0|1:2,0:0:0:0:
190,301,187886,2,0,L|239:309,1,50,2|8,1:2|0:0,0:0:0:0:
281,281,188273,2,0,B|341:287|314:318|368:323,1,100,6|2,1:2|1:2,0:0:0:0:
419,311,188853,1,8,0:0:0:0:
419,311,189047,2,0,P|448:271|445:222,1,100,2|2,1:2|1:2,0:0:0:0:
437,173,189628,1,10,0:0:0:0:
503,86,190015,5,6,1:0:0:0:
423,25,190402,2,0,L|373:30,1,50,10|2,0:0|0:0,0:0:0:0:
331,57,190789,2,0,L|281:62,1,50,2|10,1:2|0:3,0:0:0:0:
237,51,191176,1,10,0:0:0:0:
237,51,191370,1,6,1:2:0:0:
174,129,191757,2,0,P|161:176|185:218,1,100,2|2,1:2|1:2,0:0:0:0:
223,251,192337,2,0,P|247:293|234:340,1,100,2|8,1:2|0:0,0:0:0:0:
139,307,193111,6,0,L|39:296,1,100,6|8,1:2|0:0,0:0:0:0:
18,256,193692,1,2,1:2:0:0:
18,256,193886,2,0,B|6:206|6:206|23:161,1,100,10|0,0:0|1:2,0:0:0:0:
56,124,194466,1,14,0:0:0:0:
56,124,194660,2,0,L|155:112,1,100,2|10,1:2|0:0,0:0:0:0:
246,65,195434,1,2,1:2:0:0:
246,65,195628,1,8,0:0:0:0:
246,65,195821,2,0,L|296:71,1,50,8|8,0:0|0:0,0:0:0:0:
339,94,196208,38,0,P|360:137|346:183,1,100,6|10,1:0|0:0,0:0:0:0:
326,230,196789,2,0,L|227:236,1,100,2|10,1:2|0:3,0:0:0:0:
195,275,197370,1,8,0:0:0:0:
195,275,197563,2,0,B|180:323|180:323|196:370,1,100,2|2,1:2|1:2,0:0:0:0:
295,375,198337,2,0,L|394:369,1,100,2|0,1:2|1:2,0:0:0:0:
434,338,198918,1,8,0:0:0:0:
444,238,199305,6,0,P|474:217|512:216,2,75,2|2|2,1:2|1:2|1:2,0:0:0:0:
397,240,200079,1,0,1:2:0:0:
397,240,200273,2,0,L|347:236,1,50,2|8,1:2|0:0,0:0:0:0:
298,226,200660,2,0,B|245:232|268:265|211:270,1,100,6|0,1:2|1:2,0:0:0:0:
166,277,201241,1,8,0:0:0:0:
166,277,201434,2,0,L|157:178,1,100,0|10,1:2|0:0,0:0:0:0:
152,127,202015,1,8,0:0:0:0:
154,27,202402,38,0,B|104:17|104:17|57:33,2,100,6|2|2,1:0|1:2|1:2,0:0:0:0:
221,101,203563,1,0,1:2:0:0:
291,29,203950,2,0,B|341:19|341:19|387:35,2,100,2|0|0,1:2|1:2|1:2,0:0:0:0:
221,101,205111,1,0,1:2:0:0:
257,194,205499,21,14,0:0:0:0:
345,147,205886,1,12,0:0:0:0:
426,205,206273,2,0,L|435:254,1,50,10|8,0:0|0:3,0:0:0:0:
477,281,206660,2,0,L|467:330,1,50,4|4,0:3|1:2,0:0:0:0:
440,372,207047,1,2,1:2:0:0:
357,315,207434,1,12,0:0:0:0:
272,261,207821,2,0,L|223:271,1,50,4|0,0:3|1:2,0:0:0:0:
175,256,208208,1,10,0:0:0:0:
100,328,208595,5,6,0:0:0:0:
238,71,211111,6,0,L|287:80,1,50,8|12,0:3|0:0,0:0:0:0:
386,53,211692,1,10,0:0:0:0:
386,53,211883,1,8,0:0:0:0:
478,178,212458,1,10,0:0:0:0:
478,178,212650,1,8,0:0:0:0:
358,268,213225,6,0,L|308:272,1,50,6|8,1:0|0:0,0:0:0:0:
259,261,213608,1,8,0:3:0:0:
190,334,213992,1,2,1:2:0:0:
190,334,214184,2,0,L|140:338,1,50,8|6,0:0|1:0,0:0:0:0:
65,271,214788,5,6,0:0:0:0:
256,192,214981,12,2,217885,1:2:0:0:
218,33,220400,21,8,0:0:0:0:
218,33,220594,1,8,0:3:0:0:
316,52,220981,1,6,1:0:0:0:
413,75,221368,2,0,L|403:174,1,100,10|0,0:0|1:2,0:0:0:0:
426,224,221949,1,2,1:2:0:0:
426,224,222142,1,8,0:0:0:0:
345,283,222529,1,2,1:2:0:0:
259,334,222917,6,0,L|160:324,1,100,8|0,0:0|1:2,0:0:0:0:
113,335,223497,1,2,1:2:0:0:
113,335,223691,1,10,0:0:0:0:
44,262,224078,1,2,1:2:0:0:
126,205,224465,2,0,B|174:192|174:192|221:209,2,100,10|2|10,0:0|1:2|0:0,0:0:0:0:
51,138,225626,1,2,1:2:0:0:
94,48,226013,1,10,0:0:0:0:
174,107,226400,2,0,L|223:114,1,50,10|0,0:0|1:2,0:0:0:0:
268,91,226788,1,8,0:0:0:0:
338,162,227175,6,0,L|345:211,1,50,6|10,1:0|0:3,0:0:0:0:
387,248,227562,1,6,0:3:0:0:
387,248,227755,2,0,B|423:257|423:257|440:275|440:275|477:284,1,100,6|0,1:2|1:2,0:0:0:0:
496,330,228336,2,0,B|460:338|460:338|443:356|443:356|406:365,1,100,12|0,0:0|1:2,0:0:0:0:
362,352,228917,1,12,0:0:0:0:
362,352,229110,1,0,1:2:0:0:
275,300,229497,1,10,0:0:0:0:
189,248,229884,1,10,0:0:0:0:
260,177,230271,21,2,0:0:0:0:
462,54,231820,5,2,0:0:0:0:
256,192,233368,12,0,240335,0:0:0:0:
