osu file format v14

[General]
AudioFilename: audio.mp3
AudioLeadIn: 0
PreviewTime: 180628
Countdown: 0
SampleSet: Soft
StackLeniency: 0.7
Mode: 0
LetterboxInBreaks: 0
WidescreenStoryboard: 1

[Editor]
Bookmarks: 20660,221563
DistanceSpacing: 1
BeatDivisor: 4
GridSize: 32
TimelineZoom: 1.6

[Metadata]
Title:Snow White
TitleUnicode:Snow White
Artist:Inori Minase
ArtistUnicode:水瀬いのり
Creator:Wen
Version:Hard
Source:
Tags:wonder caravan! inorin いのりん j-pop jpop japanese pop female vocalist kowari christmas xmas x-mas winter FURUTA Dr.Lilcom
BeatmapID:3325728
BeatmapSetID:1629102

[Difficulty]
HPDrainRate:4.5
CircleSize:3.6
OverallDifficulty:6.5
ApproachRate:7.5
SliderMultiplier:1.4
SliderTickRate:1

[Events]
//Background and Video events
0,0,"Snow White Bg.jpg",0,0
//Break Periods
2,180724,182416
2,208795,210093
//Storyboard Layer 0 (Background)
//Storyboard Layer 1 (Fail)
//Storyboard Layer 2 (Pass)
//Storyboard Layer 3 (Foreground)
//Storyboard Layer 4 (Overlay)
//Storyboard Sound Samples

[TimingPoints]
1112,387.096774193548,4,2,1,45,1,0
1112,-125,4,2,1,45,0,0
7305,-111.111111111111,4,2,1,60,0,0
18144,-111.111111111111,4,2,1,45,0,0
29176,-90.9090909090909,4,2,1,60,0,0
30531,-100,4,2,1,55,0,0
55305,-76.9230769230769,4,2,1,70,0,1
55692,-83.3333333333333,4,2,1,70,0,1
59757,-83.3333333333333,4,2,2,70,0,1
59853,-83.3333333333333,4,2,1,70,0,1
72144,-83.3333333333333,4,2,2,70,0,1
72241,-83.3333333333333,4,2,1,70,0,1
80079,-111.111111111111,4,2,1,50,0,0
86273,-111.111111111111,4,2,1,55,0,0
92079,-142.857142857143,4,2,1,55,0,0
92466,-111.111111111111,4,2,1,55,0,0
103499,-125,4,2,1,45,0,0
103886,-100,4,2,1,50,0,0
104273,-83.3333333333333,4,2,1,55,0,0
104853,-100,4,2,1,55,0,0
129628,-76.9230769230769,4,2,1,70,0,1
130015,-83.3333333333333,4,2,1,70,0,1
134079,-83.3333333333333,4,2,2,70,0,1
134176,-83.3333333333333,4,2,1,70,0,1
146466,-83.3333333333333,4,2,2,70,0,1
146563,-83.3333333333333,4,2,1,70,0,1
154402,-90.9090909090909,4,2,1,65,0,0
167176,-100,4,2,1,55,0,0
179950,-100,4,2,1,40,0,0
180724,-100,4,2,1,45,0,0
185176,-83.3333333333333,4,2,1,60,0,0
187305,-76.9230769230769,4,2,1,70,0,1
187692,-83.3333333333333,4,2,1,70,0,1
188273,-83.3333333333333,4,2,2,70,0,1
188370,-83.3333333333333,4,2,1,70,0,1
200660,-83.3333333333333,4,2,2,70,0,1
200757,-83.3333333333333,4,2,1,70,0,1
208595,-83.3333333333333,4,2,1,60,0,0
210918,-100,4,2,1,65,0,0
211692,383.386581469649,4,2,1,65,1,0
214375,413.793103448276,4,2,1,65,1,0
214788,387.096774193548,4,2,1,65,1,0
215175,-125,4,2,1,50,0,0
220981,-111.111111111111,4,2,1,55,0,0
227175,-111.111111111111,4,2,1,60,0,0
230271,-142.857142857143,4,2,1,45,0,0
233368,-285.714285714286,4,2,1,40,0,0
234723,-285.714285714286,4,2,1,30,0,0
236271,-285.714285714286,4,2,1,20,0,0
237820,-285.714285714286,4,2,1,10,0,0
239368,-285.714285714286,4,2,1,5,0,0

[Colours]
Combo1 : 128,128,128
Combo2 : 243,166,129
Combo3 : 64,179,89
Combo4 : 61,131,235
Combo5 : 243,90,90
Combo6 : 192,192,192

[HitObjects]
108,38,6724,5,8,0:0:0:0:
108,38,6821,1,8,0:0:0:0:
108,38,6918,2,0,L|112:10,2,28,8|8|8,0:0|0:0|0:3,0:0:0:0:
32,107,7305,6,0,P|93:114|133:161,1,125.999996154785,4|10,1:0|0:0,0:0:0:0:
217,211,7886,1,0,1:2:0:0:
217,211,7982,1,0,1:2:0:0:
217,211,8079,2,0,L|279:206,1,62.9999980773926,0|2,1:2|1:2,0:0:0:0:
365,240,8466,2,0,L|427:235,1,62.9999980773926,8|0,0:0|1:2,0:0:0:0:
512,303,8853,6,0,B|441:319|488:354|407:364,1,125.999996154785,2|10,0:0|0:0,0:0:0:0:
326,321,9434,1,0,1:2:0:0:
326,321,9531,1,0,1:2:0:0:
326,321,9628,2,0,L|264:316,1,62.9999980773926,2|2,1:2|1:2,0:0:0:0:
178,350,10015,2,0,L|116:345,1,62.9999980773926,10|0,0:0|0:0,0:0:0:0:
82,269,10402,6,0,P|96:241|91:211,1,62.9999980773926,2|0,1:2|1:2,0:0:0:0:
0,258,10789,2,0,P|-5:227|9:200,1,62.9999980773926,10|0,0:0|1:2,0:0:0:0:
72,126,11176,38,0,P|57:98|62:68,1,62.9999980773926,2|0,1:2|1:2,0:0:0:0:
154,115,11563,2,0,P|159:84|144:57,1,62.9999980773926,10|0,0:0|1:2,0:0:0:0:
224,25,11950,6,0,L|286:37,1,62.9999980773926,2|0,1:2|1:2,0:0:0:0:
258,132,12337,2,0,L|320:120,1,62.9999980773926,10|0,0:0|1:2,0:0:0:0:
387,63,12724,5,10,0:0:0:0:
387,63,12821,1,8,0:0:0:0:
387,63,12918,1,8,0:3:0:0:
433,143,13111,2,0,L|421:205,1,62.9999980773926,10|2,0:0|0:0,0:0:0:0:
438,311,13499,5,6,1:0:0:0:
507,384,13692,1,2,0:0:0:0:
438,311,13886,1,2,1:2:0:0:
350,369,14079,2,0,B|305:360|305:360|286:338|286:338|235:329,1,125.999996154785,10|2,0:0|1:2,0:0:0:0:
144,255,14660,2,0,B|188:246|188:246|207:224|207:224|258:215,1,125.999996154785,14|0,0:0|1:2,0:0:0:0:
329,145,15241,2,0,L|338:82,1,62.9999980773926,10|0,0:0|1:2,0:0:0:0:
183,0,15821,38,0,L|173:62,1,62.9999980773926,10|0,0:0|1:2,0:0:0:0:
114,119,16208,2,0,L|123:181,1,62.9999980773926,14|0,0:0|0:0,0:0:0:0:
256,192,16499,12,2,17757,0:0:0:0:
30,258,18144,54,0,P|90:268|124:319,1,125.999996154785,6|0,1:2|1:2,0:0:0:0:
214,341,18724,2,0,L|276:330,1,62.9999980773926,2|0,0:0|1:2,0:0:0:0:
264,235,19111,2,0,L|201:245,1,62.9999980773926,2|0,0:0|1:2,0:0:0:0:
133,169,19499,5,0,1:2:0:0:
133,169,19595,1,0,1:2:0:0:
133,169,19692,2,0,L|113:44,2,125.999996154785,2|0|0,1:2|1:2|1:2,0:0:0:0:
201,245,20660,1,2,0:0:0:0:
260,153,20853,1,2,1:2:0:0:
362,206,21047,5,2,1:2:0:0:
362,206,21144,1,0,1:2:0:0:
362,206,21241,2,0,B|412:214|412:214|432:231|432:231|480:239,1,125.999996154785,2|2,1:2|1:2,0:0:0:0:
512,54,22015,2,0,B|462:62|462:62|442:79|442:79|394:87,1,125.999996154785,2|2,1:2|1:2,0:0:0:0:
303,127,22595,5,0,1:2:0:0:
303,127,22692,1,0,1:2:0:0:
303,127,22789,2,0,L|178:107,2,125.999996154785,2|0|0,1:2|1:2|1:2,0:0:0:0:
362,206,23757,1,2,1:2:0:0:
291,268,23950,1,2,1:2:0:0:
367,341,24144,37,2,0:0:0:0:
367,341,24241,1,2,0:0:0:0:
367,341,24337,2,0,B|295:343|326:382|253:385,1,125.999996154785,2|0,1:2|1:2,0:0:0:0:
175,349,24918,1,2,0:0:0:0:
89,312,25111,2,0,L|95:374,1,62.9999980773926,2|2,1:2|0:0,0:0:0:0:
6,356,25499,2,0,L|-1:293,1,62.9999980773926,2|0,1:2|1:2,0:0:0:0:
102,212,25886,6,0,B|172:226|135:259|206:275,2,125.999996154785,2|0|2,1:2|1:2|1:2,0:0:0:0:
20,174,26853,1,2,0:0:0:0:
60,97,27047,1,2,1:2:0:0:
45,7,27241,69,2,1:2:0:0:
45,7,27337,1,0,1:2:0:0:
45,7,27434,2,0,L|169:33,1,125.999996154785,0|0,1:2|1:2,0:0:0:0:
299,113,28208,2,0,L|423:87,2,125.999996154785,2|2|2,1:2|1:2|0:0,0:0:0:0:
260,214,29176,5,10,0:0:0:0:
188,150,29370,2,0,L|172:74,1,77.0000023498536,10|2,0:0|1:2,0:0:0:0:
90,24,29757,1,10,0:0:0:0:
30,99,29950,1,2,1:2:0:0:
75,185,30144,1,14,0:0:0:0:
361,191,30531,38,0,L|352:122,1,70,4|0,1:0|0:0,0:0:0:0:
453,58,30918,2,0,L|471:196,1,140,10|0,0:0|1:2,0:0:0:0:
506,288,31499,2,0,L|437:297,1,70,2|8,1:2|0:0,0:0:0:0:
350,270,31886,1,0,0:0:0:0:
277,345,32079,6,0,B|235:355|235:355|222:371|222:371|182:380,2,105,2|2|2,1:2|1:2|1:2,0:0:0:0:
263,258,32853,2,0,B|273:216|273:216|289:203|289:203|298:163,2,105,2|2|2,1:2|1:2|1:2,0:0:0:0:
170,280,33628,38,0,L|31:261,1,140,2|8,1:2|0:0,0:0:0:0:
10,150,34208,1,2,1:2:0:0:
10,150,34305,1,0,1:2:0:0:
10,150,34402,2,0,P|43:156|68:181,1,70,0|0,1:2|1:2,0:0:0:0:
158,118,34789,2,0,P|169:150|160:183,1,70,8|0,0:0|1:2,0:0:0:0:
87,63,35176,6,0,P|145:27|211:46,1,140,0|10,1:2|0:0,0:0:0:0:
367,55,35950,2,0,L|436:44,1,70,2|0,1:2|0:0,0:0:0:0:
456,140,36337,2,0,L|387:151,1,70,10|0,0:0|0:0,0:0:0:0:
284,201,36724,6,0,B|361:219|317:257|396:276,1,140,6|8,1:2|0:0,0:0:0:0:
479,347,37305,1,2,0:0:0:0:
382,384,37499,2,0,L|313:371,1,70,0|0,1:2|1:2,0:0:0:0:
283,364,37789,1,0,1:2:0:0:
283,364,37886,1,10,0:0:0:0:
136,209,38273,6,0,P|68:207|26:260,1,140,2|10,1:2|0:0,0:0:0:0:
71,349,38853,2,0,P|138:350|180:297,1,140,2|2,1:2|0:0,0:0:0:0:
233,219,39434,2,0,L|229:149,1,70,8|0,0:0|1:2,0:0:0:0:
228,46,39821,38,0,B|314:62|258:98|345:111,1,140,2|8,1:2|0:0,0:0:0:0:
422,46,40402,2,0,L|416:11,2,35,0|0|0,1:2|1:2|1:2,0:0:0:0:
506,126,40789,1,0,1:2:0:0:
506,126,40886,1,0,1:2:0:0:
506,126,40982,2,0,L|512:92,2,35,8|0|2,0:0|1:2|0:0,0:0:0:0:
422,181,41370,5,10,0:0:0:0:
472,257,41563,1,8,0:0:0:0:
394,308,41757,1,10,0:0:0:0:
344,231,41950,2,0,B|258:247|314:283|227:296,1,140,2|8,1:2|0:3,0:0:0:0:
195,299,42434,1,8,0:0:0:0:
195,299,42531,1,8,0:0:0:0:
27,200,42918,6,0,P|6:152|25:104,1,105,6|0,1:0|0:0,0:0:0:0:
53,84,43305,2,0,L|121:77,1,70,10|2,0:0|0:0,0:0:0:0:
178,159,43692,2,0,L|109:165,1,70,2|2,1:2|1:2,0:0:0:0:
27,200,44079,1,10,0:0:0:0:
64,280,44273,1,2,0:0:0:0:
158,247,44466,6,0,L|164:315,1,70,2|2,1:2|0:0,0:0:0:0:
264,334,44853,2,0,L|257:265,1,70,10|2,0:0|1:2,0:0:0:0:
339,213,45241,2,0,B|394:226|394:226|410:249|410:249|464:261,1,140,2|10,1:2|0:0,0:0:0:0:
512,39,46015,38,0,P|443:42|395:91,1,140,0|10,1:2|0:0,0:0:0:0:
310,51,46595,2,0,L|240:57,1,70,2|2,1:2|1:2,0:0:0:0:
162,1,46982,1,2,1:2:0:0:
72,94,47176,6,0,B|128:104|128:104|150:128|150:128|200:139,1,140,10|2,0:0|0:0,0:0:0:0:
276,233,47757,2,0,L|287:164,1,70,10|2,0:0|0:0,0:0:0:0:
145,215,48144,2,0,L|121:352,1,140,14|0,0:0|1:2,0:0:0:0:
230,307,48724,1,10,0:0:0:0:
401,180,49111,6,0,B|485:203|426:234|511:254,1,140,6|8,1:0|0:0,0:0:0:0:
405,309,49692,2,0,B|320:332|379:363|294:383,1,140,2|0,1:2|1:2,0:0:0:0:
230,307,50273,2,0,L|161:295,1,70,10|0,0:0|0:0,0:0:0:0:
78,230,50660,6,0,P|48:272|55:322,2,105,2|2|2,1:2|1:2|1:2,0:0:0:0:
143,157,51434,2,0,P|163:129|161:95,1,70,2|0,1:2|1:2,0:0:0:0:
107,17,51821,1,8,0:0:0:0:
255,173,52208,37,6,1:2:0:0:
176,237,52402,1,8,0:0:0:0:
245,308,52595,2,0,L|313:295,1,70,10|0,0:0|1:2,0:0:0:0:
408,281,52982,2,0,L|476:294,1,70,4|8,0:3|0:3,0:0:0:0:
509,317,53273,1,8,0:3:0:0:
509,317,53370,2,0,L|501:351,2,35,8|8|6,0:0|0:0|1:0,0:0:0:0:
364,151,53950,5,2,1:2:0:0:
442,104,54144,2,0,L|455:36,1,70,8|2,0:0|0:0,0:0:0:0:
351,58,54531,1,10,0:0:0:0:
247,81,54724,1,10,0:0:0:0:
37,31,55111,5,2,0:0:0:0:
37,31,55208,1,2,0:0:0:0:
37,31,55305,2,0,P|112:73|96:157,1,181.999991668702,6|10,1:0|0:0,0:0:0:0:
0,258,55886,2,0,L|83:270,1,83.9999974365235,2|0,1:2|1:2,0:0:0:0:
145,336,56273,2,0,L|228:323,1,83.9999974365235,2|8,1:2|0:0,0:0:0:0:
284,242,56660,6,0,B|346:252|346:252|370:281|370:281|436:292,1,167.999994873047,2|2,1:2|1:2,0:0:0:0:
467,197,57241,1,8,0:0:0:0:
412,109,57434,2,0,B|349:119|349:119|325:148|325:148|259:159,1,167.999994873047,0|0,1:2|1:2,0:0:0:0:
168,104,58015,1,8,0:0:0:0:
71,266,58402,38,0,B|56:329|56:329|82:384,2,125.999996154785,2|2|2,1:2|1:2|1:2,0:0:0:0:
169,316,59176,2,0,L|252:306,1,83.9999974365235,0|10,1:2|0:3,0:0:0:0:
328,228,59563,1,8,0:0:0:0:
230,166,59757,6,0,L|210:0,1,167.999994873047,6|2,1:2|1:2,0:0:0:0:
314,100,60337,1,8,0:0:0:0:
387,26,60531,2,0,L|470:16,1,83.9999974365235,2|0,1:2|1:2,0:0:0:0:
491,102,60918,1,0,1:2:0:0:
512,193,61111,1,8,0:0:0:0:
511,206,61208,1,0,1:2:0:0:
510,221,61305,1,0,1:2:0:0:
509,236,61402,1,0,1:2:0:0:
508,251,61499,1,6,1:0:0:0:
359,353,61886,6,0,P|327:379|285:379,1,83.9999974365235,10|2,0:0|1:2,0:0:0:0:
218,316,62273,2,0,P|186:289|144:289,1,83.9999974365235,2|10,1:2|0:3,0:0:0:0:
74,362,62660,1,10,0:0:0:0:
0,295,62853,6,0,B|7:233|7:233|36:205|36:205|42:139,1,167.999994873047,2|2,1:2|1:2,0:0:0:0:
0,55,63434,1,8,0:0:0:0:
80,0,63628,1,2,1:2:0:0:
159,59,63821,2,0,L|201:52,2,41.9999987182618,2|0|0,1:2|1:2|1:2,0:0:0:0:
127,154,64208,1,8,0:0:0:0:
238,166,64402,37,2,1:2:0:0:
238,166,64499,1,0,1:2:0:0:
238,166,64595,2,0,B|336:186|277:235|374:251,1,167.999994873047,6|8,1:2|0:0,0:0:0:0:
374,251,65176,1,2,1:2:0:0:
209,253,65370,2,0,B|111:273|170:322|73:338,1,167.999994873047,10|0,0:0|1:2,0:0:0:0:
72,338,65950,1,14,0:0:0:0:
206,353,66144,6,0,L|372:376,1,167.999994873047,2|8,0:0|0:0,0:0:0:0:
472,345,66724,1,2,0:0:0:0:
437,248,66918,2,0,L|448:165,1,83.9999974365235,2|8,1:2|0:0,0:0:0:0:
484,141,67208,1,8,0:0:0:0:
484,141,67305,2,0,L|478:99,2,41.9999987182618,8|8|8,0:0|0:0|0:3,0:0:0:0:
438,17,67692,6,0,B|344:-5|344:-5|305:19|322:54,1,167.999994873047,6|10,1:0|0:0,0:0:0:0:
309,147,68273,2,0,L|314:231,1,83.9999974365235,2|0,1:2|1:2,0:0:0:0:
222,217,68660,2,0,L|218:134,1,83.9999974365235,10|8,0:3|0:0,0:0:0:0:
226,50,69047,6,0,B|165:63|165:63|140:94|140:94|75:106,1,167.999994873047,2|2,1:2|1:2,0:0:0:0:
4,190,69628,1,10,0:0:0:0:
86,250,69821,2,0,B|147:263|147:263|172:294|172:294|237:306,1,167.999994873047,2|8,1:2|0:3,0:0:0:0:
313,230,70402,1,8,0:0:0:0:
490,310,70789,38,0,P|515:253|495:195,2,125.999996154785,2|2|2,1:2|1:2|1:2,0:0:0:0:
403,374,71563,1,0,1:2:0:0:
317,311,71757,2,0,L|233:304,1,83.9999974365235,2|8,1:2|0:0,0:0:0:0:
161,235,72144,6,0,B|63:255|122:304|25:320,1,167.999994873047,6|2,1:2|1:2,0:0:0:0:
24,320,72724,1,8,0:0:0:0:
0,219,72918,1,2,1:2:0:0:
0,219,73015,1,0,1:2:0:0:
0,219,73111,1,0,1:2:0:0:
72,135,73305,2,0,L|84:51,1,83.9999974365235,8|8,0:3|0:0,0:0:0:0:
189,86,73692,37,0,1:2:0:0:
189,86,73789,1,0,1:2:0:0:
189,86,73886,2,0,B|287:106|228:155|325:171,1,167.999994873047,4|0,1:2|1:2,0:0:0:0:
413,106,74466,1,2,1:2:0:0:
488,182,74660,2,0,L|470:349,1,167.999994873047,2|0,1:2|1:2,0:0:0:0:
285,285,75434,6,0,L|201:292,1,83.9999974365235,2|0,1:2|0:0,0:0:0:0:
146,369,75821,1,0,1:2:0:0:
59,326,76015,1,2,1:2:0:0:
104,243,76208,2,0,P|138:170|91:105,1,167.999994873047,2|0,1:2|1:2,0:0:0:0:
292,58,76982,6,0,B|282:121|282:121|252:146|252:146|239:210,2,167.999994873047,14|10|10,0:0|0:0|0:0,0:0:0:0:
391,39,77950,1,8,0:0:0:0:
474,100,78144,1,8,0:0:0:0:
421,185,78337,5,2,1:2:0:0:
488,247,78531,2,0,L|493:330,1,83.9999974365235,2|0,0:0|1:2,0:0:0:0:
375,287,78918,2,0,L|207:297,1,167.999994873047,12|4,0:0|0:3,0:0:0:0:
126,235,79499,1,8,0:3:0:0:
126,235,79595,1,8,0:0:0:0:
126,235,79692,2,0,L|118:193,2,41.9999987182618,8|0|0,0:0|1:2|1:2,0:0:0:0:
73,132,80079,1,6,1:2:0:0:
247,22,80466,38,0,B|320:36|273:74|348:87,1,125.999996154785,10|0,0:0|1:2,0:0:0:0:
426,27,81047,1,10,0:3:0:0:
478,108,81241,2,0,B|404:122|451:160|376:173,1,125.999996154785,8|2,0:0|0:0,0:0:0:0:
116,289,82015,6,0,L|239:317,1,125.999996154785,10|0,0:0|1:2,0:0:0:0:
332,281,82595,1,0,1:2:0:0:
269,207,82789,2,0,L|146:179,1,125.999996154785,8|2,0:0|1:2,0:0:0:0:
452,237,83563,70,0,P|472:294|442:348,2,125.999996154785,10|2|8,0:0|1:2|0:0,0:0:0:0:
359,105,84724,6,0,B|365:137|365:137|349:162,1,62.9999980773926,2|0,0:0|1:2,0:0:0:0:
275,90,85111,2,0,B|259:115|259:115|265:147,1,62.9999980773926,10|2,0:0|0:0,0:0:0:0:
203,210,85499,70,0,B|218:235|218:235|212:267,1,62.9999980773926,0|0,1:2|1:2,0:0:0:0:
119,225,85886,2,0,B|113:257|113:257|128:282,1,62.9999980773926,10|2,0:0|0:0,0:0:0:0:
199,360,86273,22,0,L|292:346,2,94.499997116089,6|2|2,1:0|1:2|1:2,0:0:0:0:
114,138,87241,1,2,1:2:0:0:
203,210,87434,2,0,L|265:201,1,62.9999980773926,8|0,0:0|1:2,0:0:0:0:
212,109,87821,6,0,L|198:15,2,94.499997116089,2|2|10,1:2|1:2|0:0,0:0:0:0:
343,225,88789,1,0,1:2:0:0:
402,137,88982,1,10,0:0:0:0:
402,137,89079,1,10,0:0:0:0:
402,137,89176,2,0,L|433:132,1,31.4999990386963,10|4,0:3|0:3,0:0:0:0:
481,153,89370,6,0,P|499:211|469:265,1,125.999996154785,6|8,1:0|0:0,0:0:0:0:
415,340,89950,2,0,L|352:332,1,62.9999980773926,0|0,1:2|1:2,0:0:0:0:
267,256,90337,1,0,1:2:0:0:
192,328,90531,2,0,L|195:359,2,31.4999990386963,8|0|2,0:0|1:2|1:2,0:0:0:0:
195,199,90918,6,0,P|245:163|306:174,2,125.999996154785,6|0|2,1:0|1:2|1:2,0:0:0:0:
112,161,91886,1,0,1:2:0:0:
48,220,92079,2,0,L|0:214,1,48.9999985046387,8|0,0:0|0:0,0:0:0:0:
36,124,92466,6,0,L|19:0,1,125.999996154785,6|8,1:2|0:0,0:0:0:0:
137,29,93047,2,0,B|206:42|168:78|239:94,1,125.999996154785,2|2,1:2|1:2,0:0:0:0:
321,51,93628,1,8,0:0:0:0:
483,177,94015,5,2,1:2:0:0:
436,258,94208,1,0,1:2:0:0:
359,199,94402,2,0,L|233:185,1,125.999996154785,8|0,0:0|1:2,0:0:0:0:
149,240,94982,1,2,1:2:0:0:
230,295,95176,2,0,L|292:301,1,62.9999980773926,10|0,0:0|1:2,0:0:0:0:
377,361,95563,6,0,L|503:347,2,125.999996154785,2|10|2,1:2|0:0|0:0,0:0:0:0:
292,301,96531,1,0,1:2:0:0:
222,377,96724,2,0,L|159:383,1,62.9999980773926,10|0,0:0|0:0,0:0:0:0:
59,346,97111,6,0,B|66:295|66:295|83:278|83:278|91:228,1,125.999996154785,2|8,1:2|0:0,0:0:0:0:
145,142,97692,1,0,1:2:0:0:
145,142,97789,1,0,1:2:0:0:
145,142,97886,1,2,1:2:0:0:
58,76,98079,1,2,1:2:0:0:
156,25,98273,2,0,L|218:28,1,62.9999980773926,8|2,0:0|1:2,0:0:0:0:
304,82,98660,37,2,1:2:0:0:
236,137,98853,2,0,L|239:199,1,62.9999980773926,2|8,0:0|0:0,0:0:0:0:
301,267,99241,1,2,0:0:0:0:
397,210,99434,2,0,L|459:206,1,62.9999980773926,2|2,0:0|1:2,0:0:0:0:
467,302,99821,2,0,L|404:305,1,62.9999980773926,10|2,0:0|0:0,0:0:0:0:
301,267,100208,5,2,1:2:0:0:
237,338,100402,1,2,1:2:0:0:
156,281,100595,2,0,B|90:293|122:331|49:340,1,125.999996154785,8|0,0:0|0:0,0:0:0:0:
0,258,101176,1,2,1:2:0:0:
82,199,101370,2,0,L|90:136,1,62.9999980773926,10|2,0:0|0:0,0:0:0:0:
161,63,101757,70,0,P|222:67|260:114,1,125.999996154785,0|8,1:2|0:0,0:0:0:0:
298,206,102337,1,0,1:2:0:0:
387,145,102531,2,0,L|511:129,2,125.999996154785,2|10|2,1:2|0:0|0:0,0:0:0:0:
343,280,103499,22,0,P|340:307|324:330,1,56,2|2,1:2|1:2,0:0:0:0:
255,286,103886,2,0,P|226:305|191:310,1,70,2|2,1:2|1:2,0:0:0:0:
208,222,104273,2,0,P|168:209|144:175,1,83.9999974365235,2|10,1:2|0:0,0:0:0:0:
298,206,104660,1,2,0:0:0:0:
191,310,104853,6,0,L|201:380,1,70,6|0,1:0|0:0,0:0:0:0:
89,348,105241,2,0,L|69:209,1,140,10|0,0:0|1:2,0:0:0:0:
0,127,105821,2,0,L|70:117,1,70,2|8,1:2|0:0,0:0:0:0:
138,48,106208,1,2,0:0:0:0:
179,151,106402,6,0,B|221:161|221:161|234:177|234:177|274:186,2,105,2|2|2,1:2|1:2|1:2,0:0:0:0:
268,96,107176,2,0,B|278:54|278:54|294:41|294:41|303:1,2,105,2|2|0,1:2|1:2|1:2,0:0:0:0:
179,151,107950,6,0,P|115:175|86:237,1,140,6|8,1:2|0:0,0:0:0:0:
0,298,108531,1,2,1:2:0:0:
0,298,108628,1,0,1:2:0:0:
0,298,108724,2,0,P|63:322|92:384,1,140,0|8,1:2|0:0,0:0:0:0:
186,317,109305,37,0,1:2:0:0:
186,317,109402,1,0,1:2:0:0:
186,317,109499,2,0,L|255:308,1,70,0|0,1:2|0:0,0:0:0:0:
335,359,109886,2,0,L|404:350,1,70,10|0,0:0|0:0,0:0:0:0:
482,287,110273,2,0,P|505:224|470:166,1,140,2|10,1:2|0:0,0:0:0:0:
512,0,111047,6,0,B|435:18|479:56|400:75,1,140,6|8,1:2|0:0,0:0:0:0:
321,25,111628,2,0,L|251:16,1,70,2|0,1:2|1:2,0:0:0:0:
162,60,112015,2,0,L|92:51,1,70,2|8,0:0|0:0,0:0:0:0:
252,158,112595,6,0,B|264:216|264:216|251:242|251:242|262:292,1,140,2|8,1:2|0:0,0:0:0:0:
182,353,113176,2,0,P|158:327|124:320,1,70,2|0,1:2|1:2,0:0:0:0:
26,266,113563,2,0,P|59:258|83:233,1,70,2|8,0:0|0:0,0:0:0:0:
164,171,113950,1,2,0:0:0:0:
164,171,114047,1,2,0:0:0:0:
164,171,114144,1,2,1:2:0:0:
255,75,114337,54,0,L|253:41,2,35,2|2|10,1:2|1:2|0:0,0:0:0:0:
314,142,114724,2,0,L|312:176,2,35,2|2|2,1:2|1:2|1:2,0:0:0:0:
373,44,115111,2,0,L|371:10,2,35,2|2|10,1:2|1:2|0:0,0:0:0:0:
440,132,115499,5,2,1:2:0:0:
440,132,115595,1,0,1:2:0:0:
440,132,115692,1,14,0:0:0:0:
370,197,115886,1,8,0:0:0:0:
462,269,116079,1,10,0:0:0:0:
390,338,116273,1,2,1:2:0:0:
298,273,116466,6,0,L|228:278,1,70,2|8,0:0|0:3,0:0:0:0:
196,283,116757,1,8,0:0:0:0:
196,283,116853,1,10,0:0:0:0:
30,96,117241,6,0,P|81:88|123:118,1,105,6|0,1:0|0:0,0:0:0:0:
134,150,117628,2,0,L|123:217,1,70,10|2,0:0|0:0,0:0:0:0:
50,277,118015,2,0,L|60:344,1,70,2|2,1:2|1:2,0:0:0:0:
159,380,118402,1,10,0:0:0:0:
196,283,118595,1,2,0:0:0:0:
275,347,118789,38,0,L|345:352,1,70,2|2,1:2|0:0,0:0:0:0:
421,292,119176,2,0,L|491:297,1,70,10|2,0:0|1:2,0:0:0:0:
440,207,119563,2,0,B|429:157|429:157|442:131|442:131|430:73,1,140,2|10,1:2|0:0,0:0:0:0:
328,181,120337,6,0,B|249:196|290:238|215:256,1,140,2|10,1:2|0:0,0:0:0:0:
150,183,120918,2,0,L|156:113,1,70,2|2,1:2|1:2,0:0:0:0:
115,19,121305,1,2,1:2:0:0:
237,50,121499,6,0,B|286:61|286:61|305:83|305:83|362:97,1,140,10|10,0:0|0:0,0:0:0:0:
462,34,122079,2,0,L|456:104,1,70,2|2,1:2|0:0,0:0:0:0:
512,184,122466,2,0,L|500:323,1,140,14|8,0:0|0:3,0:0:0:0:
429,384,123047,1,10,0:0:0:0:
248,275,123434,6,0,P|200:226|133:233,1,140,6|8,1:2|0:0,0:0:0:0:
67,336,124015,2,0,B|151:355|151:355|178:338|170:309,1,140,2|0,1:2|1:2,0:0:0:0:
57,244,124595,2,0,L|51:174,1,70,10|0,0:0|0:0,0:0:0:0:
97,81,124982,38,0,B|44:67|44:67|0:90,2,105,2|2|0,1:2|1:2|1:2,0:0:0:0:
174,138,125757,2,0,L|244:132,1,70,2|0,1:2|1:2,0:0:0:0:
309,70,126144,1,10,0:0:0:0:
392,160,126337,5,2,1:2:0:0:
392,160,126434,1,0,1:2:0:0:
392,160,126531,1,6,1:2:0:0:
295,236,126724,2,0,L|261:228,2,35,0|0|10,1:2|1:2|0:0,0:0:0:0:
381,301,127111,2,0,L|415:293,2,35,0|8|10,1:2|0:0|0:3,0:0:0:0:
291,360,127499,5,8,0:0:0:0:
277,360,127595,1,8,0:0:0:0:
262,360,127692,1,10,0:0:0:0:
247,360,127789,1,8,0:0:0:0:
232,361,127886,1,6,1:0:0:0:
110,225,128273,5,2,1:2:0:0:
37,159,128466,2,0,L|24:91,1,70,8|2,0:0|1:2,0:0:0:0:
128,113,128853,1,10,0:0:0:0:
232,136,129047,1,10,0:0:0:0:
445,35,129434,37,2,0:0:0:0:
445,35,129531,1,2,0:0:0:0:
445,35,129628,2,0,B|432:106|432:106|407:129|407:129|394:203,1,181.999991668702,6|10,1:0|0:0,0:0:0:0:
498,306,130208,2,0,L|415:318,1,83.9999974365235,2|0,1:2|1:2,0:0:0:0:
353,384,130595,2,0,L|270:371,1,83.9999974365235,2|8,1:2|0:0,0:0:0:0:
260,268,130982,6,0,B|170:281|218:335|119:348,1,167.999994873047,2|2,1:2|1:2,0:0:0:0:
20,296,131563,1,8,0:0:0:0:
44,188,131757,2,0,B|133:201|85:255|184:268,1,167.999994873047,2|0,1:2|1:2,0:0:0:0:
289,193,132337,1,8,0:0:0:0:
174,25,132724,6,0,B|152:82|152:82|173:143,2,125.999996154785,2|2|0,1:2|1:2|1:2,0:0:0:0:
255,76,133499,2,0,L|338:66,1,83.9999974365235,0|2,1:2|1:2,0:0:0:0:
418,11,133886,1,8,0:0:0:0:
453,121,134079,6,0,L|433:287,1,167.999994873047,6|2,1:2|1:2,0:0:0:0:
477,384,134660,1,8,0:0:0:0:
357,330,134853,2,0,L|274:320,1,83.9999974365235,0|0,1:2|1:2,0:0:0:0:
225,243,135241,1,2,1:2:0:0:
149,308,135434,1,8,0:0:0:0:
136,309,135531,1,2,1:2:0:0:
121,310,135628,1,2,1:2:0:0:
106,311,135724,1,2,1:2:0:0:
91,312,135821,1,6,1:0:0:0:
0,57,136208,38,0,P|34:33|75:37,1,83.9999974365235,10|2,0:0|1:2,0:0:0:0:
124,111,136595,2,0,P|158:135|200:131,1,83.9999974365235,2|2,1:2|1:2,0:0:0:0:
250,60,136982,1,10,0:0:0:0:
347,64,137176,6,0,B|448:85|448:85|477:62|467:28,1,167.999994873047,2|2,1:2|1:2,0:0:0:0:
467,28,137757,1,8,0:0:0:0:
512,129,137950,1,2,1:2:0:0:
428,176,138144,2,0,L|386:166,2,41.9999987182618,2|0|0,1:2|1:2|1:2,0:0:0:0:
500,242,138531,1,8,0:0:0:0:
429,305,138724,5,2,1:2:0:0:
429,305,138821,1,0,1:2:0:0:
429,305,138918,2,0,B|369:317|369:317|344:347|344:347|278:363,1,167.999994873047,6|10,1:2|0:0,0:0:0:0:
246,275,139499,1,2,1:2:0:0:
336,198,139692,2,0,B|276:186|276:186|251:156|251:156|185:139,1,167.999994873047,10|0,0:0|1:2,0:0:0:0:
98,168,140273,6,0,P|83:129|95:90,1,83.9999974365235,14|2,0:0|0:0,0:0:0:0:
176,1,140660,1,10,0:0:0:0:
250,64,140853,2,0,P|290:73|327:54,1,83.9999974365235,8|2,0:0|1:2,0:0:0:0:
448,0,141241,2,0,L|459:83,1,83.9999974365235,10|0,0:3|1:2,0:0:0:0:
451,127,141531,1,0,1:2:0:0:
451,127,141628,2,0,L|409:133,2,41.9999987182618,8|8|8,0:0|0:0|0:3,0:0:0:0:
346,191,142015,38,0,B|254:201|305:257|204:268,1,167.999994873047,6|10,1:0|0:0,0:0:0:0:
122,329,142595,2,0,L|117:245,1,83.9999974365235,2|0,1:2|1:2,0:0:0:0:
14,261,142982,2,0,L|18:344,1,83.9999974365235,2|8,1:2|0:0,0:0:0:0:
45,146,143370,6,0,B|106:159|106:159|131:190|131:190|196:202,1,167.999994873047,2|2,1:2|1:2,0:0:0:0:
253,305,143950,1,8,0:0:0:0:
332,221,144144,2,0,L|498:196,1,167.999994873047,2|0,1:2|1:2,0:0:0:0:
410,112,144724,1,8,0:0:0:0:
181,40,145111,6,0,P|238:15|296:35,2,125.999996154785,2|2|2,1:2|1:2|1:2,0:0:0:0:
196,143,145886,1,0,1:2:0:0:
97,91,146079,2,0,L|90:7,1,83.9999974365235,2|8,1:2|0:0,0:0:0:0:
0,63,146466,6,0,L|13:230,1,167.999994873047,6|2,1:2|1:2,0:0:0:0:
96,288,147047,1,8,0:0:0:0:
32,370,147241,1,2,1:2:0:0:
32,370,147337,1,0,1:2:0:0:
32,370,147434,1,0,1:2:0:0:
128,378,147628,2,0,L|212:385,1,83.9999974365235,2|8,1:2|0:0,0:0:0:0:
252,290,148015,5,2,1:2:0:0:
252,290,148111,1,0,1:2:0:0:
252,290,148208,2,0,B|350:310|291:359|388:375,1,167.999994873047,4|0,1:2|1:2,0:0:0:0:
481,334,148789,1,2,1:2:0:0:
428,248,148982,2,0,L|442:80,1,167.999994873047,2|0,1:2|1:2,0:0:0:0:
202,124,149757,6,0,L|209:40,1,83.9999974365235,2|0,1:2|0:0,0:0:0:0:
300,65,150144,1,0,1:2:0:0:
380,5,150337,1,2,1:2:0:0:
469,48,150531,2,0,P|502:121|455:186,1,167.999994873047,2|0,1:2|1:2,0:0:0:0:
295,219,151305,22,0,B|194:230|251:283|153:295,2,167.999994873047,14|10|10,0:0|0:0|0:0,0:0:0:0:
396,194,152273,1,8,0:3:0:0:
373,98,152466,1,4,0:3:0:0:
269,121,152660,6,0,L|185:128,1,83.9999974365235,4|2,1:2|0:0,0:0:0:0:
110,62,153047,1,0,1:2:0:0:
12,103,153241,2,0,L|19:187,1,83.9999974365235,8|0,0:0|0:0,0:0:0:0:
51,270,153628,1,8,0:3:0:0:
51,270,153724,1,10,0:3:0:0:
51,270,153821,2,0,L|54:311,2,41.9999987182618,6|10|10,0:3|0:0|0:0,0:0:0:0:
158,330,154208,5,2,1:2:0:0:
158,330,154305,1,2,1:2:0:0:
158,330,154402,2,0,B|213:346|213:346|267:326,2,115.50000352478,6|2|2,1:0|1:2|1:2,0:0:0:0:
210,251,155176,2,0,B|194:196|194:196|213:141,2,115.50000352478,2|2|2,1:2|1:2|1:2,0:0:0:0:
308,216,155950,38,0,L|422:203,2,115.50000352478,2|2|2,1:2|1:2|1:2,0:0:0:0:
213,141,156724,2,0,L|98:153,2,115.50000352478,2|2|2,1:2|1:2|1:2,0:0:0:0:
293,66,157499,5,2,1:2:0:0:
366,122,157692,1,2,1:2:0:0:
428,47,157886,1,10,0:0:0:0:
501,113,158079,1,2,1:2:0:0:
419,260,158466,5,2,1:2:0:0:
442,364,158660,1,8,0:0:0:0:
336,335,158853,2,0,B|276:319|276:319|251:291|251:291|198:276,1,154.000004699707,6|0,1:2|1:2,0:0:0:0:
79,209,159434,2,0,B|138:193|138:193|163:165|163:165|216:150,1,154.000004699707,10|2,0:0|1:2,0:0:0:0:
303,87,160015,1,2,1:2:0:0:
303,87,160111,1,2,1:2:0:0:
303,87,160208,2,0,L|308:48,2,38.5000011749268,2|10|6,1:2|0:3|0:3,0:0:0:0:
239,2,160595,6,0,P|165:13|115:70,1,154.000004699707,6|8,1:0|0:0,0:0:0:0:
0,129,161176,2,0,P|74:139|124:196,1,154.000004699707,2|0,1:2|1:2,0:0:0:0:
48,281,161757,37,10,0:0:0:0:
49,300,161853,1,2,1:2:0:0:
51,319,161950,1,2,1:2:0:0:
53,338,162047,1,2,1:2:0:0:
55,357,162144,2,0,L|168:377,2,115.50000352478,6|2|2,1:0|1:2|1:2,0:0:0:0:
250,297,162918,2,0,L|136:276,2,115.50000352478,10|2|2,0:0|1:2|1:2,0:0:0:0:
346,243,163692,6,0,B|362:298|362:298|342:352,2,115.50000352478,6|6|2,1:0|1:2|1:2,0:0:0:0:
451,235,164466,2,0,B|435:180|435:180|454:125,2,115.50000352478,14|2|8,0:0|1:2|0:3,0:0:0:0:
344,120,165241,5,6,1:0:0:0:
256,192,165434,1,2,1:2:0:0:
256,192,165531,1,10,0:0:0:0:
256,192,165628,1,10,0:0:0:0:
152,72,165821,6,0,B|211:59|211:59|233:31|233:31|290:21,1,154.000004699707,6|2,1:0|1:2,0:0:0:0:
384,38,166402,1,10,0:0:0:0:
344,120,166595,1,8,0:3:0:0:
344,120,166692,1,8,0:3:0:0:
344,120,166789,2,0,L|351:157,2,38.5000011749268,8|8|4,0:3|0:3|0:3,0:0:0:0:
417,225,167176,38,0,L|407:295,1,70,14|2,0:0|0:0,0:0:0:0:
321,346,167563,2,0,L|212:362,2,105,2|2|2,1:2|1:2|0:0,0:0:0:0:
218,265,168337,2,0,L|321:249,2,105,2|2|2,1:2|1:2|1:2,0:0:0:0:
123,189,169111,6,0,B|43:206|91:240|9:263,1,140,2|8,1:2|0:0,0:0:0:0:
0,152,169692,1,2,0:0:0:0:
98,99,169886,2,0,B|178:116|130:150|211:173,1,140,2|8,1:2|0:0,0:0:0:0:
279,100,170466,1,2,0:0:0:0:
359,157,170660,2,0,L|428:151,1,70,2|0,1:2|1:2,0:0:0:0:
436,243,171047,2,0,L|366:248,1,70,8|2,0:0|1:2,0:0:0:0:
256,289,171434,6,0,B|250:326|250:326|230:343|230:343|224:384,2,105,14|2|2,0:0|1:2|1:2,0:0:0:0:
339,365,172208,2,0,B|376:359|376:359|393:339|393:339|434:333,2,105,10|10|0,0:3|0:0|1:2,0:0:0:0:
366,247,172982,2,0,L|357:142,2,105,6|2|6,1:2|1:2|1:0,0:0:0:0:
132,195,173950,5,2,1:2:0:0:
56,252,174144,1,10,0:0:0:0:
56,252,174241,1,8,0:0:0:0:
56,252,174337,1,10,0:3:0:0:
0,169,174531,1,8,0:0:0:0:
75,98,174724,38,0,L|144:105,1,70,6|2,1:2|0:0,0:0:0:0:
206,24,175111,2,0,B|287:43|240:79|318:98,1,140,6|2,1:0|1:2,0:0:0:0:
422,134,175692,2,0,L|491:126,1,70,8|2,0:0|0:0,0:0:0:0:
458,230,176079,6,0,L|388:237,1,70,6|2,1:2|1:2,0:0:0:0:
297,215,176466,1,8,0:0:0:0:
347,333,176660,1,2,1:2:0:0:
347,333,176757,1,0,1:2:0:0:
347,333,176853,1,0,1:2:0:0:
388,237,177047,1,2,1:2:0:0:
258,290,177241,6,0,L|188:297,1,70,8|2,0:0|0:0,0:0:0:0:
160,284,177531,1,2,0:0:0:0:
160,284,177628,2,0,P|129:224|161:165,2,140,2|2|2,1:2|1:2|1:2,0:0:0:0:
255,186,178595,5,2,0:0:0:0:
255,186,178692,1,2,0:0:0:0:
255,186,178789,2,0,L|290:183,2,35,2|2|2,1:2|0:0|0:0,0:0:0:0:
353,130,179176,37,2,0:0:0:0:
83,41,183241,53,2,1:2:0:0:
83,41,183337,1,2,1:2:0:0:
83,41,183434,2,0,L|48:34,2,35,10|2|2,0:3|1:2|1:2,0:0:0:0:
156,97,183821,1,14,0:0:0:0:
49,340,184982,22,0,L|117:328,1,70,8|14,0:0|0:0,0:0:0:0:
285,215,185563,2,0,L|367:229,1,83.9999974365235,2|0,1:2|0:0,0:0:0:0:
474,295,185950,6,0,B|379:313|440:360|340:384,1,167.999994873047,6|2,1:2|1:2,0:0:0:0:
300,298,186531,1,10,0:0:0:0:
296,277,186628,1,2,0:0:0:0:
292,256,186724,1,2,0:0:0:0:
289,235,186821,1,2,0:0:0:0:
285,215,186918,1,2,0:0:0:0:
415,0,187305,6,0,P|493:34|485:119,1,181.999991668702,6|0,1:0|1:2,0:0:0:0:
382,82,187886,2,0,L|298:69,1,83.9999974365235,2|8,1:2|0:0,0:0:0:0:
234,12,188273,6,0,B|140:22|192:75|93:90,1,167.999994873047,6|2,1:2|1:2,0:0:0:0:
0,30,188853,1,8,0:0:0:0:
33,156,189047,2,0,B|126:166|74:219|173:234,1,167.999994873047,2|2,1:2|1:2,0:0:0:0:
260,188,189628,1,10,0:0:0:0:
280,190,189724,1,2,1:2:0:0:
301,193,189821,1,2,1:2:0:0:
322,195,189918,1,2,1:2:0:0:
343,198,190015,1,6,1:0:0:0:
502,376,190402,38,0,L|512:292,1,83.9999974365235,10|2,0:0|0:0,0:0:0:0:
414,278,190789,2,0,L|403:361,1,83.9999974365235,2|10,1:2|0:3,0:0:0:0:
309,265,191176,1,10,0:0:0:0:
235,329,191370,6,0,B|174:342|174:342|149:373|149:373|84:385,1,167.999994873047,6|2,1:2|1:2,0:0:0:0:
0,309,191950,1,8,0:0:0:0:
72,248,192144,1,2,1:2:0:0:
3,177,192337,2,0,L|-5:135,2,41.9999987182618,2|0|0,1:2|1:2|1:2,0:0:0:0:
85,116,192724,1,8,0:0:0:0:
181,152,192918,5,2,0:0:0:0:
181,152,193015,1,2,0:0:0:0:
181,152,193111,2,0,B|286:164|286:164|303:197|281:223,1,167.999994873047,6|8,1:2|0:0,0:0:0:0:
373,265,193692,1,2,1:2:0:0:
407,167,193886,2,0,L|423:0,1,167.999994873047,10|0,0:0|1:2,0:0:0:0:
321,85,194466,6,0,L|237:76,1,83.9999974365235,14|2,0:0|1:2,0:0:0:0:
163,9,194853,2,0,L|79:17,1,83.9999974365235,8|10,0:0|0:0,0:0:0:0:
0,101,195241,1,2,1:2:0:0:
77,166,195434,2,0,P|89:205|79:245,1,83.9999974365235,2|8,1:2|0:0,0:0:0:0:
57,282,195724,1,8,0:0:0:0:
57,282,195821,2,0,L|63:324,2,41.9999987182618,8|8|8,0:0|0:0|0:0,0:0:0:0:
147,355,196208,38,0,B|241:377|241:377|280:353|263:318,1,167.999994873047,6|10,1:0|0:0,0:0:0:0:
341,250,196789,2,0,L|424:237,1,83.9999974365235,2|0,1:2|1:2,0:0:0:0:
441,334,197176,2,0,L|358:345,1,83.9999974365235,10|8,0:3|0:0,0:0:0:0:
509,244,197563,6,0,B|496:183|496:183|465:158|465:158|453:93,1,167.999994873047,2|2,1:2|1:2,0:0:0:0:
458,0,198144,1,10,0:0:0:0:
369,79,198337,2,0,L|202:101,1,167.999994873047,2|0,1:2|1:2,0:0:0:0:
112,42,198918,1,8,0:0:0:0:
388,183,199305,6,0,B|414:241|414:241|395:299,2,125.999996154785,2|2|2,1:2|1:2|1:2,0:0:0:0:
290,250,200079,1,0,1:2:0:0:
200,193,200273,2,0,L|116:186,1,83.9999974365235,2|8,1:2|0:0,0:0:0:0:
0,294,200660,6,0,B|98:314|39:363|136:379,1,167.999994873047,6|0,1:2|1:2,0:0:0:0:
206,304,201241,1,8,0:0:0:0:
305,343,201434,2,0,L|312:385,2,41.9999987182618,0|0|0,1:2|1:2|1:2,0:0:0:0:
376,282,201821,2,0,L|383:240,2,41.9999987182618,10|8|8,0:0|0:0|0:0,0:0:0:0:
481,351,202208,5,10,0:3:0:0:
481,351,202305,1,4,0:3:0:0:
481,351,202402,2,0,L|467:183,1,167.999994873047,6|2,1:0|1:2,0:0:0:0:
512,89,202982,1,2,1:2:0:0:
420,46,203176,2,0,B|322:66|381:115|284:131,1,167.999994873047,2|0,1:2|1:2,0:0:0:0:
162,244,203950,6,0,L|169:328,1,83.9999974365235,2|0,1:2|0:0,0:0:0:0:
74,321,204337,1,0,1:2:0:0:
3,257,204531,1,2,1:2:0:0:
32,167,204724,2,0,B|96:154|96:154|121:124|121:124|184:114,1,167.999994873047,0|0,1:2|1:2,0:0:0:0:
263,32,205305,1,0,1:2:0:0:
345,112,205499,6,0,P|425:116|475:52,2,167.999994873047,14|12|10,0:0|0:0|0:0,0:0:0:0:
263,32,206466,1,8,0:3:0:0:
183,114,206660,1,4,0:3:0:0:
265,194,206853,1,4,1:2:0:0:
184,263,207047,38,0,L|59:243,2,125.999996154785,2|2|2,1:2|1:2|1:2,0:0:0:0:
255,326,207821,1,4,0:3:0:0:
275,324,207918,1,8,0:3:0:0:
296,321,208015,1,0,1:2:0:0:
317,319,208111,1,8,0:0:0:0:
338,316,208208,1,10,0:0:0:0:
481,139,208595,5,6,0:0:0:0:
256,192,210918,6,0,L|185:184,1,70,4|8,0:3|0:3,0:0:0:0:
101,114,211305,2,0,L|30:122,1,70,12|0,0:0|0:0,0:0:0:0:
111,212,211692,5,10,0:0:0:0:
189,89,211883,1,8,0:0:0:0:
405,175,212458,5,10,0:0:0:0:
448,313,212650,1,8,0:0:0:0:
200,366,213033,5,2,0:0:0:0:
200,366,213129,1,2,0:0:0:0:
200,366,213225,2,0,L|192:295,1,70,6|8,1:0|0:0,0:0:0:0:
256,192,213608,1,8,0:3:0:0:
332,292,213800,5,8,0:0:0:0:
332,292,213896,1,8,0:0:0:0:
332,292,213992,1,2,1:2:0:0:
409,210,214184,2,0,L|405:175,2,35,8|8|6,0:0|0:0|1:0,0:0:0:0:
476,280,214581,2,0,L|480:315,2,35,2|2|6,0:0|0:0|0:0,0:0:0:0:
512,52,215175,6,0,P|474:12|420:10,1,112,2|0,0:0|0:0,0:0:0:0:
379,102,215755,2,0,P|416:141|470:143,1,112,2|0,0:0|0:0,0:0:0:0:
342,29,216336,1,2,0:0:0:0:
57,148,216723,6,0,P|94:108|148:106,1,112,2|2,0:0|0:0,0:0:0:0:
190,198,217304,2,0,P|152:237|98:239,1,112,2|0,0:0|0:0,0:0:0:0:
227,125,217884,1,2,1:2:0:0:
312,266,218271,70,0,L|295:376,2,112,2|2|2,0:0|0:0|0:0,0:0:0:0:
427,80,219433,6,0,P|399:84|378:101,1,56,2|0,1:2|0:0,0:0:0:0:
304,152,219820,2,0,P|276:155|251:143,1,56,2|0,0:0|0:0,0:0:0:0:
185,81,220207,2,0,L|129:84,1,56,2|8,0:0|0:0,0:0:0:0:
104,91,220497,1,8,0:0:0:0:
104,91,220594,1,8,0:3:0:0:
0,257,220981,6,0,P|60:265|95:315,1,125.999996154785,6|10,1:0|0:0,0:0:0:0:
176,375,221562,1,0,1:2:0:0:
176,375,221658,1,0,1:2:0:0:
176,375,221755,2,0,L|238:368,1,62.9999980773926,0|2,1:2|1:2,0:0:0:0:
306,301,222142,2,0,L|368:294,1,62.9999980773926,8|0,0:0|1:2,0:0:0:0:
472,377,222529,6,0,P|498:321|481:261,1,125.999996154785,2|8,1:2|0:0,0:0:0:0:
512,177,223110,1,0,1:2:0:0:
512,177,223207,1,0,1:2:0:0:
512,177,223304,2,0,L|504:114,1,62.9999980773926,0|2,1:2|1:2,0:0:0:0:
418,67,223691,2,0,L|410:4,1,62.9999980773926,10|0,0:0|0:0,0:0:0:0:
334,71,224078,6,0,P|314:95|284:105,1,62.9999980773926,2|0,1:2|1:2,0:0:0:0:
282,0,224465,2,0,P|252:9|232:33,1,62.9999980773926,10|0,0:0|1:2,0:0:0:0:
182,113,224852,6,0,P|197:139|196:170,1,62.9999980773926,2|8,1:2|0:3,0:0:0:0:
97,136,225239,2,0,P|95:167|111:193,1,62.9999980773926,10|0,0:0|1:2,0:0:0:0:
204,258,225626,38,0,L|266:268,1,62.9999980773926,2|0,1:2|1:2,0:0:0:0:
246,370,226013,2,0,L|183:359,1,62.9999980773926,10|0,0:0|1:2,0:0:0:0:
158,352,226304,1,8,0:0:0:0:
158,352,226400,1,10,0:0:0:0:
64,384,226594,1,0,1:2:0:0:
18,289,226788,6,0,L|29:226,1,62.9999980773926,8|2,0:0|0:0,0:0:0:0:
38,199,227078,1,2,0:0:0:0:
38,199,227175,1,6,1:0:0:0:
123,146,227368,2,0,L|154:149,2,31.4999990386963,10|8|6,0:3|0:3|0:3,0:0:0:0:
53,47,227755,6,0,L|115:54,1,62.9999980773926,6|2,1:2|0:0,0:0:0:0:
195,0,228142,1,0,1:2:0:0:
259,65,228336,2,0,B|332:82|291:116|361:131,1,125.999996154785,12|0,0:0|1:2,0:0:0:0:
464,173,228917,2,0,B|390:190|431:224|361:239,1,125.999996154785,12|2,0:0|1:2,0:0:0:0:
334,249,229400,1,8,0:0:0:0:
334,249,229497,1,10,0:0:0:0:
308,357,229691,1,2,1:2:0:0:
404,324,229884,1,10,0:0:0:0:
192,140,230271,21,2,0:0:0:0:
104,329,231626,6,0,L|107:344,3,16.3333328348796,2|2|2|2,0:0|0:0|0:0|0:0,0:0:0:0:
423,61,233368,37,2,0:0:0:0:
256,192,233465,12,0,240336,0:0:0:0:
