osu file format v14

[General]
AudioFilename: audio.mp3
AudioLeadIn: 0
PreviewTime: 61647
Countdown: 0
SampleSet: Soft
StackLeniency: 0.7
Mode: 3
LetterboxInBreaks: 0
SpecialStyle: 0
WidescreenStoryboard: 0

[Editor]
DistanceSpacing: 1.2
BeatDivisor: 3
GridSize: 32
TimelineZoom: 1.3

[Metadata]
Title:REAL-EYES (TV Size)
TitleUnicode:REAL-EYES (TV Size)
Artist:Inori Minase
ArtistUnicode:水瀬いのり
Creator:Amiichii
Version:Normal
Source:現実主義勇者の王国再建記
Tags:Takodachi- LLENN- cryochan Al-Reina by-ad japanese pop j-pop jpop anime opening short genjitsu shugi yuusha no oukoku saikenk 2nd second season How a Realist Hero Rebuilt the Kingdom Liscia Elfrieden
BeatmapID:3372201
BeatmapSetID:1651869

[Difficulty]
HPDrainRate:7.5
CircleSize:4
OverallDifficulty:7.5
ApproachRate:5
SliderMultiplier:1.4
SliderTickRate:1

[Events]
//Background and Video events
0,0,"NM.jpg",0,0
//Break Periods
//Storyboard Layer 0 (Background)
//Storyboard Layer 1 (Fail)
//Storyboard Layer 2 (Pass)
//Storyboard Layer 3 (Foreground)
//Storyboard Layer 4 (Overlay)
//Storyboard Sound Samples
Sample,14091,0,"Tom1.wav",50
Sample,73068,0,"Tom1.wav",50
Sample,78693,0,"Tom1.wav",50
Sample,78864,0,"Tom2.wav",50

[TimingPoints]
449,405.405405405405,4,2,1,50,1,0
449,-84.0336134453782,4,2,1,50,0,0
6935,357.142857142857,4,2,1,50,1,0
6935,-95.2380952380952,4,2,1,50,0,0
7646,340.909090909091,4,2,1,50,1,0
9009,480,4,2,1,50,1,0
9009,-70.9219858156028,4,2,1,50,0,0
9489,340.909090909091,4,2,1,50,1,0
9659,340.909090909091,4,2,1,50,1,0
62670,-100,4,2,1,50,0,1
79204,-100,4,2,1,50,0,0

[HitObjects]
64,192,43,5,0,0:0:0:0:
320,192,271,1,0,0:0:0:0:
64,192,449,1,0,0:0:0:0:
448,192,449,128,0,854:0:0:0:0:
192,192,854,1,0,0:0:0:0:
320,192,1057,128,0,1462:0:0:0:0:
64,192,1462,1,0,0:0:0:0:
448,192,1665,128,0,2070:0:0:0:0:
192,192,1665,1,0,0:0:0:0:
64,192,2476,128,0,2881:0:0:0:0:
320,192,2881,128,0,3286:0:0:0:0:
448,192,3286,128,0,3692:0:0:0:0:
192,192,3692,128,0,4097:0:0:0:0:
64,192,3692,1,0,0:0:0:0:
448,192,4097,1,0,0:0:0:0:
320,192,4325,128,0,4705:0:0:0:0:
192,192,4705,1,0,0:0:0:0:
64,192,4908,1,0,0:0:0:0:
448,192,4908,128,0,7626:0:0:0:0:
192,192,6175,1,0,0:0:0:0:
320,192,6935,1,0,0:0:0:0:
64,192,7626,1,0,0:0:0:0:
192,192,7816,1,0,0:0:0:0:
320,192,7986,1,0,0:0:0:0:
448,192,8157,128,0,8498:0:0:0:0:
64,192,8498,128,0,9489:0:0:0:0:
192,192,9009,128,0,9169:0:0:0:0:
320,192,9169,128,0,9329:0:0:0:0:
448,192,9329,128,0,9489:0:0:0:0:
192,192,9489,1,0,0:0:0:0:
320,192,9489,1,0,0:0:0:0:
192,192,9829,1,2,0:0:0:0:
320,192,9999,1,8,0:0:0:0:
448,192,9999,1,0,0:0:0:0:
192,192,10340,1,2,0:0:0:0:
320,192,10511,1,2,0:0:0:0:
64,192,10681,1,8,0:0:0:0:
448,192,10681,1,0,0:0:0:0:
192,192,10852,1,2,0:0:0:0:
320,192,11193,1,2,0:0:0:0:
64,192,11363,1,8,0:0:0:0:
192,192,11363,1,0,0:0:0:0:
448,192,11704,1,2,0:0:0:0:
192,192,11874,1,2,0:0:0:0:
64,192,12045,1,8,0:0:0:0:
320,192,12045,1,0,0:0:0:0:
192,192,12215,1,4,0:0:0:0:
448,192,12215,1,2,0:0:0:0:
64,192,12556,1,2,0:0:0:0:
320,192,12727,1,8,0:0:0:0:
448,192,12727,1,0,0:0:0:0:
192,192,13068,1,6,0:0:0:0:
320,192,13238,1,2,0:0:0:0:
64,192,13409,1,8,0:0:0:0:
448,192,13409,1,0,0:0:0:0:
192,192,13579,1,4,0:0:0:0:
320,192,13579,1,2,0:0:0:0:
64,192,13920,1,2,0:0:0:0:
448,192,14090,1,8,0:0:0:0:
320,192,14261,1,0,0:0:0:50:Tom2.wav
192,192,14431,1,0,0:0:0:50:Tom3.wav
64,192,14602,128,2,14943:0:0:0:0:
448,192,14602,128,4,14943:0:0:0:0:
192,192,14943,1,2,0:0:0:0:
320,192,15113,1,2,0:0:0:0:
448,192,15113,1,4,0:0:0:0:
192,192,15454,1,8,0:0:0:0:
320,192,15454,1,0,0:0:0:0:
64,192,15795,1,0,0:0:0:0:
448,192,15965,1,2,0:0:0:0:
64,192,16306,1,8,0:0:0:0:
320,192,16306,1,0,0:0:0:0:
192,192,16647,1,2,0:0:0:0:
64,192,16818,1,8,0:0:0:0:
448,192,16818,1,0,0:0:0:0:
192,192,16988,1,0,0:0:0:0:
320,192,17159,1,2,0:0:0:0:
320,192,17329,1,2,0:0:0:0:
64,192,17499,1,8,0:0:0:0:
448,192,17499,1,0,0:0:0:0:
192,192,17670,1,2,0:0:0:0:
320,192,17670,1,0,0:0:0:0:
320,192,18011,1,2,0:0:0:0:
192,192,18181,1,8,0:0:0:0:
448,192,18181,1,0,0:0:0:0:
64,192,18522,1,0,0:0:0:0:
320,192,18693,1,2,0:0:0:0:
64,192,19034,1,8,0:0:0:0:
448,192,19034,1,0,0:0:0:0:
192,192,19374,1,2,0:0:0:0:
320,192,19545,1,8,0:0:0:0:
448,192,19545,1,0,0:0:0:0:
64,192,19715,1,0,0:0:0:0:
320,192,19886,1,2,0:0:0:0:
192,192,20056,128,0,20227:0:0:0:0:
448,192,20227,1,8,0:0:0:0:
64,192,20397,1,2,0:0:0:0:
192,192,20397,1,4,0:0:0:0:
320,192,20738,1,2,0:0:0:0:
64,192,20909,1,8,0:0:0:0:
448,192,20909,1,0,0:0:0:0:
192,192,21249,1,2,0:0:0:0:
320,192,21420,1,2,0:0:0:0:
64,192,21590,1,0,0:0:0:0:
320,192,21761,1,8,0:0:0:0:
448,192,21761,1,0,0:0:0:0:
192,192,22102,1,2,0:0:0:0:
64,192,22272,1,8,0:0:0:0:
448,192,22272,1,0,0:0:0:0:
320,192,22443,1,0,0:0:0:0:
192,192,22613,1,2,0:0:0:0:
192,192,22784,1,2,0:0:0:0:
64,192,22954,1,8,0:0:0:0:
320,192,22954,1,0,0:0:0:0:
192,192,23124,1,2,0:0:0:0:
448,192,23124,1,4,0:0:0:0:
320,192,23465,1,2,0:0:0:0:
64,192,23636,1,8,0:0:0:0:
192,192,23636,1,0,0:0:0:0:
320,192,23977,1,2,0:0:0:0:
192,192,24147,1,2,0:0:0:0:
64,192,24488,1,8,0:0:0:0:
448,192,24488,1,4,0:0:0:0:
320,192,24829,1,0,0:0:0:50:Tom1.wav
192,192,24999,1,0,0:0:0:50:Tom2.wav
448,192,25170,1,0,0:0:0:50:Tom3.wav
64,192,25340,1,8,0:0:0:0:
320,192,25340,1,2,0:0:0:0:
192,192,25511,1,10,0:0:0:0:
448,192,25511,1,4,0:0:0:0:
64,192,25852,1,8,0:0:0:0:
192,192,26022,1,2,0:0:0:0:
320,192,26022,1,4,0:0:0:0:
64,192,26363,128,8,26704:0:0:0:0:
448,192,26363,1,0,0:0:0:0:
192,192,26704,1,2,0:0:0:0:
320,192,26874,1,2,0:0:0:0:
64,192,27045,1,8,0:0:0:0:
448,192,27045,1,0,0:0:0:0:
192,192,27215,1,2,0:0:0:0:
320,192,27556,1,2,0:0:0:0:
192,192,27727,1,8,0:0:0:0:
448,192,27727,1,0,0:0:0:0:
64,192,28068,1,2,0:0:0:0:
192,192,28238,1,2,0:0:0:0:
320,192,28409,1,8,0:0:0:0:
448,192,28409,1,0,0:0:0:0:
64,192,28579,1,2,0:0:0:0:
192,192,28579,1,0,0:0:0:0:
320,192,28920,1,2,0:0:0:0:
192,192,29090,1,8,0:0:0:0:
448,192,29090,1,0,0:0:0:0:
64,192,29431,1,2,0:0:0:0:
448,192,29602,1,2,0:0:0:0:
192,192,29772,1,8,0:0:0:0:
320,192,29772,1,0,0:0:0:0:
64,192,29943,1,2,0:0:0:0:
448,192,30284,1,2,0:0:0:0:
64,192,30454,1,8,0:0:0:0:
192,192,30454,1,0,0:0:0:0:
320,192,30624,1,0,0:0:0:0:
448,192,30795,1,2,0:0:0:0:
448,192,30965,128,8,31136:0:0:0:0:
64,192,31136,1,8,0:0:0:0:
192,192,31136,1,0,0:0:0:0:
320,192,31306,1,2,0:0:0:0:
448,192,31306,1,4,0:0:0:0:
192,192,31647,1,2,0:0:0:0:
64,192,31818,1,8,0:0:0:0:
448,192,31818,1,0,0:0:0:0:
320,192,32159,1,2,0:0:0:0:
192,192,32329,1,2,0:0:0:0:
320,192,32499,1,8,0:0:0:0:
448,192,32499,1,0,0:0:0:0:
64,192,32670,1,2,0:0:0:0:
192,192,32670,1,0,0:0:0:0:
320,192,33011,1,2,0:0:0:0:
64,192,33181,1,8,0:0:0:0:
448,192,33181,1,0,0:0:0:0:
192,192,33522,1,2,0:0:0:0:
320,192,33693,1,2,0:0:0:0:
64,192,33863,1,8,0:0:0:0:
192,192,33863,1,0,0:0:0:0:
320,192,34204,1,2,0:0:0:0:
448,192,34204,1,4,0:0:0:0:
64,192,34545,1,8,0:0:0:0:
448,192,34545,1,0,0:0:0:0:
192,192,34886,1,2,0:0:0:0:
320,192,35056,1,2,0:0:0:0:
192,192,35227,1,8,0:0:0:0:
448,192,35227,1,0,0:0:0:0:
64,192,35397,1,4,0:0:0:0:
320,192,35397,1,2,0:0:0:0:
192,192,35738,1,2,0:0:0:0:
320,192,35909,1,8,0:0:0:0:
448,192,35909,1,0,0:0:0:0:
64,192,36249,1,0,0:0:0:50:Tom1.wav
448,192,36420,1,0,0:0:0:50:Tom2.wav
320,192,36590,1,0,0:0:0:50:Tom3.wav
192,192,36761,1,0,0:0:0:50:Tom3.wav
64,192,36931,1,4,0:0:0:0:
448,192,36931,1,2,0:0:0:0:
320,192,37272,1,0,0:0:0:0:
192,192,37443,1,2,0:0:0:0:
64,192,37784,1,0,0:0:0:0:
320,192,37954,1,8,0:0:0:0:
448,192,37954,1,0,0:0:0:0:
64,192,38295,1,2,0:0:0:0:
192,192,38295,1,0,0:0:0:0:
448,192,38636,1,0,0:0:0:0:
192,192,38806,1,2,0:0:0:0:
320,192,39147,1,0,0:0:0:0:
64,192,39318,1,8,0:0:0:0:
448,192,39318,1,0,0:0:0:0:
192,192,39659,1,2,0:0:0:0:
64,192,39999,1,0,0:0:0:0:
320,192,40340,128,0,40511:0:0:0:0:
64,192,40511,128,0,40681:0:0:0:0:
448,192,40681,128,8,40852:0:0:0:0:
192,192,40852,128,0,41022:0:0:0:0:
320,192,41022,1,2,0:0:0:0:
448,192,41022,128,0,41193:0:0:0:0:
64,192,41193,128,0,41363:0:0:0:0:
320,192,41363,128,0,41534:0:0:0:0:
448,192,41534,128,2,41704:0:0:0:0:
64,192,41704,1,0,0:0:0:0:
64,192,41874,1,0,0:0:0:0:
192,192,42045,1,8,0:0:0:0:
320,192,42045,1,0,0:0:0:0:
320,192,42215,1,0,0:0:0:0:
64,192,42386,1,4,0:0:0:0:
448,192,42386,1,2,0:0:0:0:
192,192,42727,1,0,0:0:0:0:
320,192,42897,1,2,0:0:0:0:
192,192,43238,1,0,0:0:0:0:
64,192,43409,1,8,0:0:0:0:
448,192,43409,1,0,0:0:0:0:
320,192,43749,1,2,0:0:0:0:
192,192,44090,1,0,0:0:0:0:
64,192,44261,128,2,44431:0:0:0:0:
448,192,44261,128,0,44431:0:0:0:0:
64,192,44602,128,2,44772:0:0:0:0:
320,192,44602,128,0,44772:0:0:0:0:
192,192,44772,1,8,0:0:0:0:
320,192,44943,128,2,45284:0:0:0:0:
448,192,44943,128,4,45284:0:0:0:0:
192,192,45284,1,2,0:0:0:0:
64,192,45454,1,8,0:0:0:0:
448,192,45454,1,0,0:0:0:0:
192,192,45795,1,8,0:0:0:0:
320,192,45795,1,4,0:0:0:0:
448,192,45965,1,2,0:0:0:0:
64,192,46136,1,8,0:0:0:0:
192,192,46136,1,0,0:0:0:0:
192,192,46477,1,8,0:0:0:0:
320,192,46477,1,4,0:0:0:0:
64,192,46647,1,2,0:0:0:0:
320,192,46818,1,8,0:0:0:0:
448,192,46818,1,0,0:0:0:0:
64,192,47159,1,8,0:0:0:0:
448,192,47159,1,0,0:0:0:0:
320,192,47329,1,0,0:0:0:50:Tom1.wav
192,192,47499,1,0,0:0:0:50:Tom2.wav
64,192,47670,128,8,47840:0:0:0:0:
320,192,47840,1,4,0:0:0:0:
448,192,47840,1,2,0:0:0:0:
64,192,48181,1,8,0:0:0:0:
448,192,48181,1,0,0:0:0:0:
192,192,48522,1,2,0:0:0:0:
320,192,48693,1,2,0:0:0:0:
192,192,48863,1,8,0:0:0:0:
448,192,48863,1,0,0:0:0:0:
320,192,49204,1,2,0:0:0:0:
192,192,49374,1,2,0:0:0:0:
64,192,49545,1,8,0:0:0:0:
448,192,49545,1,0,0:0:0:0:
320,192,49886,1,2,0:0:0:0:
64,192,50056,1,2,0:0:0:0:
192,192,50227,1,8,0:0:0:0:
320,192,50227,1,0,0:0:0:0:
448,192,50397,1,0,0:0:0:0:
320,192,50482,1,0,0:0:0:0:
64,192,50568,128,2,51249:0:0:0:0:
320,192,50909,1,8,0:0:0:0:
448,192,50909,1,0,0:0:0:0:
192,192,51249,1,2,0:0:0:0:
320,192,51420,1,2,0:0:0:0:
64,192,51590,1,8,0:0:0:0:
448,192,51590,1,0,0:0:0:0:
192,192,51761,1,4,0:0:0:0:
320,192,51761,128,2,52102:0:0:0:0:
64,192,52102,1,2,0:0:0:0:
192,192,52272,1,8,0:0:0:0:
448,192,52272,1,0,0:0:0:0:
320,192,52443,1,2,0:0:0:0:
64,192,52613,1,8,0:0:0:0:
448,192,52613,1,0,0:0:0:50:Tom1.wav
64,192,52869,1,0,0:0:0:50:Tom2.wav
320,192,52869,1,0,0:0:0:0:
64,192,53124,1,0,0:0:0:50:Tom3.wav
192,192,53124,1,0,0:0:0:0:
320,192,53295,1,2,0:0:0:0:
448,192,53295,1,4,0:0:0:0:
64,192,53636,1,8,0:0:0:0:
320,192,53636,1,0,0:0:0:0:
64,192,53806,1,2,0:0:0:0:
448,192,53977,1,0,0:0:0:0:
192,192,54147,1,2,0:0:0:0:
320,192,54318,1,8,0:0:0:0:
448,192,54318,1,0,0:0:0:0:
64,192,54488,1,0,0:0:0:0:
192,192,54659,1,2,0:0:0:0:
320,192,54659,1,4,0:0:0:0:
64,192,54999,1,8,0:0:0:0:
448,192,54999,1,0,0:0:0:0:
192,192,55170,1,2,0:0:0:0:
320,192,55340,1,0,0:0:0:0:
192,192,55511,1,2,0:0:0:0:
64,192,55681,1,8,0:0:0:0:
448,192,55681,1,0,0:0:0:0:
448,192,55852,1,0,0:0:0:0:
192,192,56022,1,2,0:0:0:0:
320,192,56022,1,4,0:0:0:0:
64,192,56363,1,2,0:0:0:0:
320,192,56534,1,8,0:0:0:0:
448,192,56534,1,0,0:0:0:0:
192,192,56704,1,2,0:0:0:0:
320,192,56874,1,0,0:0:0:0:
64,192,57045,1,2,0:0:0:0:
192,192,57215,1,8,0:0:0:0:
320,192,57215,1,0,0:0:0:0:
448,192,57386,1,2,0:0:0:0:
64,192,57556,128,0,57727:0:0:0:0:
192,192,57727,1,8,0:0:0:0:
320,192,57727,1,0,0:0:0:0:
448,192,57897,128,0,58068:0:0:0:0:
64,192,58068,1,2,0:0:0:0:
192,192,58068,1,8,0:0:0:0:
320,192,58238,1,8,0:0:0:0:
64,192,58409,1,8,0:0:0:0:
320,192,58579,1,8,0:0:0:0:
448,192,58579,1,2,0:0:0:0:
192,192,58749,1,2,0:0:0:0:
64,192,58920,1,0,0:0:0:0:
64,192,59090,1,8,0:0:0:0:
448,192,59090,1,0,0:0:0:0:
448,192,59261,1,0,0:0:0:0:
64,192,59431,1,8,0:0:0:0:
192,192,59431,1,0,0:0:0:0:
192,192,59602,1,0,0:0:0:0:
320,192,59772,1,8,0:0:0:0:
448,192,59772,1,0,0:0:0:0:
64,192,59943,128,2,60284:0:0:0:0:
192,192,59943,1,4,0:0:0:0:
320,192,60284,1,2,0:0:0:0:
192,192,60454,1,8,0:0:0:0:
448,192,60454,1,0,0:0:0:0:
64,192,60624,1,2,0:0:0:0:
192,192,60795,1,8,0:0:0:0:
320,192,60795,1,0,0:0:0:0:
448,192,60965,1,2,0:0:0:0:
64,192,61136,1,8,0:0:0:0:
192,192,61136,1,0,0:0:0:0:
320,192,61306,1,2,0:0:0:0:
448,192,61306,128,4,61647:0:0:0:0:
64,192,61647,1,8,0:0:0:0:
320,192,61818,1,8,0:0:0:0:
64,192,61988,1,8,0:0:0:0:
192,192,61988,1,0,0:0:0:0:
320,192,62159,1,8,0:0:0:0:
448,192,62159,1,0,0:0:0:0:
64,192,62329,1,8,0:0:0:0:
192,192,62329,1,0,0:0:0:0:
320,192,62499,1,8,0:0:0:0:
448,192,62499,1,0,0:0:0:0:
64,192,62670,128,4,63011:0:0:0:0:
192,192,62670,1,2,0:0:0:0:
320,192,63011,1,2,0:0:0:0:
64,192,63181,1,8,0:0:0:0:
448,192,63181,1,0,0:0:0:0:
192,192,63522,1,2,0:0:0:0:
320,192,63693,1,2,0:0:0:0:
64,192,63863,1,8,0:0:0:0:
192,192,63863,1,0,0:0:0:0:
448,192,64034,128,2,64374:0:0:0:0:
192,192,64374,1,2,0:0:0:0:
320,192,64545,1,8,0:0:0:0:
448,192,64545,1,0,0:0:0:0:
64,192,64886,1,2,0:0:0:0:
320,192,65056,1,2,0:0:0:0:
64,192,65227,1,8,0:0:0:0:
192,192,65227,1,0,0:0:0:0:
448,192,65397,128,2,65738:0:0:0:0:
192,192,65738,1,2,0:0:0:0:
64,192,65909,1,8,0:0:0:0:
320,192,65909,1,0,0:0:0:0:
448,192,66249,1,2,0:0:0:0:
192,192,66420,1,2,0:0:0:0:
320,192,66590,1,8,0:0:0:0:
448,192,66590,1,0,0:0:0:0:
64,192,66761,128,2,67102:0:0:0:0:
320,192,67102,1,2,0:0:0:0:
64,192,67272,1,8,0:0:0:0:
448,192,67272,1,0,0:0:0:0:
192,192,67443,1,2,0:0:0:0:
64,192,67784,1,2,0:0:0:0:
320,192,67954,1,8,0:0:0:0:
448,192,67954,1,0,0:0:0:0:
64,192,68295,128,2,68636:0:0:0:0:
192,192,68295,1,4,0:0:0:0:
320,192,68636,1,8,0:0:0:0:
448,192,68636,1,0,0:0:0:0:
192,192,68806,1,2,0:0:0:0:
448,192,69147,1,2,0:0:0:0:
64,192,69318,1,8,0:0:0:0:
192,192,69318,1,0,0:0:0:0:
320,192,69659,1,2,0:0:0:0:
192,192,69829,1,2,0:0:0:0:
64,192,69999,1,8,0:0:0:0:
448,192,69999,1,0,0:0:0:0:
320,192,70170,128,2,70511:0:0:0:0:
64,192,70511,1,2,0:0:0:0:
192,192,70681,1,8,0:0:0:0:
320,192,70681,1,0,0:0:0:0:
448,192,70852,1,0,0:0:0:0:
64,192,71022,128,2,71363:0:0:0:0:
192,192,71022,1,4,0:0:0:0:
192,192,71363,1,8,0:0:0:0:
448,192,71363,1,0,0:0:0:0:
320,192,71534,1,0,0:0:0:0:
320,192,71704,1,2,0:0:0:0:
64,192,71874,1,2,0:0:0:0:
192,192,72045,1,8,0:0:0:0:
320,192,72045,1,0,0:0:0:0:
64,192,72215,1,2,0:0:0:0:
448,192,72215,1,4,0:0:0:0:
192,192,72556,1,2,0:0:0:0:
320,192,72556,1,0,0:0:0:0:
64,192,72727,1,8,0:0:0:0:
448,192,72727,1,0,0:0:0:0:
192,192,72897,1,8,0:0:0:0:
448,192,73068,1,2,0:0:0:0:
192,192,73238,1,0,0:0:0:50:Tom2.wav
64,192,73409,1,0,0:0:0:0:
320,192,73579,128,2,73920:0:0:0:0:
448,192,73579,1,4,0:0:0:0:
192,192,73920,1,2,0:0:0:0:
64,192,74090,1,8,0:0:0:0:
448,192,74090,1,0,0:0:0:0:
320,192,74431,1,2,0:0:0:0:
192,192,74602,1,2,0:0:0:0:
64,192,74772,1,8,0:0:0:0:
320,192,74772,1,0,0:0:0:0:
448,192,74943,128,2,75284:0:0:0:0:
320,192,75284,1,2,0:0:0:0:
64,192,75454,1,8,0:0:0:0:
192,192,75454,1,0,0:0:0:0:
448,192,75795,1,2,0:0:0:0:
192,192,75965,1,2,0:0:0:0:
320,192,76136,1,8,0:0:0:0:
448,192,76136,1,0,0:0:0:0:
64,192,76306,128,2,76647:0:0:0:0:
320,192,76647,1,2,0:0:0:0:
192,192,76818,1,8,0:0:0:0:
448,192,76818,1,0,0:0:0:0:
64,192,77159,1,6,0:0:0:0:
192,192,77329,1,2,0:0:0:0:
320,192,77499,1,8,0:0:0:0:
448,192,77499,1,0,0:0:0:0:
64,192,77670,128,4,78011:0:0:0:0:
192,192,77670,1,2,0:0:0:0:
448,192,78011,1,2,0:0:0:0:
192,192,78181,1,8,0:0:0:0:
320,192,78181,128,0,78522:0:0:0:0:
64,192,78522,1,8,0:0:0:0:
192,192,78522,1,0,0:0:0:0:
448,192,78693,1,8,0:0:0:0:
320,192,78863,1,8,0:0:0:0:
192,192,79034,1,0,0:0:0:50:Tom3.wav
64,192,79204,128,2,79545:0:0:0:0:
448,192,79204,1,4,0:0:0:0:
320,192,79545,1,2,0:0:0:0:
192,192,79715,128,0,80056:0:0:0:50:Tom1.wav
64,192,80056,1,2,0:0:0:0:
320,192,80227,1,4,0:0:0:0:
448,192,80227,128,8,80568:0:0:0:0:
192,192,80568,1,2,0:0:0:0:
64,192,80738,1,8,0:0:0:0:
320,192,80738,1,0,0:0:0:50:Tom3.wav
448,192,80909,128,0,81249:0:0:0:0:
64,192,81079,1,2,0:0:0:0:
192,192,81249,128,0,81590:0:0:0:50:Tom1.wav
320,192,81249,1,0,0:0:0:0:
448,192,81420,1,2,0:0:0:0:
64,192,81590,128,0,81931:0:0:0:50:Tom2.wav
320,192,81590,1,0,0:0:0:0:
192,192,81761,1,8,0:0:0:0:
320,192,81931,1,4,0:0:0:0:
448,192,81931,128,2,82272:0:0:0:0:
192,192,82102,1,2,0:0:0:0:
64,192,82272,1,2,0:0:0:0:
192,192,82443,1,8,0:0:0:0:
320,192,82443,128,4,82784:0:0:0:0:
64,192,82784,1,2,0:0:0:0:
320,192,82954,1,4,0:0:0:0:
448,192,82954,128,8,83636:0:0:0:0:
192,192,83295,1,2,0:0:0:0:
64,192,83465,1,0,0:0:0:50:Tom1.wav
320,192,83636,1,2,0:0:0:0:
192,192,83806,1,0,0:0:0:50:Tom2.wav
64,192,83977,1,2,0:0:0:0:
448,192,83977,1,0,0:0:0:0:
320,192,84147,1,0,0:0:0:0:
192,192,84318,1,8,0:0:0:0:
64,192,84488,1,10,0:0:0:0:
448,192,84488,1,4,0:0:0:0:
320,192,84829,1,2,0:0:0:0:
64,192,84999,1,8,0:0:0:0:
192,192,84999,1,0,0:0:0:0:
320,192,85340,1,2,0:0:0:0:
192,192,85511,1,2,0:0:0:0:
320,192,85681,1,8,0:0:0:0:
448,192,85681,1,0,0:0:0:0:
64,192,85852,1,2,0:0:0:0:
192,192,85852,1,4,0:0:0:0:
320,192,86193,1,2,0:0:0:0:
64,192,86363,1,8,0:0:0:0:
448,192,86363,1,0,0:0:0:0:
192,192,86704,1,2,0:0:0:0:
320,192,86874,1,2,0:0:0:0:
64,192,87045,1,8,0:0:0:0:
448,192,87045,1,0,0:0:0:0:
192,192,87215,1,2,0:0:0:0:
320,192,87215,1,4,0:0:0:0:
64,192,87556,1,2,0:0:0:0:
320,192,87727,1,8,0:0:0:0:
448,192,87727,1,0,0:0:0:50:Tom1.wav
192,192,87897,1,0,0:0:0:50:Tom3.wav
448,192,88068,1,0,0:0:0:50:Tom1.wav
320,192,88238,1,0,0:0:0:50:Tom2.wav
192,192,88409,1,0,0:0:0:50:Tom3.wav
64,192,88579,128,10,89431:0:0:0:0:
448,192,88579,1,4,0:0:0:0:
