osu file format v14

[General]
AudioFilename: audio.mp3
AudioLeadIn: 0
PreviewTime: 61647
Countdown: 0
SampleSet: Soft
StackLeniency: 0.7
Mode: 3
LetterboxInBreaks: 0
SpecialStyle: 0
WidescreenStoryboard: 0

[Editor]
DistanceSpacing: 1.2
BeatDivisor: 4
GridSize: 32
TimelineZoom: 1.7

[Metadata]
Title:REAL-EYES (TV Size)
TitleUnicode:REAL-EYES (TV Size)
Artist:Inori Minase
ArtistUnicode:水瀬いのり
Creator:Amiichii
Version:Insane
Source:現実主義勇者の王国再建記
Tags:Takodachi- LLENN- cryochan Al-Reina by-ad japanese pop j-pop jpop anime opening short genjitsu shugi yuusha no oukoku saikenk 2nd second season How a Realist Hero Rebuilt the Kingdom Liscia Elfrieden
BeatmapID:3372200
BeatmapSetID:1651869

[Difficulty]
HPDrainRate:8
CircleSize:4
OverallDifficulty:8
ApproachRate:5
SliderMultiplier:1.4
SliderTickRate:1

[Events]
//Background and Video events
0,0,"IN.jpg",0,0
//Break Periods
//Storyboard Layer 0 (Background)
//Storyboard Layer 1 (Fail)
//Storyboard Layer 2 (Pass)
//Storyboard Layer 3 (Foreground)
//Storyboard Layer 4 (Overlay)
//Storyboard Sound Samples

[TimingPoints]
449,405.405405405405,4,2,1,50,1,0
449,-84.0336134453782,4,2,1,50,0,0
6935,357.142857142857,4,2,1,50,1,0
6935,-95.2380952380952,4,2,1,50,0,0
7646,340.909090909091,4,2,1,50,1,0
9009,480,4,2,1,50,1,0
9009,-70.9219858156028,4,2,1,50,0,0
9489,340.909090909091,4,2,1,50,1,0
9659,340.909090909091,4,2,1,50,1,0
62670,-100,4,2,1,50,0,1
79204,-100,4,2,1,50,0,0

[HitObjects]
64,192,43,5,0,0:0:0:0:
320,192,271,1,0,0:0:0:0:
64,192,449,128,0,1665:0:0:0:0:
448,192,449,128,0,854:0:0:0:0:
192,192,854,1,0,0:0:0:0:
320,192,1057,128,0,1462:0:0:0:0:
192,192,1462,1,0,0:0:0:0:
320,192,1665,128,0,3692:0:0:0:0:
448,192,1665,128,0,2070:0:0:0:0:
64,192,2476,128,0,2881:0:0:0:0:
448,192,2678,1,0,0:0:0:0:
192,192,2881,128,0,3286:0:0:0:0:
64,192,3084,1,0,0:0:0:0:
448,192,3286,128,0,3692:0:0:0:0:
64,192,3692,128,0,4908:0:0:0:0:
192,192,3692,128,0,4097:0:0:0:0:
320,192,4097,1,0,0:0:0:0:
448,192,4325,128,0,4705:0:0:0:0:
192,192,4705,1,0,0:0:0:0:
320,192,4908,128,0,6935:0:0:0:0:
448,192,4908,128,0,7646:0:0:0:0:
64,192,6175,1,0,0:0:0:0:
192,192,6884,1,0,0:0:0:0:
64,192,6935,1,0,0:0:0:0:
320,192,7646,1,0,0:0:0:0:
64,192,7816,1,0,0:0:0:0:
448,192,7986,1,0,0:0:0:0:
192,192,8157,128,0,8498:0:0:0:0:
448,192,8498,128,0,9489:0:0:0:0:
64,192,9009,1,0,0:0:0:0:
192,192,9089,1,0,0:0:0:0:
320,192,9169,1,0,0:0:0:0:
64,192,9249,1,0,0:0:0:0:
192,192,9329,1,0,0:0:0:0:
320,192,9409,1,0,0:0:0:0:
64,192,9489,128,2,9829:0:0:0:0:
192,192,9489,1,4,0:0:0:0:
192,192,9829,1,2,0:0:0:0:
320,192,9829,1,0,0:0:0:0:
64,192,9999,1,8,0:0:0:0:
320,192,9999,1,0,0:0:0:0:
448,192,9999,1,0,0:0:0:0:
192,192,10170,1,0,0:0:0:0:
64,192,10340,1,2,0:0:0:0:
448,192,10340,1,0,0:0:0:0:
192,192,10511,1,2,0:0:0:0:
320,192,10511,1,0,0:0:0:0:
64,192,10681,1,8,0:0:0:0:
320,192,10681,1,0,0:0:0:0:
448,192,10681,1,0,0:0:0:0:
192,192,10852,1,2,0:0:0:0:
448,192,10852,128,0,11193:0:0:0:0:
320,192,11022,1,0,0:0:0:0:
64,192,11193,1,2,0:0:0:0:
192,192,11193,1,0,0:0:0:0:
64,192,11363,1,8,0:0:0:0:
320,192,11363,1,0,0:0:0:0:
448,192,11363,1,0,0:0:0:0:
192,192,11534,1,0,0:0:0:0:
320,192,11704,1,2,0:0:0:0:
448,192,11704,1,0,0:0:0:0:
64,192,11874,1,2,0:0:0:0:
192,192,11874,1,0,0:0:0:0:
64,192,12045,1,8,0:0:0:0:
320,192,12045,1,0,0:0:0:0:
448,192,12045,1,0,0:0:0:0:
192,192,12215,128,4,12556:0:0:0:0:
320,192,12215,1,2,0:0:0:0:
448,192,12215,1,0,0:0:0:0:
64,192,12556,1,2,0:0:0:0:
448,192,12556,1,0,0:0:0:0:
64,192,12727,128,8,13068:0:0:0:0:
192,192,12727,1,0,0:0:0:0:
320,192,12727,1,0,0:0:0:0:
448,192,12897,1,0,0:0:0:0:
320,192,12982,1,0,0:0:0:0:
192,192,13068,1,2,0:0:0:0:
448,192,13068,1,4,0:0:0:0:
192,192,13238,1,2,0:0:0:0:
320,192,13238,1,0,0:0:0:0:
64,192,13409,1,8,0:0:0:0:
320,192,13409,1,0,0:0:0:0:
448,192,13409,1,0,0:0:0:0:
64,192,13579,1,4,0:0:0:0:
192,192,13579,1,2,0:0:0:0:
448,192,13579,128,0,13920:0:0:0:0:
64,192,13920,128,2,14090:0:0:0:0:
320,192,13920,1,0,0:0:0:0:
192,192,14090,1,8,0:0:0:0:
320,192,14090,128,0,14261:0:0:0:50:Tom1.wav
192,192,14261,128,0,14431:0:0:0:50:Tom2.wav
448,192,14261,1,0,0:0:0:0:
64,192,14431,1,0,0:0:0:50:Tom3.wav
448,192,14431,128,0,14602:0:0:0:0:
64,192,14602,128,2,14943:0:0:0:0:
192,192,14602,128,4,14943:0:0:0:0:
320,192,14602,128,0,14943:0:0:0:0:
448,192,14943,1,2,0:0:0:0:
192,192,15028,1,2,0:0:0:0:
64,192,15113,1,2,0:0:0:0:
320,192,15113,1,4,0:0:0:0:
448,192,15113,1,0,0:0:0:0:
192,192,15284,1,0,0:0:0:0:
64,192,15454,1,8,0:0:0:0:
320,192,15454,1,0,0:0:0:0:
448,192,15454,1,0,0:0:0:0:
192,192,15624,1,0,0:0:0:0:
320,192,15795,1,0,0:0:0:0:
64,192,15965,1,2,0:0:0:0:
448,192,15965,1,0,0:0:0:0:
192,192,16136,1,0,0:0:0:0:
64,192,16306,1,8,0:0:0:0:
320,192,16306,1,0,0:0:0:0:
448,192,16306,1,0,0:0:0:0:
192,192,16477,1,0,0:0:0:0:
64,192,16647,1,2,0:0:0:0:
448,192,16647,1,0,0:0:0:0:
192,192,16818,1,8,0:0:0:0:
320,192,16818,1,0,0:0:0:0:
448,192,16818,1,0,0:0:0:0:
64,192,16988,1,0,0:0:0:0:
320,192,17159,1,2,0:0:0:0:
448,192,17159,1,0,0:0:0:0:
64,192,17244,1,0,0:0:0:0:
192,192,17329,1,2,0:0:0:0:
320,192,17329,1,0,0:0:0:0:
64,192,17499,1,8,0:0:0:0:
192,192,17499,1,0,0:0:0:0:
448,192,17499,1,0,0:0:0:0:
64,192,17670,128,2,18011:0:0:0:0:
320,192,17670,1,0,0:0:0:0:
192,192,18011,1,2,0:0:0:0:
320,192,18011,1,0,0:0:0:0:
64,192,18181,1,8,0:0:0:0:
192,192,18181,1,0,0:0:0:0:
448,192,18181,1,0,0:0:0:0:
320,192,18352,1,0,0:0:0:0:
192,192,18522,1,0,0:0:0:0:
448,192,18607,1,0,0:0:0:0:
64,192,18693,1,2,0:0:0:0:
320,192,18693,1,0,0:0:0:0:
192,192,18778,1,0,0:0:0:0:
448,192,18863,1,0,0:0:0:0:
64,192,19034,1,8,0:0:0:0:
192,192,19034,1,0,0:0:0:0:
320,192,19034,1,0,0:0:0:0:
448,192,19204,1,0,0:0:0:0:
192,192,19374,1,2,0:0:0:0:
320,192,19374,1,0,0:0:0:0:
64,192,19545,1,8,0:0:0:0:
320,192,19545,1,0,0:0:0:0:
448,192,19545,1,0,0:0:0:0:
192,192,19715,1,0,0:0:0:0:
64,192,19886,1,2,0:0:0:0:
448,192,19886,1,0,0:0:0:0:
320,192,20056,1,0,0:0:0:0:
64,192,20141,1,8,0:0:0:0:
192,192,20141,1,0,0:0:0:0:
320,192,20227,1,8,0:0:0:0:
448,192,20227,1,0,0:0:0:0:
64,192,20397,1,2,0:0:0:0:
192,192,20397,1,4,0:0:0:0:
448,192,20397,128,0,20738:0:0:0:0:
192,192,20738,1,2,0:0:0:0:
320,192,20738,1,0,0:0:0:0:
64,192,20909,1,8,0:0:0:0:
192,192,20909,1,0,0:0:0:0:
448,192,20909,1,0,0:0:0:0:
320,192,21079,1,0,0:0:0:0:
192,192,21249,1,2,0:0:0:0:
448,192,21249,1,0,0:0:0:0:
64,192,21420,1,2,0:0:0:0:
320,192,21420,1,0,0:0:0:0:
192,192,21590,1,0,0:0:0:0:
64,192,21761,1,8,0:0:0:0:
320,192,21761,1,0,0:0:0:0:
448,192,21761,1,0,0:0:0:0:
192,192,21931,1,0,0:0:0:0:
320,192,22102,1,2,0:0:0:0:
448,192,22102,1,0,0:0:0:0:
64,192,22272,1,8,0:0:0:0:
192,192,22272,1,0,0:0:0:0:
448,192,22272,1,0,0:0:0:0:
320,192,22357,1,0,0:0:0:0:
64,192,22443,1,0,0:0:0:0:
192,192,22528,1,0,0:0:0:0:
320,192,22613,1,2,0:0:0:0:
448,192,22613,1,0,0:0:0:0:
64,192,22784,1,2,0:0:0:0:
192,192,22954,1,8,0:0:0:0:
320,192,22954,1,0,0:0:0:0:
448,192,22954,1,0,0:0:0:0:
64,192,23124,128,2,23465:0:0:0:0:
320,192,23124,1,4,0:0:0:0:
448,192,23124,1,0,0:0:0:0:
192,192,23465,1,2,0:0:0:0:
320,192,23465,1,0,0:0:0:0:
64,192,23636,1,8,0:0:0:0:
192,192,23636,1,0,0:0:0:0:
448,192,23636,128,0,23977:0:0:0:0:
320,192,23806,1,0,0:0:0:0:
64,192,23977,128,2,24318:0:0:0:0:
192,192,23977,1,0,0:0:0:0:
320,192,24147,1,2,0:0:0:0:
448,192,24147,1,0,0:0:0:0:
192,192,24318,1,0,0:0:0:0:
64,192,24488,128,8,24829:0:0:0:0:
320,192,24488,1,4,0:0:0:0:
448,192,24488,1,0,0:0:0:0:
320,192,24829,1,0,0:0:0:50:Tom1.wav
448,192,24829,1,0,0:0:0:0:
64,192,24914,1,0,0:0:0:50:Tom1.wav
192,192,24914,1,0,0:0:0:0:
320,192,24999,1,0,0:0:0:50:Tom2.wav
448,192,24999,1,0,0:0:0:0:
64,192,25063,1,0,0:0:0:0:
192,192,25063,1,0,0:0:0:0:
320,192,25170,1,0,0:0:0:50:Tom3.wav
448,192,25170,1,0,0:0:0:0:
192,192,25255,1,0,0:0:0:50:Tom3.wav
64,192,25340,1,8,0:0:0:0:
320,192,25340,1,2,0:0:0:0:
448,192,25340,1,0,0:0:0:0:
64,192,25511,128,8,25681:0:0:0:0:
192,192,25511,128,4,25681:0:0:0:0:
448,192,25511,128,2,25852:0:0:0:0:
64,192,25852,1,8,0:0:0:0:
320,192,25852,1,0,0:0:0:0:
192,192,25937,1,8,0:0:0:0:
64,192,26022,128,2,26363:0:0:0:0:
320,192,26022,128,4,26193:0:0:0:0:
448,192,26022,128,0,26193:0:0:0:0:
192,192,26363,128,8,26534:0:0:0:0:
320,192,26363,128,0,26619:0:0:0:0:
448,192,26363,128,0,26704:0:0:0:0:
64,192,26704,1,2,0:0:0:0:
192,192,26704,1,0,0:0:0:0:
320,192,26874,1,2,0:0:0:0:
448,192,26874,1,0,0:0:0:0:
64,192,27045,1,8,0:0:0:0:
192,192,27045,1,0,0:0:0:0:
320,192,27045,1,0,0:0:0:0:
448,192,27173,1,0,0:0:0:0:
64,192,27215,1,2,0:0:0:0:
192,192,27215,1,0,0:0:0:0:
320,192,27258,1,0,0:0:0:0:
448,192,27301,1,0,0:0:0:0:
64,192,27386,1,0,0:0:0:0:
192,192,27556,1,2,0:0:0:0:
448,192,27556,1,0,0:0:0:0:
64,192,27727,1,8,0:0:0:0:
320,192,27727,1,0,0:0:0:0:
448,192,27727,1,0,0:0:0:0:
192,192,27897,1,0,0:0:0:0:
64,192,27982,1,0,0:0:0:0:
320,192,28068,1,2,0:0:0:0:
448,192,28068,128,0,28153:0:0:0:0:
64,192,28238,128,2,28323:0:0:0:0:
192,192,28238,1,0,0:0:0:0:
192,192,28409,1,8,0:0:0:0:
320,192,28409,128,0,28494:0:0:0:0:
448,192,28409,1,0,0:0:0:0:
64,192,28579,128,2,28920:0:0:0:0:
448,192,28579,1,0,0:0:0:0:
192,192,28920,1,2,0:0:0:0:
320,192,28920,1,0,0:0:0:0:
64,192,29090,1,8,0:0:0:0:
192,192,29090,1,0,0:0:0:0:
448,192,29090,1,0,0:0:0:0:
320,192,29261,1,0,0:0:0:0:
192,192,29346,1,0,0:0:0:0:
64,192,29431,1,2,0:0:0:0:
448,192,29431,1,0,0:0:0:0:
320,192,29516,1,0,0:0:0:0:
192,192,29602,1,2,0:0:0:0:
64,192,29772,1,8,0:0:0:0:
320,192,29772,1,0,0:0:0:0:
448,192,29772,1,0,0:0:0:0:
192,192,29900,1,0,0:0:0:0:
64,192,29943,1,2,0:0:0:0:
320,192,29943,1,0,0:0:0:0:
448,192,29985,1,0,0:0:0:0:
320,192,30113,1,0,0:0:0:0:
64,192,30284,1,2,0:0:0:0:
192,192,30284,1,0,0:0:0:0:
64,192,30454,1,8,0:0:0:0:
320,192,30454,1,0,0:0:0:0:
448,192,30454,1,0,0:0:0:0:
192,192,30624,1,0,0:0:0:0:
320,192,30710,1,0,0:0:0:0:
64,192,30795,1,2,0:0:0:0:
448,192,30795,1,0,0:0:0:0:
192,192,30965,1,8,0:0:0:0:
320,192,30965,1,0,0:0:0:0:
64,192,31051,1,8,0:0:0:0:
448,192,31051,1,0,0:0:0:0:
192,192,31136,1,8,0:0:0:0:
320,192,31136,1,0,0:0:0:0:
64,192,31264,1,0,0:0:0:0:
192,192,31306,1,2,0:0:0:0:
448,192,31306,128,4,31647:0:0:0:0:
320,192,31349,1,0,0:0:0:0:
64,192,31647,1,2,0:0:0:0:
320,192,31647,1,0,0:0:0:0:
64,192,31818,1,8,0:0:0:0:
192,192,31818,1,0,0:0:0:0:
448,192,31818,1,0,0:0:0:0:
320,192,31903,1,0,0:0:0:0:
192,192,31988,1,0,0:0:0:0:
320,192,32159,1,2,0:0:0:0:
448,192,32159,1,0,0:0:0:0:
192,192,32329,1,2,0:0:0:0:
320,192,32329,1,0,0:0:0:0:
64,192,32499,1,8,0:0:0:0:
192,192,32499,1,0,0:0:0:0:
448,192,32499,1,0,0:0:0:0:
64,192,32670,128,2,33011:0:0:0:0:
320,192,32670,1,0,0:0:0:0:
192,192,33011,1,2,0:0:0:0:
320,192,33011,1,0,0:0:0:0:
64,192,33181,1,8,0:0:0:0:
192,192,33181,1,0,0:0:0:0:
448,192,33181,128,0,33522:0:0:0:0:
320,192,33352,1,0,0:0:0:0:
64,192,33522,1,2,0:0:0:0:
192,192,33522,128,0,33863:0:0:0:0:
320,192,33693,1,2,0:0:0:0:
448,192,33693,1,0,0:0:0:0:
64,192,33863,1,8,0:0:0:0:
320,192,33863,128,0,34204:0:0:0:0:
448,192,33863,1,0,0:0:0:0:
192,192,34034,1,0,0:0:0:0:
448,192,34119,1,0,0:0:0:0:
64,192,34204,128,2,34545:0:0:0:0:
192,192,34204,1,4,0:0:0:0:
320,192,34374,1,0,0:0:0:0:
192,192,34545,1,8,0:0:0:0:
320,192,34545,1,0,0:0:0:0:
448,192,34545,1,0,0:0:0:0:
448,192,34715,128,0,34801:0:0:0:0:
192,192,34801,1,0,0:0:0:0:
64,192,34886,1,2,0:0:0:0:
320,192,34886,1,0,0:0:0:0:
448,192,34886,128,0,35738:0:0:0:0:
64,192,35056,1,2,0:0:0:0:
192,192,35056,1,0,0:0:0:0:
192,192,35227,1,8,0:0:0:0:
320,192,35227,1,0,0:0:0:0:
64,192,35397,1,4,0:0:0:0:
192,192,35397,1,2,0:0:0:0:
320,192,35397,1,0,0:0:0:0:
64,192,35738,1,2,0:0:0:0:
320,192,35738,1,0,0:0:0:0:
64,192,35909,1,8,0:0:0:0:
192,192,35909,1,0,0:0:0:0:
448,192,35909,1,0,0:0:0:0:
320,192,36079,1,0,0:0:0:0:
192,192,36164,1,0,0:0:0:0:
64,192,36249,1,0,0:0:0:50:Tom1.wav
448,192,36249,1,0,0:0:0:0:
192,192,36420,1,0,0:0:0:50:Tom2.wav
448,192,36420,1,0,0:0:0:0:
64,192,36590,1,0,0:0:0:50:Tom3.wav
320,192,36590,1,0,0:0:0:0:
64,192,36761,1,0,0:0:0:50:Tom3.wav
192,192,36761,1,0,0:0:0:0:
192,192,36931,1,4,0:0:0:0:
320,192,36931,1,2,0:0:0:0:
448,192,36931,128,0,37954:0:0:0:0:
64,192,37272,1,0,0:0:0:0:
192,192,37443,1,2,0:0:0:0:
320,192,37443,1,0,0:0:0:0:
64,192,37613,1,0,0:0:0:0:
320,192,37784,1,0,0:0:0:0:
64,192,37954,1,8,0:0:0:0:
192,192,37954,1,0,0:0:0:0:
448,192,38124,1,0,0:0:0:0:
64,192,38295,128,2,38636:0:0:0:0:
320,192,38295,1,0,0:0:0:0:
448,192,38636,128,0,38806:0:0:0:0:
64,192,38806,128,2,38977:0:0:0:0:
320,192,38806,1,0,0:0:0:0:
448,192,38977,1,0,0:0:0:0:
320,192,39147,128,0,39318:0:0:0:0:
192,192,39318,1,8,0:0:0:0:
448,192,39318,1,0,0:0:0:0:
64,192,39488,128,0,39999:0:0:0:0:
320,192,39659,1,2,0:0:0:0:
448,192,39659,1,0,0:0:0:0:
192,192,39999,1,0,0:0:0:0:
320,192,40170,128,2,40255:0:0:0:0:
448,192,40170,128,0,40255:0:0:0:0:
320,192,40340,128,0,41363:0:0:0:0:
448,192,40340,128,0,40511:0:0:0:0:
64,192,40511,128,0,40681:0:0:0:0:
192,192,40681,1,8,0:0:0:0:
448,192,40681,128,0,40852:0:0:0:0:
64,192,40852,128,0,41022:0:0:0:0:
192,192,41022,128,2,41193:0:0:0:0:
448,192,41022,1,0,0:0:0:0:
448,192,41193,128,0,41363:0:0:0:0:
192,192,41363,128,0,41534:0:0:0:0:
64,192,41534,1,2,0:0:0:0:
320,192,41534,128,0,41704:0:0:0:0:
192,192,41704,1,0,0:0:0:0:
192,192,41874,128,0,42045:0:0:0:0:
320,192,42045,1,8,0:0:0:0:
448,192,42045,1,0,0:0:0:0:
320,192,42215,128,0,42386:0:0:0:0:
64,192,42386,128,4,43409:0:0:0:0:
192,192,42386,1,2,0:0:0:0:
448,192,42386,1,0,0:0:0:0:
320,192,42727,1,0,0:0:0:0:
192,192,42897,1,2,0:0:0:0:
448,192,42897,1,0,0:0:0:0:
320,192,43068,1,0,0:0:0:0:
192,192,43238,1,0,0:0:0:0:
320,192,43409,1,8,0:0:0:0:
448,192,43409,1,0,0:0:0:0:
192,192,43579,1,0,0:0:0:0:
64,192,43749,1,2,0:0:0:0:
448,192,43749,128,0,44090:0:0:0:0:
192,192,44090,1,0,0:0:0:0:
64,192,44261,128,2,44431:0:0:0:0:
320,192,44261,128,0,44431:0:0:0:0:
64,192,44602,128,2,44772:0:0:0:0:
448,192,44602,128,0,44772:0:0:0:0:
192,192,44772,1,8,0:0:0:0:
320,192,44772,1,0,0:0:0:0:
64,192,44943,1,2,0:0:0:0:
320,192,44943,128,4,45113:0:0:0:0:
448,192,44943,128,0,45113:0:0:0:0:
64,192,45284,128,2,45454:0:0:0:0:
448,192,45284,1,0,0:0:0:0:
192,192,45454,1,8,0:0:0:0:
320,192,45454,1,0,0:0:0:0:
448,192,45454,128,0,46477:0:0:0:0:
64,192,45624,1,0,0:0:0:0:
64,192,45795,1,8,0:0:0:0:
192,192,45795,1,4,0:0:0:0:
320,192,45795,1,0,0:0:0:0:
192,192,45965,1,2,0:0:0:0:
320,192,45965,1,0,0:0:0:0:
64,192,46136,1,8,0:0:0:0:
192,192,46136,1,0,0:0:0:0:
320,192,46306,1,0,0:0:0:0:
64,192,46477,1,8,0:0:0:0:
192,192,46477,1,4,0:0:0:0:
320,192,46477,1,0,0:0:0:0:
64,192,46647,1,2,0:0:0:0:
448,192,46647,1,0,0:0:0:0:
192,192,46818,1,8,0:0:0:0:
320,192,46818,1,0,0:0:0:0:
448,192,46818,1,0,0:0:0:0:
64,192,46988,1,2,0:0:0:0:
192,192,46988,128,0,47159:0:0:0:0:
64,192,47159,1,8,0:0:0:0:
320,192,47159,1,0,0:0:0:0:
448,192,47159,1,0,0:0:0:0:
320,192,47329,1,0,0:0:0:50:Tom1.wav
448,192,47329,128,0,47499:0:0:0:0:
64,192,47499,1,0,0:0:0:50:Tom2.wav
192,192,47499,128,0,47670:0:0:0:0:
64,192,47670,128,8,47840:0:0:0:0:
448,192,47670,1,0,0:0:0:0:
320,192,47755,1,8,0:0:0:0:
192,192,47840,1,4,0:0:0:0:
448,192,47840,128,2,48522:0:0:0:0:
320,192,48011,1,0,0:0:0:0:
64,192,48181,1,8,0:0:0:0:
320,192,48181,1,0,0:0:0:0:
192,192,48352,1,0,0:0:0:0:
64,192,48522,128,2,48607:0:0:0:0:
320,192,48522,1,0,0:0:0:0:
192,192,48693,128,2,48778:0:0:0:0:
448,192,48693,1,0,0:0:0:0:
64,192,48863,128,8,49204:0:0:0:0:
320,192,48863,1,0,0:0:0:0:
448,192,48863,128,0,48948:0:0:0:0:
192,192,49034,128,0,49119:0:0:0:0:
320,192,49204,128,2,49289:0:0:0:0:
448,192,49204,128,0,49545:0:0:0:0:
64,192,49374,1,2,0:0:0:0:
192,192,49374,1,0,0:0:0:0:
192,192,49545,1,8,0:0:0:0:
320,192,49545,128,0,49715:0:0:0:0:
64,192,49715,128,0,50056:0:0:0:0:
192,192,49886,1,2,0:0:0:0:
448,192,49886,1,0,0:0:0:0:
192,192,50056,128,2,50397:0:0:0:0:
320,192,50056,1,0,0:0:0:0:
64,192,50227,1,8,0:0:0:0:
448,192,50227,1,0,0:0:0:0:
448,192,50397,128,0,51249:0:0:0:0:
320,192,50482,1,0,0:0:0:0:
64,192,50568,128,2,50909:0:0:0:0:
192,192,50568,1,0,0:0:0:0:
320,192,50738,1,0,0:0:0:0:
192,192,50909,1,8,0:0:0:0:
320,192,50909,1,0,0:0:0:0:
192,192,51079,1,0,0:0:0:0:
64,192,51249,128,2,51590:0:0:0:0:
320,192,51249,1,0,0:0:0:0:
192,192,51420,1,2,0:0:0:0:
448,192,51420,1,0,0:0:0:0:
192,192,51590,1,8,0:0:0:0:
320,192,51590,1,0,0:0:0:0:
64,192,51761,1,4,0:0:0:0:
320,192,51761,1,2,0:0:0:0:
448,192,51761,128,0,52102:0:0:0:0:
192,192,52102,1,2,0:0:0:0:
320,192,52102,1,0,0:0:0:0:
64,192,52272,1,8,0:0:0:0:
192,192,52272,1,0,0:0:0:0:
448,192,52272,1,0,0:0:0:0:
64,192,52443,1,2,0:0:0:0:
320,192,52443,1,0,0:0:0:0:
192,192,52613,128,8,52784:0:0:0:0:
320,192,52613,128,0,52784:0:0:0:50:Tom1.wav
448,192,52613,128,0,52784:0:0:0:0:
64,192,52869,128,0,53039:0:0:0:50:Tom2.wav
192,192,52869,128,0,53039:0:0:0:0:
448,192,52869,128,0,53039:0:0:0:0:
64,192,53124,128,0,53210:0:0:0:50:Tom3.wav
320,192,53124,128,0,53210:0:0:0:0:
448,192,53124,128,0,53210:0:0:0:0:
192,192,53210,1,0,0:0:0:0:
64,192,53295,1,2,0:0:0:0:
320,192,53295,128,4,53636:0:0:0:0:
448,192,53295,1,0,0:0:0:0:
64,192,53636,1,8,0:0:0:0:
192,192,53636,1,0,0:0:0:0:
448,192,53636,1,0,0:0:0:0:
320,192,53806,1,2,0:0:0:0:
448,192,53806,128,0,54147:0:0:0:0:
192,192,53977,1,0,0:0:0:0:
64,192,54147,1,2,0:0:0:0:
320,192,54147,1,0,0:0:0:0:
64,192,54318,1,8,0:0:0:0:
192,192,54318,1,0,0:0:0:0:
448,192,54318,1,0,0:0:0:0:
320,192,54488,1,0,0:0:0:0:
192,192,54573,1,8,0:0:0:0:
64,192,54659,128,2,54999:0:0:0:0:
320,192,54659,1,4,0:0:0:0:
448,192,54659,1,0,0:0:0:0:
192,192,54999,1,8,0:0:0:0:
320,192,54999,1,0,0:0:0:0:
448,192,54999,1,0,0:0:0:0:
64,192,55170,1,2,0:0:0:0:
320,192,55170,128,0,55511:0:0:0:0:
192,192,55340,1,0,0:0:0:0:
64,192,55511,1,2,0:0:0:0:
448,192,55511,1,0,0:0:0:0:
192,192,55681,1,8,0:0:0:0:
320,192,55681,1,0,0:0:0:0:
448,192,55681,1,0,0:0:0:0:
64,192,55852,1,0,0:0:0:0:
320,192,55937,1,0,0:0:0:0:
64,192,56022,1,2,0:0:0:0:
192,192,56022,1,4,0:0:0:0:
448,192,56022,128,0,56193:0:0:0:0:
320,192,56193,1,0,0:0:0:0:
192,192,56363,1,2,0:0:0:0:
448,192,56363,128,0,56534:0:0:0:0:
64,192,56534,1,8,0:0:0:0:
192,192,56534,1,0,0:0:0:0:
320,192,56534,128,0,56704:0:0:0:0:
64,192,56704,128,2,56874:0:0:0:0:
448,192,56704,1,0,0:0:0:0:
320,192,56874,128,0,57045:0:0:0:0:
64,192,57045,1,2,0:0:0:0:
192,192,57045,128,0,57215:0:0:0:0:
64,192,57215,1,8,0:0:0:0:
320,192,57215,1,0,0:0:0:0:
448,192,57215,1,0,0:0:0:0:
192,192,57386,1,2,0:0:0:0:
320,192,57386,1,0,0:0:0:0:
448,192,57556,128,0,57727:0:0:0:0:
64,192,57727,1,8,0:0:0:0:
192,192,57727,1,0,0:0:0:0:
320,192,57727,1,0,0:0:0:0:
448,192,57812,1,0,0:0:0:0:
64,192,57897,128,0,58068:0:0:0:0:
192,192,58068,1,2,0:0:0:0:
320,192,58068,1,8,0:0:0:0:
448,192,58068,1,0,0:0:0:0:
64,192,58238,1,8,0:0:0:0:
192,192,58323,1,8,0:0:0:0:
320,192,58409,1,8,0:0:0:0:
448,192,58409,1,0,0:0:0:0:
64,192,58579,1,8,0:0:0:0:
192,192,58579,1,2,0:0:0:0:
448,192,58579,1,0,0:0:0:0:
64,192,58749,1,2,0:0:0:0:
320,192,58749,1,0,0:0:0:0:
192,192,58920,128,0,59090:0:0:0:0:
64,192,59090,1,8,0:0:0:0:
320,192,59090,1,0,0:0:0:0:
448,192,59090,128,0,59261:0:0:0:0:
192,192,59261,128,0,59431:0:0:0:0:
64,192,59431,128,8,59602:0:0:0:0:
320,192,59431,1,0,0:0:0:0:
448,192,59431,1,0,0:0:0:0:
320,192,59602,128,0,59772:0:0:0:0:
64,192,59772,1,8,0:0:0:0:
192,192,59772,128,0,59943:0:0:0:0:
448,192,59772,1,0,0:0:0:0:
64,192,59943,128,2,60284:0:0:0:0:
320,192,59943,1,4,0:0:0:0:
448,192,59943,128,0,60284:0:0:0:0:
192,192,60284,1,2,0:0:0:0:
320,192,60284,1,0,0:0:0:0:
64,192,60454,1,8,0:0:0:0:
192,192,60454,1,0,0:0:0:0:
448,192,60454,1,0,0:0:0:0:
64,192,60624,1,2,0:0:0:0:
320,192,60624,1,0,0:0:0:0:
192,192,60795,1,8,0:0:0:0:
320,192,60795,1,0,0:0:0:0:
448,192,60795,1,0,0:0:0:0:
64,192,60965,1,2,0:0:0:0:
448,192,60965,1,0,0:0:0:0:
64,192,61136,1,8,0:0:0:0:
192,192,61136,1,0,0:0:0:0:
320,192,61136,1,0,0:0:0:0:
64,192,61306,128,2,61647:0:0:0:0:
192,192,61306,128,4,61647:0:0:0:0:
448,192,61306,1,0,0:0:0:0:
320,192,61647,1,8,0:0:0:0:
448,192,61647,1,0,0:0:0:0:
320,192,61818,1,8,0:0:0:0:
448,192,61818,1,0,0:0:0:0:
64,192,61988,1,8,0:0:0:0:
192,192,61988,1,0,0:0:0:0:
64,192,62159,1,8,0:0:0:0:
192,192,62159,1,0,0:0:0:0:
448,192,62201,1,0,0:0:0:0:
320,192,62244,1,0,0:0:0:0:
192,192,62286,1,0,0:0:0:0:
64,192,62329,1,8,0:0:0:0:
448,192,62372,1,0,0:0:0:0:
320,192,62414,1,8,0:0:0:0:
192,192,62457,1,0,0:0:0:0:
64,192,62499,1,8,0:0:0:0:
448,192,62542,1,0,0:0:0:0:
320,192,62585,1,8,0:0:0:0:
192,192,62627,1,0,0:0:0:0:
64,192,62670,1,4,0:0:0:0:
448,192,62670,128,2,63011:0:0:0:0:
64,192,63011,128,2,63181:0:0:0:0:
192,192,63011,1,0,0:0:0:0:
192,192,63181,1,8,0:0:0:0:
320,192,63181,128,0,63352:0:0:0:0:
448,192,63181,1,0,0:0:0:0:
64,192,63352,128,0,63522:0:0:0:0:
192,192,63522,1,2,0:0:0:0:
448,192,63522,128,0,63693:0:0:0:0:
192,192,63693,1,2,0:0:0:0:
320,192,63693,1,0,0:0:0:0:
64,192,63863,1,8,0:0:0:0:
320,192,63863,1,0,0:0:0:0:
448,192,63863,1,0,0:0:0:0:
192,192,64034,128,2,64374:0:0:0:0:
448,192,64034,1,0,0:0:0:0:
320,192,64374,128,2,64545:0:0:0:0:
448,192,64374,1,0,0:0:0:0:
64,192,64545,128,8,64715:0:0:0:0:
192,192,64545,1,0,0:0:0:0:
448,192,64545,1,0,0:0:0:0:
320,192,64715,128,0,64886:0:0:0:0:
192,192,64886,1,2,0:0:0:0:
448,192,64886,128,0,65056:0:0:0:0:
64,192,65056,1,2,0:0:0:0:
192,192,65056,1,0,0:0:0:0:
64,192,65227,1,8,0:0:0:0:
320,192,65227,1,0,0:0:0:0:
448,192,65227,1,0,0:0:0:0:
192,192,65397,128,2,65738:0:0:0:0:
320,192,65397,1,0,0:0:0:0:
64,192,65738,1,2,0:0:0:0:
448,192,65738,128,0,65909:0:0:0:0:
64,192,65909,1,8,0:0:0:0:
192,192,65909,1,0,0:0:0:0:
320,192,65909,128,0,66079:0:0:0:0:
192,192,66079,128,0,66249:0:0:0:0:
64,192,66249,1,2,0:0:0:0:
448,192,66249,128,0,66590:0:0:0:0:
192,192,66420,1,2,0:0:0:0:
320,192,66420,1,0,0:0:0:0:
64,192,66590,1,8,0:0:0:0:
192,192,66590,128,0,66761:0:0:0:0:
320,192,66590,1,0,0:0:0:0:
64,192,66761,128,2,66931:0:0:0:0:
320,192,66761,1,0,0:0:0:0:
448,192,66761,1,0,0:0:0:0:
192,192,66931,1,0,0:0:0:0:
320,192,67102,128,2,67613:0:0:0:0:
448,192,67102,1,0,0:0:0:0:
64,192,67272,1,8,0:0:0:0:
192,192,67272,1,0,0:0:0:0:
192,192,67443,1,2,0:0:0:0:
448,192,67443,1,0,0:0:0:0:
64,192,67613,1,0,0:0:0:0:
192,192,67784,1,2,0:0:0:0:
320,192,67784,1,0,0:0:0:0:
64,192,67954,128,8,68124:0:0:0:0:
320,192,67954,1,0,0:0:0:0:
448,192,67954,1,0,0:0:0:0:
192,192,68124,128,0,68295:0:0:0:0:
64,192,68295,1,2,0:0:0:0:
320,192,68295,1,4,0:0:0:0:
448,192,68295,128,0,68806:0:0:0:0:
192,192,68465,1,0,0:0:0:0:
64,192,68636,1,8,0:0:0:0:
320,192,68636,1,0,0:0:0:0:
64,192,68806,128,2,69318:0:0:0:0:
192,192,68806,1,0,0:0:0:0:
320,192,68977,1,0,0:0:0:0:
192,192,69147,1,2,0:0:0:0:
448,192,69147,1,0,0:0:0:0:
192,192,69318,1,8,0:0:0:0:
320,192,69318,128,0,69829:0:0:0:0:
448,192,69318,1,0,0:0:0:0:
64,192,69488,1,0,0:0:0:0:
192,192,69659,1,2,0:0:0:0:
448,192,69659,1,0,0:0:0:0:
64,192,69829,1,2,0:0:0:0:
192,192,69829,1,0,0:0:0:0:
64,192,69999,1,8,0:0:0:0:
320,192,69999,1,0,0:0:0:0:
448,192,69999,1,0,0:0:0:0:
192,192,70170,128,2,70511:0:0:0:0:
448,192,70170,1,0,0:0:0:0:
320,192,70340,1,0,0:0:0:0:
64,192,70511,1,2,0:0:0:0:
448,192,70511,128,0,70681:0:0:0:0:
64,192,70681,128,8,70852:0:0:0:0:
192,192,70681,1,0,0:0:0:0:
320,192,70681,1,0,0:0:0:0:
320,192,70852,128,0,71022:0:0:0:0:
64,192,71022,1,2,0:0:0:0:
192,192,71022,1,4,0:0:0:0:
448,192,71022,128,0,71534:0:0:0:0:
64,192,71363,1,8,0:0:0:0:
320,192,71363,1,0,0:0:0:0:
192,192,71534,128,0,71619:0:0:0:0:
64,192,71704,1,2,0:0:0:0:
192,192,71704,128,0,72215:0:0:0:0:
320,192,71874,1,2,0:0:0:0:
448,192,71874,1,0,0:0:0:0:
64,192,72045,1,8,0:0:0:0:
320,192,72045,1,0,0:0:0:0:
64,192,72215,1,2,0:0:0:0:
320,192,72215,1,4,0:0:0:0:
448,192,72215,1,0,0:0:0:0:
192,192,72556,1,2,0:0:0:0:
448,192,72556,1,0,0:0:0:0:
64,192,72727,1,8,0:0:0:0:
192,192,72727,1,0,0:0:0:0:
320,192,72727,1,0,0:0:0:0:
448,192,72897,1,8,0:0:0:0:
64,192,72982,1,8,0:0:0:0:
192,192,72982,1,0,0:0:0:0:
320,192,73068,1,2,0:0:0:0:
448,192,73068,1,0,0:0:0:50:Tom1.wav
64,192,73238,1,0,0:0:0:50:Tom2.wav
192,192,73238,1,0,0:0:0:0:
320,192,73323,1,0,0:0:0:0:
448,192,73409,1,0,0:0:0:0:
64,192,73579,128,2,73920:0:0:0:0:
192,192,73579,1,4,0:0:0:0:
320,192,73579,1,0,0:0:0:0:
192,192,73920,1,2,0:0:0:0:
448,192,73920,128,0,74090:0:0:0:0:
64,192,74090,1,8,0:0:0:0:
192,192,74090,128,0,74261:0:0:0:0:
320,192,74090,1,0,0:0:0:0:
320,192,74261,128,0,74431:0:0:0:0:
64,192,74431,128,2,74602:0:0:0:0:
448,192,74431,1,0,0:0:0:0:
192,192,74602,1,2,0:0:0:0:
320,192,74602,1,0,0:0:0:0:
64,192,74772,1,8,0:0:0:0:
192,192,74772,1,0,0:0:0:0:
448,192,74772,1,0,0:0:0:0:
64,192,74943,1,2,0:0:0:0:
320,192,74943,128,0,75284:0:0:0:0:
64,192,75284,128,2,75454:0:0:0:0:
448,192,75284,1,0,0:0:0:0:
192,192,75454,1,8,0:0:0:0:
320,192,75454,1,0,0:0:0:0:
448,192,75454,128,0,75624:0:0:0:0:
192,192,75624,128,0,75795:0:0:0:0:
320,192,75795,1,2,0:0:0:0:
448,192,75795,128,0,76136:0:0:0:0:
64,192,75965,1,2,0:0:0:0:
192,192,75965,1,0,0:0:0:0:
64,192,76136,128,8,76306:0:0:0:0:
192,192,76136,1,0,0:0:0:0:
320,192,76136,1,0,0:0:0:0:
320,192,76306,128,2,76647:0:0:0:0:
448,192,76306,1,0,0:0:0:0:
192,192,76477,1,0,0:0:0:0:
64,192,76647,128,2,76818:0:0:0:0:
448,192,76647,1,0,0:0:0:0:
192,192,76818,1,8,0:0:0:0:
320,192,76818,1,0,0:0:0:0:
448,192,76818,128,0,78181:0:0:0:0:
64,192,76988,1,0,0:0:0:0:
192,192,77073,1,0,0:0:0:0:
64,192,77159,1,2,0:0:0:0:
320,192,77159,1,4,0:0:0:0:
192,192,77329,1,2,0:0:0:0:
320,192,77329,1,0,0:0:0:0:
64,192,77499,1,8,0:0:0:0:
192,192,77499,1,0,0:0:0:0:
64,192,77670,1,4,0:0:0:0:
192,192,77670,1,2,0:0:0:0:
320,192,77670,1,0,0:0:0:0:
192,192,78011,1,2,0:0:0:0:
320,192,78011,1,0,0:0:0:0:
64,192,78181,1,8,0:0:0:0:
192,192,78181,1,0,0:0:0:0:
320,192,78181,1,0,0:0:0:0:
448,192,78352,1,0,0:0:0:0:
320,192,78437,1,0,0:0:0:0:
64,192,78522,1,8,0:0:0:0:
192,192,78522,1,0,0:0:0:0:
320,192,78693,1,8,0:0:0:0:
448,192,78693,1,0,0:0:0:50:Tom1.wav
192,192,78863,1,8,0:0:0:0:
320,192,78863,1,0,0:0:0:50:Tom2.wav
64,192,79034,1,0,0:0:0:50:Tom3.wav
192,192,79034,1,0,0:0:0:0:
64,192,79204,128,2,79545:0:0:0:0:
320,192,79204,1,4,0:0:0:0:
448,192,79204,1,0,0:0:0:0:
192,192,79545,1,2,0:0:0:0:
320,192,79545,1,0,0:0:0:0:
64,192,79715,1,0,0:0:0:50:Tom1.wav
192,192,79715,128,0,80056:0:0:0:0:
448,192,79715,1,0,0:0:0:0:
64,192,80056,1,2,0:0:0:0:
320,192,80056,1,0,0:0:0:0:
192,192,80227,1,4,0:0:0:0:
320,192,80227,1,8,0:0:0:0:
448,192,80227,128,0,80568:0:0:0:0:
64,192,80568,1,2,0:0:0:0:
192,192,80568,1,0,0:0:0:0:
192,192,80738,1,8,0:0:0:0:
320,192,80738,1,0,0:0:0:50:Tom3.wav
448,192,80738,1,0,0:0:0:0:
64,192,80909,128,0,81249:0:0:0:0:
320,192,81079,1,2,0:0:0:0:
448,192,81079,1,0,0:0:0:0:
192,192,81249,128,0,81590:0:0:0:50:Tom1.wav
320,192,81249,1,0,0:0:0:0:
448,192,81249,1,0,0:0:0:0:
64,192,81420,1,2,0:0:0:0:
64,192,81590,1,0,0:0:0:50:Tom2.wav
320,192,81590,128,0,81931:0:0:0:0:
448,192,81590,1,0,0:0:0:0:
192,192,81761,1,8,0:0:0:0:
64,192,81931,1,4,0:0:0:0:
192,192,81931,1,2,0:0:0:0:
448,192,81931,128,0,82272:0:0:0:0:
64,192,82102,1,2,0:0:0:0:
320,192,82102,1,0,0:0:0:0:
192,192,82272,128,2,82443:0:0:0:0:
64,192,82443,1,8,0:0:0:0:
320,192,82443,128,4,82784:0:0:0:0:
448,192,82443,1,0,0:0:0:0:
64,192,82784,128,2,82954:0:0:0:0:
192,192,82784,1,0,0:0:0:0:
192,192,82954,1,4,0:0:0:0:
320,192,82954,1,8,0:0:0:0:
448,192,82954,128,0,83636:0:0:0:0:
64,192,83295,1,2,0:0:0:0:
192,192,83295,1,0,0:0:0:0:
64,192,83465,1,0,0:0:0:50:Tom1.wav
320,192,83465,1,0,0:0:0:0:
192,192,83636,1,2,0:0:0:0:
320,192,83636,1,0,0:0:0:0:
64,192,83806,1,0,0:0:0:50:Tom2.wav
448,192,83806,1,0,0:0:0:0:
320,192,83977,1,2,0:0:0:0:
448,192,83977,1,0,0:0:0:0:
64,192,84062,1,8,0:0:0:0:
192,192,84062,1,0,0:0:0:0:
320,192,84176,1,0,0:0:0:50:Tom1.wav
448,192,84176,1,0,0:0:0:0:
64,192,84318,1,8,0:0:0:0:
192,192,84318,1,0,0:0:0:0:
64,192,84488,128,8,84829:0:0:0:0:
320,192,84488,128,2,84829:0:0:0:0:
448,192,84488,1,4,0:0:0:0:
192,192,84829,128,2,84999:0:0:0:0:
448,192,84829,128,0,85340:0:0:0:0:
64,192,84999,1,8,0:0:0:0:
320,192,84999,128,0,85170:0:0:0:0:
192,192,85170,128,0,85340:0:0:0:0:
64,192,85340,128,2,85511:0:0:0:0:
320,192,85340,1,0,0:0:0:0:
192,192,85511,1,2,0:0:0:0:
448,192,85511,128,0,85681:0:0:0:0:
64,192,85681,1,8,0:0:0:0:
320,192,85681,128,0,85852:0:0:0:0:
64,192,85852,1,2,0:0:0:0:
192,192,85852,128,4,86193:0:0:0:0:
448,192,85852,128,0,86193:0:0:0:0:
64,192,86193,128,2,86704:0:0:0:0:
320,192,86193,128,0,86363:0:0:0:0:
192,192,86363,128,8,86534:0:0:0:0:
448,192,86363,1,0,0:0:0:0:
320,192,86534,128,0,86704:0:0:0:0:
192,192,86704,1,2,0:0:0:0:
448,192,86704,128,0,86874:0:0:0:0:
64,192,86874,128,2,87045:0:0:0:0:
320,192,86874,1,0,0:0:0:0:
192,192,87045,128,8,87215:0:0:0:0:
448,192,87045,1,0,0:0:0:0:
64,192,87215,1,2,0:0:0:0:
320,192,87215,128,4,87556:0:0:0:0:
448,192,87215,128,0,87556:0:0:0:0:
64,192,87556,128,2,87727:0:0:0:0:
192,192,87556,1,0,0:0:0:0:
320,192,87727,1,8,0:0:0:0:
448,192,87727,128,0,88494:0:0:0:50:Tom1.wav
192,192,87812,1,0,0:0:0:50:Tom2.wav
64,192,87897,1,0,0:0:0:50:Tom3.wav
320,192,87897,1,0,0:0:0:0:
64,192,88068,1,0,0:0:0:50:Tom1.wav
192,192,88068,1,0,0:0:0:0:
320,192,88153,1,0,0:0:0:50:Tom1.wav
192,192,88238,1,0,0:0:0:50:Tom2.wav
64,192,88323,1,0,0:0:0:50:Tom2.wav
320,192,88409,1,0,0:0:0:50:Tom3.wav
192,192,88494,1,0,0:0:0:50:Tom3.wav
64,192,88579,128,4,89431:0:0:0:0:
320,192,88579,128,2,89346:0:0:0:0:
448,192,88579,128,8,89261:0:0:0:0:
