osu file format v14

[General]
AudioFilename: audio.ogg
AudioLeadIn: 0
PreviewTime: 67614
Countdown: 0
SampleSet: Soft
StackLeniency: 0.7
Mode: 3
LetterboxInBreaks: 0
SpecialStyle: 0
WidescreenStoryboard: 0

[Editor]
DistanceSpacing: 1.7
BeatDivisor: 4
GridSize: 4
TimelineZoom: 2

[Metadata]
Title:REAL-EYES
TitleUnicode:REAL-EYES
Artist:Inori Minase
ArtistUnicode:水瀬 いのり
Creator:Pyra-san
Version:Hero
Source:現実主義勇者の王国再建記
Tags:genjitsu shugi yuusha no oukoku saikenki season part 2 two 2nd second how a realist hero rebuilt the kingdom anime japanese pop jpop j-pop glow 「glow」 4th album opening op female vocalist vocal voice py-chan
BeatmapID:4220353
BeatmapSetID:2025670

[Difficulty]
HPDrainRate:8
CircleSize:4
OverallDifficulty:8
ApproachRate:5
SliderMultiplier:1.4
SliderTickRate:1

[Events]
//Background and Video events
0,0,"bg.jpg",0,0
//Break Periods
//Storyboard Layer 0 (Background)
//Storyboard Layer 1 (Fail)
//Storyboard Layer 2 (Pass)
//Storyboard Layer 3 (Foreground)
//Storyboard Layer 4 (Overlay)
//Storyboard Sound Samples

[TimingPoints]
9831,340.909090909091,4,2,1,60,1,0
68467,-100,4,2,1,60,0,1
90285,-100,4,2,1,60,0,0
146194,-100,4,2,1,60,0,1
168012,-100,4,2,1,60,0,0
184376,-103.092783505155,4,2,1,60,0,0
184418,-106.382978723404,4,2,1,60,0,0
184461,-109.89010989011,4,2,1,60,0,0
184504,-113.636363636364,4,2,1,60,0,0
184546,-117.647058823529,4,2,1,60,0,0
195455,-111.111111111111,4,2,1,60,0,0
200910,-105.263157894737,4,2,1,60,0,0
206364,-100,4,2,1,60,0,0
211649,-100,4,2,1,60,0,1
234831,-100,4,2,1,60,0,0

[HitObjects]
448,192,9319,128,0,9404:0:0:0:0:
320,192,9404,128,0,9490:0:0:0:0:
192,192,9490,128,0,9575:0:0:0:0:
64,192,9575,128,0,9660:0:0:0:0:
320,192,9660,128,0,9745:0:0:0:0:
192,192,9745,128,0,9830:0:0:0:0:
64,192,9830,128,0,10171:0:0:0:0:
320,192,9830,128,0,10001:0:0:0:0:
448,192,9830,1,0,0:0:0:0:
448,192,10171,128,0,10342:0:0:0:0:
192,192,10171,1,0,0:0:0:0:
192,192,10342,128,0,10512:0:0:0:0:
320,192,10342,1,0,0:0:0:0:
64,192,10342,1,0,0:0:0:0:
320,192,10512,128,0,10683:0:0:0:0:
64,192,10683,128,0,11194:0:0:0:0:
192,192,10683,1,0,0:0:0:0:
320,192,10853,1,0,0:0:0:0:
448,192,10853,1,0,0:0:0:0:
448,192,11024,1,0,0:0:0:0:
192,192,11024,1,0,0:0:0:0:
320,192,11024,1,0,0:0:0:0:
448,192,11194,128,0,11535:0:0:0:0:
192,192,11194,1,0,0:0:0:0:
320,192,11365,1,0,0:0:0:0:
64,192,11535,128,0,11705:0:0:0:0:
192,192,11535,1,0,0:0:0:0:
192,192,11705,128,0,11876:0:0:0:0:
448,192,11705,1,0,0:0:0:0:
320,192,11705,1,0,0:0:0:0:
320,192,11876,128,0,12046:0:0:0:0:
64,192,12046,1,0,0:0:0:0:
448,192,12046,128,0,12387:0:0:0:0:
192,192,12217,1,0,0:0:0:0:
64,192,12217,1,0,0:0:0:0:
64,192,12387,128,0,12558:0:0:0:0:
320,192,12387,1,0,0:0:0:0:
192,192,12387,1,0,0:0:0:0:
192,192,12558,128,0,13410:0:0:0:0:
448,192,12558,1,0,0:0:0:0:
64,192,12728,1,0,0:0:0:0:
448,192,12899,1,0,0:0:0:0:
320,192,12899,1,0,0:0:0:0:
64,192,13069,1,0,0:0:0:0:
320,192,13069,1,0,0:0:0:0:
448,192,13069,1,0,0:0:0:0:
64,192,13240,1,0,0:0:0:0:
320,192,13410,1,0,0:0:0:0:
448,192,13410,128,0,13580:0:0:0:0:
192,192,13580,1,0,0:0:0:0:
64,192,13580,128,0,13751:0:0:0:0:
448,192,13751,1,0,0:0:0:0:
320,192,13751,1,0,0:0:0:0:
192,192,13751,128,0,13921:0:0:0:0:
64,192,13921,1,0,0:0:0:0:
320,192,13921,128,0,14092:0:0:0:0:
448,192,13921,128,0,14262:0:0:0:0:
192,192,14092,1,0,0:0:0:0:
64,192,14262,1,0,0:0:0:0:
320,192,14262,128,0,14348:0:0:0:0:
64,192,14433,1,0,0:0:0:0:
448,192,14433,1,0,0:0:0:0:
192,192,14433,1,0,0:0:0:0:
192,192,14603,128,0,14688:0:0:0:0:
320,192,14774,1,0,0:0:0:0:
448,192,14774,1,0,0:0:0:0:
192,192,14944,1,0,0:0:0:0:
64,192,14944,128,0,15029:0:0:0:0:
320,192,15029,1,0,0:0:0:0:
448,192,15029,1,0,0:0:0:0:
192,192,15115,1,0,0:0:0:0:
64,192,15115,1,0,0:0:0:0:
448,192,15285,128,0,15626:0:0:0:0:
320,192,15285,1,0,0:0:0:0:
192,192,15285,128,0,15455:0:0:0:0:
64,192,15626,128,0,15796:0:0:0:0:
320,192,15626,1,0,0:0:0:0:
320,192,15796,128,0,15967:0:0:0:0:
192,192,15796,1,0,0:0:0:0:
448,192,15796,1,0,0:0:0:0:
192,192,15967,128,0,16137:0:0:0:0:
448,192,16137,128,0,16649:0:0:0:0:
64,192,16137,1,0,0:0:0:0:
192,192,16308,1,0,0:0:0:0:
64,192,16308,1,0,0:0:0:0:
64,192,16478,1,0,0:0:0:0:
192,192,16478,1,0,0:0:0:0:
320,192,16478,1,0,0:0:0:0:
192,192,16649,128,0,16990:0:0:0:0:
320,192,16649,1,0,0:0:0:0:
64,192,16819,1,0,0:0:0:0:
448,192,16990,128,0,17160:0:0:0:0:
320,192,16990,1,0,0:0:0:0:
320,192,17160,128,0,17330:0:0:0:0:
192,192,17160,1,0,0:0:0:0:
64,192,17160,1,0,0:0:0:0:
64,192,17330,128,0,17501:0:0:0:0:
192,192,17501,1,0,0:0:0:0:
448,192,17501,128,0,17842:0:0:0:0:
320,192,17671,1,0,0:0:0:0:
64,192,17671,1,0,0:0:0:0:
320,192,17842,128,0,18012:0:0:0:0:
192,192,17842,1,0,0:0:0:0:
64,192,17842,1,0,0:0:0:0:
64,192,18012,128,0,18353:0:0:0:0:
192,192,18012,1,0,0:0:0:0:
448,192,18012,128,0,18183:0:0:0:0:
192,192,18353,128,0,18524:0:0:0:0:
320,192,18353,1,0,0:0:0:0:
448,192,18524,128,0,18865:0:0:0:0:
64,192,18524,1,0,0:0:0:0:
320,192,18524,1,0,0:0:0:0:
192,192,18694,1,0,0:0:0:0:
320,192,18779,1,0,0:0:0:0:
192,192,18865,128,0,19035:0:0:0:0:
64,192,18865,128,0,19035:0:0:0:0:
448,192,19035,1,0,0:0:0:0:
320,192,19035,1,0,0:0:0:0:
320,192,19205,1,0,0:0:0:0:
192,192,19205,1,0,0:0:0:0:
64,192,19205,1,0,0:0:0:0:
320,192,19376,128,0,19546:0:0:0:0:
192,192,19376,1,0,0:0:0:0:
448,192,19376,128,0,19546:0:0:0:0:
64,192,19546,1,0,0:0:0:0:
320,192,19717,1,0,0:0:0:0:
192,192,19717,1,0,0:0:0:0:
448,192,19887,1,0,0:0:0:0:
64,192,19887,1,0,0:0:0:0:
192,192,19973,1,0,0:0:0:0:
320,192,20058,1,0,0:0:0:0:
448,192,20058,1,0,0:0:0:0:
64,192,20143,1,0,0:0:0:0:
320,192,20228,1,0,0:0:0:0:
192,192,20228,1,0,0:0:0:0:
448,192,20228,1,0,0:0:0:0:
192,192,20399,1,0,0:0:0:0:
448,192,20399,128,0,20740:0:0:0:0:
64,192,20399,128,0,20569:0:0:0:0:
64,192,20740,1,0,0:0:0:0:
320,192,20740,1,0,0:0:0:0:
192,192,20825,1,0,0:0:0:0:
64,192,20910,1,0,0:0:0:0:
448,192,20910,1,0,0:0:0:0:
320,192,20910,1,0,0:0:0:0:
192,192,21251,1,0,0:0:0:0:
448,192,21251,1,0,0:0:0:0:
64,192,21251,128,0,21592:0:0:0:0:
320,192,21421,1,0,0:0:0:0:
448,192,21592,128,0,21762:0:0:0:0:
320,192,21762,1,0,0:0:0:0:
192,192,21762,128,0,22103:0:0:0:0:
64,192,21933,1,0,0:0:0:0:
448,192,22103,1,0,0:0:0:0:
64,192,22103,1,0,0:0:0:0:
320,192,22103,128,0,22444:0:0:0:0:
448,192,22274,1,0,0:0:0:0:
64,192,22444,1,0,0:0:0:0:
192,192,22444,128,0,22615:0:0:0:0:
448,192,22615,1,0,0:0:0:0:
320,192,22615,1,0,0:0:0:0:
64,192,22615,128,0,22785:0:0:0:0:
320,192,22785,128,0,22956:0:0:0:0:
64,192,22956,1,0,0:0:0:0:
192,192,22956,128,0,23126:0:0:0:0:
448,192,23041,1,0,0:0:0:0:
320,192,23126,1,0,0:0:0:0:
64,192,23126,128,0,23467:0:0:0:0:
448,192,23296,1,0,0:0:0:0:
320,192,23296,1,0,0:0:0:0:
192,192,23296,1,0,0:0:0:0:
192,192,23467,1,0,0:0:0:0:
448,192,23467,1,0,0:0:0:0:
448,192,23808,1,0,0:0:0:0:
320,192,23808,1,0,0:0:0:0:
448,192,23978,1,0,0:0:0:0:
192,192,23978,1,0,0:0:0:0:
64,192,23978,128,0,24319:0:0:0:0:
320,192,24149,1,0,0:0:0:0:
192,192,24319,128,0,24490:0:0:0:0:
320,192,24404,1,0,0:0:0:0:
448,192,24490,128,0,24831:0:0:0:0:
64,192,24490,1,0,0:0:0:0:
320,192,24575,1,0,0:0:0:0:
192,192,24660,1,0,0:0:0:0:
64,192,24831,1,0,0:0:0:0:
192,192,24831,1,0,0:0:0:0:
320,192,24831,128,0,25171:0:0:0:0:
64,192,25001,1,0,0:0:0:0:
192,192,25171,128,0,25342:0:0:0:0:
448,192,25171,1,0,0:0:0:0:
448,192,25342,128,0,25512:0:0:0:0:
320,192,25342,1,0,0:0:0:0:
64,192,25342,1,0,0:0:0:0:
64,192,25512,128,0,25683:0:0:0:0:
320,192,25598,1,0,0:0:0:0:
192,192,25683,128,0,25853:0:0:0:0:
448,192,25683,1,0,0:0:0:0:
64,192,25853,1,0,0:0:0:0:
448,192,25938,1,0,0:0:0:0:
320,192,25938,1,0,0:0:0:0:
64,192,26024,1,0,0:0:0:0:
192,192,26024,1,0,0:0:0:0:
448,192,26194,128,0,26535:0:0:0:0:
320,192,26194,128,0,26535:0:0:0:0:
64,192,26535,1,0,0:0:0:0:
192,192,26535,1,0,0:0:0:0:
64,192,26706,128,0,27046:0:0:0:0:
320,192,26706,1,0,0:0:0:0:
448,192,26706,1,0,0:0:0:0:
192,192,26876,1,0,0:0:0:0:
320,192,27046,128,0,27387:0:0:0:0:
448,192,27046,1,0,0:0:0:0:
192,192,27217,1,0,0:0:0:0:
64,192,27217,1,0,0:0:0:0:
448,192,27387,128,0,27558:0:0:0:0:
64,192,27558,128,0,27899:0:0:0:0:
192,192,27558,1,0,0:0:0:0:
320,192,27558,1,0,0:0:0:0:
448,192,27728,1,0,0:0:0:0:
320,192,27899,1,0,0:0:0:0:
192,192,27899,1,0,0:0:0:0:
448,192,28069,1,0,0:0:0:0:
320,192,28069,1,0,0:0:0:0:
192,192,28069,1,0,0:0:0:0:
64,192,28240,128,0,28410:0:0:0:0:
192,192,28325,1,0,0:0:0:0:
448,192,28410,128,0,28581:0:0:0:0:
320,192,28410,1,0,0:0:0:0:
320,192,28581,128,0,28751:0:0:0:0:
64,192,28581,1,0,0:0:0:0:
64,192,28751,128,0,28921:0:0:0:0:
448,192,28751,1,0,0:0:0:0:
192,192,28751,1,0,0:0:0:0:
192,192,28921,128,0,29262:0:0:0:0:
448,192,28921,128,0,29092:0:0:0:0:
320,192,28921,1,0,0:0:0:0:
320,192,29262,128,0,30626:0:0:0:0:
64,192,29262,1,0,0:0:0:0:
192,192,29433,1,0,0:0:0:0:
64,192,29433,1,0,0:0:0:0:
448,192,29433,1,0,0:0:0:0:
448,192,29603,1,0,0:0:0:0:
192,192,29774,1,0,0:0:0:0:
64,192,29774,1,0,0:0:0:0:
448,192,29944,1,0,0:0:0:0:
192,192,29944,1,0,0:0:0:0:
64,192,30115,1,0,0:0:0:0:
64,192,30285,1,0,0:0:0:0:
192,192,30285,1,0,0:0:0:0:
448,192,30285,1,0,0:0:0:0:
64,192,30626,1,0,0:0:0:0:
192,192,30711,1,0,0:0:0:0:
320,192,30796,1,0,0:0:0:0:
448,192,30882,1,0,0:0:0:0:
64,192,30967,1,0,0:0:0:0:
192,192,31052,1,0,0:0:0:0:
448,192,31137,1,0,0:0:0:0:
320,192,31137,1,0,0:0:0:0:
64,192,31137,1,0,0:0:0:0:
192,192,31308,128,0,31649:0:0:0:0:
320,192,31308,128,0,31478:0:0:0:0:
448,192,31308,128,0,31478:0:0:0:0:
64,192,31649,1,0,0:0:0:0:
448,192,31649,1,0,0:0:0:0:
320,192,31734,1,0,0:0:0:0:
64,192,31819,1,0,0:0:0:0:
448,192,31819,1,0,0:0:0:0:
192,192,31819,1,0,0:0:0:0:
448,192,32160,128,0,32501:0:0:0:0:
320,192,32160,128,0,32245:0:0:0:0:
64,192,32160,128,0,32245:0:0:0:0:
192,192,32331,1,0,0:0:0:0:
192,192,32501,128,0,32671:0:0:0:0:
64,192,32501,1,0,0:0:0:0:
320,192,32586,1,0,0:0:0:0:
64,192,32671,128,0,33012:0:0:0:0:
448,192,32671,1,0,0:0:0:0:
192,192,32842,1,0,0:0:0:0:
320,192,32842,1,0,0:0:0:0:
448,192,32842,1,0,0:0:0:0:
320,192,33012,128,0,33353:0:0:0:0:
192,192,33012,1,0,0:0:0:0:
64,192,33183,1,0,0:0:0:0:
192,192,33353,128,0,33524:0:0:0:0:
448,192,33353,1,0,0:0:0:0:
64,192,33524,128,0,33694:0:0:0:0:
320,192,33524,1,0,0:0:0:0:
448,192,33524,1,0,0:0:0:0:
320,192,33694,128,0,33865:0:0:0:0:
192,192,33865,128,0,34035:0:0:0:0:
64,192,33865,1,0,0:0:0:0:
448,192,33950,1,0,0:0:0:0:
64,192,34035,128,0,34376:0:0:0:0:
320,192,34035,1,0,0:0:0:0:
320,192,34206,1,0,0:0:0:0:
192,192,34206,1,0,0:0:0:0:
448,192,34206,1,0,0:0:0:0:
192,192,34376,1,0,0:0:0:0:
448,192,34376,1,0,0:0:0:0:
320,192,34546,1,0,0:0:0:0:
64,192,34717,1,0,0:0:0:0:
448,192,34717,1,0,0:0:0:0:
64,192,34887,128,0,35228:0:0:0:0:
192,192,34887,1,0,0:0:0:0:
320,192,34887,1,0,0:0:0:0:
448,192,35058,1,0,0:0:0:0:
448,192,35228,128,0,35399:0:0:0:0:
320,192,35228,1,0,0:0:0:0:
192,192,35313,1,0,0:0:0:0:
320,192,35399,128,0,35740:0:0:0:0:
64,192,35399,1,0,0:0:0:0:
448,192,35569,1,0,0:0:0:0:
192,192,35569,1,0,0:0:0:0:
64,192,35569,1,0,0:0:0:0:
192,192,35740,128,0,36081:0:0:0:0:
448,192,35740,1,0,0:0:0:0:
64,192,35910,1,0,0:0:0:0:
448,192,36081,128,0,36251:0:0:0:0:
320,192,36081,1,0,0:0:0:0:
192,192,36251,128,0,36421:0:0:0:0:
320,192,36251,1,0,0:0:0:0:
64,192,36251,1,0,0:0:0:0:
64,192,36421,128,0,36592:0:0:0:0:
448,192,36507,1,0,0:0:0:0:
320,192,36592,128,0,36762:0:0:0:0:
192,192,36592,1,0,0:0:0:0:
192,192,36762,1,0,0:0:0:0:
64,192,36762,1,0,0:0:0:0:
448,192,36848,1,0,0:0:0:0:
320,192,36848,1,0,0:0:0:0:
192,192,36933,1,0,0:0:0:0:
64,192,36933,1,0,0:0:0:0:
320,192,37103,128,0,37444:0:0:0:0:
448,192,37103,128,0,37274:0:0:0:0:
192,192,37274,128,0,37444:0:0:0:0:
64,192,37444,1,0,0:0:0:0:
448,192,37444,1,0,0:0:0:0:
320,192,37615,128,0,37956:0:0:0:0:
448,192,37615,1,0,0:0:0:0:
192,192,37615,1,0,0:0:0:0:
64,192,37785,1,0,0:0:0:0:
64,192,37956,128,0,38296:0:0:0:0:
448,192,37956,1,0,0:0:0:0:
320,192,38126,1,0,0:0:0:0:
192,192,38126,1,0,0:0:0:0:
192,192,38296,128,0,38467:0:0:0:0:
320,192,38296,1,0,0:0:0:0:
448,192,38296,1,0,0:0:0:0:
448,192,38467,128,0,38808:0:0:0:0:
64,192,38467,1,0,0:0:0:0:
320,192,38637,1,0,0:0:0:0:
64,192,38808,1,0,0:0:0:0:
192,192,38808,1,0,0:0:0:0:
320,192,38978,128,0,39319:0:0:0:0:
448,192,38978,1,0,0:0:0:0:
64,192,38978,1,0,0:0:0:0:
192,192,39149,1,0,0:0:0:0:
64,192,39319,128,0,39660:0:0:0:0:
192,192,39319,1,0,0:0:0:0:
448,192,39490,1,0,0:0:0:0:
320,192,39490,1,0,0:0:0:0:
192,192,39660,128,0,39831:0:0:0:0:
320,192,39660,1,0,0:0:0:0:
448,192,39660,1,0,0:0:0:0:
64,192,39831,1,0,0:0:0:0:
320,192,39916,1,0,0:0:0:0:
64,192,40001,128,0,40171:0:0:0:0:
448,192,40001,128,0,40342:0:0:0:0:
192,192,40001,1,0,0:0:0:0:
320,192,40171,1,0,0:0:0:0:
320,192,40342,1,0,0:0:0:0:
192,192,40342,1,0,0:0:0:0:
64,192,40342,1,0,0:0:0:0:
192,192,40512,128,0,40683:0:0:0:0:
448,192,40598,1,0,0:0:0:0:
64,192,40683,128,0,41535:0:0:0:0:
320,192,40683,1,0,0:0:0:0:
448,192,40853,1,0,0:0:0:0:
192,192,40853,1,0,0:0:0:0:
448,192,41024,1,0,0:0:0:0:
320,192,41024,1,0,0:0:0:0:
192,192,41024,1,0,0:0:0:0:
448,192,41194,1,0,0:0:0:0:
192,192,41194,1,0,0:0:0:0:
320,192,41194,1,0,0:0:0:0:
320,192,41365,1,0,0:0:0:0:
192,192,41535,1,0,0:0:0:0:
448,192,41535,1,0,0:0:0:0:
192,192,41706,1,0,0:0:0:0:
64,192,41706,1,0,0:0:0:0:
320,192,41706,1,0,0:0:0:0:
448,192,41876,1,0,0:0:0:0:
320,192,41961,1,0,0:0:0:0:
64,192,42046,1,0,0:0:0:0:
192,192,42046,128,0,42217:0:0:0:0:
448,192,42217,128,0,42387:0:0:0:0:
320,192,42217,1,0,0:0:0:0:
64,192,42387,128,0,42558:0:0:0:0:
192,192,42387,1,0,0:0:0:0:
192,192,42558,128,0,42728:0:0:0:0:
320,192,42558,1,0,0:0:0:0:
320,192,42728,128,0,43751:0:0:0:0:
64,192,42728,128,0,43154:0:0:0:0:
448,192,42728,128,0,42899:0:0:0:0:
192,192,42899,1,0,0:0:0:0:
448,192,43069,1,0,0:0:0:0:
64,192,43240,128,0,43666:0:0:0:0:
192,192,43240,1,0,0:0:0:0:
448,192,43410,1,0,0:0:0:0:
192,192,43581,1,0,0:0:0:0:
64,192,43751,1,0,0:0:0:0:
448,192,43751,1,0,0:0:0:0:
192,192,43751,1,0,0:0:0:0:
448,192,44092,128,0,44518:0:0:0:0:
64,192,44092,128,0,44433:0:0:0:0:
320,192,44262,1,0,0:0:0:0:
192,192,44433,128,0,44603:0:0:0:0:
448,192,44603,128,0,45029:0:0:0:0:
320,192,44603,128,0,44774:0:0:0:0:
192,192,44774,1,0,0:0:0:0:
64,192,44944,128,0,45115:0:0:0:0:
192,192,45115,1,0,0:0:0:0:
320,192,45115,1,0,0:0:0:0:
448,192,45115,1,0,0:0:0:0:
320,192,45285,128,0,45796:0:0:0:0:
192,192,45456,128,0,45882:0:0:0:0:
64,192,45456,1,0,0:0:0:0:
448,192,45626,1,0,0:0:0:0:
64,192,45796,1,0,0:0:0:0:
192,192,45967,128,0,46393:0:0:0:0:
448,192,45967,128,0,46137:0:0:0:0:
64,192,46137,128,0,46478:0:0:0:0:
320,192,46308,1,0,0:0:0:0:
192,192,46478,1,0,0:0:0:0:
320,192,46478,1,0,0:0:0:0:
448,192,46478,1,0,0:0:0:0:
320,192,46819,1,0,0:0:0:0:
64,192,46819,128,0,46990:0:0:0:0:
192,192,46990,128,0,47160:0:0:0:0:
448,192,47160,128,0,47331:0:0:0:0:
192,192,47331,1,0,0:0:0:0:
320,192,47331,128,0,47501:0:0:0:0:
64,192,47501,128,0,47671:0:0:0:0:
192,192,47671,128,0,47842:0:0:0:0:
64,192,47842,1,0,0:0:0:0:
320,192,47842,1,0,0:0:0:0:
448,192,47842,128,0,48012:0:0:0:0:
192,192,48012,128,0,48183:0:0:0:0:
448,192,48183,128,0,48609:0:0:0:0:
64,192,48183,128,0,49035:0:0:0:0:
320,192,48183,128,0,48353:0:0:0:0:
192,192,48353,1,0,0:0:0:0:
320,192,48524,1,0,0:0:0:0:
448,192,48694,128,0,49120:0:0:0:0:
192,192,48694,1,0,0:0:0:0:
320,192,48865,1,0,0:0:0:0:
192,192,49035,1,0,0:0:0:0:
192,192,49206,1,0,0:0:0:0:
320,192,49206,1,0,0:0:0:0:
448,192,49206,1,0,0:0:0:0:
64,192,49546,128,0,49973:0:0:0:0:
448,192,49546,128,0,49887:0:0:0:0:
192,192,49717,1,0,0:0:0:0:
320,192,49887,128,0,50058:0:0:0:0:
64,192,50058,128,0,50313:0:0:0:0:
192,192,50058,128,0,50228:0:0:0:0:
448,192,50228,1,0,0:0:0:0:
64,192,50399,128,0,50569:0:0:0:0:
320,192,50399,128,0,50569:0:0:0:0:
192,192,50569,1,0,0:0:0:0:
448,192,50569,1,0,0:0:0:0:
448,192,50740,128,0,51081:0:0:0:0:
192,192,50740,128,0,50910:0:0:0:0:
64,192,50740,1,0,0:0:0:0:
320,192,51081,128,0,51251:0:0:0:0:
64,192,51081,1,0,0:0:0:0:
64,192,51251,128,0,52274:0:0:0:0:
448,192,51251,1,0,0:0:0:0:
192,192,51251,1,0,0:0:0:0:
320,192,51421,1,0,0:0:0:0:
448,192,51507,1,0,0:0:0:0:
192,192,51592,1,0,0:0:0:0:
320,192,51592,128,0,51762:0:0:0:0:
448,192,51762,1,0,0:0:0:0:
192,192,51762,1,0,0:0:0:0:
448,192,51933,1,0,0:0:0:0:
320,192,51933,1,0,0:0:0:0:
192,192,51933,1,0,0:0:0:0:
320,192,52103,1,0,0:0:0:0:
192,192,52188,1,0,0:0:0:0:
320,192,52274,128,0,52444:0:0:0:0:
448,192,52274,1,0,0:0:0:0:
192,192,52444,1,0,0:0:0:0:
64,192,52444,1,0,0:0:0:0:
448,192,52615,1,0,0:0:0:0:
320,192,52615,1,0,0:0:0:0:
192,192,52615,1,0,0:0:0:0:
64,192,52785,1,0,0:0:0:0:
320,192,52785,1,0,0:0:0:0:
192,192,52956,1,0,0:0:0:0:
64,192,52956,1,0,0:0:0:0:
448,192,52956,1,0,0:0:0:0:
320,192,53126,1,0,0:0:0:0:
448,192,53126,1,0,0:0:0:0:
192,192,53211,1,0,0:0:0:0:
320,192,53296,1,0,0:0:0:0:
64,192,53296,1,0,0:0:0:0:
192,192,53467,1,0,0:0:0:0:
64,192,53467,1,0,0:0:0:0:
320,192,53552,1,0,0:0:0:0:
64,192,53637,1,0,0:0:0:0:
192,192,53637,128,0,53808:0:0:0:0:
448,192,53637,1,0,0:0:0:0:
320,192,53808,1,0,0:0:0:0:
448,192,53978,1,0,0:0:0:0:
192,192,53978,1,0,0:0:0:0:
64,192,53978,1,0,0:0:0:0:
320,192,54149,1,0,0:0:0:0:
64,192,54319,1,0,0:0:0:0:
448,192,54319,1,0,0:0:0:0:
448,192,54490,1,0,0:0:0:0:
192,192,54490,1,0,0:0:0:0:
320,192,54660,1,0,0:0:0:0:
192,192,54660,1,0,0:0:0:0:
64,192,54660,1,0,0:0:0:0:
448,192,54831,1,0,0:0:0:0:
64,192,55001,1,0,0:0:0:0:
192,192,55001,1,0,0:0:0:0:
320,192,55171,1,0,0:0:0:0:
192,192,55171,1,0,0:0:0:0:
448,192,55342,1,0,0:0:0:0:
64,192,55342,1,0,0:0:0:0:
320,192,55342,1,0,0:0:0:0:
192,192,55512,1,0,0:0:0:0:
448,192,55683,1,0,0:0:0:0:
320,192,55683,1,0,0:0:0:0:
448,192,55853,1,0,0:0:0:0:
64,192,55853,1,0,0:0:0:0:
64,192,56024,1,0,0:0:0:0:
192,192,56024,1,0,0:0:0:0:
320,192,56024,1,0,0:0:0:0:
448,192,56194,1,0,0:0:0:0:
64,192,56365,1,0,0:0:0:0:
320,192,56365,1,0,0:0:0:0:
192,192,56535,1,0,0:0:0:0:
448,192,56706,1,0,0:0:0:0:
320,192,56706,1,0,0:0:0:0:
64,192,56706,1,0,0:0:0:0:
192,192,56876,1,0,0:0:0:0:
448,192,57046,1,0,0:0:0:0:
320,192,57046,1,0,0:0:0:0:
320,192,57217,1,0,0:0:0:0:
64,192,57217,1,0,0:0:0:0:
448,192,57387,1,0,0:0:0:0:
192,192,57387,1,0,0:0:0:0:
64,192,57387,1,0,0:0:0:0:
192,192,57558,128,0,57728:0:0:0:0:
320,192,57558,1,0,0:0:0:0:
448,192,57558,1,0,0:0:0:0:
320,192,57899,1,0,0:0:0:0:
64,192,57899,1,0,0:0:0:0:
192,192,58069,1,0,0:0:0:0:
64,192,58069,1,0,0:0:0:0:
448,192,58069,1,0,0:0:0:0:
320,192,58240,1,0,0:0:0:0:
192,192,58240,1,0,0:0:0:0:
448,192,58410,1,0,0:0:0:0:
320,192,58410,1,0,0:0:0:0:
64,192,58410,1,0,0:0:0:0:
64,192,58666,1,0,0:0:0:0:
192,192,58666,1,0,0:0:0:0:
448,192,58921,1,0,0:0:0:0:
320,192,58921,1,0,0:0:0:0:
192,192,59092,1,0,0:0:0:0:
64,192,59092,1,0,0:0:0:0:
320,192,59092,128,0,59262:0:0:0:0:
448,192,59262,1,0,0:0:0:0:
192,192,59433,1,0,0:0:0:0:
64,192,59433,1,0,0:0:0:0:
320,192,59433,1,0,0:0:0:0:
448,192,59603,1,0,0:0:0:0:
320,192,59603,1,0,0:0:0:0:
192,192,59774,1,0,0:0:0:0:
64,192,59944,1,0,0:0:0:0:
320,192,59944,1,0,0:0:0:0:
192,192,60115,1,0,0:0:0:0:
64,192,60115,1,0,0:0:0:0:
448,192,60115,1,0,0:0:0:0:
320,192,60285,1,0,0:0:0:0:
64,192,60456,128,0,60626:0:0:0:0:
448,192,60456,1,0,0:0:0:0:
320,192,60456,1,0,0:0:0:0:
192,192,60626,1,0,0:0:0:0:
448,192,60796,1,0,0:0:0:0:
64,192,60796,1,0,0:0:0:0:
192,192,60796,1,0,0:0:0:0:
320,192,60967,1,0,0:0:0:0:
64,192,60967,1,0,0:0:0:0:
448,192,61137,1,0,0:0:0:0:
192,192,61308,1,0,0:0:0:0:
64,192,61308,1,0,0:0:0:0:
448,192,61478,1,0,0:0:0:0:
320,192,61478,1,0,0:0:0:0:
64,192,61478,1,0,0:0:0:0:
192,192,61649,1,0,0:0:0:0:
320,192,61819,128,0,61990:0:0:0:0:
448,192,61819,1,0,0:0:0:0:
64,192,61819,1,0,0:0:0:0:
192,192,61990,1,0,0:0:0:0:
64,192,61990,1,0,0:0:0:0:
320,192,62160,1,0,0:0:0:0:
192,192,62160,1,0,0:0:0:0:
448,192,62331,1,0,0:0:0:0:
64,192,62331,1,0,0:0:0:0:
320,192,62331,1,0,0:0:0:0:
192,192,62501,1,0,0:0:0:0:
448,192,62501,1,0,0:0:0:0:
64,192,62671,1,0,0:0:0:0:
192,192,62671,1,0,0:0:0:0:
64,192,62842,1,0,0:0:0:0:
448,192,62842,1,0,0:0:0:0:
320,192,63012,1,0,0:0:0:0:
192,192,63012,1,0,0:0:0:0:
448,192,63012,1,0,0:0:0:0:
192,192,63183,1,0,0:0:0:0:
64,192,63183,1,0,0:0:0:0:
448,192,63353,1,0,0:0:0:0:
320,192,63353,1,0,0:0:0:0:
320,192,63524,1,0,0:0:0:0:
64,192,63524,1,0,0:0:0:0:
192,192,63524,1,0,0:0:0:0:
192,192,63694,1,0,0:0:0:0:
448,192,63694,1,0,0:0:0:0:
64,192,63865,1,0,0:0:0:0:
320,192,63865,1,0,0:0:0:0:
192,192,63950,1,0,0:0:0:0:
448,192,64035,1,0,0:0:0:0:
320,192,64035,1,0,0:0:0:0:
192,192,64120,1,0,0:0:0:0:
64,192,64120,1,0,0:0:0:0:
320,192,64206,1,0,0:0:0:0:
448,192,64206,1,0,0:0:0:0:
192,192,64376,1,0,0:0:0:0:
64,192,64376,1,0,0:0:0:0:
448,192,64376,1,0,0:0:0:0:
320,192,64546,1,0,0:0:0:0:
64,192,64546,1,0,0:0:0:0:
448,192,64717,1,0,0:0:0:0:
192,192,64717,1,0,0:0:0:0:
320,192,64887,1,0,0:0:0:0:
192,192,64887,1,0,0:0:0:0:
64,192,64887,1,0,0:0:0:0:
448,192,65058,1,0,0:0:0:0:
320,192,65058,1,0,0:0:0:0:
192,192,65228,1,0,0:0:0:0:
448,192,65228,1,0,0:0:0:0:
64,192,65228,1,0,0:0:0:0:
320,192,65399,1,0,0:0:0:0:
64,192,65399,1,0,0:0:0:0:
448,192,65569,1,0,0:0:0:0:
320,192,65569,1,0,0:0:0:0:
192,192,65569,1,0,0:0:0:0:
448,192,65740,128,0,65910:0:0:0:0:
64,192,65740,1,0,0:0:0:0:
192,192,65740,1,0,0:0:0:0:
64,192,66081,1,0,0:0:0:0:
448,192,66081,1,0,0:0:0:0:
448,192,66251,1,0,0:0:0:0:
320,192,66251,1,0,0:0:0:0:
192,192,66251,1,0,0:0:0:0:
320,192,66421,1,0,0:0:0:0:
64,192,66421,1,0,0:0:0:0:
64,192,66592,1,0,0:0:0:0:
192,192,66592,1,0,0:0:0:0:
448,192,66592,1,0,0:0:0:0:
320,192,66762,1,0,0:0:0:0:
192,192,66762,1,0,0:0:0:0:
448,192,66933,1,0,0:0:0:0:
320,192,66933,1,0,0:0:0:0:
64,192,66933,1,0,0:0:0:0:
192,192,67103,128,0,67274:0:0:0:0:
448,192,67103,1,0,0:0:0:0:
320,192,67103,128,0,67274:0:0:0:0:
64,192,67444,1,0,0:0:0:0:
448,192,67444,1,0,0:0:0:0:
320,192,67615,1,0,0:0:0:0:
448,192,67615,1,0,0:0:0:0:
192,192,67615,1,0,0:0:0:0:
192,192,67785,1,0,0:0:0:0:
320,192,67785,1,0,0:0:0:0:
64,192,67785,1,0,0:0:0:0:
192,192,67956,1,0,0:0:0:0:
64,192,67956,1,0,0:0:0:0:
448,192,67956,1,0,0:0:0:0:
448,192,68126,1,0,0:0:0:0:
320,192,68126,1,0,0:0:0:0:
192,192,68211,1,0,0:0:0:0:
64,192,68211,1,0,0:0:0:0:
320,192,68296,1,0,0:0:0:0:
448,192,68296,1,0,0:0:0:0:
192,192,68382,1,0,0:0:0:0:
64,192,68467,1,0,0:0:0:0:
448,192,68467,1,0,0:0:0:0:
320,192,68467,128,0,68637:0:0:0:0:
320,192,68808,1,0,0:0:0:0:
64,192,68808,1,0,0:0:0:0:
192,192,68978,1,0,0:0:0:0:
320,192,68978,1,0,0:0:0:0:
448,192,68978,128,0,69063:0:0:0:0:
64,192,69149,1,0,0:0:0:0:
320,192,69319,1,0,0:0:0:0:
192,192,69319,128,0,69404:0:0:0:0:
448,192,69490,1,0,0:0:0:0:
320,192,69490,1,0,0:0:0:0:
64,192,69660,128,0,69745:0:0:0:0:
192,192,69660,1,0,0:0:0:0:
448,192,69660,1,0,0:0:0:0:
192,192,69831,1,0,0:0:0:0:
320,192,69831,1,0,0:0:0:0:
448,192,70001,128,0,70086:0:0:0:0:
64,192,70171,1,0,0:0:0:0:
192,192,70171,1,0,0:0:0:0:
448,192,70342,1,0,0:0:0:0:
320,192,70342,1,0,0:0:0:0:
192,192,70342,128,0,70427:0:0:0:0:
64,192,70512,1,0,0:0:0:0:
448,192,70683,1,0,0:0:0:0:
320,192,70683,128,0,70768:0:0:0:0:
448,192,70853,1,0,0:0:0:0:
64,192,70853,1,0,0:0:0:0:
192,192,71024,1,0,0:0:0:0:
320,192,71024,1,0,0:0:0:0:
64,192,71024,128,0,71109:0:0:0:0:
448,192,71194,1,0,0:0:0:0:
192,192,71194,1,0,0:0:0:0:
320,192,71365,128,0,71450:0:0:0:0:
192,192,71535,1,0,0:0:0:0:
448,192,71535,1,0,0:0:0:0:
320,192,71706,1,0,0:0:0:0:
64,192,71706,1,0,0:0:0:0:
448,192,71706,128,0,71791:0:0:0:0:
192,192,71876,1,0,0:0:0:0:
320,192,72046,1,0,0:0:0:0:
64,192,72046,128,0,72132:0:0:0:0:
320,192,72217,1,0,0:0:0:0:
448,192,72217,1,0,0:0:0:0:
64,192,72387,1,0,0:0:0:0:
448,192,72387,1,0,0:0:0:0:
192,192,72387,128,0,72473:0:0:0:0:
320,192,72558,1,0,0:0:0:0:
64,192,72558,1,0,0:0:0:0:
448,192,72728,128,0,72813:0:0:0:0:
64,192,72899,1,0,0:0:0:0:
192,192,72899,1,0,0:0:0:0:
448,192,73069,1,0,0:0:0:0:
192,192,73069,1,0,0:0:0:0:
320,192,73069,128,0,73154:0:0:0:0:
64,192,73240,1,0,0:0:0:0:
448,192,73240,1,0,0:0:0:0:
192,192,73410,128,0,73495:0:0:0:0:
320,192,73581,1,0,0:0:0:0:
448,192,73581,1,0,0:0:0:0:
320,192,73751,1,0,0:0:0:0:
192,192,73751,1,0,0:0:0:0:
64,192,73751,128,0,73836:0:0:0:0:
448,192,73921,1,0,0:0:0:0:
64,192,74092,128,0,74262:0:0:0:0:
320,192,74092,1,0,0:0:0:0:
448,192,74092,128,0,74177:0:0:0:0:
192,192,74262,1,0,0:0:0:0:
448,192,74433,1,0,0:0:0:0:
64,192,74433,1,0,0:0:0:0:
320,192,74433,128,0,74518:0:0:0:0:
192,192,74603,1,0,0:0:0:0:
64,192,74603,1,0,0:0:0:0:
448,192,74774,128,0,74859:0:0:0:0:
64,192,74944,1,0,0:0:0:0:
320,192,74944,1,0,0:0:0:0:
448,192,75115,1,0,0:0:0:0:
64,192,75115,1,0,0:0:0:0:
192,192,75115,128,0,75200:0:0:0:0:
320,192,75285,1,0,0:0:0:0:
192,192,75370,1,0,0:0:0:0:
448,192,75456,1,0,0:0:0:0:
64,192,75456,128,0,75541:0:0:0:0:
448,192,75626,1,0,0:0:0:0:
192,192,75626,1,0,0:0:0:0:
320,192,75796,1,0,0:0:0:0:
64,192,75796,1,0,0:0:0:0:
192,192,75796,128,0,75882:0:0:0:0:
448,192,75967,1,0,0:0:0:0:
320,192,75967,1,0,0:0:0:0:
64,192,76137,128,0,76223:0:0:0:0:
192,192,76308,1,0,0:0:0:0:
320,192,76308,1,0,0:0:0:0:
64,192,76478,1,0,0:0:0:0:
192,192,76478,1,0,0:0:0:0:
448,192,76478,128,0,76563:0:0:0:0:
320,192,76649,1,0,0:0:0:0:
448,192,76819,128,0,76990:0:0:0:0:
320,192,76819,1,0,0:0:0:0:
64,192,76819,128,0,76904:0:0:0:0:
192,192,76990,1,0,0:0:0:0:
64,192,77160,1,0,0:0:0:0:
448,192,77160,1,0,0:0:0:0:
320,192,77160,128,0,77245:0:0:0:0:
192,192,77331,1,0,0:0:0:0:
448,192,77501,1,0,0:0:0:0:
64,192,77501,128,0,77586:0:0:0:0:
320,192,77671,1,0,0:0:0:0:
448,192,77671,1,0,0:0:0:0:
64,192,77842,1,0,0:0:0:0:
192,192,77842,1,0,0:0:0:0:
320,192,77842,128,0,77927:0:0:0:0:
192,192,78012,128,0,78183:0:0:0:0:
64,192,78012,1,0,0:0:0:0:
448,192,78012,1,0,0:0:0:0:
320,192,78183,1,0,0:0:0:0:
64,192,78353,1,0,0:0:0:0:
448,192,78353,1,0,0:0:0:0:
320,192,78524,1,0,0:0:0:0:
192,192,78524,128,0,78609:0:0:0:0:
64,192,78524,128,0,78694:0:0:0:0:
448,192,78694,1,0,0:0:0:0:
320,192,78694,1,0,0:0:0:0:
192,192,78779,1,0,0:0:0:0:
64,192,78779,1,0,0:0:0:0:
320,192,78865,1,0,0:0:0:0:
448,192,78865,1,0,0:0:0:0:
192,192,78950,1,0,0:0:0:0:
64,192,79035,1,0,0:0:0:0:
448,192,79120,1,0,0:0:0:0:
320,192,79206,1,0,0:0:0:0:
192,192,79291,1,0,0:0:0:0:
320,192,79376,128,0,79546:0:0:0:0:
448,192,79376,1,0,0:0:0:0:
64,192,79376,1,0,0:0:0:0:
448,192,79717,1,0,0:0:0:0:
64,192,79717,1,0,0:0:0:0:
448,192,79887,1,0,0:0:0:0:
320,192,79887,1,0,0:0:0:0:
192,192,79887,128,0,79973:0:0:0:0:
64,192,80058,1,0,0:0:0:0:
192,192,80228,1,0,0:0:0:0:
320,192,80228,128,0,80313:0:0:0:0:
192,192,80399,1,0,0:0:0:0:
64,192,80399,1,0,0:0:0:0:
448,192,80569,1,0,0:0:0:0:
320,192,80569,1,0,0:0:0:0:
64,192,80569,128,0,80654:0:0:0:0:
448,192,80740,1,0,0:0:0:0:
192,192,80740,1,0,0:0:0:0:
320,192,80910,128,0,80995:0:0:0:0:
192,192,81081,1,0,0:0:0:0:
64,192,81081,1,0,0:0:0:0:
192,192,81251,1,0,0:0:0:0:
320,192,81251,1,0,0:0:0:0:
448,192,81251,128,0,81336:0:0:0:0:
64,192,81421,1,0,0:0:0:0:
320,192,81592,1,0,0:0:0:0:
192,192,81592,128,0,81677:0:0:0:0:
448,192,81762,1,0,0:0:0:0:
320,192,81762,1,0,0:0:0:0:
64,192,81933,1,0,0:0:0:0:
192,192,81933,1,0,0:0:0:0:
448,192,81933,128,0,82018:0:0:0:0:
320,192,82103,1,0,0:0:0:0:
64,192,82103,1,0,0:0:0:0:
192,192,82274,128,0,82359:0:0:0:0:
448,192,82444,1,0,0:0:0:0:
320,192,82444,1,0,0:0:0:0:
192,192,82615,1,0,0:0:0:0:
320,192,82615,1,0,0:0:0:0:
64,192,82615,128,0,82700:0:0:0:0:
448,192,82785,1,0,0:0:0:0:
320,192,82870,1,0,0:0:0:0:
192,192,82956,128,0,83126:0:0:0:0:
64,192,82956,1,0,0:0:0:0:
448,192,82956,1,0,0:0:0:0:
320,192,83126,1,0,0:0:0:0:
64,192,83126,1,0,0:0:0:0:
448,192,83296,1,0,0:0:0:0:
320,192,83296,1,0,0:0:0:0:
192,192,83296,1,0,0:0:0:0:
64,192,83467,128,0,83637:0:0:0:0:
448,192,83467,1,0,0:0:0:0:
192,192,83467,1,0,0:0:0:0:
320,192,83637,128,0,83723:0:0:0:0:
192,192,83808,1,0,0:0:0:0:
448,192,83808,1,0,0:0:0:0:
192,192,83978,1,0,0:0:0:0:
64,192,83978,1,0,0:0:0:0:
320,192,83978,1,0,0:0:0:0:
320,192,84149,1,0,0:0:0:0:
448,192,84149,1,0,0:0:0:0:
192,192,84234,1,0,0:0:0:0:
64,192,84234,1,0,0:0:0:0:
320,192,84319,1,0,0:0:0:0:
448,192,84319,1,0,0:0:0:0:
192,192,84490,1,0,0:0:0:0:
64,192,84490,1,0,0:0:0:0:
448,192,84490,1,0,0:0:0:0:
320,192,84660,1,0,0:0:0:0:
192,192,84660,1,0,0:0:0:0:
448,192,84831,1,0,0:0:0:0:
64,192,84831,1,0,0:0:0:0:
320,192,85001,128,0,85171:0:0:0:0:
192,192,85001,1,0,0:0:0:0:
64,192,85001,1,0,0:0:0:0:
448,192,85342,1,0,0:0:0:0:
64,192,85342,1,0,0:0:0:0:
320,192,85512,1,0,0:0:0:0:
448,192,85512,1,0,0:0:0:0:
320,192,85853,1,0,0:0:0:0:
192,192,85853,1,0,0:0:0:0:
448,192,86024,1,0,0:0:0:0:
192,192,86024,1,0,0:0:0:0:
64,192,86024,128,0,86194:0:0:0:0:
448,192,86365,1,0,0:0:0:0:
320,192,86365,1,0,0:0:0:0:
64,192,86535,1,0,0:0:0:0:
192,192,86535,1,0,0:0:0:0:
320,192,86535,1,0,0:0:0:0:
448,192,86706,128,0,86791:0:0:0:0:
320,192,86876,1,0,0:0:0:0:
64,192,86876,1,0,0:0:0:0:
192,192,87046,1,0,0:0:0:0:
320,192,87046,128,0,87132:0:0:0:0:
448,192,87046,1,0,0:0:0:0:
192,192,87217,1,0,0:0:0:0:
64,192,87217,1,0,0:0:0:0:
448,192,87387,1,0,0:0:0:0:
320,192,87387,1,0,0:0:0:0:
64,192,87558,1,0,0:0:0:0:
320,192,87558,1,0,0:0:0:0:
448,192,87728,128,0,87899:0:0:0:0:
192,192,87728,1,0,0:0:0:0:
64,192,87728,1,0,0:0:0:0:
320,192,87899,1,0,0:0:0:0:
192,192,87899,1,0,0:0:0:0:
64,192,88069,1,0,0:0:0:0:
320,192,88069,1,0,0:0:0:0:
64,192,88240,1,0,0:0:0:0:
448,192,88240,1,0,0:0:0:0:
192,192,88240,128,0,88410:0:0:0:0:
320,192,88410,1,0,0:0:0:0:
448,192,88581,1,0,0:0:0:0:
192,192,88581,1,0,0:0:0:0:
64,192,88751,128,0,88921:0:0:0:0:
448,192,88751,1,0,0:0:0:0:
320,192,88751,1,0,0:0:0:0:
192,192,88921,1,0,0:0:0:0:
448,192,89092,1,0,0:0:0:0:
64,192,89092,1,0,0:0:0:0:
192,192,89262,1,0,0:0:0:0:
320,192,89262,1,0,0:0:0:0:
64,192,89433,1,0,0:0:0:0:
320,192,89433,1,0,0:0:0:0:
448,192,89603,1,0,0:0:0:0:
64,192,89603,1,0,0:0:0:0:
192,192,89774,1,0,0:0:0:0:
448,192,89774,1,0,0:0:0:0:
320,192,89774,128,0,89944:0:0:0:0:
192,192,89944,1,0,0:0:0:0:
64,192,89944,1,0,0:0:0:0:
320,192,90029,1,0,0:0:0:0:
448,192,90029,1,0,0:0:0:0:
192,192,90115,1,0,0:0:0:0:
64,192,90115,1,0,0:0:0:0:
320,192,90200,1,0,0:0:0:0:
192,192,90285,1,0,0:0:0:0:
64,192,90285,1,0,0:0:0:0:
448,192,90285,128,0,90456:0:0:0:0:
448,192,90626,1,0,0:0:0:0:
192,192,90626,1,0,0:0:0:0:
64,192,90796,1,0,0:0:0:0:
192,192,90796,1,0,0:0:0:0:
320,192,90796,128,0,90967:0:0:0:0:
448,192,90967,1,0,0:0:0:0:
192,192,91137,1,0,0:0:0:0:
64,192,91137,1,0,0:0:0:0:
192,192,91308,1,0,0:0:0:0:
320,192,91308,1,0,0:0:0:0:
320,192,91478,1,0,0:0:0:0:
448,192,91478,1,0,0:0:0:0:
64,192,91478,1,0,0:0:0:0:
192,192,91649,1,0,0:0:0:0:
448,192,91649,1,0,0:0:0:0:
320,192,91819,1,0,0:0:0:0:
448,192,91990,1,0,0:0:0:0:
64,192,91990,1,0,0:0:0:0:
192,192,92160,1,0,0:0:0:0:
448,192,92160,1,0,0:0:0:0:
320,192,92160,1,0,0:0:0:0:
64,192,92331,1,0,0:0:0:0:
448,192,92501,1,0,0:0:0:0:
320,192,92501,1,0,0:0:0:0:
320,192,92671,1,0,0:0:0:0:
192,192,92671,1,0,0:0:0:0:
448,192,92842,1,0,0:0:0:0:
64,192,92842,1,0,0:0:0:0:
192,192,92842,1,0,0:0:0:0:
320,192,93012,1,0,0:0:0:0:
64,192,93098,1,0,0:0:0:0:
192,192,93183,1,0,0:0:0:0:
320,192,93183,1,0,0:0:0:0:
448,192,93353,1,0,0:0:0:0:
64,192,93524,1,0,0:0:0:0:
192,192,93524,1,0,0:0:0:0:
320,192,93524,1,0,0:0:0:0:
448,192,93694,1,0,0:0:0:0:
320,192,93694,1,0,0:0:0:0:
64,192,93865,1,0,0:0:0:0:
192,192,94035,1,0,0:0:0:0:
448,192,94035,1,0,0:0:0:0:
448,192,94206,1,0,0:0:0:0:
320,192,94206,1,0,0:0:0:0:
64,192,94206,1,0,0:0:0:0:
192,192,94376,1,0,0:0:0:0:
448,192,94546,1,0,0:0:0:0:
320,192,94546,1,0,0:0:0:0:
448,192,94717,1,0,0:0:0:0:
64,192,94717,1,0,0:0:0:0:
320,192,94887,1,0,0:0:0:0:
192,192,94887,1,0,0:0:0:0:
64,192,94887,1,0,0:0:0:0:
448,192,95058,1,0,0:0:0:0:
192,192,95228,1,0,0:0:0:0:
64,192,95228,1,0,0:0:0:0:
448,192,95399,1,0,0:0:0:0:
320,192,95399,1,0,0:0:0:0:
192,192,95484,1,0,0:0:0:0:
64,192,95484,1,0,0:0:0:0:
320,192,95569,1,0,0:0:0:0:
448,192,95569,1,0,0:0:0:0:
192,192,95654,1,0,0:0:0:0:
64,192,95740,128,0,95910:0:0:0:0:
320,192,95740,1,0,0:0:0:0:
448,192,95740,1,0,0:0:0:0:
448,192,96081,1,0,0:0:0:0:
64,192,96081,1,0,0:0:0:0:
192,192,96251,1,0,0:0:0:0:
320,192,96251,1,0,0:0:0:0:
448,192,96251,1,0,0:0:0:0:
192,192,96421,1,0,0:0:0:0:
64,192,96421,1,0,0:0:0:0:
320,192,96592,1,0,0:0:0:0:
448,192,96592,1,0,0:0:0:0:
64,192,96592,1,0,0:0:0:0:
320,192,96762,1,0,0:0:0:0:
192,192,96762,1,0,0:0:0:0:
64,192,96933,1,0,0:0:0:0:
448,192,96933,1,0,0:0:0:0:
192,192,97103,128,0,97274:0:0:0:0:
320,192,97103,1,0,0:0:0:0:
64,192,97103,1,0,0:0:0:0:
320,192,97444,1,0,0:0:0:0:
448,192,97444,1,0,0:0:0:0:
64,192,97529,1,0,0:0:0:0:
192,192,97529,1,0,0:0:0:0:
448,192,97615,1,0,0:0:0:0:
320,192,97615,1,0,0:0:0:0:
64,192,97785,1,0,0:0:0:0:
192,192,97785,1,0,0:0:0:0:
448,192,97870,1,0,0:0:0:0:
320,192,97870,1,0,0:0:0:0:
64,192,97956,1,0,0:0:0:0:
192,192,97956,1,0,0:0:0:0:
448,192,98126,1,0,0:0:0:0:
320,192,98126,1,0,0:0:0:0:
448,192,98296,1,0,0:0:0:0:
192,192,98296,1,0,0:0:0:0:
64,192,98296,1,0,0:0:0:0:
192,192,98467,128,0,98637:0:0:0:0:
320,192,98467,128,0,98637:0:0:0:0:
448,192,98637,1,0,0:0:0:0:
320,192,98808,1,0,0:0:0:0:
192,192,98808,1,0,0:0:0:0:
64,192,98808,1,0,0:0:0:0:
448,192,98978,128,0,99319:0:0:0:0:
320,192,99149,1,0,0:0:0:0:
192,192,99149,1,0,0:0:0:0:
192,192,99319,128,0,99490:0:0:0:0:
320,192,99319,1,0,0:0:0:0:
64,192,99319,1,0,0:0:0:0:
64,192,99490,128,0,99831:0:0:0:0:
320,192,99575,1,0,0:0:0:0:
448,192,99660,1,0,0:0:0:0:
320,192,99831,128,0,100171:0:0:0:0:
192,192,99831,128,0,100001:0:0:0:0:
64,192,100001,1,0,0:0:0:0:
448,192,100171,128,0,100342:0:0:0:0:
192,192,100171,1,0,0:0:0:0:
64,192,100171,1,0,0:0:0:0:
192,192,100342,128,0,100512:0:0:0:0:
64,192,100512,128,0,100683:0:0:0:0:
320,192,100512,1,0,0:0:0:0:
320,192,100683,128,0,100853:0:0:0:0:
448,192,100683,1,0,0:0:0:0:
192,192,100683,1,0,0:0:0:0:
192,192,100853,128,0,101194:0:0:0:0:
64,192,100938,1,0,0:0:0:0:
448,192,101024,1,0,0:0:0:0:
320,192,101109,1,0,0:0:0:0:
64,192,101194,128,0,101535:0:0:0:0:
448,192,101194,128,0,101365:0:0:0:0:
448,192,101535,1,0,0:0:0:0:
320,192,101535,1,0,0:0:0:0:
192,192,101535,1,0,0:0:0:0:
448,192,101706,128,0,102046:0:0:0:0:
64,192,101876,1,0,0:0:0:0:
192,192,101876,1,0,0:0:0:0:
192,192,102046,128,0,102217:0:0:0:0:
320,192,102046,1,0,0:0:0:0:
64,192,102046,1,0,0:0:0:0:
320,192,102217,128,0,102558:0:0:0:0:
448,192,102387,1,0,0:0:0:0:
64,192,102558,128,0,102899:0:0:0:0:
192,192,102558,128,0,102728:0:0:0:0:
320,192,102728,1,0,0:0:0:0:
448,192,102899,128,0,103069:0:0:0:0:
320,192,102899,1,0,0:0:0:0:
192,192,102899,1,0,0:0:0:0:
192,192,103069,128,0,103240:0:0:0:0:
320,192,103240,128,0,103410:0:0:0:0:
64,192,103240,1,0,0:0:0:0:
448,192,103410,128,0,103581:0:0:0:0:
192,192,103410,1,0,0:0:0:0:
64,192,103410,1,0,0:0:0:0:
64,192,103581,128,0,103921:0:0:0:0:
320,192,103581,1,0,0:0:0:0:
448,192,103751,1,0,0:0:0:0:
192,192,103921,128,0,104262:0:0:0:0:
320,192,103921,128,0,104092:0:0:0:0:
64,192,104092,1,0,0:0:0:0:
448,192,104262,1,0,0:0:0:0:
320,192,104262,1,0,0:0:0:0:
64,192,104262,1,0,0:0:0:0:
448,192,104433,128,0,104774:0:0:0:0:
64,192,104603,1,0,0:0:0:0:
320,192,104603,1,0,0:0:0:0:
320,192,104774,128,0,105115:0:0:0:0:
192,192,104774,1,0,0:0:0:0:
64,192,104774,1,0,0:0:0:0:
192,192,104944,1,0,0:0:0:0:
64,192,105115,128,0,105285:0:0:0:0:
192,192,105285,128,0,105626:0:0:0:0:
448,192,105285,128,0,105456:0:0:0:0:
320,192,105456,1,0,0:0:0:0:
320,192,105626,1,0,0:0:0:0:
64,192,105626,1,0,0:0:0:0:
448,192,105626,1,0,0:0:0:0:
64,192,105796,1,0,0:0:0:0:
320,192,105967,128,0,106137:0:0:0:0:
192,192,105967,1,0,0:0:0:0:
64,192,106137,128,0,106308:0:0:0:0:
192,192,106137,1,0,0:0:0:0:
448,192,106137,1,0,0:0:0:0:
448,192,106308,128,0,106478:0:0:0:0:
192,192,106478,128,0,106649:0:0:0:0:
320,192,106478,1,0,0:0:0:0:
64,192,106478,1,0,0:0:0:0:
448,192,106649,128,0,106990:0:0:0:0:
320,192,106649,128,0,106819:0:0:0:0:
64,192,106819,1,0,0:0:0:0:
64,192,106990,128,0,107331:0:0:0:0:
192,192,106990,128,0,107160:0:0:0:0:
448,192,107160,1,0,0:0:0:0:
192,192,107331,1,0,0:0:0:0:
320,192,107331,1,0,0:0:0:0:
448,192,107416,1,0,0:0:0:0:
192,192,107501,1,0,0:0:0:0:
64,192,107501,1,0,0:0:0:0:
320,192,107501,1,0,0:0:0:0:
448,192,107671,1,0,0:0:0:0:
64,192,107671,1,0,0:0:0:0:
448,192,107842,1,0,0:0:0:0:
320,192,107842,1,0,0:0:0:0:
192,192,107842,1,0,0:0:0:0:
320,192,108012,1,0,0:0:0:0:
64,192,108012,128,0,108183:0:0:0:0:
192,192,108012,128,0,108183:0:0:0:0:
448,192,108353,1,0,0:0:0:0:
320,192,108438,1,0,0:0:0:0:
64,192,108524,1,0,0:0:0:0:
192,192,108524,1,0,0:0:0:0:
448,192,108609,1,0,0:0:0:0:
320,192,108609,1,0,0:0:0:0:
192,192,108694,1,0,0:0:0:0:
64,192,108694,1,0,0:0:0:0:
320,192,108779,1,0,0:0:0:0:
64,192,108865,1,0,0:0:0:0:
192,192,108865,1,0,0:0:0:0:
448,192,108865,1,0,0:0:0:0:
192,192,109035,128,0,109376:0:0:0:0:
320,192,109035,128,0,109376:0:0:0:0:
448,192,109035,128,0,109376:0:0:0:0:
64,192,109376,1,0,0:0:0:0:
320,192,109546,1,0,0:0:0:0:
192,192,109546,1,0,0:0:0:0:
448,192,109717,1,0,0:0:0:0:
320,192,109717,1,0,0:0:0:0:
448,192,109887,1,0,0:0:0:0:
64,192,109887,128,0,110228:0:0:0:0:
192,192,109887,128,0,110058:0:0:0:0:
320,192,110058,1,0,0:0:0:0:
320,192,110228,128,0,110399:0:0:0:0:
192,192,110228,1,0,0:0:0:0:
448,192,110399,128,0,110569:0:0:0:0:
64,192,110399,1,0,0:0:0:0:
320,192,110569,1,0,0:0:0:0:
192,192,110569,1,0,0:0:0:0:
64,192,110569,1,0,0:0:0:0:
192,192,110740,128,0,111081:0:0:0:0:
320,192,110740,128,0,110910:0:0:0:0:
64,192,110910,1,0,0:0:0:0:
64,192,111081,128,0,111251:0:0:0:0:
448,192,111081,1,0,0:0:0:0:
448,192,111251,128,0,111421:0:0:0:0:
192,192,111251,1,0,0:0:0:0:
320,192,111251,1,0,0:0:0:0:
320,192,111421,128,0,111592:0:0:0:0:
64,192,111592,128,0,111762:0:0:0:0:
192,192,111592,1,0,0:0:0:0:
320,192,111762,128,0,112103:0:0:0:0:
448,192,111762,1,0,0:0:0:0:
192,192,111848,1,0,0:0:0:0:
448,192,111933,1,0,0:0:0:0:
64,192,111933,1,0,0:0:0:0:
192,192,112103,1,0,0:0:0:0:
64,192,112103,1,0,0:0:0:0:
320,192,112274,1,0,0:0:0:0:
448,192,112444,1,0,0:0:0:0:
192,192,112444,1,0,0:0:0:0:
64,192,112615,128,0,112956:0:0:0:0:
448,192,112615,1,0,0:0:0:0:
320,192,112615,1,0,0:0:0:0:
192,192,112785,1,0,0:0:0:0:
320,192,112956,128,0,113126:0:0:0:0:
448,192,112956,1,0,0:0:0:0:
192,192,113126,128,0,113467:0:0:0:0:
64,192,113126,128,0,113211:0:0:0:0:
320,192,113296,1,0,0:0:0:0:
448,192,113296,1,0,0:0:0:0:
64,192,113296,1,0,0:0:0:0:
448,192,113467,128,0,113808:0:0:0:0:
320,192,113467,128,0,113637:0:0:0:0:
64,192,113637,1,0,0:0:0:0:
192,192,113808,128,0,113978:0:0:0:0:
320,192,113808,1,0,0:0:0:0:
64,192,113978,128,0,114149:0:0:0:0:
320,192,113978,1,0,0:0:0:0:
448,192,113978,1,0,0:0:0:0:
448,192,114149,128,0,114319:0:0:0:0:
192,192,114319,128,0,114490:0:0:0:0:
320,192,114319,1,0,0:0:0:0:
64,192,114490,1,0,0:0:0:0:
448,192,114575,1,0,0:0:0:0:
320,192,114575,1,0,0:0:0:0:
64,192,114660,1,0,0:0:0:0:
192,192,114660,1,0,0:0:0:0:
192,192,114831,128,0,115171:0:0:0:0:
320,192,114831,128,0,115001:0:0:0:0:
448,192,114831,1,0,0:0:0:0:
64,192,115001,128,0,115171:0:0:0:0:
448,192,115171,1,0,0:0:0:0:
320,192,115171,1,0,0:0:0:0:
192,192,115342,128,0,115683:0:0:0:0:
320,192,115342,1,0,0:0:0:0:
64,192,115342,1,0,0:0:0:0:
448,192,115512,1,0,0:0:0:0:
64,192,115598,1,0,0:0:0:0:
320,192,115683,128,0,116024:0:0:0:0:
448,192,115683,1,0,0:0:0:0:
192,192,115853,1,0,0:0:0:0:
64,192,115853,1,0,0:0:0:0:
64,192,116024,128,0,116194:0:0:0:0:
192,192,116024,1,0,0:0:0:0:
448,192,116024,1,0,0:0:0:0:
448,192,116194,128,0,116535:0:0:0:0:
320,192,116194,128,0,116365:0:0:0:0:
192,192,116365,1,0,0:0:0:0:
192,192,116535,1,0,0:0:0:0:
64,192,116535,1,0,0:0:0:0:
448,192,116706,128,0,117046:0:0:0:0:
320,192,116706,1,0,0:0:0:0:
64,192,116706,1,0,0:0:0:0:
192,192,116876,1,0,0:0:0:0:
64,192,116961,1,0,0:0:0:0:
320,192,117046,128,0,117387:0:0:0:0:
192,192,117046,1,0,0:0:0:0:
64,192,117217,1,0,0:0:0:0:
448,192,117217,1,0,0:0:0:0:
64,192,117387,128,0,117728:0:0:0:0:
192,192,117387,1,0,0:0:0:0:
448,192,117387,1,0,0:0:0:0:
320,192,117558,1,0,0:0:0:0:
192,192,117643,1,0,0:0:0:0:
320,192,117728,128,0,118240:0:0:0:0:
448,192,117728,128,0,117899:0:0:0:0:
64,192,117899,1,0,0:0:0:0:
192,192,117899,1,0,0:0:0:0:
192,192,118069,1,0,0:0:0:0:
64,192,118069,1,0,0:0:0:0:
448,192,118069,1,0,0:0:0:0:
448,192,118240,128,0,118410:0:0:0:0:
192,192,118325,1,0,0:0:0:0:
64,192,118410,128,0,118921:0:0:0:0:
320,192,118410,1,0,0:0:0:0:
448,192,118581,1,0,0:0:0:0:
192,192,118581,1,0,0:0:0:0:
448,192,118751,1,0,0:0:0:0:
320,192,118751,1,0,0:0:0:0:
192,192,118751,1,0,0:0:0:0:
192,192,118921,1,0,0:0:0:0:
320,192,118921,1,0,0:0:0:0:
448,192,118921,1,0,0:0:0:0:
64,192,119092,1,0,0:0:0:0:
320,192,119262,1,0,0:0:0:0:
448,192,119262,1,0,0:0:0:0:
64,192,119348,1,0,0:0:0:0:
192,192,119348,1,0,0:0:0:0:
448,192,119433,1,0,0:0:0:0:
320,192,119433,1,0,0:0:0:0:
64,192,119603,1,0,0:0:0:0:
192,192,119603,1,0,0:0:0:0:
448,192,119774,1,0,0:0:0:0:
320,192,119774,1,0,0:0:0:0:
192,192,119774,128,0,119944:0:0:0:0:
448,192,119944,1,0,0:0:0:0:
64,192,119944,128,0,120115:0:0:0:0:
320,192,120029,1,0,0:0:0:0:
192,192,120115,1,0,0:0:0:0:
448,192,120115,128,0,120285:0:0:0:0:
64,192,120285,1,0,0:0:0:0:
192,192,120285,128,0,120456:0:0:0:0:
320,192,120456,128,0,121478:0:0:0:0:
64,192,120456,128,0,120882:0:0:0:0:
448,192,120456,128,0,120626:0:0:0:0:
192,192,120626,1,0,0:0:0:0:
448,192,120796,1,0,0:0:0:0:
64,192,120967,128,0,121393:0:0:0:0:
192,192,120967,1,0,0:0:0:0:
448,192,121137,1,0,0:0:0:0:
192,192,121308,1,0,0:0:0:0:
64,192,121478,1,0,0:0:0:0:
192,192,121478,1,0,0:0:0:0:
448,192,121478,1,0,0:0:0:0:
448,192,121819,128,0,121990:0:0:0:0:
192,192,121819,128,0,122245:0:0:0:0:
320,192,121990,1,0,0:0:0:0:
64,192,122160,128,0,122331:0:0:0:0:
320,192,122331,128,0,122671:0:0:0:0:
192,192,122331,128,0,123012:0:0:0:0:
448,192,122501,1,0,0:0:0:0:
64,192,122671,1,0,0:0:0:0:
448,192,122671,128,0,123012:0:0:0:0:
320,192,122842,1,0,0:0:0:0:
64,192,122842,1,0,0:0:0:0:
320,192,123012,128,0,123524:0:0:0:0:
64,192,123183,128,0,123609:0:0:0:0:
448,192,123183,1,0,0:0:0:0:
192,192,123353,1,0,0:0:0:0:
448,192,123524,1,0,0:0:0:0:
64,192,123694,128,0,124120:0:0:0:0:
192,192,123694,128,0,123865:0:0:0:0:
448,192,123865,128,0,124717:0:0:0:0:
192,192,124035,1,0,0:0:0:0:
320,192,124206,1,0,0:0:0:0:
192,192,124206,1,0,0:0:0:0:
64,192,124206,1,0,0:0:0:0:
192,192,124546,1,0,0:0:0:0:
64,192,124546,128,0,124717:0:0:0:0:
320,192,124717,1,0,0:0:0:0:
192,192,124717,128,0,124887:0:0:0:0:
448,192,124887,128,0,125058:0:0:0:0:
64,192,125058,1,0,0:0:0:0:
192,192,125058,1,0,0:0:0:0:
320,192,125058,128,0,125228:0:0:0:0:
64,192,125228,128,0,125399:0:0:0:0:
192,192,125399,128,0,125569:0:0:0:0:
320,192,125484,1,0,0:0:0:0:
64,192,125569,1,0,0:0:0:0:
448,192,125569,128,0,125740:0:0:0:0:
64,192,125740,128,0,125910:0:0:0:0:
320,192,125740,1,0,0:0:0:0:
448,192,125910,128,0,126081:0:0:0:0:
320,192,125910,128,0,126336:0:0:0:0:
192,192,125910,128,0,126933:0:0:0:0:
64,192,126081,1,0,0:0:0:0:
448,192,126251,1,0,0:0:0:0:
320,192,126421,128,0,126848:0:0:0:0:
64,192,126421,1,0,0:0:0:0:
448,192,126592,1,0,0:0:0:0:
64,192,126762,1,0,0:0:0:0:
64,192,126933,1,0,0:0:0:0:
320,192,126933,1,0,0:0:0:0:
448,192,126933,1,0,0:0:0:0:
448,192,127274,128,0,127700:0:0:0:0:
64,192,127274,128,0,127615:0:0:0:0:
320,192,127444,1,0,0:0:0:0:
192,192,127615,128,0,127785:0:0:0:0:
448,192,127785,128,0,128041:0:0:0:0:
320,192,127785,128,0,127956:0:0:0:0:
192,192,127956,1,0,0:0:0:0:
448,192,128126,128,0,128296:0:0:0:0:
64,192,128126,128,0,128296:0:0:0:0:
192,192,128296,1,0,0:0:0:0:
320,192,128296,1,0,0:0:0:0:
320,192,128467,128,0,128808:0:0:0:0:
192,192,128467,128,0,128637:0:0:0:0:
64,192,128467,1,0,0:0:0:0:
448,192,128808,128,0,128978:0:0:0:0:
64,192,128808,1,0,0:0:0:0:
192,192,128893,1,0,0:0:0:0:
64,192,128978,128,0,130001:0:0:0:0:
320,192,128978,1,0,0:0:0:0:
192,192,129149,1,0,0:0:0:0:
448,192,129149,1,0,0:0:0:0:
448,192,129319,1,0,0:0:0:0:
320,192,129319,1,0,0:0:0:0:
192,192,129319,128,0,129490:0:0:0:0:
448,192,129490,1,0,0:0:0:0:
320,192,129490,1,0,0:0:0:0:
320,192,129660,1,0,0:0:0:0:
192,192,129660,1,0,0:0:0:0:
448,192,129660,1,0,0:0:0:0:
192,192,129831,1,0,0:0:0:0:
320,192,129916,1,0,0:0:0:0:
192,192,130001,1,0,0:0:0:0:
448,192,130001,128,0,130171:0:0:0:0:
64,192,130171,1,0,0:0:0:0:
320,192,130171,1,0,0:0:0:0:
192,192,130342,1,0,0:0:0:0:
64,192,130342,1,0,0:0:0:0:
320,192,130512,128,0,130853:0:0:0:0:
448,192,130512,1,0,0:0:0:0:
64,192,130683,1,0,0:0:0:0:
192,192,130683,1,0,0:0:0:0:
64,192,130853,128,0,131024:0:0:0:0:
448,192,130853,1,0,0:0:0:0:
448,192,131024,128,0,131194:0:0:0:0:
192,192,131024,1,0,0:0:0:0:
320,192,131109,1,0,0:0:0:0:
192,192,131194,128,0,131365:0:0:0:0:
64,192,131194,1,0,0:0:0:0:
320,192,131279,1,0,0:0:0:0:
64,192,131365,128,0,132046:0:0:0:0:
448,192,131365,128,0,131535:0:0:0:0:
192,192,131535,1,0,0:0:0:0:
320,192,131706,1,0,0:0:0:0:
448,192,131706,1,0,0:0:0:0:
192,192,131706,1,0,0:0:0:0:
320,192,131876,1,0,0:0:0:0:
192,192,132046,1,0,0:0:0:0:
448,192,132046,1,0,0:0:0:0:
192,192,132217,1,0,0:0:0:0:
320,192,132217,1,0,0:0:0:0:
64,192,132387,128,0,132728:0:0:0:0:
320,192,132387,1,0,0:0:0:0:
448,192,132387,1,0,0:0:0:0:
192,192,132558,1,0,0:0:0:0:
192,192,132728,128,0,133069:0:0:0:0:
320,192,132728,1,0,0:0:0:0:
448,192,132899,1,0,0:0:0:0:
64,192,132899,1,0,0:0:0:0:
448,192,133069,128,0,133240:0:0:0:0:
64,192,133069,1,0,0:0:0:0:
320,192,133069,1,0,0:0:0:0:
320,192,133240,128,0,133581:0:0:0:0:
64,192,133410,1,0,0:0:0:0:
448,192,133410,1,0,0:0:0:0:
64,192,133581,128,0,133921:0:0:0:0:
192,192,133581,1,0,0:0:0:0:
448,192,133751,1,0,0:0:0:0:
320,192,133751,1,0,0:0:0:0:
192,192,133751,1,0,0:0:0:0:
448,192,133921,128,0,134603:0:0:0:0:
64,192,134092,1,0,0:0:0:0:
320,192,134092,1,0,0:0:0:0:
192,192,134262,1,0,0:0:0:0:
64,192,134433,1,0,0:0:0:0:
192,192,134433,1,0,0:0:0:0:
320,192,134433,1,0,0:0:0:0:
320,192,134603,1,0,0:0:0:0:
192,192,134774,128,0,135115:0:0:0:0:
64,192,134774,1,0,0:0:0:0:
448,192,134944,1,0,0:0:0:0:
320,192,134944,1,0,0:0:0:0:
320,192,135115,128,0,135285:0:0:0:0:
448,192,135115,1,0,0:0:0:0:
64,192,135115,1,0,0:0:0:0:
64,192,135285,128,0,135626:0:0:0:0:
192,192,135285,128,0,135456:0:0:0:0:
448,192,135285,1,0,0:0:0:0:
320,192,135456,1,0,0:0:0:0:
448,192,135626,1,0,0:0:0:0:
192,192,135626,1,0,0:0:0:0:
320,192,135796,1,0,0:0:0:0:
448,192,135796,1,0,0:0:0:0:
64,192,135796,1,0,0:0:0:0:
320,192,135967,1,0,0:0:0:0:
192,192,135967,1,0,0:0:0:0:
64,192,136052,1,0,0:0:0:0:
448,192,136052,1,0,0:0:0:0:
320,192,136137,128,0,136393:0:0:0:0:
192,192,136137,1,0,0:0:0:0:
64,192,136393,128,0,136649:0:0:0:0:
192,192,136393,1,0,0:0:0:0:
448,192,136649,128,0,136819:0:0:0:0:
320,192,136649,1,0,0:0:0:0:
192,192,136819,128,0,137160:0:0:0:0:
64,192,136819,1,0,0:0:0:0:
320,192,136819,128,0,136990:0:0:0:0:
448,192,136990,1,0,0:0:0:0:
64,192,137160,128,0,137331:0:0:0:0:
320,192,137160,1,0,0:0:0:0:
448,192,137160,1,0,0:0:0:0:
320,192,137331,128,0,137842:0:0:0:0:
192,192,137331,1,0,0:0:0:0:
448,192,137501,1,0,0:0:0:0:
64,192,137671,1,0,0:0:0:0:
192,192,137671,1,0,0:0:0:0:
448,192,137842,1,0,0:0:0:0:
192,192,137842,1,0,0:0:0:0:
64,192,137842,1,0,0:0:0:0:
320,192,138012,1,0,0:0:0:0:
192,192,138098,1,0,0:0:0:0:
448,192,138183,128,0,138524:0:0:0:0:
320,192,138183,1,0,0:0:0:0:
64,192,138183,128,0,138353:0:0:0:0:
192,192,138353,1,0,0:0:0:0:
320,192,138524,128,0,138694:0:0:0:0:
192,192,138524,1,0,0:0:0:0:
64,192,138524,1,0,0:0:0:0:
64,192,138694,128,0,139035:0:0:0:0:
192,192,138694,1,0,0:0:0:0:
448,192,138694,128,0,138865:0:0:0:0:
320,192,138865,1,0,0:0:0:0:
192,192,139035,1,0,0:0:0:0:
320,192,139035,1,0,0:0:0:0:
192,192,139206,128,0,139376:0:0:0:0:
64,192,139206,1,0,0:0:0:0:
448,192,139206,1,0,0:0:0:0:
320,192,139376,128,0,139546:0:0:0:0:
448,192,139546,128,0,140910:0:0:0:0:
192,192,139546,1,0,0:0:0:0:
64,192,139546,128,0,139717:0:0:0:0:
320,192,139717,1,0,0:0:0:0:
192,192,139717,1,0,0:0:0:0:
320,192,139887,1,0,0:0:0:0:
64,192,139887,1,0,0:0:0:0:
64,192,140058,1,0,0:0:0:0:
192,192,140058,1,0,0:0:0:0:
320,192,140058,1,0,0:0:0:0:
64,192,140228,1,0,0:0:0:0:
192,192,140228,1,0,0:0:0:0:
320,192,140399,1,0,0:0:0:0:
192,192,140399,1,0,0:0:0:0:
64,192,140569,1,0,0:0:0:0:
320,192,140569,1,0,0:0:0:0:
320,192,140740,1,0,0:0:0:0:
192,192,140740,1,0,0:0:0:0:
64,192,140740,1,0,0:0:0:0:
192,192,140910,1,0,0:0:0:0:
64,192,140910,1,0,0:0:0:0:
320,192,141081,1,0,0:0:0:0:
448,192,141081,1,0,0:0:0:0:
192,192,141251,1,0,0:0:0:0:
64,192,141251,1,0,0:0:0:0:
448,192,141251,1,0,0:0:0:0:
320,192,141421,1,0,0:0:0:0:
64,192,141421,1,0,0:0:0:0:
320,192,141592,128,0,141933:0:0:0:0:
192,192,141592,1,0,0:0:0:0:
448,192,141762,1,0,0:0:0:0:
64,192,141762,1,0,0:0:0:0:
192,192,141848,1,0,0:0:0:0:
448,192,141933,128,0,142103:0:0:0:0:
64,192,141933,1,0,0:0:0:0:
64,192,142103,128,0,142444:0:0:0:0:
320,192,142103,1,0,0:0:0:0:
192,192,142103,1,0,0:0:0:0:
320,192,142274,1,0,0:0:0:0:
448,192,142274,1,0,0:0:0:0:
192,192,142444,128,0,142615:0:0:0:0:
448,192,142444,1,0,0:0:0:0:
448,192,142615,128,0,142785:0:0:0:0:
64,192,142615,1,0,0:0:0:0:
320,192,142615,1,0,0:0:0:0:
64,192,142785,128,0,142956:0:0:0:0:
320,192,142785,1,0,0:0:0:0:
320,192,142956,128,0,143126:0:0:0:0:
448,192,142956,1,0,0:0:0:0:
192,192,142956,1,0,0:0:0:0:
448,192,143126,128,0,143296:0:0:0:0:
192,192,143126,1,0,0:0:0:0:
192,192,143296,128,0,143467:0:0:0:0:
64,192,143296,1,0,0:0:0:0:
320,192,143296,1,0,0:0:0:0:
320,192,143467,1,0,0:0:0:0:
64,192,143467,128,0,143637:0:0:0:0:
448,192,143467,1,0,0:0:0:0:
192,192,143637,1,0,0:0:0:0:
448,192,143808,1,0,0:0:0:0:
320,192,143808,1,0,0:0:0:0:
64,192,143978,1,0,0:0:0:0:
192,192,143978,1,0,0:0:0:0:
320,192,143978,1,0,0:0:0:0:
448,192,144149,1,0,0:0:0:0:
192,192,144149,1,0,0:0:0:0:
320,192,144319,1,0,0:0:0:0:
64,192,144319,1,0,0:0:0:0:
448,192,144319,1,0,0:0:0:0:
192,192,144490,1,0,0:0:0:0:
64,192,144490,1,0,0:0:0:0:
320,192,144575,1,0,0:0:0:0:
448,192,144575,1,0,0:0:0:0:
192,192,144660,1,0,0:0:0:0:
64,192,144660,1,0,0:0:0:0:
192,192,144831,1,0,0:0:0:0:
320,192,144831,128,0,145001:0:0:0:0:
448,192,144831,128,0,145001:0:0:0:0:
320,192,145171,1,0,0:0:0:0:
192,192,145171,1,0,0:0:0:0:
64,192,145171,1,0,0:0:0:0:
448,192,145257,1,0,0:0:0:0:
320,192,145342,1,0,0:0:0:0:
192,192,145427,1,0,0:0:0:0:
64,192,145512,1,0,0:0:0:0:
320,192,145598,1,0,0:0:0:0:
64,192,145683,1,0,0:0:0:0:
448,192,145683,1,0,0:0:0:0:
192,192,145725,1,0,0:0:0:0:
320,192,145768,1,0,0:0:0:0:
448,192,145811,1,0,0:0:0:0:
64,192,145853,1,0,0:0:0:0:
192,192,145910,1,0,0:0:0:0:
448,192,145967,1,0,0:0:0:0:
320,192,146024,1,0,0:0:0:0:
192,192,146081,1,0,0:0:0:0:
64,192,146137,1,0,0:0:0:0:
192,192,146194,128,0,146365:0:0:0:0:
320,192,146194,1,0,0:0:0:0:
448,192,146194,1,0,0:0:0:0:
448,192,146535,1,0,0:0:0:0:
64,192,146535,1,0,0:0:0:0:
320,192,146706,1,0,0:0:0:0:
64,192,146706,1,0,0:0:0:0:
192,192,146706,128,0,146791:0:0:0:0:
448,192,146876,1,0,0:0:0:0:
192,192,147046,1,0,0:0:0:0:
320,192,147046,128,0,147132:0:0:0:0:
64,192,147217,1,0,0:0:0:0:
192,192,147217,1,0,0:0:0:0:
448,192,147387,1,0,0:0:0:0:
320,192,147387,1,0,0:0:0:0:
64,192,147387,128,0,147473:0:0:0:0:
448,192,147558,1,0,0:0:0:0:
192,192,147558,1,0,0:0:0:0:
320,192,147728,128,0,147813:0:0:0:0:
64,192,147899,1,0,0:0:0:0:
192,192,147899,1,0,0:0:0:0:
320,192,148069,1,0,0:0:0:0:
192,192,148069,1,0,0:0:0:0:
448,192,148069,128,0,148154:0:0:0:0:
64,192,148240,1,0,0:0:0:0:
320,192,148410,1,0,0:0:0:0:
192,192,148410,128,0,148495:0:0:0:0:
320,192,148581,1,0,0:0:0:0:
448,192,148581,1,0,0:0:0:0:
192,192,148751,1,0,0:0:0:0:
448,192,148751,1,0,0:0:0:0:
64,192,148751,128,0,148836:0:0:0:0:
320,192,148921,1,0,0:0:0:0:
192,192,148921,1,0,0:0:0:0:
448,192,149092,128,0,149177:0:0:0:0:
64,192,149262,1,0,0:0:0:0:
320,192,149262,1,0,0:0:0:0:
64,192,149433,1,0,0:0:0:0:
448,192,149433,1,0,0:0:0:0:
192,192,149433,128,0,149518:0:0:0:0:
320,192,149603,1,0,0:0:0:0:
192,192,149774,1,0,0:0:0:0:
64,192,149774,128,0,149859:0:0:0:0:
320,192,149944,1,0,0:0:0:0:
448,192,149944,1,0,0:0:0:0:
192,192,150115,1,0,0:0:0:0:
64,192,150115,1,0,0:0:0:0:
320,192,150115,128,0,150200:0:0:0:0:
448,192,150285,1,0,0:0:0:0:
192,192,150285,1,0,0:0:0:0:
64,192,150456,128,0,150541:0:0:0:0:
448,192,150626,1,0,0:0:0:0:
320,192,150626,1,0,0:0:0:0:
64,192,150796,1,0,0:0:0:0:
448,192,150796,1,0,0:0:0:0:
192,192,150796,128,0,150882:0:0:0:0:
320,192,150967,1,0,0:0:0:0:
64,192,150967,1,0,0:0:0:0:
448,192,151137,128,0,151223:0:0:0:0:
192,192,151308,1,0,0:0:0:0:
64,192,151308,1,0,0:0:0:0:
448,192,151478,1,0,0:0:0:0:
192,192,151478,1,0,0:0:0:0:
320,192,151478,128,0,151563:0:0:0:0:
64,192,151649,1,0,0:0:0:0:
320,192,151734,1,0,0:0:0:0:
192,192,151819,128,0,151990:0:0:0:0:
448,192,151819,1,0,0:0:0:0:
64,192,151819,128,0,151904:0:0:0:0:
320,192,151990,1,0,0:0:0:0:
64,192,152160,1,0,0:0:0:0:
320,192,152160,1,0,0:0:0:0:
448,192,152160,128,0,152245:0:0:0:0:
192,192,152331,1,0,0:0:0:0:
64,192,152331,1,0,0:0:0:0:
320,192,152501,128,0,152586:0:0:0:0:
448,192,152671,1,0,0:0:0:0:
64,192,152671,1,0,0:0:0:0:
320,192,152842,1,0,0:0:0:0:
448,192,152842,1,0,0:0:0:0:
192,192,152842,128,0,152927:0:0:0:0:
64,192,153012,1,0,0:0:0:0:
320,192,153098,1,0,0:0:0:0:
448,192,153183,1,0,0:0:0:0:
64,192,153183,128,0,153268:0:0:0:0:
448,192,153353,1,0,0:0:0:0:
320,192,153353,1,0,0:0:0:0:
64,192,153524,1,0,0:0:0:0:
320,192,153524,1,0,0:0:0:0:
192,192,153524,128,0,153609:0:0:0:0:
448,192,153694,1,0,0:0:0:0:
64,192,153694,1,0,0:0:0:0:
320,192,153865,128,0,153950:0:0:0:0:
448,192,154035,1,0,0:0:0:0:
64,192,154035,1,0,0:0:0:0:
320,192,154206,1,0,0:0:0:0:
192,192,154206,1,0,0:0:0:0:
448,192,154206,128,0,154291:0:0:0:0:
64,192,154376,1,0,0:0:0:0:
320,192,154461,1,0,0:0:0:0:
64,192,154546,128,0,154717:0:0:0:0:
448,192,154546,1,0,0:0:0:0:
192,192,154546,128,0,154632:0:0:0:0:
320,192,154717,1,0,0:0:0:0:
64,192,154887,1,0,0:0:0:0:
192,192,154887,1,0,0:0:0:0:
448,192,154887,128,0,154973:0:0:0:0:
320,192,155058,1,0,0:0:0:0:
192,192,155228,1,0,0:0:0:0:
64,192,155228,128,0,155313:0:0:0:0:
192,192,155399,1,0,0:0:0:0:
448,192,155399,1,0,0:0:0:0:
320,192,155569,1,0,0:0:0:0:
64,192,155569,1,0,0:0:0:0:
448,192,155569,128,0,155654:0:0:0:0:
192,192,155740,128,0,155910:0:0:0:0:
320,192,155740,1,0,0:0:0:0:
64,192,155740,1,0,0:0:0:0:
448,192,155910,1,0,0:0:0:0:
320,192,156081,1,0,0:0:0:0:
192,192,156081,1,0,0:0:0:0:
64,192,156251,1,0,0:0:0:0:
320,192,156251,128,0,156336:0:0:0:0:
448,192,156251,128,0,156421:0:0:0:0:
64,192,156421,1,0,0:0:0:0:
192,192,156421,1,0,0:0:0:0:
320,192,156507,1,0,0:0:0:0:
448,192,156507,1,0,0:0:0:0:
64,192,156592,1,0,0:0:0:0:
192,192,156592,1,0,0:0:0:0:
320,192,156677,1,0,0:0:0:0:
448,192,156677,1,0,0:0:0:0:
192,192,156762,1,0,0:0:0:0:
64,192,156848,1,0,0:0:0:0:
448,192,156933,1,0,0:0:0:0:
320,192,157018,1,0,0:0:0:0:
192,192,157103,128,0,157274:0:0:0:0:
448,192,157103,1,0,0:0:0:0:
64,192,157103,128,0,157444:0:0:0:0:
448,192,157444,128,0,157615:0:0:0:0:
320,192,157444,1,0,0:0:0:0:
320,192,157615,128,0,157785:0:0:0:0:
192,192,157615,1,0,0:0:0:0:
64,192,157615,128,0,157700:0:0:0:0:
192,192,157785,128,0,157956:0:0:0:0:
64,192,157956,128,0,158296:0:0:0:0:
448,192,157956,128,0,158041:0:0:0:0:
192,192,158126,1,0,0:0:0:0:
320,192,158126,1,0,0:0:0:0:
448,192,158296,1,0,0:0:0:0:
192,192,158296,1,0,0:0:0:0:
320,192,158296,128,0,158382:0:0:0:0:
448,192,158467,128,0,158808:0:0:0:0:
64,192,158467,1,0,0:0:0:0:
192,192,158637,128,0,158723:0:0:0:0:
64,192,158808,128,0,158978:0:0:0:0:
320,192,158808,1,0,0:0:0:0:
320,192,158978,128,0,159149:0:0:0:0:
192,192,158978,1,0,0:0:0:0:
448,192,158978,128,0,159063:0:0:0:0:
192,192,159149,128,0,159319:0:0:0:0:
448,192,159319,128,0,159660:0:0:0:0:
64,192,159319,128,0,159404:0:0:0:0:
192,192,159490,1,0,0:0:0:0:
320,192,159490,1,0,0:0:0:0:
320,192,159660,128,0,159831:0:0:0:0:
64,192,159660,1,0,0:0:0:0:
192,192,159660,128,0,159745:0:0:0:0:
64,192,159831,128,0,160171:0:0:0:0:
448,192,159831,1,0,0:0:0:0:
192,192,160001,128,0,160086:0:0:0:0:
320,192,160171,128,0,160342:0:0:0:0:
448,192,160171,1,0,0:0:0:0:
192,192,160342,128,0,160683:0:0:0:0:
448,192,160342,1,0,0:0:0:0:
64,192,160342,128,0,160427:0:0:0:0:
320,192,160512,1,0,0:0:0:0:
448,192,160598,1,0,0:0:0:0:
64,192,160683,128,0,160853:0:0:0:0:
320,192,160683,1,0,0:0:0:0:
448,192,160853,1,0,0:0:0:0:
192,192,160853,1,0,0:0:0:0:
320,192,161024,1,0,0:0:0:0:
64,192,161024,1,0,0:0:0:0:
192,192,161024,1,0,0:0:0:0:
320,192,161194,128,0,161365:0:0:0:0:
64,192,161194,1,0,0:0:0:0:
448,192,161194,1,0,0:0:0:0:
192,192,161365,1,0,0:0:0:0:
448,192,161535,1,0,0:0:0:0:
320,192,161535,1,0,0:0:0:0:
64,192,161535,128,0,161620:0:0:0:0:
192,192,161706,1,0,0:0:0:0:
320,192,161706,1,0,0:0:0:0:
448,192,161706,128,0,161791:0:0:0:0:
192,192,161876,1,0,0:0:0:0:
64,192,161876,1,0,0:0:0:0:
320,192,162046,1,0,0:0:0:0:
448,192,162046,1,0,0:0:0:0:
192,192,162217,1,0,0:0:0:0:
320,192,162217,1,0,0:0:0:0:
64,192,162387,1,0,0:0:0:0:
192,192,162387,128,0,162558:0:0:0:0:
320,192,162558,128,0,162728:0:0:0:0:
448,192,162558,1,0,0:0:0:0:
448,192,162728,128,0,163069:0:0:0:0:
192,192,162728,1,0,0:0:0:0:
64,192,162728,128,0,162899:0:0:0:0:
192,192,163069,128,0,163240:0:0:0:0:
320,192,163069,1,0,0:0:0:0:
64,192,163240,128,0,163581:0:0:0:0:
320,192,163240,1,0,0:0:0:0:
448,192,163410,1,0,0:0:0:0:
448,192,163581,128,0,163751:0:0:0:0:
192,192,163581,1,0,0:0:0:0:
320,192,163751,128,0,164092:0:0:0:0:
192,192,163751,1,0,0:0:0:0:
64,192,163751,128,0,163921:0:0:0:0:
192,192,164092,1,0,0:0:0:0:
64,192,164092,1,0,0:0:0:0:
448,192,164262,1,0,0:0:0:0:
320,192,164262,1,0,0:0:0:0:
64,192,164262,1,0,0:0:0:0:
192,192,164433,128,0,164774:0:0:0:0:
448,192,164603,1,0,0:0:0:0:
64,192,164603,1,0,0:0:0:0:
448,192,164774,128,0,165115:0:0:0:0:
64,192,164774,1,0,0:0:0:0:
320,192,164774,1,0,0:0:0:0:
320,192,164944,1,0,0:0:0:0:
192,192,164944,1,0,0:0:0:0:
320,192,165115,128,0,165456:0:0:0:0:
192,192,165115,1,0,0:0:0:0:
64,192,165115,1,0,0:0:0:0:
448,192,165285,1,0,0:0:0:0:
64,192,165285,1,0,0:0:0:0:
64,192,165456,128,0,165796:0:0:0:0:
192,192,165456,1,0,0:0:0:0:
448,192,165456,128,0,165626:0:0:0:0:
320,192,165626,1,0,0:0:0:0:
192,192,165626,1,0,0:0:0:0:
192,192,165796,128,0,165967:0:0:0:0:
320,192,165796,1,0,0:0:0:0:
448,192,165967,128,0,166308:0:0:0:0:
64,192,165967,1,0,0:0:0:0:
192,192,166137,1,0,0:0:0:0:
320,192,166308,128,0,166478:0:0:0:0:
64,192,166308,1,0,0:0:0:0:
64,192,166478,128,0,167160:0:0:0:0:
192,192,166478,128,0,166649:0:0:0:0:
448,192,166478,1,0,0:0:0:0:
320,192,166649,1,0,0:0:0:0:
192,192,166819,1,0,0:0:0:0:
448,192,166819,1,0,0:0:0:0:
448,192,166990,1,0,0:0:0:0:
192,192,166990,1,0,0:0:0:0:
320,192,166990,128,0,167075:0:0:0:0:
320,192,167160,1,0,0:0:0:0:
192,192,167160,1,0,0:0:0:0:
448,192,167160,128,0,167245:0:0:0:0:
64,192,167331,1,0,0:0:0:0:
320,192,167331,1,0,0:0:0:0:
192,192,167501,1,0,0:0:0:0:
64,192,167501,1,0,0:0:0:0:
448,192,167501,1,0,0:0:0:0:
320,192,167671,1,0,0:0:0:0:
448,192,167757,1,0,0:0:0:0:
192,192,167842,1,0,0:0:0:0:
64,192,167842,1,0,0:0:0:0:
320,192,167927,1,0,0:0:0:0:
64,192,168012,1,0,0:0:0:0:
448,192,168012,128,0,168353:0:0:0:0:
192,192,168012,128,0,168183:0:0:0:0:
320,192,168353,128,0,168524:0:0:0:0:
64,192,168524,128,0,168694:0:0:0:0:
448,192,168524,1,0,0:0:0:0:
192,192,168524,1,0,0:0:0:0:
192,192,168694,128,0,168865:0:0:0:0:
448,192,168865,128,0,169376:0:0:0:0:
320,192,168865,128,0,169035:0:0:0:0:
64,192,169035,128,0,169206:0:0:0:0:
192,192,169035,1,0,0:0:0:0:
192,192,169206,128,0,169376:0:0:0:0:
320,192,169206,1,0,0:0:0:0:
64,192,169376,128,0,169717:0:0:0:0:
320,192,169376,1,0,0:0:0:0:
448,192,169546,1,0,0:0:0:0:
320,192,169717,128,0,169887:0:0:0:0:
192,192,169717,1,0,0:0:0:0:
448,192,169887,128,0,170058:0:0:0:0:
64,192,169887,1,0,0:0:0:0:
192,192,169887,1,0,0:0:0:0:
192,192,170058,128,0,170228:0:0:0:0:
64,192,170228,128,0,170569:0:0:0:0:
320,192,170228,128,0,170399:0:0:0:0:
448,192,170399,128,0,170569:0:0:0:0:
192,192,170399,1,0,0:0:0:0:
320,192,170569,128,0,170740:0:0:0:0:
192,192,170569,1,0,0:0:0:0:
192,192,170740,128,0,171081:0:0:0:0:
64,192,170740,1,0,0:0:0:0:
320,192,170910,1,0,0:0:0:0:
448,192,171081,128,0,171251:0:0:0:0:
64,192,171081,1,0,0:0:0:0:
64,192,171251,128,0,171421:0:0:0:0:
320,192,171251,1,0,0:0:0:0:
192,192,171251,1,0,0:0:0:0:
192,192,171421,128,0,171592:0:0:0:0:
320,192,171592,128,0,171933:0:0:0:0:
448,192,171592,128,0,171762:0:0:0:0:
64,192,171762,128,0,171933:0:0:0:0:
192,192,171762,1,0,0:0:0:0:
448,192,171933,128,0,172103:0:0:0:0:
192,192,171933,1,0,0:0:0:0:
192,192,172103,128,0,172444:0:0:0:0:
320,192,172103,1,0,0:0:0:0:
64,192,172274,1,0,0:0:0:0:
448,192,172444,1,0,0:0:0:0:
320,192,172444,128,0,172615:0:0:0:0:
64,192,172615,128,0,173126:0:0:0:0:
448,192,172615,128,0,172785:0:0:0:0:
192,192,172615,1,0,0:0:0:0:
320,192,172785,128,0,172956:0:0:0:0:
192,192,172956,128,0,173126:0:0:0:0:
448,192,172956,1,0,0:0:0:0:
448,192,173126,128,0,173296:0:0:0:0:
320,192,173126,1,0,0:0:0:0:
320,192,173296,128,0,173467:0:0:0:0:
192,192,173296,1,0,0:0:0:0:
64,192,173296,1,0,0:0:0:0:
64,192,173467,128,0,173637:0:0:0:0:
192,192,173467,1,0,0:0:0:0:
448,192,173552,1,0,0:0:0:0:
192,192,173637,128,0,173978:0:0:0:0:
320,192,173637,128,0,173808:0:0:0:0:
64,192,173808,1,0,0:0:0:0:
448,192,173808,1,0,0:0:0:0:
448,192,173978,128,0,174319:0:0:0:0:
320,192,173978,1,0,0:0:0:0:
64,192,173978,1,0,0:0:0:0:
192,192,174149,1,0,0:0:0:0:
320,192,174319,128,0,174490:0:0:0:0:
64,192,174319,1,0,0:0:0:0:
64,192,174490,128,0,174660:0:0:0:0:
192,192,174490,1,0,0:0:0:0:
192,192,174660,128,0,174831:0:0:0:0:
320,192,174660,1,0,0:0:0:0:
448,192,174660,1,0,0:0:0:0:
448,192,174831,128,0,175171:0:0:0:0:
64,192,174831,128,0,175001:0:0:0:0:
320,192,174831,1,0,0:0:0:0:
192,192,175001,1,0,0:0:0:0:
320,192,175171,128,0,175342:0:0:0:0:
64,192,175171,1,0,0:0:0:0:
64,192,175342,128,0,175683:0:0:0:0:
448,192,175342,1,0,0:0:0:0:
192,192,175342,1,0,0:0:0:0:
448,192,175512,128,0,175683:0:0:0:0:
192,192,175683,128,0,176024:0:0:0:0:
320,192,175683,1,0,0:0:0:0:
64,192,175853,128,0,176024:0:0:0:0:
448,192,175853,1,0,0:0:0:0:
320,192,176024,128,0,176365:0:0:0:0:
448,192,176024,1,0,0:0:0:0:
192,192,176194,128,0,176365:0:0:0:0:
448,192,176365,128,0,176706:0:0:0:0:
64,192,176365,128,0,176535:0:0:0:0:
320,192,176535,1,0,0:0:0:0:
192,192,176535,1,0,0:0:0:0:
192,192,176706,128,0,177046:0:0:0:0:
64,192,176706,1,0,0:0:0:0:
320,192,176706,1,0,0:0:0:0:
64,192,176876,1,0,0:0:0:0:
320,192,177046,128,0,177217:0:0:0:0:
448,192,177046,1,0,0:0:0:0:
448,192,177217,128,0,177387:0:0:0:0:
64,192,177217,1,0,0:0:0:0:
64,192,177387,128,0,177558:0:0:0:0:
320,192,177387,1,0,0:0:0:0:
192,192,177387,1,0,0:0:0:0:
192,192,177558,128,0,177899:0:0:0:0:
448,192,177558,128,0,177728:0:0:0:0:
320,192,177558,1,0,0:0:0:0:
64,192,177728,1,0,0:0:0:0:
320,192,177899,128,0,178069:0:0:0:0:
448,192,177899,1,0,0:0:0:0:
64,192,178069,128,0,178240:0:0:0:0:
192,192,178069,1,0,0:0:0:0:
320,192,178154,1,0,0:0:0:0:
448,192,178240,128,0,178410:0:0:0:0:
192,192,178325,1,0,0:0:0:0:
320,192,178410,1,0,0:0:0:0:
64,192,178410,1,0,0:0:0:0:
64,192,178581,1,0,0:0:0:0:
192,192,178581,1,0,0:0:0:0:
448,192,178751,1,0,0:0:0:0:
320,192,178751,1,0,0:0:0:0:
192,192,178751,1,0,0:0:0:0:
64,192,178921,128,0,179092:0:0:0:0:
320,192,178921,1,0,0:0:0:0:
448,192,178921,1,0,0:0:0:0:
64,192,179262,1,0,0:0:0:0:
192,192,179262,1,0,0:0:0:0:
320,192,179262,1,0,0:0:0:0:
448,192,179433,1,0,0:0:0:0:
320,192,179603,1,0,0:0:0:0:
192,192,179603,1,0,0:0:0:0:
448,192,179774,1,0,0:0:0:0:
320,192,179774,1,0,0:0:0:0:
64,192,179774,128,0,179944:0:0:0:0:
192,192,180115,1,0,0:0:0:0:
448,192,180285,1,0,0:0:0:0:
320,192,180285,1,0,0:0:0:0:
64,192,180626,1,0,0:0:0:0:
192,192,180626,1,0,0:0:0:0:
448,192,180626,1,0,0:0:0:0:
320,192,180796,1,0,0:0:0:0:
64,192,180967,1,0,0:0:0:0:
192,192,180967,1,0,0:0:0:0:
320,192,181137,1,0,0:0:0:0:
64,192,181137,1,0,0:0:0:0:
448,192,181137,1,0,0:0:0:0:
192,192,181478,128,0,181649:0:0:0:0:
320,192,181478,1,0,0:0:0:0:
448,192,181478,1,0,0:0:0:0:
320,192,181649,1,0,0:0:0:0:
448,192,181649,1,0,0:0:0:0:
64,192,181649,128,0,181819:0:0:0:0:
448,192,181990,1,0,0:0:0:0:
320,192,181990,1,0,0:0:0:0:
192,192,181990,1,0,0:0:0:0:
64,192,182160,1,0,0:0:0:0:
320,192,182331,1,0,0:0:0:0:
448,192,182331,1,0,0:0:0:0:
448,192,182501,1,0,0:0:0:0:
192,192,182501,1,0,0:0:0:0:
64,192,182501,1,0,0:0:0:0:
192,192,182671,1,0,0:0:0:0:
320,192,182671,1,0,0:0:0:0:
320,192,182842,1,0,0:0:0:0:
64,192,182842,1,0,0:0:0:0:
448,192,183012,1,0,0:0:0:0:
64,192,183012,1,0,0:0:0:0:
192,192,183012,128,0,183183:0:0:0:0:
320,192,183353,1,0,0:0:0:0:
64,192,183353,1,0,0:0:0:0:
448,192,183524,1,0,0:0:0:0:
192,192,183524,1,0,0:0:0:0:
64,192,183524,1,0,0:0:0:0:
448,192,183694,1,0,0:0:0:0:
320,192,183694,1,0,0:0:0:0:
64,192,183865,1,0,0:0:0:0:
320,192,183865,1,0,0:0:0:0:
64,192,184035,1,0,0:0:0:0:
448,192,184035,1,0,0:0:0:0:
192,192,184035,1,0,0:0:0:0:
448,192,184206,1,0,0:0:0:0:
320,192,184206,1,0,0:0:0:0:
192,192,184206,1,0,0:0:0:0:
64,192,184376,1,0,0:0:0:0:
320,192,184376,1,0,0:0:0:0:
448,192,184376,1,0,0:0:0:0:
192,192,184546,1,0,0:0:0:0:
64,192,184717,1,0,0:0:0:0:
320,192,184887,1,0,0:0:0:0:
448,192,185058,1,0,0:0:0:0:
448,192,185399,1,0,0:0:0:0:
320,192,185569,1,0,0:0:0:0:
64,192,185867,1,0,0:0:0:0:
192,192,185910,1,0,0:0:0:0:
320,192,185910,1,0,0:0:0:0:
448,192,186251,1,0,0:0:0:0:
64,192,186592,1,0,0:0:0:0:
448,192,186933,1,0,0:0:0:0:
320,192,187231,1,0,0:0:0:0:
192,192,187274,1,0,0:0:0:0:
64,192,187274,1,0,0:0:0:0:
448,192,187615,1,0,0:0:0:0:
64,192,187956,1,0,0:0:0:0:
192,192,187956,1,0,0:0:0:0:
320,192,188296,1,0,0:0:0:0:
192,192,188595,1,0,0:0:0:0:
448,192,188637,1,0,0:0:0:0:
64,192,188637,1,0,0:0:0:0:
64,192,188978,1,0,0:0:0:0:
320,192,189319,1,0,0:0:0:0:
192,192,189319,1,0,0:0:0:0:
448,192,189660,1,0,0:0:0:0:
320,192,190001,1,0,0:0:0:0:
64,192,190342,1,0,0:0:0:0:
320,192,190683,1,0,0:0:0:0:
192,192,190683,1,0,0:0:0:0:
448,192,191024,1,0,0:0:0:0:
320,192,191322,1,0,0:0:0:0:
64,192,191365,1,0,0:0:0:0:
192,192,191365,1,0,0:0:0:0:
448,192,191706,1,0,0:0:0:0:
320,192,192046,1,0,0:0:0:0:
192,192,192046,1,0,0:0:0:0:
64,192,192387,1,0,0:0:0:0:
192,192,192686,1,0,0:0:0:0:
320,192,192728,1,0,0:0:0:0:
448,192,193069,1,0,0:0:0:0:
64,192,193410,1,0,0:0:0:0:
192,192,193410,1,0,0:0:0:0:
448,192,193751,1,0,0:0:0:0:
320,192,194049,1,0,0:0:0:0:
64,192,194092,1,0,0:0:0:0:
192,192,194433,1,0,0:0:0:0:
448,192,194774,1,0,0:0:0:0:
320,192,194774,1,0,0:0:0:0:
64,192,195115,1,0,0:0:0:0:
448,192,195285,1,0,0:0:0:0:
320,192,195342,1,0,0:0:0:0:
192,192,195399,1,0,0:0:0:0:
64,192,195456,1,0,0:0:0:0:
448,192,195456,1,0,0:0:0:0:
64,192,195626,1,0,0:0:0:0:
64,192,195796,1,0,0:0:0:0:
320,192,195967,1,0,0:0:0:0:
192,192,195967,1,0,0:0:0:0:
320,192,196137,1,0,0:0:0:0:
320,192,196308,1,0,0:0:0:0:
448,192,196478,1,0,0:0:0:0:
64,192,196478,1,0,0:0:0:0:
448,192,196649,1,0,0:0:0:0:
448,192,196819,1,0,0:0:0:0:
192,192,196990,1,0,0:0:0:0:
64,192,196990,1,0,0:0:0:0:
192,192,197160,1,0,0:0:0:0:
192,192,197331,1,0,0:0:0:0:
448,192,197501,1,0,0:0:0:0:
320,192,197501,1,0,0:0:0:0:
192,192,197671,1,0,0:0:0:0:
320,192,197757,1,0,0:0:0:0:
64,192,197757,1,0,0:0:0:0:
192,192,197842,1,0,0:0:0:0:
448,192,197842,1,0,0:0:0:0:
320,192,198012,1,0,0:0:0:0:
192,192,198098,1,0,0:0:0:0:
448,192,198098,1,0,0:0:0:0:
64,192,198183,1,0,0:0:0:0:
320,192,198183,1,0,0:0:0:0:
64,192,198353,1,0,0:0:0:0:
64,192,198524,1,0,0:0:0:0:
448,192,198694,1,0,0:0:0:0:
192,192,198694,1,0,0:0:0:0:
192,192,198865,1,0,0:0:0:0:
192,192,199035,1,0,0:0:0:0:
448,192,199206,1,0,0:0:0:0:
64,192,199206,1,0,0:0:0:0:
448,192,199376,1,0,0:0:0:0:
448,192,199546,1,0,0:0:0:0:
64,192,199717,1,0,0:0:0:0:
192,192,199717,1,0,0:0:0:0:
64,192,199887,1,0,0:0:0:0:
64,192,200058,1,0,0:0:0:0:
320,192,200228,1,0,0:0:0:0:
192,192,200228,1,0,0:0:0:0:
320,192,200399,1,0,0:0:0:0:
192,192,200484,1,0,0:0:0:0:
448,192,200484,1,0,0:0:0:0:
320,192,200569,1,0,0:0:0:0:
64,192,200569,1,0,0:0:0:0:
192,192,200740,1,0,0:0:0:0:
64,192,200825,1,0,0:0:0:0:
320,192,200825,1,0,0:0:0:0:
448,192,200910,1,0,0:0:0:0:
192,192,200910,1,0,0:0:0:0:
320,192,201081,1,0,0:0:0:0:
64,192,201251,1,0,0:0:0:0:
448,192,201251,1,0,0:0:0:0:
448,192,201421,1,0,0:0:0:0:
192,192,201421,1,0,0:0:0:0:
320,192,201421,1,0,0:0:0:0:
192,192,201592,1,0,0:0:0:0:
64,192,201592,1,0,0:0:0:0:
448,192,201762,1,0,0:0:0:0:
320,192,201762,1,0,0:0:0:0:
64,192,201762,1,0,0:0:0:0:
192,192,201933,1,0,0:0:0:0:
320,192,201933,1,0,0:0:0:0:
448,192,201933,1,0,0:0:0:0:
64,192,202103,1,0,0:0:0:0:
320,192,202274,1,0,0:0:0:0:
192,192,202274,1,0,0:0:0:0:
448,192,202444,1,0,0:0:0:0:
192,192,202444,1,0,0:0:0:0:
64,192,202444,1,0,0:0:0:0:
320,192,202615,1,0,0:0:0:0:
448,192,202615,1,0,0:0:0:0:
192,192,202785,1,0,0:0:0:0:
64,192,202785,1,0,0:0:0:0:
320,192,202785,1,0,0:0:0:0:
448,192,202956,1,0,0:0:0:0:
192,192,202956,1,0,0:0:0:0:
64,192,202956,1,0,0:0:0:0:
320,192,203126,1,0,0:0:0:0:
448,192,203126,1,0,0:0:0:0:
192,192,203211,1,0,0:0:0:0:
64,192,203296,1,0,0:0:0:0:
320,192,203296,1,0,0:0:0:0:
448,192,203296,1,0,0:0:0:0:
192,192,203467,1,0,0:0:0:0:
64,192,203467,1,0,0:0:0:0:
320,192,203552,1,0,0:0:0:0:
448,192,203637,1,0,0:0:0:0:
192,192,203637,1,0,0:0:0:0:
64,192,203637,1,0,0:0:0:0:
320,192,203808,1,0,0:0:0:0:
192,192,203978,1,0,0:0:0:0:
64,192,203978,1,0,0:0:0:0:
448,192,204149,1,0,0:0:0:0:
320,192,204149,1,0,0:0:0:0:
192,192,204149,1,0,0:0:0:0:
64,192,204319,1,0,0:0:0:0:
320,192,204319,1,0,0:0:0:0:
448,192,204490,1,0,0:0:0:0:
192,192,204660,1,0,0:0:0:0:
320,192,204660,1,0,0:0:0:0:
64,192,204660,1,0,0:0:0:0:
64,192,204831,1,0,0:0:0:0:
448,192,205001,1,0,0:0:0:0:
320,192,205001,1,0,0:0:0:0:
192,192,205001,1,0,0:0:0:0:
64,192,205171,1,0,0:0:0:0:
320,192,205342,1,0,0:0:0:0:
192,192,205342,1,0,0:0:0:0:
448,192,205512,1,0,0:0:0:0:
320,192,205512,1,0,0:0:0:0:
448,192,205683,1,0,0:0:0:0:
64,192,205683,1,0,0:0:0:0:
192,192,205683,1,0,0:0:0:0:
448,192,205853,1,0,0:0:0:0:
320,192,205853,1,0,0:0:0:0:
64,192,205853,1,0,0:0:0:0:
64,192,206024,1,0,0:0:0:0:
192,192,206024,1,0,0:0:0:0:
320,192,206024,1,0,0:0:0:0:
448,192,206194,1,0,0:0:0:0:
192,192,206194,1,0,0:0:0:0:
320,192,206279,1,0,0:0:0:0:
64,192,206365,1,0,0:0:0:0:
448,192,206365,1,0,0:0:0:0:
192,192,206365,128,0,206535:0:0:0:0:
320,192,206535,1,0,0:0:0:0:
448,192,206706,1,0,0:0:0:0:
64,192,206706,1,0,0:0:0:0:
192,192,206706,1,0,0:0:0:0:
320,192,206876,1,0,0:0:0:0:
448,192,207046,1,0,0:0:0:0:
192,192,207046,1,0,0:0:0:0:
192,192,207217,1,0,0:0:0:0:
64,192,207217,1,0,0:0:0:0:
448,192,207387,1,0,0:0:0:0:
320,192,207387,1,0,0:0:0:0:
64,192,207387,1,0,0:0:0:0:
192,192,207558,128,0,207728:0:0:0:0:
320,192,207558,1,0,0:0:0:0:
448,192,207558,1,0,0:0:0:0:
64,192,207728,1,0,0:0:0:0:
192,192,207899,1,0,0:0:0:0:
320,192,207899,1,0,0:0:0:0:
448,192,208069,1,0,0:0:0:0:
320,192,208069,1,0,0:0:0:0:
64,192,208069,1,0,0:0:0:0:
64,192,208240,1,0,0:0:0:0:
192,192,208325,1,0,0:0:0:0:
320,192,208410,1,0,0:0:0:0:
448,192,208410,1,0,0:0:0:0:
320,192,208581,1,0,0:0:0:0:
192,192,208581,1,0,0:0:0:0:
448,192,208751,1,0,0:0:0:0:
192,192,208751,1,0,0:0:0:0:
64,192,208751,1,0,0:0:0:0:
320,192,208921,1,0,0:0:0:0:
448,192,209092,128,0,209262:0:0:0:0:
320,192,209092,1,0,0:0:0:0:
64,192,209092,1,0,0:0:0:0:
192,192,209262,1,0,0:0:0:0:
64,192,209262,1,0,0:0:0:0:
448,192,209433,1,0,0:0:0:0:
320,192,209433,1,0,0:0:0:0:
192,192,209433,1,0,0:0:0:0:
64,192,209603,1,0,0:0:0:0:
320,192,209603,1,0,0:0:0:0:
192,192,209774,1,0,0:0:0:0:
448,192,209774,1,0,0:0:0:0:
64,192,209774,1,0,0:0:0:0:
320,192,209944,1,0,0:0:0:0:
192,192,209944,1,0,0:0:0:0:
448,192,210029,1,0,0:0:0:0:
64,192,210029,1,0,0:0:0:0:
192,192,210115,1,0,0:0:0:0:
320,192,210115,1,0,0:0:0:0:
320,192,210285,1,0,0:0:0:0:
448,192,210285,1,0,0:0:0:0:
64,192,210285,128,0,210456:0:0:0:0:
320,192,210626,1,0,0:0:0:0:
192,192,210626,1,0,0:0:0:0:
192,192,210796,1,0,0:0:0:0:
64,192,210796,1,0,0:0:0:0:
448,192,210967,1,0,0:0:0:0:
64,192,210967,1,0,0:0:0:0:
320,192,210967,1,0,0:0:0:0:
448,192,211137,1,0,0:0:0:0:
320,192,211137,1,0,0:0:0:0:
192,192,211137,1,0,0:0:0:0:
64,192,211308,1,0,0:0:0:0:
192,192,211308,1,0,0:0:0:0:
448,192,211393,1,0,0:0:0:0:
320,192,211393,1,0,0:0:0:0:
192,192,211478,1,0,0:0:0:0:
64,192,211478,1,0,0:0:0:0:
320,192,211563,1,0,0:0:0:0:
448,192,211649,128,0,211819:0:0:0:0:
192,192,211649,1,0,0:0:0:0:
64,192,211649,128,0,211990:0:0:0:0:
320,192,211990,128,0,212160:0:0:0:0:
192,192,211990,1,0,0:0:0:0:
192,192,212160,128,0,212331:0:0:0:0:
448,192,212160,1,0,0:0:0:0:
64,192,212160,128,0,212245:0:0:0:0:
448,192,212331,128,0,212501:0:0:0:0:
320,192,212501,128,0,212842:0:0:0:0:
192,192,212501,128,0,212586:0:0:0:0:
64,192,212671,1,0,0:0:0:0:
448,192,212671,1,0,0:0:0:0:
192,192,212842,1,0,0:0:0:0:
448,192,212842,1,0,0:0:0:0:
64,192,212842,128,0,212927:0:0:0:0:
192,192,213012,128,0,213353:0:0:0:0:
320,192,213012,1,0,0:0:0:0:
448,192,213183,128,0,213268:0:0:0:0:
320,192,213353,128,0,213524:0:0:0:0:
64,192,213353,1,0,0:0:0:0:
64,192,213524,128,0,213694:0:0:0:0:
448,192,213524,1,0,0:0:0:0:
192,192,213524,128,0,213609:0:0:0:0:
448,192,213694,128,0,213865:0:0:0:0:
192,192,213865,128,0,214206:0:0:0:0:
320,192,213865,128,0,213950:0:0:0:0:
64,192,214035,1,0,0:0:0:0:
448,192,214035,1,0,0:0:0:0:
320,192,214206,1,0,0:0:0:0:
448,192,214206,1,0,0:0:0:0:
64,192,214206,128,0,214291:0:0:0:0:
320,192,214376,128,0,214717:0:0:0:0:
192,192,214376,1,0,0:0:0:0:
448,192,214546,128,0,214632:0:0:0:0:
64,192,214717,128,0,214887:0:0:0:0:
192,192,214717,1,0,0:0:0:0:
192,192,214887,128,0,215058:0:0:0:0:
448,192,214887,1,0,0:0:0:0:
320,192,214887,128,0,214973:0:0:0:0:
448,192,215058,128,0,215228:0:0:0:0:
320,192,215228,128,0,215569:0:0:0:0:
64,192,215228,128,0,215313:0:0:0:0:
192,192,215399,1,0,0:0:0:0:
448,192,215399,1,0,0:0:0:0:
64,192,215569,128,0,215740:0:0:0:0:
192,192,215569,1,0,0:0:0:0:
448,192,215569,128,0,215654:0:0:0:0:
192,192,215740,128,0,215910:0:0:0:0:
320,192,215740,1,0,0:0:0:0:
64,192,215910,128,0,215995:0:0:0:0:
448,192,216081,128,0,216592:0:0:0:0:
320,192,216081,1,0,0:0:0:0:
192,192,216081,1,0,0:0:0:0:
64,192,216251,1,0,0:0:0:0:
320,192,216251,1,0,0:0:0:0:
192,192,216251,128,0,216336:0:0:0:0:
64,192,216421,1,0,0:0:0:0:
320,192,216421,1,0,0:0:0:0:
192,192,216592,128,0,216677:0:0:0:0:
448,192,216762,1,0,0:0:0:0:
64,192,216762,1,0,0:0:0:0:
320,192,216933,128,0,217103:0:0:0:0:
192,192,216933,1,0,0:0:0:0:
448,192,216933,128,0,217018:0:0:0:0:
64,192,217103,128,0,217274:0:0:0:0:
448,192,217274,128,0,217785:0:0:0:0:
192,192,217274,128,0,217444:0:0:0:0:
320,192,217274,128,0,217359:0:0:0:0:
64,192,217444,1,0,0:0:0:0:
320,192,217615,1,0,0:0:0:0:
192,192,217615,1,0,0:0:0:0:
64,192,217615,128,0,217700:0:0:0:0:
192,192,217785,128,0,218296:0:0:0:0:
320,192,217785,1,0,0:0:0:0:
448,192,217956,128,0,218041:0:0:0:0:
320,192,218126,1,0,0:0:0:0:
64,192,218126,1,0,0:0:0:0:
64,192,218296,128,0,218808:0:0:0:0:
448,192,218296,1,0,0:0:0:0:
320,192,218296,128,0,218382:0:0:0:0:
192,192,218467,1,0,0:0:0:0:
448,192,218637,1,0,0:0:0:0:
320,192,218637,128,0,218723:0:0:0:0:
448,192,218808,1,0,0:0:0:0:
192,192,218808,1,0,0:0:0:0:
320,192,218978,1,0,0:0:0:0:
64,192,218978,1,0,0:0:0:0:
192,192,218978,128,0,219063:0:0:0:0:
320,192,219149,128,0,219490:0:0:0:0:
448,192,219149,1,0,0:0:0:0:
64,192,219319,128,0,219404:0:0:0:0:
448,192,219490,128,0,219660:0:0:0:0:
192,192,219490,1,0,0:0:0:0:
320,192,219660,128,0,219831:0:0:0:0:
64,192,219660,1,0,0:0:0:0:
192,192,219660,128,0,219745:0:0:0:0:
64,192,219831,128,0,220001:0:0:0:0:
448,192,219831,1,0,0:0:0:0:
192,192,219916,1,0,0:0:0:0:
448,192,220001,128,0,220342:0:0:0:0:
320,192,220001,128,0,220171:0:0:0:0:
192,192,220171,1,0,0:0:0:0:
64,192,220171,1,0,0:0:0:0:
64,192,220342,1,0,0:0:0:0:
320,192,220342,1,0,0:0:0:0:
192,192,220342,128,0,220427:0:0:0:0:
320,192,220512,128,0,220683:0:0:0:0:
448,192,220512,1,0,0:0:0:0:
192,192,220683,128,0,221024:0:0:0:0:
64,192,220683,1,0,0:0:0:0:
448,192,220683,128,0,220768:0:0:0:0:
320,192,220853,1,0,0:0:0:0:
64,192,220853,1,0,0:0:0:0:
448,192,221024,1,0,0:0:0:0:
320,192,221024,1,0,0:0:0:0:
64,192,221024,1,0,0:0:0:0:
448,192,221194,128,0,221365:0:0:0:0:
320,192,221194,1,0,0:0:0:0:
192,192,221194,1,0,0:0:0:0:
64,192,221365,1,0,0:0:0:0:
320,192,221535,1,0,0:0:0:0:
192,192,221535,1,0,0:0:0:0:
64,192,221535,1,0,0:0:0:0:
448,192,221706,1,0,0:0:0:0:
320,192,221706,1,0,0:0:0:0:
192,192,221706,1,0,0:0:0:0:
64,192,221791,1,0,0:0:0:0:
448,192,221876,1,0,0:0:0:0:
320,192,221961,1,0,0:0:0:0:
64,192,222046,1,0,0:0:0:0:
192,192,222046,1,0,0:0:0:0:
448,192,222132,1,0,0:0:0:0:
320,192,222217,1,0,0:0:0:0:
192,192,222302,1,0,0:0:0:0:
64,192,222387,1,0,0:0:0:0:
448,192,222387,1,0,0:0:0:0:
320,192,222473,1,0,0:0:0:0:
64,192,222558,128,0,222728:0:0:0:0:
192,192,222558,1,0,0:0:0:0:
448,192,222558,128,0,222899:0:0:0:0:
320,192,222899,128,0,223069:0:0:0:0:
192,192,222899,1,0,0:0:0:0:
64,192,223069,128,0,223240:0:0:0:0:
448,192,223069,1,0,0:0:0:0:
192,192,223069,128,0,223154:0:0:0:0:
320,192,223240,128,0,223410:0:0:0:0:
192,192,223410,128,0,223751:0:0:0:0:
448,192,223410,128,0,223495:0:0:0:0:
320,192,223581,1,0,0:0:0:0:
64,192,223581,1,0,0:0:0:0:
448,192,223751,1,0,0:0:0:0:
320,192,223751,1,0,0:0:0:0:
64,192,223751,128,0,223836:0:0:0:0:
448,192,223921,128,0,224262:0:0:0:0:
320,192,223921,128,0,224007:0:0:0:0:
192,192,224092,128,0,224262:0:0:0:0:
320,192,224262,128,0,224433:0:0:0:0:
64,192,224262,1,0,0:0:0:0:
64,192,224433,128,0,224603:0:0:0:0:
192,192,224433,1,0,0:0:0:0:
448,192,224433,128,0,224518:0:0:0:0:
192,192,224603,128,0,224774:0:0:0:0:
320,192,224774,128,0,225115:0:0:0:0:
64,192,224774,128,0,224859:0:0:0:0:
448,192,224944,1,0,0:0:0:0:
192,192,224944,1,0,0:0:0:0:
448,192,225115,128,0,225285:0:0:0:0:
192,192,225115,1,0,0:0:0:0:
64,192,225115,128,0,225200:0:0:0:0:
64,192,225285,128,0,225626:0:0:0:0:
192,192,225285,128,0,225456:0:0:0:0:
320,192,225285,1,0,0:0:0:0:
448,192,225456,1,0,0:0:0:0:
320,192,225626,128,0,225796:0:0:0:0:
192,192,225626,1,0,0:0:0:0:
192,192,225796,128,0,226137:0:0:0:0:
448,192,225796,1,0,0:0:0:0:
64,192,225796,128,0,225882:0:0:0:0:
320,192,225967,1,0,0:0:0:0:
64,192,226052,1,0,0:0:0:0:
448,192,226137,1,0,0:0:0:0:
320,192,226137,128,0,226308:0:0:0:0:
64,192,226308,1,0,0:0:0:0:
192,192,226308,1,0,0:0:0:0:
448,192,226478,1,0,0:0:0:0:
320,192,226478,1,0,0:0:0:0:
192,192,226478,1,0,0:0:0:0:
448,192,226649,128,0,226819:0:0:0:0:
320,192,226649,1,0,0:0:0:0:
64,192,226649,1,0,0:0:0:0:
192,192,226819,1,0,0:0:0:0:
64,192,226990,1,0,0:0:0:0:
448,192,226990,1,0,0:0:0:0:
64,192,227160,1,0,0:0:0:0:
192,192,227160,1,0,0:0:0:0:
448,192,227331,1,0,0:0:0:0:
320,192,227331,1,0,0:0:0:0:
64,192,227416,1,0,0:0:0:0:
192,192,227416,1,0,0:0:0:0:
320,192,227501,1,0,0:0:0:0:
448,192,227501,1,0,0:0:0:0:
64,192,227671,1,0,0:0:0:0:
192,192,227671,1,0,0:0:0:0:
448,192,227842,128,0,228012:0:0:0:0:
192,192,227842,1,0,0:0:0:0:
64,192,228012,128,0,228183:0:0:0:0:
320,192,228012,1,0,0:0:0:0:
192,192,228183,128,0,228524:0:0:0:0:
448,192,228183,1,0,0:0:0:0:
320,192,228183,128,0,228353:0:0:0:0:
64,192,228353,1,0,0:0:0:0:
448,192,228524,128,0,228694:0:0:0:0:
320,192,228524,1,0,0:0:0:0:
64,192,228694,128,0,229035:0:0:0:0:
192,192,228694,1,0,0:0:0:0:
320,192,228865,1,0,0:0:0:0:
192,192,229035,128,0,229206:0:0:0:0:
448,192,229035,1,0,0:0:0:0:
320,192,229206,128,0,229546:0:0:0:0:
64,192,229206,128,0,229376:0:0:0:0:
448,192,229206,1,0,0:0:0:0:
192,192,229376,1,0,0:0:0:0:
448,192,229546,1,0,0:0:0:0:
192,192,229546,1,0,0:0:0:0:
448,192,229717,1,0,0:0:0:0:
320,192,229717,1,0,0:0:0:0:
64,192,229717,1,0,0:0:0:0:
192,192,229887,128,0,230228:0:0:0:0:
448,192,230058,1,0,0:0:0:0:
64,192,230058,1,0,0:0:0:0:
448,192,230228,128,0,230569:0:0:0:0:
320,192,230228,1,0,0:0:0:0:
64,192,230228,1,0,0:0:0:0:
320,192,230399,1,0,0:0:0:0:
192,192,230399,1,0,0:0:0:0:
192,192,230569,1,0,0:0:0:0:
64,192,230569,1,0,0:0:0:0:
320,192,230654,1,0,0:0:0:0:
448,192,230654,1,0,0:0:0:0:
192,192,230740,1,0,0:0:0:0:
64,192,230740,1,0,0:0:0:0:
320,192,230825,1,0,0:0:0:0:
64,192,230910,128,0,231251:0:0:0:0:
192,192,230910,128,0,231081:0:0:0:0:
448,192,230910,1,0,0:0:0:0:
320,192,231081,1,0,0:0:0:0:
448,192,231251,128,0,231421:0:0:0:0:
192,192,231251,1,0,0:0:0:0:
320,192,231421,128,0,231762:0:0:0:0:
64,192,231421,1,0,0:0:0:0:
192,192,231592,1,0,0:0:0:0:
64,192,231762,128,0,231933:0:0:0:0:
448,192,231762,1,0,0:0:0:0:
192,192,231933,128,0,233126:0:0:0:0:
320,192,231933,128,0,232103:0:0:0:0:
448,192,231933,1,0,0:0:0:0:
64,192,232103,1,0,0:0:0:0:
448,192,232274,1,0,0:0:0:0:
320,192,232274,1,0,0:0:0:0:
448,192,232444,1,0,0:0:0:0:
320,192,232444,1,0,0:0:0:0:
64,192,232444,1,0,0:0:0:0:
64,192,232615,128,0,232700:0:0:0:0:
320,192,232785,1,0,0:0:0:0:
448,192,232785,1,0,0:0:0:0:
64,192,232956,1,0,0:0:0:0:
448,192,232956,1,0,0:0:0:0:
320,192,232956,128,0,233041:0:0:0:0:
448,192,233126,1,0,0:0:0:0:
64,192,233126,1,0,0:0:0:0:
320,192,233211,1,0,0:0:0:0:
192,192,233211,1,0,0:0:0:0:
64,192,233296,1,0,0:0:0:0:
448,192,233296,1,0,0:0:0:0:
320,192,233467,128,0,233637:0:0:0:0:
192,192,233467,1,0,0:0:0:0:
64,192,233467,1,0,0:0:0:0:
64,192,233808,1,0,0:0:0:0:
192,192,233808,1,0,0:0:0:0:
192,192,233978,1,0,0:0:0:0:
320,192,233978,1,0,0:0:0:0:
448,192,234149,1,0,0:0:0:0:
320,192,234149,1,0,0:0:0:0:
192,192,234319,1,0,0:0:0:0:
64,192,234319,1,0,0:0:0:0:
448,192,234404,1,0,0:0:0:0:
320,192,234404,1,0,0:0:0:0:
192,192,234490,1,0,0:0:0:0:
64,192,234490,1,0,0:0:0:0:
448,192,234575,1,0,0:0:0:0:
64,192,234660,128,0,234831:0:0:0:0:
320,192,234660,1,0,0:0:0:0:
192,192,234660,1,0,0:0:0:0:
192,192,234831,128,0,235171:0:0:0:0:
448,192,234831,128,0,235001:0:0:0:0:
320,192,234831,1,0,0:0:0:0:
320,192,235171,128,0,235683:0:0:0:0:
448,192,235171,1,0,0:0:0:0:
192,192,235342,1,0,0:0:0:0:
64,192,235342,1,0,0:0:0:0:
448,192,235342,1,0,0:0:0:0:
64,192,235512,1,0,0:0:0:0:
448,192,235683,1,0,0:0:0:0:
192,192,235683,1,0,0:0:0:0:
64,192,235853,1,0,0:0:0:0:
320,192,235853,1,0,0:0:0:0:
64,192,236024,128,0,236194:0:0:0:0:
192,192,236024,1,0,0:0:0:0:
448,192,236024,1,0,0:0:0:0:
448,192,236194,128,0,236535:0:0:0:0:
320,192,236194,128,0,236365:0:0:0:0:
192,192,236194,1,0,0:0:0:0:
192,192,236535,128,0,236876:0:0:0:0:
320,192,236535,1,0,0:0:0:0:
64,192,236706,1,0,0:0:0:0:
448,192,236706,1,0,0:0:0:0:
320,192,236706,1,0,0:0:0:0:
64,192,236876,1,0,0:0:0:0:
448,192,237046,1,0,0:0:0:0:
192,192,237046,1,0,0:0:0:0:
192,192,237217,1,0,0:0:0:0:
64,192,237217,1,0,0:0:0:0:
320,192,237387,128,0,237558:0:0:0:0:
448,192,237387,1,0,0:0:0:0:
64,192,237387,1,0,0:0:0:0:
64,192,237558,128,0,237899:0:0:0:0:
192,192,237558,1,0,0:0:0:0:
448,192,237558,128,0,237728:0:0:0:0:
192,192,237899,128,0,238069:0:0:0:0:
448,192,237899,1,0,0:0:0:0:
448,192,238069,128,0,238921:0:0:0:0:
64,192,238069,1,0,0:0:0:0:
320,192,238069,1,0,0:0:0:0:
192,192,238240,1,0,0:0:0:0:
320,192,238410,1,0,0:0:0:0:
64,192,238410,1,0,0:0:0:0:
64,192,238581,1,0,0:0:0:0:
192,192,238581,1,0,0:0:0:0:
320,192,238751,1,0,0:0:0:0:
192,192,238751,1,0,0:0:0:0:
64,192,238751,1,0,0:0:0:0:
192,192,238921,128,0,239092:0:0:0:0:
320,192,238921,1,0,0:0:0:0:
64,192,238921,1,0,0:0:0:0:
448,192,239092,1,0,0:0:0:0:
320,192,239262,1,0,0:0:0:0:
192,192,239262,1,0,0:0:0:0:
320,192,239433,1,0,0:0:0:0:
64,192,239433,1,0,0:0:0:0:
448,192,239433,1,0,0:0:0:0:
192,192,239603,1,0,0:0:0:0:
448,192,239603,1,0,0:0:0:0:
192,192,239774,1,0,0:0:0:0:
320,192,239774,1,0,0:0:0:0:
64,192,239774,1,0,0:0:0:0:
320,192,239944,1,0,0:0:0:0:
448,192,239944,1,0,0:0:0:0:
192,192,240029,1,0,0:0:0:0:
64,192,240029,1,0,0:0:0:0:
320,192,240115,1,0,0:0:0:0:
448,192,240115,1,0,0:0:0:0:
192,192,240285,128,0,240456:0:0:0:0:
64,192,240285,1,0,0:0:0:0:
448,192,240285,1,0,0:0:0:0:
320,192,240626,1,0,0:0:0:0:
448,192,240626,1,0,0:0:0:0:
192,192,240711,1,0,0:0:0:0:
64,192,240796,1,0,0:0:0:0:
320,192,240796,1,0,0:0:0:0:
448,192,240882,1,0,0:0:0:0:
192,192,240967,1,0,0:0:0:0:
64,192,240967,1,0,0:0:0:0:
320,192,241137,1,0,0:0:0:0:
448,192,241137,1,0,0:0:0:0:
64,192,241223,1,0,0:0:0:0:
192,192,241308,1,0,0:0:0:0:
320,192,241308,1,0,0:0:0:0:
448,192,241393,1,0,0:0:0:0:
192,192,241478,1,0,0:0:0:0:
64,192,241478,1,0,0:0:0:0:
320,192,241563,1,0,0:0:0:0:
448,192,241649,128,0,242501:0:0:0:0:
192,192,241649,128,0,242416:0:0:0:0:
64,192,241649,128,0,242331:0:0:0:0:
