osu file format v14

[General]
AudioFilename: audio.mp3
AudioLeadIn: 0
PreviewTime: 63198
Countdown: 1
SampleSet: None
StackLeniency: 0.7
Mode: 0
LetterboxInBreaks: 0
WidescreenStoryboard: 1

[Editor]
DistanceSpacing: 0.8
BeatDivisor: 4
GridSize: 4
TimelineZoom: 1.8

[Metadata]
Title:MELODY FLAG
TitleUnicode:MELODY FLAG
Artist:Inori Minase
ArtistUnicode:水瀬いのり
Creator:Cycopton
Version:hs
Source:
Tags:
BeatmapID:2158473
BeatmapSetID:1032233

[Difficulty]
HPDrainRate:5.2
CircleSize:3.8
OverallDifficulty:9.4
ApproachRate:9.4
SliderMultiplier:1.6
SliderTickRate:1

[Events]
//Background and Video events
0,0,"287694.jpg",0,0
//Break Periods
//Storyboard Layer 0 (Background)
//Storyboard Layer 1 (Fail)
//Storyboard Layer 2 (Pass)
//Storyboard Layer 3 (Foreground)
//Storyboard Layer 4 (Overlay)
//Storyboard Sound Samples

[TimingPoints]
891,329.67032967033,4,2,0,100,1,0
891,-125,4,2,0,100,0,0
4847,-71.4285714285714,4,2,0,100,0,0
5836,-66.6666666666667,4,2,0,100,0,0
6165,-74.0740740740741,4,2,0,100,0,0

[HitObjects]
233,114,891,1,2,0:0:0:0:
233,114,1055,1,2,0:0:0:0:
233,114,1220,1,2,0:0:0:0:
233,114,1385,1,2,0:0:0:0:
233,114,1715,1,2,0:0:0:0:
233,114,1879,1,2,0:0:0:0:
233,114,2044,1,2,0:0:0:0:
233,114,2209,1,2,0:0:0:0:
233,114,2374,1,2,0:0:0:0:
233,114,2538,1,2,0:0:0:0:
233,114,2703,1,2,0:0:0:0:
233,114,3033,1,2,0:0:0:0:
233,114,3527,1,2,0:0:0:0:
233,114,3692,1,2,0:0:0:0:
233,114,3856,1,2,0:0:0:0:
233,114,4021,1,2,0:0:0:0:
233,114,4352,1,2,0:0:0:0:
233,114,4516,1,2,0:0:0:0:
233,114,4681,1,2,0:0:0:0:
233,114,4846,1,2,0:0:0:0:
233,114,5011,1,2,0:0:0:0:
233,114,5175,1,2,0:0:0:0:
233,114,5340,1,2,0:0:0:0:
233,114,6165,1,2,0:0:0:0:
233,114,7484,1,2,0:0:0:0:
233,114,8143,1,2,0:0:0:0:
233,114,8803,1,2,0:0:0:0:
233,114,9462,1,2,0:0:0:0:
233,114,10121,1,2,0:0:0:0:
233,114,10781,1,2,0:0:0:0:
233,114,11440,1,2,0:0:0:0:
233,114,11605,1,2,0:0:0:0:
233,114,11934,1,2,0:0:0:0:
233,114,12264,1,2,0:0:0:0:
233,114,12594,1,2,0:0:0:0:
233,114,12923,1,2,0:0:0:0:
233,114,13253,1,2,0:0:0:0:
233,114,13583,1,2,0:0:0:0:
233,114,14077,1,2,0:0:0:0:
233,114,14242,1,2,0:0:0:0:
233,114,14407,1,2,0:0:0:0:
233,114,14572,1,2,0:0:0:0:
233,114,14901,1,2,0:0:0:0:
233,114,15231,1,2,0:0:0:0:
233,114,15561,1,2,0:0:0:0:
233,114,15891,1,2,0:0:0:0:
233,114,16220,1,2,0:0:0:0:
233,114,17044,1,2,0:0:0:0:
233,114,17374,1,2,0:0:0:0:
233,114,17539,1,2,0:0:0:0:
233,114,17869,1,2,0:0:0:0:
233,114,18363,1,2,0:0:0:0:
233,114,18693,1,2,0:0:0:0:
233,114,19022,1,2,0:0:0:0:
233,114,19352,1,2,0:0:0:0:
233,114,19682,1,2,0:0:0:0:
233,114,19847,1,2,0:0:0:0:
233,114,20176,1,2,0:0:0:0:
233,114,20506,1,2,0:0:0:0:
233,114,21165,1,2,0:0:0:0:
233,114,21330,1,2,0:0:0:0:
233,114,21495,1,2,0:0:0:0:
233,114,21660,1,2,0:0:0:0:
233,114,21825,1,2,0:0:0:0:
233,114,21989,1,2,0:0:0:0:
233,114,22319,1,2,0:0:0:0:
233,114,22484,1,2,0:0:0:0:
233,114,22814,1,2,0:0:0:0:
233,114,23143,1,2,0:0:0:0:
233,114,23638,1,2,0:0:0:0:
233,114,23967,1,2,0:0:0:0:
233,114,24297,1,2,0:0:0:0:
233,114,24627,1,2,0:0:0:0:
233,114,25121,1,2,0:0:0:0:
233,114,25781,1,2,0:0:0:0:
233,114,25945,1,2,0:0:0:0:
233,114,26110,1,2,0:0:0:0:
233,114,26275,1,2,0:0:0:0:
233,114,26440,1,2,0:0:0:0:
233,114,27594,1,2,0:0:0:0:
233,114,27759,1,2,0:0:0:0:
233,114,27923,1,2,0:0:0:0:
233,114,28088,1,2,0:0:0:0:
233,114,28418,1,2,0:0:0:0:
233,114,28912,1,2,0:0:0:0:
233,114,29242,1,2,0:0:0:0:
233,114,29572,1,2,0:0:0:0:
233,114,29901,1,2,0:0:0:0:
233,114,30231,1,2,0:0:0:0:
233,114,30396,1,2,0:0:0:0:
233,114,30726,1,2,0:0:0:0:
233,114,31055,1,2,0:0:0:0:
233,114,31715,1,2,0:0:0:0:
233,114,31880,1,2,0:0:0:0:
233,114,32044,1,2,0:0:0:0:
233,114,32209,1,2,0:0:0:0:
233,114,32374,1,2,0:0:0:0:
233,114,32539,1,2,0:0:0:0:
233,114,32869,1,2,0:0:0:0:
233,114,33033,1,2,0:0:0:0:
233,114,33363,1,2,0:0:0:0:
233,114,33693,1,2,0:0:0:0:
233,114,34187,1,2,0:0:0:0:
233,114,34517,1,2,0:0:0:0:
233,114,34847,1,2,0:0:0:0:
233,114,35176,1,2,0:0:0:0:
233,114,35671,1,2,0:0:0:0:
233,114,36330,1,2,0:0:0:0:
233,114,36495,1,2,0:0:0:0:
233,114,36660,1,2,0:0:0:0:
233,114,36825,1,2,0:0:0:0:
233,114,36989,1,2,0:0:0:0:
233,114,38143,1,2,0:0:0:0:
233,114,38308,1,2,0:0:0:0:
233,114,38473,1,2,0:0:0:0:
233,114,38638,1,2,0:0:0:0:
233,114,38967,1,2,0:0:0:0:
233,114,39297,1,2,0:0:0:0:
233,114,39627,1,2,0:0:0:0:
233,114,39956,1,2,0:0:0:0:
233,114,40781,1,2,0:0:0:0:
233,114,40945,1,2,0:0:0:0:
233,114,41110,1,2,0:0:0:0:
233,114,41275,1,2,0:0:0:0:
233,114,41605,1,2,0:0:0:0:
233,114,41934,1,2,0:0:0:0:
233,114,42264,1,2,0:0:0:0:
233,114,42594,1,2,0:0:0:0:
233,114,42923,1,2,0:0:0:0:
233,114,43088,1,2,0:0:0:0:
233,114,43418,1,2,0:0:0:0:
233,114,43583,1,2,0:0:0:0:
233,114,44242,1,2,0:0:0:0:
233,114,44407,1,2,0:0:0:0:
233,114,44737,1,2,0:0:0:0:
233,114,44901,1,2,0:0:0:0:
233,114,45231,1,2,0:0:0:0:
233,114,45561,1,2,0:0:0:0:
233,114,45726,1,2,0:0:0:0:
233,114,46055,1,2,0:0:0:0:
233,114,46220,1,2,0:0:0:0:
233,114,46550,1,2,0:0:0:0:
233,114,46880,1,2,0:0:0:0:
233,114,47704,1,2,0:0:0:0:
233,114,47869,1,2,0:0:0:0:
233,114,48033,1,2,0:0:0:0:
233,114,48198,1,2,0:0:0:0:
233,114,48363,1,2,0:0:0:0:
233,114,48693,1,2,0:0:0:0:
233,114,48858,1,2,0:0:0:0:
233,114,49187,1,2,0:0:0:0:
233,114,49517,1,2,0:0:0:0:
233,114,49682,1,2,0:0:0:0:
233,114,50341,1,2,0:0:0:0:
233,114,50671,1,2,0:0:0:0:
233,114,51000,1,2,0:0:0:0:
233,114,51330,1,2,0:0:0:0:
233,114,51495,1,2,0:0:0:0:
233,114,51825,1,2,0:0:0:0:
233,114,52154,1,2,0:0:0:0:
233,114,52319,1,2,0:0:0:0:
233,114,52978,1,2,0:0:0:0:
233,114,53308,1,2,0:0:0:0:
233,114,53638,1,2,0:0:0:0:
233,114,53967,1,2,0:0:0:0:
233,114,54132,1,2,0:0:0:0:
233,114,54462,1,2,0:0:0:0:
233,114,54792,1,2,0:0:0:0:
233,114,55121,1,2,0:0:0:0:
233,114,55451,1,2,0:0:0:0:
233,114,55781,1,2,0:0:0:0:
233,114,56110,1,2,0:0:0:0:
233,114,56275,1,2,0:0:0:0:
233,114,56934,1,2,0:0:0:0:
233,114,57264,1,2,0:0:0:0:
233,114,57594,1,2,0:0:0:0:
233,114,57923,1,2,0:0:0:0:
233,114,58088,1,2,0:0:0:0:
233,114,58418,1,2,0:0:0:0:
233,114,58748,1,2,0:0:0:0:
233,114,58912,1,2,0:0:0:0:
233,114,60891,1,2,0:0:0:0:
233,114,61220,1,2,0:0:0:0:
233,114,61550,1,2,0:0:0:0:
233,114,61715,1,2,0:0:0:0:
233,114,63198,1,2,0:0:0:0:
233,114,63528,1,2,0:0:0:0:
233,114,63858,1,2,0:0:0:0:
233,114,64187,1,2,0:0:0:0:
233,114,64682,1,2,0:0:0:0:
233,114,64847,1,2,0:0:0:0:
233,114,65011,1,2,0:0:0:0:
233,114,65836,1,2,0:0:0:0:
233,114,66165,1,2,0:0:0:0:
233,114,66495,1,2,0:0:0:0:
233,114,66825,1,2,0:0:0:0:
233,114,67319,1,2,0:0:0:0:
233,114,67484,1,2,0:0:0:0:
233,114,67649,1,2,0:0:0:0:
233,114,68473,1,2,0:0:0:0:
233,114,68803,1,2,0:0:0:0:
233,114,69132,1,2,0:0:0:0:
233,114,69462,1,2,0:0:0:0:
233,114,69792,1,2,0:0:0:0:
233,114,69956,1,2,0:0:0:0:
233,114,70286,1,2,0:0:0:0:
233,114,70616,1,2,0:0:0:0:
233,114,70945,1,2,0:0:0:0:
233,114,71275,1,2,0:0:0:0:
233,114,71440,1,2,0:0:0:0:
233,114,71934,1,2,0:0:0:0:
233,114,72099,1,2,0:0:0:0:
233,114,72429,1,2,0:0:0:0:
233,114,72594,1,2,0:0:0:0:
233,114,72923,1,2,0:0:0:0:
233,114,73253,1,2,0:0:0:0:
233,114,73747,1,2,0:0:0:0:
233,114,74077,1,2,0:0:0:0:
233,114,74407,1,2,0:0:0:0:
233,114,74736,1,2,0:0:0:0:
233,114,75231,1,2,0:0:0:0:
233,114,75396,1,2,0:0:0:0:
233,114,75560,1,2,0:0:0:0:
233,114,76385,1,2,0:0:0:0:
233,114,76714,1,2,0:0:0:0:
233,114,77044,1,2,0:0:0:0:
233,114,77374,1,2,0:0:0:0:
233,114,77868,1,2,0:0:0:0:
233,114,78033,1,2,0:0:0:0:
233,114,78198,1,2,0:0:0:0:
233,114,79022,1,2,0:0:0:0:
233,114,79352,1,2,0:0:0:0:
233,114,79681,1,2,0:0:0:0:
233,114,80011,1,2,0:0:0:0:
233,114,80341,1,2,0:0:0:0:
233,114,80505,1,2,0:0:0:0:
233,114,80835,1,2,0:0:0:0:
233,114,81165,1,2,0:0:0:0:
233,114,81494,1,2,0:0:0:0:
233,114,81824,1,2,0:0:0:0:
233,114,81989,1,2,0:0:0:0:
233,114,82483,1,2,0:0:0:0:
233,114,82648,1,2,0:0:0:0:
233,114,82978,1,2,0:0:0:0:
233,114,83143,1,2,0:0:0:0:
233,114,83472,1,2,0:0:0:0:
233,114,83802,1,2,0:0:0:0:
233,114,85616,1,2,0:0:0:0:
233,114,85781,1,2,0:0:0:0:
233,114,85945,1,2,0:0:0:0:
233,114,86110,1,2,0:0:0:0:
233,114,86441,1,2,0:0:0:0:
233,114,86606,1,2,0:0:0:0:
233,114,86934,1,2,0:0:0:0:
233,114,87264,1,2,0:0:0:0:
233,114,87594,1,2,0:0:0:0:
233,114,87923,1,2,0:0:0:0:
233,114,88253,1,2,0:0:0:0:
233,114,88583,1,2,0:0:0:0:
233,114,88912,1,2,0:0:0:0:
233,114,89242,1,2,0:0:0:0:
233,114,89407,1,2,0:0:0:0:
233,114,89572,1,2,0:0:0:0:
233,114,89737,1,2,0:0:0:0:
233,114,90396,1,2,0:0:0:0:
233,114,90561,1,2,0:0:0:0:
233,114,90890,1,2,0:0:0:0:
233,114,91055,1,2,0:0:0:0:
233,114,91715,1,2,0:0:0:0:
233,114,91880,1,2,0:0:0:0:
233,114,92209,1,2,0:0:0:0:
233,114,92374,1,2,0:0:0:0:
233,114,92704,1,2,0:0:0:0:
233,114,93033,1,2,0:0:0:0:
233,114,93198,1,2,0:0:0:0:
233,114,93363,1,2,0:0:0:0:
233,114,93858,1,2,0:0:0:0:
233,114,94022,1,2,0:0:0:0:
233,114,94187,1,2,0:0:0:0:
233,114,94352,1,2,0:0:0:0:
233,114,96165,1,2,0:0:0:0:
233,114,96495,1,2,0:0:0:0:
233,114,96825,1,2,0:0:0:0:
233,114,97154,1,2,0:0:0:0:
233,114,97649,1,2,0:0:0:0:
233,114,97814,1,2,0:0:0:0:
233,114,97978,1,2,0:0:0:0:
233,114,98803,1,2,0:0:0:0:
233,114,99132,1,2,0:0:0:0:
233,114,99462,1,2,0:0:0:0:
233,114,99792,1,2,0:0:0:0:
233,114,100286,1,2,0:0:0:0:
233,114,100451,1,2,0:0:0:0:
233,114,100616,1,2,0:0:0:0:
233,114,101934,1,2,0:0:0:0:
233,114,102099,1,2,0:0:0:0:
233,114,102264,1,2,0:0:0:0:
233,114,102429,1,2,0:0:0:0:
233,114,102594,1,2,0:0:0:0:
233,114,102923,1,2,0:0:0:0:
233,114,103253,1,2,0:0:0:0:
233,114,103583,1,2,0:0:0:0:
233,114,103912,1,2,0:0:0:0:
233,114,104077,1,2,0:0:0:0:
233,114,104407,1,2,0:0:0:0:
233,114,104572,1,2,0:0:0:0:
233,114,105066,1,2,0:0:0:0:
233,114,105396,1,2,0:0:0:0:
233,114,105478,1,2,0:0:0:0:
233,114,105561,1,2,0:0:0:0:
233,114,105643,1,2,0:0:0:0:
233,114,105726,1,2,0:0:0:0:
233,114,105808,1,2,0:0:0:0:
233,114,105891,1,2,0:0:0:0:
233,114,105973,1,2,0:0:0:0:
233,114,106055,1,2,0:0:0:0:
233,114,106138,1,2,0:0:0:0:
233,114,106220,1,2,0:0:0:0:
233,114,106303,1,2,0:0:0:0:
233,114,106385,1,2,0:0:0:0:
233,114,106714,1,2,0:0:0:0:
233,114,107044,1,2,0:0:0:0:
233,114,107374,1,2,0:0:0:0:
233,114,107703,1,2,0:0:0:0:
233,114,108198,1,2,0:0:0:0:
233,114,108363,1,2,0:0:0:0:
233,114,108527,1,2,0:0:0:0:
233,114,109352,1,2,0:0:0:0:
233,114,109681,1,2,0:0:0:0:
233,114,110011,1,2,0:0:0:0:
233,114,110341,1,2,0:0:0:0:
233,114,110835,1,2,0:0:0:0:
233,114,111000,1,2,0:0:0:0:
233,114,111165,1,2,0:0:0:0:
233,114,112978,1,2,0:0:0:0:
233,114,113309,1,2,0:0:0:0:
233,114,113391,1,2,0:0:0:0:
233,114,113474,1,2,0:0:0:0:
233,114,113556,1,2,0:0:0:0:
233,114,113639,1,2,0:0:0:0:
233,114,113721,1,2,0:0:0:0:
233,114,113804,1,2,0:0:0:0:
233,114,113886,1,2,0:0:0:0:
233,114,113968,1,2,0:0:0:0:
233,114,114051,1,2,0:0:0:0:
233,114,114133,1,2,0:0:0:0:
233,114,114216,1,2,0:0:0:0:
233,114,114298,1,2,0:0:0:0:
233,114,114380,1,2,0:0:0:0:
233,114,114462,1,2,0:0:0:0:
233,114,114545,1,2,0:0:0:0:
233,114,114627,1,2,0:0:0:0:
233,114,114710,1,2,0:0:0:0:
233,114,114792,1,2,0:0:0:0:
233,114,114875,1,2,0:0:0:0:
233,114,114957,1,2,0:0:0:0:
233,114,115039,1,2,0:0:0:0:
233,114,115122,1,2,0:0:0:0:
233,114,115204,1,2,0:0:0:0:
233,114,115287,1,2,0:0:0:0:
233,114,115369,1,2,0:0:0:0:
233,114,115451,1,2,0:0:0:0:
233,114,115616,1,2,0:0:0:0:
233,114,115945,1,2,0:0:0:0:
233,114,116028,1,2,0:0:0:0:
233,114,116110,1,2,0:0:0:0:
233,114,116193,1,2,0:0:0:0:
233,114,116275,1,2,0:0:0:0:
233,114,116358,1,2,0:0:0:0:
233,114,116440,1,2,0:0:0:0:
233,114,116522,1,2,0:0:0:0:
233,114,116605,1,2,0:0:0:0:
233,114,116687,1,2,0:0:0:0:
233,114,116770,1,2,0:0:0:0:
233,114,116852,1,2,0:0:0:0:
233,114,116934,1,2,0:0:0:0:
233,114,117264,1,2,0:0:0:0:
233,114,117429,1,2,0:0:0:0:
233,114,117594,1,2,0:0:0:0:
233,114,117676,1,2,0:0:0:0:
233,114,117759,1,2,0:0:0:0:
233,114,117841,1,2,0:0:0:0:
233,114,117923,1,2,0:0:0:0:
233,114,118006,1,2,0:0:0:0:
233,114,118088,1,2,0:0:0:0:
233,114,118171,1,2,0:0:0:0:
233,114,118253,1,2,0:0:0:0:
233,114,118417,1,2,0:0:0:0:
233,114,118582,1,2,0:0:0:0:
233,114,118747,1,2,0:0:0:0:
233,114,119077,1,2,0:0:0:0:
233,114,119241,1,2,0:0:0:0:
233,114,119406,1,2,0:0:0:0:
233,114,119571,1,2,0:0:0:0:
233,114,119736,1,2,0:0:0:0:
233,114,119900,1,2,0:0:0:0:
233,114,120065,1,2,0:0:0:0:
233,114,120395,1,2,0:0:0:0:
233,114,120889,1,2,0:0:0:0:
233,114,121054,1,2,0:0:0:0:
233,114,121218,1,2,0:0:0:0:
233,114,121383,1,2,0:0:0:0:
233,114,121714,1,2,0:0:0:0:
233,114,121878,1,2,0:0:0:0:
233,114,122043,1,2,0:0:0:0:
233,114,122208,1,2,0:0:0:0:
233,114,122374,1,2,0:0:0:0:
233,114,122539,1,2,0:0:0:0:
233,114,122704,1,2,0:0:0:0:
233,114,123033,1,2,0:0:0:0:
233,114,123363,1,2,0:0:0:0:
