osu file format v14

[General]
AudioFilename: audio.mp3
AudioLeadIn: 0
PreviewTime: 63198
Countdown: 1
SampleSet: Normal
StackLeniency: 0.7
Mode: 0
LetterboxInBreaks: 0
WidescreenStoryboard: 1

[Editor]
Bookmarks: 6165,16715,64187,97154,118253
DistanceSpacing: 0.8
BeatDivisor: 4
GridSize: 4
TimelineZoom: 2.1

[Metadata]
Title:MELODY FLAG
TitleUnicode:MELODY FLAG
Artist:Inori Minase
ArtistUnicode:水瀬いのり
Creator:Cycopton
Version:HARMONY
Source:
Tags:
BeatmapID:2158472
BeatmapSetID:1032233

[Difficulty]
HPDrainRate:5.2
CircleSize:3.8
OverallDifficulty:9.4
ApproachRate:9.4
SliderMultiplier:1.6
SliderTickRate:1

[Events]
//Background and Video events
0,0,"287694.jpg",0,0
//Break Periods
//Storyboard Layer 0 (Background)
//Storyboard Layer 1 (Fail)
//Storyboard Layer 2 (Pass)
//Storyboard Layer 3 (Foreground)
//Storyboard Layer 4 (Overlay)
//Storyboard Sound Samples

[TimingPoints]
891,329.67032967033,4,1,0,100,1,0
891,-125,4,1,0,100,0,0
4847,-71.4285714285714,4,1,0,100,0,0
5836,-66.6666666666667,4,1,0,100,0,0
6165,-74.0740740740741,4,1,0,100,0,0
16715,-100,4,1,0,100,0,0
24627,-86.9565217391304,4,1,0,100,0,0
27264,-100,4,1,0,100,0,0
35176,-86.9565217391304,4,1,0,100,0,0
37814,-105.263157894737,4,1,0,100,0,0
43088,-90.9090909090909,4,1,0,100,0,0
48363,-105.263157894737,4,1,0,100,0,0
53638,-125,4,1,0,100,0,0
58253,-100,4,1,0,100,0,0
58912,-76.9230769230769,4,1,0,100,0,0
63198,-133.333333333333,4,1,0,100,0,0
64187,-74.0740740740741,4,1,0,100,0,1

[HitObjects]
126,96,891,6,0,P|172:95|214:107,1,64
290,191,1220,1,0,0:0:0:0:
290,191,1385,2,0,P|295:116|302:56,1,128
361,5,1880,2,0,P|394:11|433:16,1,64
502,111,2209,6,0,P|499:165|486:198,1,64
434,249,2539,1,0,0:0:0:0:
434,249,2704,2,0,P|366:301|369:365,1,128
208,69,3363,1,0,0:0:0:0:
225,157,3528,6,0,P|191:157|147:160,1,64
104,237,3858,1,0,0:0:0:0:
104,237,4022,2,0,P|63:162|72:117,1,128
144,67,4517,2,0,P|177:67|222:70,1,64
386,260,4847,5,0,0:0:0:0:
397,165,5011,1,0,0:0:0:0:
410,255,5176,5,0,0:0:0:0:
379,154,5340,1,0,0:0:0:0:
332,348,5506,1,0,0:0:0:0:
461,92,5671,1,0,0:0:0:0:
441,72,5753,1,0,0:0:0:0:
416,64,5836,2,0,B|296:73|369:0|255:4,1,180.000006866455
205,164,6165,6,0,P|288:71|239:10,1,216.000000823975
61,180,6660,1,0,0:0:0:0:
61,180,6825,2,0,P|55:122|49:70,1,108.000000411987
184,280,7154,2,0,P|189:222|196:170,1,108.000000411987
386,170,7484,6,0,P|274:214|202:158,1,216.000000823975
67,44,7978,1,0,0:0:0:0:
67,44,8143,2,0,P|129:34|185:25,1,108.000000411987
111,223,8473,2,0,P|97:139|105:111,1,108.000000411987
419,142,8803,6,0,P|306:153|191:164,1,216.000000823975
417,257,9297,1,0,0:0:0:0:
417,257,9462,2,0,P|433:193|424:136,1,108.000000411987
337,12,9792,2,0,P|321:76|330:133,1,108.000000411987
510,265,10121,6,0,P|406:204|316:227,1,216.000000823975
194,377,10616,1,0,0:0:0:0:
151,141,10781,1,0,0:0:0:0:
238,259,10945,1,0,0:0:0:0:
64,322,11110,1,0,0:0:0:0:
54,332,11440,5,0,0:0:0:0:
133,59,11605,1,0,0:0:0:0:
228,249,11770,1,0,0:0:0:0:
63,106,11934,2,0,P|150:97|238:91,1,162.000000617981
261,17,12264,2,0,P|258:85|340:140,1,162.000000617981
398,167,12594,6,0,B|290:161|356:236|252:221,1,162.000000617981
193,247,12923,2,0,B|301:241|235:316|339:301,1,162.000000617981
424,333,13253,2,0,P|334:335|245:343,1,162.000000617981
252,351,13583,1,0,0:0:0:0:
86,190,13748,1,0,0:0:0:0:
118,375,13912,1,0,0:0:0:0:
259,129,14077,5,0,0:0:0:0:
41,88,14242,1,0,0:0:0:0:
201,13,14407,1,0,0:0:0:0:
195,185,14572,2,0,P|301:203|337:167,1,162.000000617981
380,107,14901,2,0,L|372:279,1,162.000000617981
386,349,15231,6,0,B|288:354|333:291|236:301,1,162.000000617981
194,366,15561,2,0,P|171:269|95:276,1,162.000000617981
93,295,15891,2,0,P|90:195|85:102,1,162.000000617981
77,123,16220,1,0,0:0:0:0:
338,87,16385,1,0,0:0:0:0:
187,20,16550,1,0,0:0:0:0:
222,205,16715,6,0,P|305:202|389:202,1,160
370,290,17209,1,0,0:0:0:0:
370,290,17374,2,0,P|365:245|375:201,1,80
456,305,17704,2,0,P|461:350|451:394,1,80
291,159,18033,6,0,P|371:116|451:164,1,160
193,234,18528,1,0,0:0:0:0:
193,234,18693,2,0,P|186:184|180:140,1,80
274,335,19022,2,0,P|280:285|287:241,1,80
93,100,19352,6,0,P|88:182|86:267,1,160
235,231,19847,2,0,P|123:222|84:276,2,160
351,322,20588,1,0,0:0:0:0:
351,322,20671,2,0,P|346:240|366:158,1,160
382,57,21165,5,0,0:0:0:0:
382,57,21330,2,0,P|326:69|299:76,1,80
147,35,21660,2,0,P|203:23|230:16,1,80
177,186,21989,6,0,P|126:91|142:34,1,160
87,199,22484,2,0,P|137:195|179:196,1,80
78,366,22814,2,0,P|49:324|29:287,1,80
243,137,23143,2,0,P|254:231|210:278,1,160
197,66,23638,2,0,P|252:54|286:64,1,80
166,195,23967,2,0,P|128:153|119:118,1,80
293,157,24297,2,0,P|275:210|250:235,1,80
99,336,24627,5,0,0:0:0:0:
165,111,24792,1,0,0:0:0:0:
255,288,24956,1,0,0:0:0:0:
77,110,25121,2,0,P|142:26|215:42,1,184.000003509522
276,161,25616,1,0,0:0:0:0:
170,318,25781,5,0,0:0:0:0:
199,66,25945,1,0,0:0:0:0:
360,295,26110,1,0,0:0:0:0:
114,178,26275,1,0,0:0:0:0:
398,90,26440,2,0,P|469:93|419:158,1,184.000003509522
275,196,26934,5,0,0:0:0:0:
276,161,27016,1,0,0:0:0:0:
277,127,27098,1,0,0:0:0:0:
279,92,27181,1,0,0:0:0:0:
280,58,27264,6,0,P|237:9|144:21,1,160
71,151,27759,1,0,0:0:0:0:
71,151,27923,2,0,P|63:102|68:66,1,80
172,212,28253,2,0,P|180:261|175:297,1,80
94,349,28583,6,0,P|182:316|241:345,1,160
359,370,29077,1,0,0:0:0:0:
359,370,29242,2,0,P|356:323|351:283,1,80
266,94,29572,2,0,P|263:140|258:181,1,80
184,214,29901,6,0,P|267:207|359:203,1,160
399,129,30396,2,0,P|379:213|442:254,2,160
423,39,31220,2,0,B|333:33|363:90|255:78,1,160
112,106,31715,5,0,0:0:0:0:
149,24,31880,1,0,0:0:0:0:
243,209,32044,1,0,0:0:0:0:
206,127,32209,1,0,0:0:0:0:
112,312,32374,1,0,0:0:0:0:
149,230,32539,6,0,P|174:189|290:170,1,160
321,87,33033,2,0,P|286:141|291:180,1,80
434,189,33363,2,0,P|380:154|341:159,1,80
299,367,33693,6,0,B|296:274|373:340|370:213,1,160
90,325,34187,2,0,P|74:281|60:244,1,80
124,187,34517,2,0,P|144:145|159:109,1,80
245,114,34847,2,0,P|288:98|325:84,1,80
266,311,35176,5,0,0:0:0:0:
157,114,35341,1,0,0:0:0:0:
128,357,35506,1,0,0:0:0:0:
320,86,35671,2,0,P|383:32|483:43,1,184.000003509522
462,311,36165,1,0,0:0:0:0:
308,173,36330,5,0,0:0:0:0:
322,352,36495,1,0,0:0:0:0:
421,138,36660,1,0,0:0:0:0:
217,355,36825,1,0,0:0:0:0:
196,129,36989,2,0,P|110:77|50:122,1,184.000003509522
201,277,37484,5,0,0:0:0:0:
202,242,37566,1,0,0:0:0:0:
203,208,37648,1,0,0:0:0:0:
204,173,37731,1,0,0:0:0:0:
206,139,37814,6,0,P|288:124|365:116,1,151.999995941162
381,271,38308,2,0,P|366:217|368:178,1,75.9999979705811
465,336,38638,2,0,P|480:282|478:243,1,75.9999979705811
315,337,38967,6,0,B|221:335|280:266|184:265,1,151.999995941162
100,319,39462,1,0,0:0:0:0:
100,319,39627,2,0,P|147:229|110:176,1,151.999995941162
43,180,40121,2,0,P|85:182|126:181,1,75.9999979705811
187,0,40451,6,0,P|106:39|89:104,1,151.999995941162
259,105,40945,2,0,P|219:97|176:88,1,75.9999979705811
352,194,41275,2,0,P|312:201|269:211,1,75.9999979705811
310,307,41605,6,0,P|252:242|184:259,1,151.999995941162
83,328,42099,1,0,0:0:0:0:
83,328,42264,2,0,P|87:250|95:172,1,151.999995941162
179,150,42759,2,0,P|140:163|104:166,1,75.9999979705811
186,50,43088,6,0,B|300:43|224:119|344:118,1,176.000005371094
465,84,43583,2,0,P|421:182|464:243,1,176.000005371094
274,286,44077,1,0,0:0:0:0:
352,202,44242,1,0,0:0:0:0:
367,361,44407,6,0,P|276:343|172:329,1,176.000005371094
96,188,44901,2,0,P|62:268|88:351,1,176.000005371094
288,137,45396,1,0,0:0:0:0:
168,218,45561,1,0,0:0:0:0:
370,203,45726,6,0,P|384:96|337:43,1,176.000005371094
191,129,46220,2,0,B|84:144|155:57|36:71,2,176.000005371094
120,254,47044,1,0,0:0:0:0:
201,139,47209,1,0,0:0:0:0:
248,302,47374,2,0,P|303:318|347:302,1,88.000002685547
341,300,47621,1,0,0:0:0:0:
341,300,47704,1,0,0:0:0:0:
444,234,47869,1,0,0:0:0:0:
372,150,48033,1,0,0:0:0:0:
354,67,48198,1,0,0:0:0:0:
274,89,48363,6,0,P|214:104|130:66,1,151.999995941162
134,211,48858,2,0,P|128:126|122:52,2,151.999995941162
66,260,49682,2,0,P|119:248|165:251,1,75.9999979705811
150,257,50011,1,0,0:0:0:0:
150,257,50341,1,0,0:0:0:0:
232,158,50506,1,0,0:0:0:0:
252,344,50671,2,0,P|305:349|334:338,1,75.9999979705811
370,163,51000,6,0,P|297:206|297:299,1,151.999995941162
452,160,51495,2,0,B|450:72|373:120|378:11,2,151.999995941162
384,260,52319,2,0,P|383:303|387:345,1,75.9999979705811
395,345,52649,1,0,0:0:0:0:
395,345,52978,1,0,0:0:0:0:
234,366,53143,1,0,0:0:0:0:
295,221,53308,2,0,P|301:177|281:137,1,75.9999979705811
100,168,53638,6,0,P|169:180|239:189,1,128
332,111,54132,2,0,P|283:119|234:188,2,128
474,230,54956,2,0,B|399:224|446:291|348:287,1,128
268,220,55451,1,0,0:0:0:0:
175,352,55616,1,0,0:0:0:0:
212,122,55781,1,0,0:0:0:0:
58,240,55945,1,0,0:0:0:0:
249,24,56110,1,0,0:0:0:0:
16,21,56275,5,0,0:0:0:0:
26,31,56934,1,0,0:0:0:0:
36,41,57594,1,0,0:0:0:0:
46,51,58253,2,0,P|39:86|43:115,1,40
132,273,58418,2,0,P|139:238|135:209,1,40
80,167,58583,2,0,P|176:173|193:155,1,120
197,153,58912,6,0,P|202:95|206:37,1,103.999995239258
299,300,59242,1,0,0:0:0:0:
472,115,59407,2,0,P|404:99|354:118,1,103.999995239258
479,280,59737,1,0,0:0:0:0:
292,44,59901,2,0,P|288:100|282:156,1,103.999995239258
376,271,60231,6,0,P|324:223|285:220,1,103.999995239258
122,304,60561,1,0,0:0:0:0:
205,49,60726,2,0,P|188:98|174:157,1,103.999995239258
211,351,61055,1,0,0:0:0:0:
93,125,61220,2,0,P|104:196|141:227,1,103.999995239258
286,272,61550,5,0,0:0:0:0:
188,60,61715,1,0,0:0:0:0:
118,335,61880,1,0,0:0:0:0:
351,81,62044,1,0,0:0:0:0:
351,81,62374,1,0,0:0:0:0:
93,125,62539,1,0,0:0:0:0:
294,330,62704,2,0,P|402:308|414:221,1,207.999990478516
442,144,63198,6,0,B|382:120|382:168|322:144,1,120.000004577637
258,186,63693,1,0,0:0:0:0:
258,186,63775,1,0,0:0:0:0:
258,186,63858,2,0,P|247:137|253:109,1,60.0000022888184
311,29,64187,6,0,P|250:93|136:56,1,216.000000823975
93,167,64682,1,0,0:0:0:0:
93,167,64847,2,0,P|129:103|125:54,1,108.000000411987
257,263,65176,1,0,0:0:0:0:
123,253,65341,1,0,0:0:0:0:
283,358,65506,6,0,P|334:323|352:268,1,108.000000411987
194,174,65836,2,0,P|159:223|128:273,1,108.000000411987
360,272,66165,2,0,P|335:219|307:167,1,108.000000411987
193,366,66495,2,0,P|251:372|311:374,1,108.000000411987
345,85,66825,6,0,B|192:71|284:152|143:139,1,216.000000823975
80,187,67319,1,0,0:0:0:0:
80,187,67484,2,0,P|104:123|91:76,1,108.000000411987
244,215,67814,2,0,P|176:226|142:260,1,108.000000411987
361,284,68143,6,0,P|364:226|369:173,1,108.000000411987
390,37,68473,1,0,0:0:0:0:
285,150,68638,1,0,0:0:0:0:
232,4,68803,1,0,0:0:0:0:
203,204,68967,1,0,0:0:0:0:
72,20,69132,1,0,0:0:0:0:
157,286,69297,1,0,0:0:0:0:
