osu file format v14

[General]
AudioFilename: MELODY FLAG.mp3
AudioLeadIn: 0
PreviewTime: 63114
Countdown: 0
SampleSet: Soft
StackLeniency: 0.7
Mode: 0
LetterboxInBreaks: 0
EpilepsyWarning: 1
WidescreenStoryboard: 1

[Editor]
DistanceSpacing: 1.3
BeatDivisor: 4
GridSize: 4
TimelineZoom: 1

[Metadata]
Title:MELODY FLAG
TitleUnicode:MELODY FLAG
Artist:Inori Minase
ArtistUnicode:水瀬いのり
Creator:Chirony
Version:Insane
Source:水瀬いのり MELODY FLAG
Tags:中野領太 ryota nakano
BeatmapID:1294194
BeatmapSetID:613403

[Difficulty]
HPDrainRate:6
CircleSize:4
OverallDifficulty:7
ApproachRate:9
SliderMultiplier:1.7
SliderTickRate:1

[Events]
//Background and Video events
0,0,"BG.jpg",0,0
//Break Periods
2,95971,107038
2,197968,207929
//Storyboard Layer 0 (Background)
//Storyboard Layer 1 (Fail)
//Storyboard Layer 2 (Pass)
//Storyboard Layer 3 (Foreground)
Sprite,Foreground,Centre,"SB\ring.png",428,254 F,2,213792,214197,1,0 S,7,213792,214197,0.3,0.8 C,0,213792,214197,128,255,255 P,0,213792,214197,A
Sprite,Foreground,Centre,"SB\ring.png",520,254 F,2,213957,214362,1,0 S,7,213957,214362,0.3,0.8 C,0,213957,214362,128,255,255 P,0,213957,214362,A
Sprite,Foreground,Centre,"SB\ring.png",472,334 F,2,214121,214526,1,0 S,7,214121,214526,0.3,0.8 C,0,214121,214526,128,255,255 P,0,214121,214526,A
Sprite,Foreground,Centre,"SB\ring.png",536,230 F,2,214286,214691,1,0 S,7,214286,214691,0.3,0.8 C,0,214286,214691,128,255,255 P,0,214286,214691,A
Sprite,Foreground,Centre,"SB\ring.png",392,246 F,2,214451,214856,1,0 S,7,214451,214856,0.3,0.8 C,0,214451,214856,128,255,255 P,0,214451,214856,A
Sprite,Foreground,Centre,"SB\ring.png",478,362 F,2,214616,215021,1,0 S,7,214616,215021,0.3,0.8 C,0,214616,215021,128,255,255 P,0,214616,215021,A
Sprite,Foreground,Centre,"SB\ring.png",460,180 F,2,214781,215186,1,0 S,7,214781,215186,0.3,0.8 C,0,214781,215186,128,255,255 P,0,214781,215186,A
Sprite,Foreground,Centre,"SB\ring.png",312,287 F,2,214946,215351,1,0 S,7,214946,215351,0.3,0.8 C,0,214946,215351,128,255,255 P,0,214946,215351,A
Sprite,Foreground,Centre,"SB\ring.png",478,362 F,2,215110,215515,1,0 S,7,215110,215515,0.3,0.8 C,0,215110,215515,87,133,255 P,0,215110,215515,A
Sprite,Foreground,Centre,"SB\ring.png",392,246 F,2,215275,215680,1,0 S,7,215275,215680,0.3,0.8 C,0,215275,215680,87,133,255 P,0,215275,215680,A
Sprite,Foreground,Centre,"SB\ring.png",491,145 F,2,215440,215845,1,0 S,7,215440,215845,0.3,0.8 C,0,215440,215845,87,133,255 P,0,215440,215845,A
Sprite,Foreground,Centre,"SB\ring.png",349,93 F,2,215605,216010,1,0 S,7,215605,216010,0.3,0.8 C,0,215605,216010,87,133,255 P,0,215605,216010,A
Sprite,Foreground,Centre,"SB\ring.png",375,242 F,2,215770,216175,1,0 S,7,215770,216175,0.3,0.8 C,0,215770,216175,87,133,255 P,0,215770,216175,A
Sprite,Foreground,Centre,"SB\ring.png",491,145 F,2,215935,216340,1,0 S,7,215935,216340,0.3,0.8 C,0,215935,216340,87,133,255 P,0,215935,216340,A
Sprite,Foreground,Centre,"SB\ring.png",321,81 F,2,216099,216504,1,0 S,7,216099,216504,0.3,0.8 C,0,216099,216504,87,133,255 P,0,216099,216504,A
Sprite,Foreground,Centre,"SB\ring.png",287,363 F,2,216429,216834,1,0 S,7,216429,216834,0.3,0.8 C,0,216429,216834,255,189,255 P,0,216429,216834,A
Sprite,Foreground,Centre,"SB\star01.png",320,240 M,22,216429,217134,287,363,319,272 F,3,216429,217134,1,0 S,9,216429,217134,0.27,0 R,0,216429,217134,3,1 C,0,216429,217134,255,189,255 P,0,216429,217134,A
Sprite,Foreground,Centre,"SB\star01.png",320,240 M,22,216429,217134,287,363,348,209 F,3,216429,217134,1,0 S,9,216429,217134,0.11,0 R,0,216429,217134,1,0 C,0,216429,217134,255,189,255 P,0,216429,217134,A
Sprite,Foreground,Centre,"SB\star02.png",320,240 M,22,216429,217134,287,363,274,274 F,3,216429,217134,1,0 S,9,216429,217134,0.3,0 R,0,216429,217134,6,2 C,0,216429,217134,255,189,255 P,0,216429,217134,A
Sprite,Foreground,Centre,"SB\star01.png",320,240 M,22,216429,217134,287,363,341,392 F,3,216429,217134,1,0 S,9,216429,217134,0.1,0 R,0,216429,217134,3,2 C,0,216429,217134,255,189,255 P,0,216429,217134,A
Sprite,Foreground,Centre,"SB\star02.png",320,240 M,22,216429,217134,287,363,245,451 F,3,216429,217134,1,0 S,9,216429,217134,0.05,0 R,0,216429,217134,0,2 C,0,216429,217134,255,189,255 P,0,216429,217134,A
Sprite,Foreground,Centre,"SB\star01.png",320,240 M,22,216429,217134,287,363,356,235 F,3,216429,217134,1,0 S,9,216429,217134,0.18,0 R,0,216429,217134,3,1 C,0,216429,217134,255,189,255 P,0,216429,217134,A
Sprite,Foreground,Centre,"SB\star01.png",320,240 M,22,216429,217134,287,363,194,500 F,3,216429,217134,1,0 S,9,216429,217134,0.17,0 R,0,216429,217134,5,2 C,0,216429,217134,255,189,255 P,0,216429,217134,A
Sprite,Foreground,Centre,"SB\star01.png",320,240 M,22,216429,217134,287,363,153,348 F,3,216429,217134,1,0 S,9,216429,217134,0.29,0 R,0,216429,217134,5,1 C,0,216429,217134,255,189,255 P,0,216429,217134,A
Sprite,Foreground,Centre,"SB\star02.png",320,240 M,22,216429,217134,287,363,373,390 F,3,216429,217134,1,0 S,9,216429,217134,0.09,0 R,0,216429,217134,1,0 C,0,216429,217134,255,189,255 P,0,216429,217134,A
Sprite,Foreground,Centre,"SB\star02.png",320,240 M,22,216429,217134,287,363,201,351 F,3,216429,217134,1,0 S,9,216429,217134,0.31,0 R,0,216429,217134,0,1 C,0,216429,217134,255,189,255 P,0,216429,217134,A
Sprite,Foreground,Centre,"SB\star01.png",320,240 M,22,216429,217134,287,363,236,423 F,3,216429,217134,1,0 S,9,216429,217134,0.36,0 R,0,216429,217134,2 C,0,216429,217134,255,189,255 P,0,216429,217134,A
Sprite,Foreground,Centre,"SB\star01.png",320,240 M,22,216429,217134,287,363,373,460 F,3,216429,217134,1,0 S,9,216429,217134,0.27,0 R,0,216429,217134,1,2 C,0,216429,217134,255,189,255 P,0,216429,217134,A
Sprite,Foreground,Centre,"SB\star02.png",320,240 M,22,216429,217134,287,363,224,405 F,3,216429,217134,1,0 S,9,216429,217134,0.36,0 R,0,216429,217134,0 C,0,216429,217134,255,189,255 P,0,216429,217134,A
Sprite,Foreground,Centre,"SB\star02.png",320,240 M,22,216429,217134,287,363,366,361 F,3,216429,217134,1,0 S,9,216429,217134,0.15,0 R,0,216429,217134,3,2 C,0,216429,217134,255,189,255 P,0,216429,217134,A
Sprite,Foreground,Centre,"SB\star02.png",320,240 M,22,216429,217134,287,363,211,384 F,3,216429,217134,1,0 S,9,216429,217134,0.05,0 R,0,216429,217134,5,1 C,0,216429,217134,255,189,255 P,0,216429,217134,A
Sprite,Foreground,Centre,"SB\star02.png",320,240 M,22,216429,217134,287,363,315,512 F,3,216429,217134,1,0 S,9,216429,217134,0.12,0 R,0,216429,217134,4,2 C,0,216429,217134,255,189,255 P,0,216429,217134,A
Sprite,Foreground,Centre,"SB\star02.png",320,240 M,22,216429,217134,287,363,204,309 F,3,216429,217134,1,0 S,9,216429,217134,0.38,0 R,0,216429,217134,1 C,0,216429,217134,255,189,255 P,0,216429,217134,A
Sprite,Foreground,Centre,"SB\star02.png",320,240 M,22,216429,217134,287,363,384,427 F,3,216429,217134,1,0 S,9,216429,217134,0.08,0 R,0,216429,217134,1 C,0,216429,217134,255,189,255 P,0,216429,217134,A
Sprite,Foreground,Centre,"SB\star02.png",320,240 M,22,216429,217134,287,363,187,448 F,3,216429,217134,1,0 S,9,216429,217134,0.3,0 R,0,216429,217134,6,0 C,0,216429,217134,255,189,255 P,0,216429,217134,A
Sprite,Foreground,Centre,"SB\star01.png",320,240 M,22,216429,217134,287,363,242,263 F,3,216429,217134,1,0 S,9,216429,217134,0.13,0 R,0,216429,217134,1 C,0,216429,217134,255,189,255 P,0,216429,217134,A
Sprite,Foreground,Centre,"SB\star02.png",320,240 M,22,216429,217134,287,363,176,384 F,3,216429,217134,1,0 S,9,216429,217134,0.1,0 R,0,216429,217134,4,0 C,0,216429,217134,255,189,255 P,0,216429,217134,A
Sprite,Foreground,Centre,"SB\star01.png",320,240 M,22,216429,217134,287,363,143,275 F,3,216429,217134,1,0 S,9,216429,217134,0.08,0 R,0,216429,217134,1,0 C,0,216429,217134,255,189,255 P,0,216429,217134,A
Sprite,Foreground,Centre,"SB\star02.png",320,240 M,22,216429,217134,287,363,354,401 F,3,216429,217134,1,0 S,9,216429,217134,0.2,0 R,0,216429,217134,3,0 C,0,216429,217134,255,189,255 P,0,216429,217134,A
Sprite,Foreground,Centre,"SB\star01.png",320,240 M,22,216429,217134,287,363,215,366 F,3,216429,217134,1,0 S,9,216429,217134,0.09,0 R,0,216429,217134,3 C,0,216429,217134,255,189,255 P,0,216429,217134,A
Sprite,Foreground,Centre,"SB\star02.png",320,240 M,22,216429,217134,287,363,433,353 F,3,216429,217134,1,0 S,9,216429,217134,0.27,0 R,0,216429,217134,1 C,0,216429,217134,255,189,255 P,0,216429,217134,A
Sprite,Foreground,Centre,"SB\star02.png",320,240 M,22,216429,217134,287,363,233,330 F,3,216429,217134,1,0 S,9,216429,217134,0.23,0 R,0,216429,217134,5,0 C,0,216429,217134,255,189,255 P,0,216429,217134,A
Sprite,Foreground,Centre,"SB\star02.png",320,240 M,22,216429,217134,287,363,171,355 F,3,216429,217134,1,0 S,9,216429,217134,0.29,0 R,0,216429,217134,5,0 C,0,216429,217134,255,189,255 P,0,216429,217134,A
Sprite,Foreground,Centre,"SB\star02.png",320,240 M,22,216429,217134,287,363,329,407 F,3,216429,217134,1,0 S,9,216429,217134,0.06,0 R,0,216429,217134,5,2 C,0,216429,217134,255,189,255 P,0,216429,217134,A
Sprite,Foreground,Centre,"SB\star02.png",320,240 M,22,216429,217134,287,363,342,312 F,3,216429,217134,1,0 S,9,216429,217134,0.25,0 R,0,216429,217134,4,0 C,0,216429,217134,255,189,255 P,0,216429,217134,A
Sprite,Foreground,Centre,"SB\star02.png",320,240 M,22,216429,217134,287,363,271,206 F,3,216429,217134,1,0 S,9,216429,217134,0.25,0 R,0,216429,217134,4,0 C,0,216429,217134,255,189,255 P,0,216429,217134,A
Sprite,Foreground,Centre,"SB\ring.png",487,310 F,2,216759,217164,1,0 S,7,216759,217164,0.3,0.8 C,0,216759,217164,255,189,255 P,0,216759,217164,A
Sprite,Foreground,Centre,"SB\star02.png",320,240 M,22,216759,217464,487,310,428,365 F,3,216759,217464,1,0 S,9,216759,217464,0.33,0 R,0,216759,217464,5,1 C,0,216759,217464,255,189,255 P,0,216759,217464,A
Sprite,Foreground,Centre,"SB\star02.png",320,240 M,22,216759,217464,487,310,570,213 F,3,216759,217464,1,0 S,9,216759,217464,0.23,0 R,0,216759,217464,1,2 C,0,216759,217464,255,189,255 P,0,216759,217464,A
Sprite,Foreground,Centre,"SB\star01.png",320,240 M,22,216759,217464,487,310,570,343 F,3,216759,217464,1,0 S,9,216759,217464,0.34,0 R,0,216759,217464,4,2 C,0,216759,217464,255,189,255 P,0,216759,217464,A
Sprite,Foreground,Centre,"SB\star02.png",320,240 M,22,216759,217464,487,310,339,229 F,3,216759,217464,1,0 S,9,216759,217464,0.23,0 R,0,216759,217464,5,1 C,0,216759,217464,255,189,255 P,0,216759,217464,A
Sprite,Foreground,Centre,"SB\star02.png",320,240 M,22,216759,217464,487,310,414,203 F,3,216759,217464,1,0 S,9,216759,217464,0.21,0 R,0,216759,217464,5,1 C,0,216759,217464,255,189,255 P,0,216759,217464,A
Sprite,Foreground,Centre,"SB\star01.png",320,240 M,22,216759,217464,487,310,444,410 F,3,216759,217464,1,0 S,9,216759,217464,0.08,0 R,0,216759,217464,3,1 C,0,216759,217464,255,189,255 P,0,216759,217464,A
Sprite,Foreground,Centre,"SB\star02.png",320,240 M,22,216759,217464,487,310,460,208 F,3,216759,217464,1,0 S,9,216759,217464,0.39,0 R,0,216759,217464,0,2 C,0,216759,217464,255,189,255 P,0,216759,217464,A
Sprite,Foreground,Centre,"SB\star02.png",320,240 M,22,216759,217464,487,310,571,236 F,3,216759,217464,1,0 S,9,216759,217464,0.33,0 R,0,216759,217464,0 C,0,216759,217464,255,189,255 P,0,216759,217464,A
Sprite,Foreground,Centre,"SB\star02.png",320,240 M,22,216759,217464,487,310,498,195 F,3,216759,217464,1,0 S,9,216759,217464,0.27,0 R,0,216759,217464,0,3 C,0,216759,217464,255,189,255 P,0,216759,217464,A
Sprite,Foreground,Centre,"SB\star01.png",320,240 M,22,216759,217464,487,310,522,383 F,3,216759,217464,1,0 S,9,216759,217464,0.29,0 R,0,216759,217464,2,0 C,0,216759,217464,255,189,255 P,0,216759,217464,A
Sprite,Foreground,Centre,"SB\star01.png",320,240 M,22,216759,217464,487,310,527,371 F,3,216759,217464,1,0 S,9,216759,217464,0.16,0 R,0,216759,217464,4,1 C,0,216759,217464,255,189,255 P,0,216759,217464,A
Sprite,Foreground,Centre,"SB\star01.png",320,240 M,22,216759,217464,487,310,528,359 F,3,216759,217464,1,0 S,9,216759,217464,0.2,0 R,0,216759,217464,5,2 C,0,216759,217464,255,189,255 P,0,216759,217464,A
Sprite,Foreground,Centre,"SB\star01.png",320,240 M,22,216759,217464,487,310,558,324 F,3,216759,217464,1,0 S,9,216759,217464,0.14,0 R,0,216759,217464,5,1 C,0,216759,217464,255,189,255 P,0,216759,217464,A
Sprite,Foreground,Centre,"SB\star01.png",320,240 M,22,216759,217464,487,310,413,321 F,3,216759,217464,1,0 S,9,216759,217464,0.3,0 R,0,216759,217464,5,3 C,0,216759,217464,255,189,255 P,0,216759,217464,A
Sprite,Foreground,Centre,"SB\star01.png",320,240 M,22,216759,217464,487,310,620,403 F,3,216759,217464,1,0 S,9,216759,217464,0.16,0 R,0,216759,217464,5,1 C,0,216759,217464,255,189,255 P,0,216759,217464,A
Sprite,Foreground,Centre,"SB\star01.png",320,240 M,22,216759,217464,487,310,521,218 F,3,216759,217464,1,0 S,9,216759,217464,0.07,0 R,0,216759,217464,5,1 C,0,216759,217464,255,189,255 P,0,216759,217464,A
Sprite,Foreground,Centre,"SB\star01.png",320,240 M,22,216759,217464,487,310,615,323 F,3,216759,217464,1,0 S,9,216759,217464,0.22,0 R,0,216759,217464,3,0 C,0,216759,217464,255,189,255 P,0,216759,217464,A
Sprite,Foreground,Centre,"SB\star02.png",320,240 M,22,216759,217464,487,310,430,251 F,3,216759,217464,1,0 S,9,216759,217464,0.09,0 R,0,216759,217464,1,0 C,0,216759,217464,255,189,255 P,0,216759,217464,A
Sprite,Foreground,Centre,"SB\star01.png",320,240 M,22,216759,217464,487,310,549,182 F,3,216759,217464,1,0 S,9,216759,217464,0.07,0 R,0,216759,217464,1 C,0,216759,217464,255,189,255 P,0,216759,217464,A
Sprite,Foreground,Centre,"SB\star01.png",320,240 M,22,216759,217464,487,310,644,268 F,3,216759,217464,1,0 S,9,216759,217464,0.27,0 R,0,216759,217464,3,0 C,0,216759,217464,255,189,255 P,0,216759,217464,A
Sprite,Foreground,Centre,"SB\star01.png",320,240 M,22,216759,217464,487,310,409,225 F,3,216759,217464,1,0 S,9,216759,217464,0.37,0 R,0,216759,217464,2,0 C,0,216759,217464,255,189,255 P,0,216759,217464,A
Sprite,Foreground,Centre,"SB\star02.png",320,240 M,22,216759,217464,487,310,551,258 F,3,216759,217464,1,0 S,9,216759,217464,0.25,0 R,0,216759,217464,6,1 C,0,216759,217464,255,189,255 P,0,216759,217464,A
Sprite,Foreground,Centre,"SB\star02.png",320,240 M,22,216759,217464,487,310,484,228 F,3,216759,217464,1,0 S,9,216759,217464,0.33,0 R,0,216759,217464,5,1 C,0,216759,217464,255,189,255 P,0,216759,217464,A
Sprite,Foreground,Centre,"SB\star02.png",320,240 M,22,216759,217464,487,310,548,292 F,3,216759,217464,1,0 S,9,216759,217464,0.3,0 R,0,216759,217464,3,0 C,0,216759,217464,255,189,255 P,0,216759,217464,A
Sprite,Foreground,Centre,"SB\star02.png",320,240 M,22,216759,217464,487,310,513,226 F,3,216759,217464,1,0 S,9,216759,217464,0.3,0 R,0,216759,217464,3 C,0,216759,217464,255,189,255 P,0,216759,217464,A
Sprite,Foreground,Centre,"SB\star01.png",320,240 M,22,216759,217464,487,310,508,451 F,3,216759,217464,1,0 S,9,216759,217464,0.22,0 R,0,216759,217464,1 C,0,216759,217464,255,189,255 P,0,216759,217464,A
Sprite,Foreground,Centre,"SB\star01.png",320,240 M,22,216759,217464,487,310,580,269 F,3,216759,217464,1,0 S,9,216759,217464,0.19,0 R,0,216759,217464,5,0 C,0,216759,217464,255,189,255 P,0,216759,217464,A
Sprite,Foreground,Centre,"SB\star02.png",320,240 M,22,216759,217464,487,310,455,246 F,3,216759,217464,1,0 S,9,216759,217464,0.27,0 R,0,216759,217464,4,0 C,0,216759,217464,255,189,255 P,0,216759,217464,A
Sprite,Foreground,Centre,"SB\star01.png",320,240 M,22,216759,217464,487,310,630,272 F,3,216759,217464,1,0 S,9,216759,217464,0.18,0 R,0,216759,217464,4,1 C,0,216759,217464,255,189,255 P,0,216759,217464,A
Sprite,Foreground,Centre,"SB\star02.png",320,240 M,22,216759,217464,487,310,446,208 F,3,216759,217464,1,0 S,9,216759,217464,0.08,0 R,0,216759,217464,1,3 C,0,216759,217464,255,189,255 P,0,216759,217464,A
Sprite,Foreground,Centre,"SB\ring.png",283,257 F,2,216924,217329,1,0 S,7,216924,217329,0.3,0.8 C,0,216924,217329,255,189,255 P,0,216924,217329,A
Sprite,Foreground,Centre,"SB\star02.png",320,240 M,22,216924,217629,283,257,271,346 F,3,216924,217629,1,0 S,9,216924,217629,0.1,0 R,0,216924,217629,3,1 C,0,216924,217629,255,189,255 P,0,216924,217629,A
Sprite,Foreground,Centre,"SB\star01.png",320,240 M,22,216924,217629,283,257,186,195 F,3,216924,217629,1,0 S,9,216924,217629,0.27,0 R,0,216924,217629,5,1 C,0,216924,217629,255,189,255 P,0,216924,217629,A
Sprite,Foreground,Centre,"SB\star02.png",320,240 M,22,216924,217629,283,257,391,189 F,3,216924,217629,1,0 S,9,216924,217629,0.35,0 R,0,216924,217629,2 C,0,216924,217629,255,189,255 P,0,216924,217629,A
Sprite,Foreground,Centre,"SB\star01.png",320,240 M,22,216924,217629,283,257,253,343 F,3,216924,217629,1,0 S,9,216924,217629,0.34,0 R,0,216924,217629,0,1 C,0,216924,217629,255,189,255 P,0,216924,217629,A
Sprite,Foreground,Centre,"SB\star01.png",320,240 M,22,216924,217629,283,257,341,276 F,3,216924,217629,1,0 S,9,216924,217629,0.14,0 R,0,216924,217629,1 C,0,216924,217629,255,189,255 P,0,216924,217629,A
Sprite,Foreground,Centre,"SB\star01.png",320,240 M,22,216924,217629,283,257,227,349 F,3,216924,217629,1,0 S,9,216924,217629,0.08,0 R,0,216924,217629,5,1 C,0,216924,217629,255,189,255 P,0,216924,217629,A
Sprite,Foreground,Centre,"SB\star02.png",320,240 M,22,216924,217629,283,257,344,176 F,3,216924,217629,1,0 S,9,216924,217629,0.32,0 R,0,216924,217629,1,3 C,0,216924,217629,255,189,255 P,0,216924,217629,A
Sprite,Foreground,Centre,"SB\star01.png",320,240 M,22,216924,217629,283,257,168,287 F,3,216924,217629,1,0 S,9,216924,217629,0.37,0 R,0,216924,217629,2,0 C,0,216924,217629,255,189,255 P,0,216924,217629,A
Sprite,Foreground,Centre,"SB\star02.png",320,240 M,22,216924,217629,283,257,210,295 F,3,216924,217629,1,0 S,9,216924,217629,0.25,0 R,0,216924,217629,1,2 C,0,216924,217629,255,189,255 P,0,216924,217629,A
Sprite,Foreground,Centre,"SB\star01.png",320,240 M,22,216924,217629,283,257,368,252 F,3,216924,217629,1,0 S,9,216924,217629,0.13,0 R,0,216924,217629,0 C,0,216924,217629,255,189,255 P,0,216924,217629,A
Sprite,Foreground,Centre,"SB\star01.png",320,240 M,22,216924,217629,283,257,260,127 F,3,216924,217629,1,0 S,9,216924,217629,0.3,0 R,0,216924,217629,5,2 C,0,216924,217629,255,189,255 P,0,216924,217629,A
Sprite,Foreground,Centre,"SB\star01.png",320,240 M,22,216924,217629,283,257,310,161 F,3,216924,217629,1,0 S,9,216924,217629,0.11,0 R,0,216924,217629,1,2 C,0,216924,217629,255,189,255 P,0,216924,217629,A
Sprite,Foreground,Centre,"SB\star02.png",320,240 M,22,216924,217629,283,257,353,175 F,3,216924,217629,1,0 S,9,216924,217629,0.3,0 R,0,216924,217629,0,1 C,0,216924,217629,255,189,255 P,0,216924,217629,A
Sprite,Foreground,Centre,"SB\star01.png",320,240 M,22,216924,217629,283,257,232,315 F,3,216924,217629,1,0 S,9,216924,217629,0.14,0 R,0,216924,217629,1,0 C,0,216924,217629,255,189,255 P,0,216924,217629,A
Sprite,Foreground,Centre,"SB\star02.png",320,240 M,22,216924,217629,283,257,155,270 F,3,216924,217629,1,0 S,9,216924,217629,0.15,0 R,0,216924,217629,0,2 C,0,216924,217629,255,189,255 P,0,216924,217629,A
Sprite,Foreground,Centre,"SB\star01.png",320,240 M,22,216924,217629,283,257,391,333 F,3,216924,217629,1,0 S,9,216924,217629,0.1,0 R,0,216924,217629,5,1 C,0,216924,217629,255,189,255 P,0,216924,217629,A
Sprite,Foreground,Centre,"SB\star01.png",320,240 M,22,216924,217629,283,257,243,209 F,3,216924,217629,1,0 S,9,216924,217629,0.23,0 R,0,216924,217629,0,1 C,0,216924,217629,255,189,255 P,0,216924,217629,A
Sprite,Foreground,Centre,"SB\star01.png",320,240 M,22,216924,217629,283,257,238,367 F,3,216924,217629,1,0 S,9,216924,217629,0.26,0 R,0,216924,217629,1 C,0,216924,217629,255,189,255 P,0,216924,217629,A
Sprite,Foreground,Centre,"SB\star02.png",320,240 M,22,216924,217629,283,257,175,353 F,3,216924,217629,1,0 S,9,216924,217629,0.11,0 R,0,216924,217629,1,2 C,0,216924,217629,255,189,255 P,0,216924,217629,A
Sprite,Foreground,Centre,"SB\star01.png",320,240 M,22,216924,217629,283,257,260,166 F,3,216924,217629,1,0 S,9,216924,217629,0.18,0 R,0,216924,217629,5,2 C,0,216924,217629,255,189,255 P,0,216924,217629,A
Sprite,Foreground,Centre,"SB\star01.png",320,240 M,22,216924,217629,283,257,381,292 F,3,216924,217629,1,0 S,9,216924,217629,0.16,0 R,0,216924,217629,5,1 C,0,216924,217629,255,189,255 P,0,216924,217629,A
Sprite,Foreground,Centre,"SB\star02.png",320,240 M,22,216924,217629,283,257,190,295 F,3,216924,217629,1,0 S,9,216924,217629,0.19,0 R,0,216924,217629,4,1 C,0,216924,217629,255,189,255 P,0,216924,217629,A
Sprite,Foreground,Centre,"SB\star02.png",320,240 M,22,216924,217629,283,257,298,324 F,3,216924,217629,1,0 S,9,216924,217629,0.05,0 R,0,216924,217629,0,2 C,0,216924,217629,255,189,255 P,0,216924,217629,A
Sprite,Foreground,Centre,"SB\star01.png",320,240 M,22,216924,217629,283,257,291,331 F,3,216924,217629,1,0 S,9,216924,217629,0.34,0 R,0,216924,217629,3,2 C,0,216924,217629,255,189,255 P,0,216924,217629,A
Sprite,Foreground,Centre,"SB\star01.png",320,240 M,22,216924,217629,283,257,260,378 F,3,216924,217629,1,0 S,9,216924,217629,0.1,0 R,0,216924,217629,2,1 C,0,216924,217629,255,189,255 P,0,216924,217629,A
Sprite,Foreground,Centre,"SB\star02.png",320,240 M,22,216924,217629,283,257,353,204 F,3,216924,217629,1,0 S,9,216924,217629,0.18,0 R,0,216924,217629,0,1 C,0,216924,217629,255,189,255 P,0,216924,217629,A
Sprite,Foreground,Centre,"SB\star01.png",320,240 M,22,216924,217629,283,257,370,138 F,3,216924,217629,1,0 S,9,216924,217629,0.06,0 R,0,216924,217629,4,1 C,0,216924,217629,255,189,255 P,0,216924,217629,A
Sprite,Foreground,Centre,"SB\star01.png",320,240 M,22,216924,217629,283,257,244,313 F,3,216924,217629,1,0 S,9,216924,217629,0.13,0 R,0,216924,217629,4,2 C,0,216924,217629,255,189,255 P,0,216924,217629,A
Sprite,Foreground,Centre,"SB\star01.png",320,240 M,22,216924,217629,283,257,214,157 F,3,216924,217629,1,0 S,9,216924,217629,0.18,0 R,0,216924,217629,0,2 C,0,216924,217629,255,189,255 P,0,216924,217629,A
Sprite,Foreground,Centre,"SB\star01.png",320,240 M,22,216924,217629,283,257,134,226 F,3,216924,217629,1,0 S,9,216924,217629,0.32,0 R,0,216924,217629,3,0 C,0,216924,217629,255,189,255 P,0,216924,217629,A
Sprite,Foreground,Centre,"SB\ring.png",265,370 F,2,217253,217658,1,0 S,7,217253,217658,0.3,0.8 C,0,217253,217658,255,189,255 P,0,217253,217658,A
Sprite,Foreground,Centre,"SB\star01.png",320,240 M,22,217253,217958,265,370,267,276 F,3,217253,217958,1,0 S,9,217253,217958,0.39,0 R,0,217253,217958,4,2 C,0,217253,217958,255,189,255 P,0,217253,217958,A
Sprite,Foreground,Centre,"SB\star01.png",320,240 M,22,217253,217958,265,370,373,485 F,3,217253,217958,1,0 S,9,217253,217958,0.07,0 R,0,217253,217958,2,1 C,0,217253,217958,255,189,255 P,0,217253,217958,A
Sprite,Foreground,Centre,"SB\star02.png",320,240 M,22,217253,217958,265,370,351,361 F,3,217253,217958,1,0 S,9,217253,217958,0.36,0 R,0,217253,217958,4,2 C,0,217253,217958,255,189,255 P,0,217253,217958,A
Sprite,Foreground,Centre,"SB\star02.png",320,240 M,22,217253,217958,265,370,388,387 F,3,217253,217958,1,0 S,9,217253,217958,0.07,0 R,0,217253,217958,0,1 C,0,217253,217958,255,189,255 P,0,217253,217958,A
Sprite,Foreground,Centre,"SB\star01.png",320,240 M,22,217253,217958,265,370,243,247 F,3,217253,217958,1,0 S,9,217253,217958,0.2,0 R,0,217253,217958,1,2 C,0,217253,217958,255,189,255 P,0,217253,217958,A
Sprite,Foreground,Centre,"SB\star02.png",320,240 M,22,217253,217958,265,370,116,369 F,3,217253,217958,1,0 S,9,217253,217958,0.17,0 R,0,217253,217958,5,0 C,0,217253,217958,255,189,255 P,0,217253,217958,A
Sprite,Foreground,Centre,"SB\star01.png",320,240 M,22,217253,217958,265,370,232,428 F,3,217253,217958,1,0 S,9,217253,217958,0.32,0 R,0,217253,217958,2 C,0,217253,217958,255,189,255 P,0,217253,217958,A
Sprite,Foreground,Centre,"SB\star02.png",320,240 M,22,217253,217958,265,370,417,393 F,3,217253,217958,1,0 S,9,217253,217958,0.38,0 R,0,217253,217958,1 C,0,217253,217958,255,189,255 P,0,217253,217958,A
Sprite,Foreground,Centre,"SB\star01.png",320,240 M,22,217253,217958,265,370,136,312 F,3,217253,217958,1,0 S,9,217253,217958,0.21,0 R,0,217253,217958,0,1 C,0,217253,217958,255,189,255 P,0,217253,217958,A
Sprite,Foreground,Centre,"SB\star02.png",320,240 M,22,217253,217958,265,370,260,300 F,3,217253,217958,1,0 S,9,217253,217958,0.18,0 R,0,217253,217958,5,0 C,0,217253,217958,255,189,255 P,0,217253,217958,A
Sprite,Foreground,Centre,"SB\star02.png",320,240 M,22,217253,217958,265,370,199,460 F,3,217253,217958,1,0 S,9,217253,217958,0.08,0 R,0,217253,217958,2 C,0,217253,217958,255,189,255 P,0,217253,217958,A
Sprite,Foreground,Centre,"SB\star01.png",320,240 M,22,217253,217958,265,370,354,385 F,3,217253,217958,1,0 S,9,217253,217958,0.19,0 R,0,217253,217958,3,1 C,0,217253,217958,255,189,255 P,0,217253,217958,A
Sprite,Foreground,Centre,"SB\star01.png",320,240 M,22,217253,217958,265,370,431,340 F,3,217253,217958,1,0 S,9,217253,217958,0.15,0 R,0,217253,217958,0 C,0,217253,217958,255,189,255 P,0,217253,217958,A
Sprite,Foreground,Centre,"SB\star01.png",320,240 M,22,217253,217958,265,370,258,243 F,3,217253,217958,1,0 S,9,217253,217958,0.23,0 R,0,217253,217958,2,3 C,0,217253,217958,255,189,255 P,0,217253,217958,A
Sprite,Foreground,Centre,"SB\star01.png",320,240 M,22,217253,217958,265,370,313,527 F,3,217253,217958,1,0 S,9,217253,217958,0.26,0 R,0,217253,217958,4,1 C,0,217253,217958,255,189,255 P,0,217253,217958,A
Sprite,Foreground,Centre,"SB\star01.png",320,240 M,22,217253,217958,265,370,215,308 F,3,217253,217958,1,0 S,9,217253,217958,0.32,0 R,0,217253,217958,6,1 C,0,217253,217958,255,189,255 P,0,217253,217958,A
Sprite,Foreground,Centre,"SB\star01.png",320,240 M,22,217253,217958,265,370,104,422 F,3,217253,217958,1,0 S,9,217253,217958,0.23,0 R,0,217253,217958,0,1 C,0,217253,217958,255,189,255 P,0,217253,217958,A
Sprite,Foreground,Centre,"SB\star02.png",320,240 M,22,217253,217958,265,370,387,265 F,3,217253,217958,1,0 S,9,217253,217958,0.29,0 R,0,217253,217958,4,0 C,0,217253,217958,255,189,255 P,0,217253,217958,A
Sprite,Foreground,Centre,"SB\star01.png",320,240 M,22,217253,217958,265,370,308,464 F,3,217253,217958,1,0 S,9,217253,217958,0.21,0 R,0,217253,217958,4,0 C,0,217253,217958,255,189,255 P,0,217253,217958,A
Sprite,Foreground,Centre,"SB\star01.png",320,240 M,22,217253,217958,265,370,287,209 F,3,217253,217958,1,0 S,9,217253,217958,0.1,0 R,0,217253,217958,3,2 C,0,217253,217958,255,189,255 P,0,217253,217958,A
Sprite,Foreground,Centre,"SB\star01.png",320,240 M,22,217253,217958,265,370,322,295 F,3,217253,217958,1,0 S,9,217253,217958,0.19,0 R,0,217253,217958,3,2 C,0,217253,217958,255,189,255 P,0,217253,217958,A
Sprite,Foreground,Centre,"SB\star01.png",320,240 M,22,217253,217958,265,370,157,373 F,3,217253,217958,1,0 S,9,217253,217958,0.17,0 R,0,217253,217958,2 C,0,217253,217958,255,189,255 P,0,217253,217958,A
Sprite,Foreground,Centre,"SB\star02.png",320,240 M,22,217253,217958,265,370,220,523 F,3,217253,217958,1,0 S,9,217253,217958,0.27,0 R,0,217253,217958,0,2 C,0,217253,217958,255,189,255 P,0,217253,217958,A
Sprite,Foreground,Centre,"SB\star02.png",320,240 M,22,217253,217958,265,370,104,418 F,3,217253,217958,1,0 S,9,217253,217958,0.16,0 R,0,217253,217958,1,2 C,0,217253,217958,255,189,255 P,0,217253,217958,A
Sprite,Foreground,Centre,"SB\star02.png",320,240 M,22,217253,217958,265,370,194,341 F,3,217253,217958,1,0 S,9,217253,217958,0.09,0 R,0,217253,217958,3,0 C,0,217253,217958,255,189,255 P,0,217253,217958,A
Sprite,Foreground,Centre,"SB\star02.png",320,240 M,22,217253,217958,265,370,365,336 F,3,217253,217958,1,0 S,9,217253,217958,0.13,0 R,0,217253,217958,5,2 C,0,217253,217958,255,189,255 P,0,217253,217958,A
Sprite,Foreground,Centre,"SB\star02.png",320,240 M,22,217253,217958,265,370,356,381 F,3,217253,217958,1,0 S,9,217253,217958,0.1,0 R,0,217253,217958,3,0 C,0,217253,217958,255,189,255 P,0,217253,217958,A
Sprite,Foreground,Centre,"SB\star02.png",320,240 M,22,217253,217958,265,370,349,433 F,3,217253,217958,1,0 S,9,217253,217958,0.11,0 R,0,217253,217958,2,0 C,0,217253,217958,255,189,255 P,0,217253,217958,A
Sprite,Foreground,Centre,"SB\star01.png",320,240 M,22,217253,217958,265,370,369,447 F,3,217253,217958,1,0 S,9,217253,217958,0.29,0 R,0,217253,217958,1,2 C,0,217253,217958,255,189,255 P,0,217253,217958,A
Sprite,Foreground,Centre,"SB\star01.png",320,240 M,22,217253,217958,265,370,304,517 F,3,217253,217958,1,0 S,9,217253,217958,0.17,0 R,0,217253,217958,2,1 C,0,217253,217958,255,189,255 P,0,217253,217958,A
Sprite,Foreground,Centre,"SB\ring.png",182,200 F,2,217418,217823,1,0 S,7,217418,217823,0.3,0.8 C,0,217418,217823,255,189,255 P,0,217418,217823,A
Sprite,Foreground,Centre,"SB\star01.png",320,240 M,22,217418,218123,182,200,61,256 F,3,217418,218123,1,0 S,9,217418,218123,0.13,0 R,0,217418,218123,0 C,0,217418,218123,255,189,255 P,0,217418,218123,A
Sprite,Foreground,Centre,"SB\star01.png",320,240 M,22,217418,218123,182,200,17,185 F,3,217418,218123,1,0 S,9,217418,218123,0.29,0 R,0,217418,218123,3,2 C,0,217418,218123,255,189,255 P,0,217418,218123,A
Sprite,Foreground,Centre,"SB\star02.png",320,240 M,22,217418,218123,182,200,231,287 F,3,217418,218123,1,0 S,9,217418,218123,0.35,0 R,0,217418,218123,3,2 C,0,217418,218123,255,189,255 P,0,217418,218123,A
Sprite,Foreground,Centre,"SB\star02.png",320,240 M,22,217418,218123,182,200,279,317 F,3,217418,218123,1,0 S,9,217418,218123,0.18,0 R,0,217418,218123,1 C,0,217418,218123,255,189,255 P,0,217418,218123,A
Sprite,Foreground,Centre,"SB\star02.png",320,240 M,22,217418,218123,182,200,48,246 F,3,217418,218123,1,0 S,9,217418,218123,0.36,0 R,0,217418,218123,3,1 C,0,217418,218123,255,189,255 P,0,217418,218123,A
Sprite,Foreground,Centre,"SB\star01.png",320,240 M,22,217418,218123,182,200,233,165 F,3,217418,218123,1,0 S,9,217418,218123,0.37,0 R,0,217418,218123,5,2 C,0,217418,218123,255,189,255 P,0,217418,218123,A
Sprite,Foreground,Centre,"SB\star02.png",320,240 M,22,217418,218123,182,200,105,301 F,3,217418,218123,1,0 S,9,217418,218123,0.21,0 R,0,217418,218123,4,0 C,0,217418,218123,255,189,255 P,0,217418,218123,A
Sprite,Foreground,Centre,"SB\star02.png",320,240 M,22,217418,218123,182,200,190,138 F,3,217418,218123,1,0 S,9,217418,218123,0.19,0 R,0,217418,218123,4,2 C,0,217418,218123,255,189,255 P,0,217418,218123,A
Sprite,Foreground,Centre,"SB\star01.png",320,240 M,22,217418,218123,182,200,28,208 F,3,217418,218123,1,0 S,9,217418,218123,0.27,0 R,0,217418,218123,0 C,0,217418,218123,255,189,255 P,0,217418,218123,A
Sprite,Foreground,Centre,"SB\star02.png",320,240 M,22,217418,218123,182,200,200,123 F,3,217418,218123,1,0 S,9,217418,218123,0.23,0 R,0,217418,218123,5,1 C,0,217418,218123,255,189,255 P,0,217418,218123,A
Sprite,Foreground,Centre,"SB\star01.png",320,240 M,22,217418,218123,182,200,141,274 F,3,217418,218123,1,0 S,9,217418,218123,0.24,0 R,0,217418,218123,5,0 C,0,217418,218123,255,189,255 P,0,217418,218123,A
Sprite,Foreground,Centre,"SB\star02.png",320,240 M,22,217418,218123,182,200,72,99 F,3,217418,218123,1,0 S,9,217418,218123,0.09,0 R,0,217418,218123,0,1 C,0,217418,218123,255,189,255 P,0,217418,218123,A
Sprite,Foreground,Centre,"SB\star02.png",320,240 M,22,217418,218123,182,200,98,142 F,3,217418,218123,1,0 S,9,217418,218123,0.1,0 R,0,217418,218123,1,0 C,0,217418,218123,255,189,255 P,0,217418,218123,A
Sprite,Foreground,Centre,"SB\star02.png",320,240 M,22,217418,218123,182,200,204,258 F,3,217418,218123,1,0 S,9,217418,218123,0.11,0 R,0,217418,218123,4,3 C,0,217418,218123,255,189,255 P,0,217418,218123,A
Sprite,Foreground,Centre,"SB\star02.png",320,240 M,22,217418,218123,182,200,314,214 F,3,217418,218123,1,0 S,9,217418,218123,0.17,0 R,0,217418,218123,6,1 C,0,217418,218123,255,189,255 P,0,217418,218123,A
Sprite,Foreground,Centre,"SB\star02.png",320,240 M,22,217418,218123,182,200,210,95 F,3,217418,218123,1,0 S,9,217418,218123,0.07,0 R,0,217418,218123,2 C,0,217418,218123,255,189,255 P,0,217418,218123,A
Sprite,Foreground,Centre,"SB\star01.png",320,240 M,22,217418,218123,182,200,15,233 F,3,217418,218123,1,0 S,9,217418,218123,0.09,0 R,0,217418,218123,0,2 C,0,217418,218123,255,189,255 P,0,217418,218123,A
Sprite,Foreground,Centre,"SB\star01.png",320,240 M,22,217418,218123,182,200,213,118 F,3,217418,218123,1,0 S,9,217418,218123,0.29,0 R,0,217418,218123,4,0 C,0,217418,218123,255,189,255 P,0,217418,218123,A
Sprite,Foreground,Centre,"SB\star01.png",320,240 M,22,217418,218123,182,200,240,114 F,3,217418,218123,1,0 S,9,217418,218123,0.1,0 R,0,217418,218123,0 C,0,217418,218123,255,189,255 P,0,217418,218123,A
Sprite,Foreground,Centre,"SB\star01.png",320,240 M,22,217418,218123,182,200,190,55 F,3,217418,218123,1,0 S,9,217418,218123,0.22,0 R,0,217418,218123,1 C,0,217418,218123,255,189,255 P,0,217418,218123,A
Sprite,Foreground,Centre,"SB\star01.png",320,240 M,22,217418,218123,182,200,102,222 F,3,217418,218123,1,0 S,9,217418,218123,0.08,0 R,0,217418,218123,1 C,0,217418,218123,255,189,255 P,0,217418,218123,A
Sprite,Foreground,Centre,"SB\star02.png",320,240 M,22,217418,218123,182,200,218,342 F,3,217418,218123,1,0 S,9,217418,218123,0.17,0 R,0,217418,218123,3,0 C,0,217418,218123,255,189,255 P,0,217418,218123,A
Sprite,Foreground,Centre,"SB\star01.png",320,240 M,22,217418,218123,182,200,319,293 F,3,217418,218123,1,0 S,9,217418,218123,0.37,0 R,0,217418,218123,2,1 C,0,217418,218123,255,189,255 P,0,217418,218123,A
Sprite,Foreground,Centre,"SB\star02.png",320,240 M,22,217418,218123,182,200,122,302 F,3,217418,218123,1,0 S,9,217418,218123,0.34,0 R,0,217418,218123,2,1 C,0,217418,218123,255,189,255 P,0,217418,218123,A
Sprite,Foreground,Centre,"SB\star01.png",320,240 M,22,217418,218123,182,200,87,131 F,3,217418,218123,1,0 S,9,217418,218123,0.3,0 R,0,217418,218123,2 C,0,217418,218123,255,189,255 P,0,217418,218123,A
Sprite,Foreground,Centre,"SB\star02.png",320,240 M,22,217418,218123,182,200,162,98 F,3,217418,218123,1,0 S,9,217418,218123,0.06,0 R,0,217418,218123,2,0 C,0,217418,218123,255,189,255 P,0,217418,218123,A
Sprite,Foreground,Centre,"SB\star02.png",320,240 M,22,217418,218123,182,200,222,93 F,3,217418,218123,1,0 S,9,217418,218123,0.16,0 R,0,217418,218123,0,1 C,0,217418,218123,255,189,255 P,0,217418,218123,A
Sprite,Foreground,Centre,"SB\star02.png",320,240 M,22,217418,218123,182,200,118,269 F,3,217418,218123,1,0 S,9,217418,218123,0.31,0 R,0,217418,218123,2 C,0,217418,218123,255,189,255 P,0,217418,218123,A
Sprite,Foreground,Centre,"SB\star01.png",320,240 M,22,217418,218123,182,200,302,100 F,3,217418,218123,1,0 S,9,217418,218123,0.36,0 R,0,217418,218123,5,2 C,0,217418,218123,255,189,255 P,0,217418,218123,A
Sprite,Foreground,Centre,"SB\star02.png",320,240 M,22,217418,218123,182,200,303,262 F,3,217418,218123,1,0 S,9,217418,218123,0.14,0 R,0,217418,218123,3,1 C,0,217418,218123,255,189,255 P,0,217418,218123,A
Sprite,Foreground,Centre,"SB\ring.png",378,426 F,2,217748,218153,1,0 S,7,217748,218153,0.3,0.8 C,0,217748,218153,170,255,170 P,0,217748,218153,A
Sprite,Foreground,Centre,"SB\star02.png",320,240 M,22,217748,218453,378,426,302,521 F,3,217748,218453,1,0 S,9,217748,218453,0.06,0 R,0,217748,218453,1,0 C,0,217748,218453,170,255,170 P,0,217748,218453,A
Sprite,Foreground,Centre,"SB\star02.png",320,240 M,22,217748,218453,378,426,411,481 F,3,217748,218453,1,0 S,9,217748,218453,0.2,0 R,0,217748,218453,4,2 C,0,217748,218453,170,255,170 P,0,217748,218453,A
Sprite,Foreground,Centre,"SB\star02.png",320,240 M,22,217748,218453,378,426,289,447 F,3,217748,218453,1,0 S,9,217748,218453,0.21,0 R,0,217748,218453,5,0 C,0,217748,218453,170,255,170 P,0,217748,218453,A
Sprite,Foreground,Centre,"SB\star01.png",320,240 M,22,217748,218453,378,426,314,401 F,3,217748,218453,1,0 S,9,217748,218453,0.15,0 R,0,217748,218453,5,3 C,0,217748,218453,170,255,170 P,0,217748,218453,A
Sprite,Foreground,Centre,"SB\star01.png",320,240 M,22,217748,218453,378,426,301,375 F,3,217748,218453,1,0 S,9,217748,218453,0.12,0 R,0,217748,218453,1,2 C,0,217748,218453,170,255,170 P,0,217748,218453,A
Sprite,Foreground,Centre,"SB\star01.png",320,240 M,22,217748,218453,378,426,272,411 F,3,217748,218453,1,0 S,9,217748,218453,0.24,0 R,0,217748,218453,5,2 C,0,217748,218453,170,255,170 P,0,217748,218453,A
Sprite,Foreground,Centre,"SB\star01.png",320,240 M,22,217748,218453,378,426,394,297 F,3,217748,218453,1,0 S,9,217748,218453,0.29,0 R,0,217748,218453,4,1 C,0,217748,218453,170,255,170 P,0,217748,218453,A
Sprite,Foreground,Centre,"SB\star02.png",320,240 M,22,217748,218453,378,426,510,397 F,3,217748,218453,1,0 S,9,217748,218453,0.28,0 R,0,217748,218453,6,0 C,0,217748,218453,170,255,170 P,0,217748,218453,A
Sprite,Foreground,Centre,"SB\star01.png",320,240 M,22,217748,218453,378,426,314,577 F,3,217748,218453,1,0 S,9,217748,218453,0.39,0 R,0,217748,218453,1,3 C,0,217748,218453,170,255,170 P,0,217748,218453,A
Sprite,Foreground,Centre,"SB\star01.png",320,240 M,22,217748,218453,378,426,297,563 F,3,217748,218453,1,0 S,9,217748,218453,0.25,0 R,0,217748,218453,0,2 C,0,217748,218453,170,255,170 P,0,217748,218453,A
Sprite,Foreground,Centre,"SB\star02.png",320,240 M,22,217748,218453,378,426,246,455 F,3,217748,218453,1,0 S,9,217748,218453,0.26,0 R,0,217748,218453,5,1 C,0,217748,218453,170,255,170 P,0,217748,218453,A
Sprite,Foreground,Centre,"SB\star02.png",320,240 M,22,217748,218453,378,426,241,333 F,3,217748,218453,1,0 S,9,217748,218453,0.13,0 R,0,217748,218453,0,2 C,0,217748,218453,170,255,170 P,0,217748,218453,A
Sprite,Foreground,Centre,"SB\star01.png",320,240 M,22,217748,218453,378,426,261,546 F,3,217748,218453,1,0 S,9,217748,218453,0.07,0 R,0,217748,218453,2 C,0,217748,218453,170,255,170 P,0,217748,218453,A
Sprite,Foreground,Centre,"SB\star01.png",320,240 M,22,217748,218453,378,426,325,359 F,3,217748,218453,1,0 S,9,217748,218453,0.23,0 R,0,217748,218453,6,1 C,0,217748,218453,170,255,170 P,0,217748,218453,A
Sprite,Foreground,Centre,"SB\star01.png",320,240 M,22,217748,218453,378,426,495,456 F,3,217748,218453,1,0 S,9,217748,218453,0.16,0 R,0,217748,218453,0,2 C,0,217748,218453,170,255,170 P,0,217748,218453,A
Sprite,Foreground,Centre,"SB\star02.png",320,240 M,22,217748,218453,378,426,336,293 F,3,217748,218453,1,0 S,9,217748,218453,0.12,0 R,0,217748,218453,1,2 C,0,217748,218453,170,255,170 P,0,217748,218453,A
Sprite,Foreground,Centre,"SB\star02.png",320,240 M,22,217748,218453,378,426,443,537 F,3,217748,218453,1,0 S,9,217748,218453,0.07,0 R,0,217748,218453,0,1 C,0,217748,218453,170,255,170 P,0,217748,218453,A
Sprite,Foreground,Centre,"SB\star01.png",320,240 M,22,217748,218453,378,426,524,448 F,3,217748,218453,1,0 S,9,217748,218453,0.34,0 R,0,217748,218453,0,2 C,0,217748,218453,170,255,170 P,0,217748,218453,A
Sprite,Foreground,Centre,"SB\star02.png",320,240 M,22,217748,218453,378,426,434,401 F,3,217748,218453,1,0 S,9,217748,218453,0.15,0 R,0,217748,218453,0 C,0,217748,218453,170,255,170 P,0,217748,218453,A
Sprite,Foreground,Centre,"SB\star02.png",320,240 M,22,217748,218453,378,426,431,497 F,3,217748,218453,1,0 S,9,217748,218453,0.11,0 R,0,217748,218453,4,0 C,0,217748,218453,170,255,170 P,0,217748,218453,A
Sprite,Foreground,Centre,"SB\star01.png",320,240 M,22,217748,218453,378,426,485,304 F,3,217748,218453,1,0 S,9,217748,218453,0.09,0 R,0,217748,218453,0 C,0,217748,218453,170,255,170 P,0,217748,218453,A
Sprite,Foreground,Centre,"SB\star02.png",320,240 M,22,217748,218453,378,426,418,305 F,3,217748,218453,1,0 S,9,217748,218453,0.24,0 R,0,217748,218453,2,1 C,0,217748,218453,170,255,170 P,0,217748,218453,A
Sprite,Foreground,Centre,"SB\star02.png",320,240 M,22,217748,218453,378,426,257,516 F,3,217748,218453,1,0 S,9,217748,218453,0.11,0 R,0,217748,218453,2,1 C,0,217748,218453,170,255,170 P,0,217748,218453,A
Sprite,Foreground,Centre,"SB\star02.png",320,240 M,22,217748,218453,378,426,450,279 F,3,217748,218453,1,0 S,9,217748,218453,0.39,0 R,0,217748,218453,1,0 C,0,217748,218453,170,255,170 P,0,217748,218453,A
Sprite,Foreground,Centre,"SB\star02.png",320,240 M,22,217748,218453,378,426,318,423 F,3,217748,218453,1,0 S,9,217748,218453,0.25,0 R,0,217748,218453,6,2 C,0,217748,218453,170,255,170 P,0,217748,218453,A
Sprite,Foreground,Centre,"SB\star01.png",320,240 M,22,217748,218453,378,426,523,430 F,3,217748,218453,1,0 S,9,217748,218453,0.38,0 R,0,217748,218453,0,2 C,0,217748,218453,170,255,170 P,0,217748,218453,A
Sprite,Foreground,Centre,"SB\star01.png",320,240 M,22,217748,218453,378,426,492,449 F,3,217748,218453,1,0 S,9,217748,218453,0.35,0 R,0,217748,218453,4,2 C,0,217748,218453,170,255,170 P,0,217748,218453,A
Sprite,Foreground,Centre,"SB\star02.png",320,240 M,22,217748,218453,378,426,413,569 F,3,217748,218453,1,0 S,9,217748,218453,0.34,0 R,0,217748,218453,3,1 C,0,217748,218453,170,255,170 P,0,217748,218453,A
Sprite,Foreground,Centre,"SB\star02.png",320,240 M,22,217748,218453,378,426,438,438 F,3,217748,218453,1,0 S,9,217748,218453,0.27,0 R,0,217748,218453,1,0 C,0,217748,218453,170,255,170 P,0,217748,218453,A
Sprite,Foreground,Centre,"SB\star02.png",320,240 M,22,217748,218453,378,426,469,369 F,3,217748,218453,1,0 S,9,217748,218453,0.23,0 R,0,217748,218453,3,0 C,0,217748,218453,170,255,170 P,0,217748,218453,A
Sprite,Foreground,Centre,"SB\ring.png",319,190 F,2,218077,218482,1,0 S,7,218077,218482,0.3,0.8 C,0,218077,218482,170,255,170 P,0,218077,218482,A
Sprite,Foreground,Centre,"SB\star02.png",320,240 M,22,218077,218782,319,190,232,149 F,3,218077,218782,1,0 S,9,218077,218782,0.17,0 R,0,218077,218782,5,0 C,0,218077,218782,170,255,170 P,0,218077,218782,A
Sprite,Foreground,Centre,"SB\star01.png",320,240 M,22,218077,218782,319,190,291,132 F,3,218077,218782,1,0 S,9,218077,218782,0.32,0 R,0,218077,218782,4,0 C,0,218077,218782,170,255,170 P,0,218077,218782,A
Sprite,Foreground,Centre,"SB\star01.png",320,240 M,22,218077,218782,319,190,435,145 F,3,218077,218782,1,0 S,9,218077,218782,0.16,0 R,0,218077,218782,2 C,0,218077,218782,170,255,170 P,0,218077,218782,A
Sprite,Foreground,Centre,"SB\star02.png",320,240 M,22,218077,218782,319,190,285,109 F,3,218077,218782,1,0 S,9,218077,218782,0.11,0 R,0,218077,218782,1,0 C,0,218077,218782,170,255,170 P,0,218077,218782,A
Sprite,Foreground,Centre,"SB\star02.png",320,240 M,22,218077,218782,319,190,335,267 F,3,218077,218782,1,0 S,9,218077,218782,0.39,0 R,0,218077,218782,0,1 C,0,218077,218782,170,255,170 P,0,218077,218782,A
Sprite,Foreground,Centre,"SB\star02.png",320,240 M,22,218077,218782,319,190,462,219 F,3,218077,218782,1,0 S,9,218077,218782,0.34,0 R,0,218077,218782,1,0 C,0,218077,218782,170,255,170 P,0,218077,218782,A
Sprite,Foreground,Centre,"SB\star01.png",320,240 M,22,218077,218782,319,190,362,251 F,3,218077,218782,1,0 S,9,218077,218782,0.37,0 R,0,218077,218782,0,2 C,0,218077,218782,170,255,170 P,0,218077,218782,A
Sprite,Foreground,Centre,"SB\star01.png",320,240 M,22,218077,218782,319,190,314,118 F,3,218077,218782,1,0 S,9,218077,218782,0.16,0 R,0,218077,218782,5,2 C,0,218077,218782,170,255,170 P,0,218077,218782,A
Sprite,Foreground,Centre,"SB\star01.png",320,240 M,22,218077,218782,319,190,197,260 F,3,218077,218782,1,0 S,9,218077,218782,0.07,0 R,0,218077,218782,0,2 C,0,218077,218782,170,255,170 P,0,218077,218782,A
Sprite,Foreground,Centre,"SB\star02.png",320,240 M,22,218077,218782,319,190,253,84 F,3,218077,218782,1,0 S,9,218077,218782,0.15,0 R,0,218077,218782,5,0 C,0,218077,218782,170,255,170 P,0,218077,218782,A
Sprite,Foreground,Centre,"SB\star02.png",320,240 M,22,218077,218782,319,190,182,115 F,3,218077,218782,1,0 S,9,218077,218782,0.13,0 R,0,218077,218782,0,3 C,0,218077,218782,170,255,170 P,0,218077,218782,A
Sprite,Foreground,Centre,"SB\star01.png",320,240 M,22,218077,218782,319,190,179,114 F,3,218077,218782,1,0 S,9,218077,218782,0.18,0 R,0,218077,218782,1,0 C,0,218077,218782,170,255,170 P,0,218077,218782,A
Sprite,Foreground,Centre,"SB\star01.png",320,240 M,22,218077,218782,319,190,204,120 F,3,218077,218782,1,0 S,9,218077,218782,0.19,0 R,0,218077,218782,1 C,0,218077,218782,170,255,170 P,0,218077,218782,A
Sprite,Foreground,Centre,"SB\star01.png",320,240 M,22,218077,218782,319,190,256,76 F,3,218077,218782,1,0 S,9,218077,218782,0.11,0 R,0,218077,218782,0,2 C,0,218077,218782,170,255,170 P,0,218077,218782,A
Sprite,Foreground,Centre,"SB\star01.png",320,240 M,22,218077,218782,319,190,196,252 F,3,218077,218782,1,0 S,9,218077,218782,0.1,0 R,0,218077,218782,4,2 C,0,218077,218782,170,255,170 P,0,218077,218782,A
Sprite,Foreground,Centre,"SB\star01.png",320,240 M,22,218077,218782,319,190,371,100 F,3,218077,218782,1,0 S,9,218077,218782,0.16,0 R,0,218077,218782,3,1 C,0,218077,218782,170,255,170 P,0,218077,218782,A
Sprite,Foreground,Centre,"SB\star02.png",320,240 M,22,218077,218782,319,190,462,195 F,3,218077,218782,1,0 S,9,218077,218782,0.14,0 R,0,218077,218782,5,0 C,0,218077,218782,170,255,170 P,0,218077,218782,A
Sprite,Foreground,Centre,"SB\star01.png",320,240 M,22,218077,218782,319,190,356,111 F,3,218077,218782,1,0 S,9,218077,218782,0.3,0 R,0,218077,218782,4,0 C,0,218077,218782,170,255,170 P,0,218077,218782,A
Sprite,Foreground,Centre,"SB\star01.png",320,240 M,22,218077,218782,319,190,194,182 F,3,218077,218782,1,0 S,9,218077,218782,0.1,0 R,0,218077,218782,2,0 C,0,218077,218782,170,255,170 P,0,218077,218782,A
Sprite,Foreground,Centre,"SB\star02.png",320,240 M,22,218077,218782,319,190,377,296 F,3,218077,218782,1,0 S,9,218077,218782,0.31,0 R,0,218077,218782,0,2 C,0,218077,218782,170,255,170 P,0,218077,218782,A
Sprite,Foreground,Centre,"SB\star02.png",320,240 M,22,218077,218782,319,190,218,277 F,3,218077,218782,1,0 S,9,218077,218782,0.26,0 R,0,218077,218782,1,2 C,0,218077,218782,170,255,170 P,0,218077,218782,A
Sprite,Foreground,Centre,"SB\star02.png",320,240 M,22,218077,218782,319,190,250,79 F,3,218077,218782,1,0 S,9,218077,218782,0.13,0 R,0,218077,218782,2 C,0,218077,218782,170,255,170 P,0,218077,218782,A
Sprite,Foreground,Centre,"SB\star01.png",320,240 M,22,218077,218782,319,190,278,108 F,3,218077,218782,1,0 S,9,218077,218782,0.29,0 R,0,218077,218782,5,2 C,0,218077,218782,170,255,170 P,0,218077,218782,A
Sprite,Foreground,Centre,"SB\star01.png",320,240 M,22,218077,218782,319,190,452,163 F,3,218077,218782,1,0 S,9,218077,218782,0.18,0 R,0,218077,218782,3,0 C,0,218077,218782,170,255,170 P,0,218077,218782,A
Sprite,Foreground,Centre,"SB\star01.png",320,240 M,22,218077,218782,319,190,173,218 F,3,218077,218782,1,0 S,9,218077,218782,0.14,0 R,0,218077,218782,3,1 C,0,218077,218782,170,255,170 P,0,218077,218782,A
Sprite,Foreground,Centre,"SB\star02.png",320,240 M,22,218077,218782,319,190,275,136 F,3,218077,218782,1,0 S,9,218077,218782,0.32,0 R,0,218077,218782,0,1 C,0,218077,218782,170,255,170 P,0,218077,218782,A
Sprite,Foreground,Centre,"SB\star01.png",320,240 M,22,218077,218782,319,190,286,113 F,3,218077,218782,1,0 S,9,218077,218782,0.15,0 R,0,218077,218782,0,3 C,0,218077,218782,170,255,170 P,0,218077,218782,A
Sprite,Foreground,Centre,"SB\star01.png",320,240 M,22,218077,218782,319,190,232,264 F,3,218077,218782,1,0 S,9,218077,218782,0.32,0 R,0,218077,218782,5,2 C,0,218077,218782,170,255,170 P,0,218077,218782,A
Sprite,Foreground,Centre,"SB\star01.png",320,240 M,22,218077,218782,319,190,397,134 F,3,218077,218782,1,0 S,9,218077,218782,0.34,0 R,0,218077,218782,5,1 C,0,218077,218782,170,255,170 P,0,218077,218782,A
Sprite,Foreground,Centre,"SB\star02.png",320,240 M,22,218077,218782,319,190,171,231 F,3,218077,218782,1,0 S,9,218077,218782,0.4,0 R,0,218077,218782,5,2 C,0,218077,218782,170,255,170 P,0,218077,218782,A
Sprite,Foreground,Centre,"SB\ring.png",515,250 F,2,218242,218647,1,0 S,7,218242,218647,0.3,0.8 C,0,218242,218647,170,255,170 P,0,218242,218647,A
Sprite,Foreground,Centre,"SB\star02.png",320,240 M,22,218242,218947,515,250,580,231 F,3,218242,218947,1,0 S,9,218242,218947,0.33,0 R,0,218242,218947,1,2 C,0,218242,218947,170,255,170 P,0,218242,218947,A
Sprite,Foreground,Centre,"SB\star02.png",320,240 M,22,218242,218947,515,250,520,355 F,3,218242,218947,1,0 S,9,218242,218947,0.07,0 R,0,218242,218947,2,1 C,0,218242,218947,170,255,170 P,0,218242,218947,A
Sprite,Foreground,Centre,"SB\star02.png",320,240 M,22,218242,218947,515,250,443,141 F,3,218242,218947,1,0 S,9,218242,218947,0.21,0 R,0,218242,218947,4,2 C,0,218242,218947,170,255,170 P,0,218242,218947,A
Sprite,Foreground,Centre,"SB\star01.png",320,240 M,22,218242,218947,515,250,362,184 F,3,218242,218947,1,0 S,9,218242,218947,0.12,0 R,0,218242,218947,0,2 C,0,218242,218947,170,255,170 P,0,218242,218947,A
Sprite,Foreground,Centre,"SB\star02.png",320,240 M,22,218242,218947,515,250,641,208 F,3,218242,218947,1,0 S,9,218242,218947,0.18,0 R,0,218242,218947,2,3 C,0,218242,218947,170,255,170 P,0,218242,218947,A
Sprite,Foreground,Centre,"SB\star01.png",320,240 M,22,218242,218947,515,250,426,189 F,3,218242,218947,1,0 S,9,218242,218947,0.23,0 R,0,218242,218947,1,2 C,0,218242,218947,170,255,170 P,0,218242,218947,A
Sprite,Foreground,Centre,"SB\star01.png",320,240 M,22,218242,218947,515,250,557,370 F,3,218242,218947,1,0 S,9,218242,218947,0.17,0 R,0,218242,218947,0,1 C,0,218242,218947,170,255,170 P,0,218242,218947,A
Sprite,Foreground,Centre,"SB\star01.png",320,240 M,22,218242,218947,515,250,556,326 F,3,218242,218947,1,0 S,9,218242,218947,0.1,0 R,0,218242,218947,1,0 C,0,218242,218947,170,255,170 P,0,218242,218947,A
Sprite,Foreground,Centre,"SB\star02.png",320,240 M,22,218242,218947,515,250,481,301 F,3,218242,218947,1,0 S,9,218242,218947,0.27,0 R,0,218242,218947,1,0 C,0,218242,218947,170,255,170 P,0,218242,218947,A
Sprite,Foreground,Centre,"SB\star02.png",320,240 M,22,218242,218947,515,250,567,290 F,3,218242,218947,1,0 S,9,218242,218947,0.08,0 R,0,218242,218947,1 C,0,218242,218947,170,255,170 P,0,218242,218947,A
Sprite,Foreground,Centre,"SB\star02.png",320,240 M,22,218242,218947,515,250,425,335 F,3,218242,218947,1,0 S,9,218242,218947,0.29,0 R,0,218242,218947,3,1 C,0,218242,218947,170,255,170 P,0,218242,218947,A
Sprite,Foreground,Centre,"SB\star01.png",320,240 M,22,218242,218947,515,250,663,180 F,3,218242,218947,1,0 S,9,218242,218947,0.18,0 R,0,218242,218947,6,2 C,0,218242,218947,170,255,170 P,0,218242,218947,A
Sprite,Foreground,Centre,"SB\star02.png",320,240 M,22,218242,218947,515,250,440,381 F,3,218242,218947,1,0 S,9,218242,218947,0.07,0 R,0,218242,218947,4,3 C,0,218242,218947,170,255,170 P,0,218242,218947,A
Sprite,Foreground,Centre,"SB\star01.png",320,240 M,22,218242,218947,515,250,652,342 F,3,218242,218947,1,0 S,9,218242,218947,0.19,0 R,0,218242,218947,2,1 C,0,218242,218947,170,255,170 P,0,218242,218947,A
Sprite,Foreground,Centre,"SB\star01.png",320,240 M,22,218242,218947,515,250,420,304 F,3,218242,218947,1,0 S,9,218242,218947,0.36,0 R,0,218242,218947,0,2 C,0,218242,218947,170,255,170 P,0,218242,218947,A
Sprite,Foreground,Centre,"SB\star02.png",320,240 M,22,218242,218947,515,250,435,258 F,3,218242,218947,1,0 S,9,218242,218947,0.25,0 R,0,218242,218947,3,1 C,0,218242,218947,170,255,170 P,0,218242,218947,A
Sprite,Foreground,Centre,"SB\star01.png",320,240 M,22,218242,218947,515,250,402,325 F,3,218242,218947,1,0 S,9,218242,218947,0.36,0 R,0,218242,218947,3,0 C,0,218242,218947,170,255,170 P,0,218242,218947,A
Sprite,Foreground,Centre,"SB\star01.png",320,240 M,22,218242,218947,515,250,601,124 F,3,218242,218947,1,0 S,9,218242,218947,0.15,0 R,0,218242,218947,4,1 C,0,218242,218947,170,255,170 P,0,218242,218947,A
Sprite,Foreground,Centre,"SB\star01.png",320,240 M,22,218242,218947,515,250,415,123 F,3,218242,218947,1,0 S,9,218242,218947,0.05,0 R,0,218242,218947,3,0 C,0,218242,218947,170,255,170 P,0,218242,218947,A
Sprite,Foreground,Centre,"SB\star02.png",320,240 M,22,218242,218947,515,250,458,175 F,3,218242,218947,1,0 S,9,218242,218947,0.33,0 R,0,218242,218947,2,1 C,0,218242,218947,170,255,170 P,0,218242,218947,A
Sprite,Foreground,Centre,"SB\star02.png",320,240 M,22,218242,218947,515,250,490,392 F,3,218242,218947,1,0 S,9,218242,218947,0.19,0 R,0,218242,218947,4,0 C,0,218242,218947,170,255,170 P,0,218242,218947,A
Sprite,Foreground,Centre,"SB\star02.png",320,240 M,22,218242,218947,515,250,605,341 F,3,218242,218947,1,0 S,9,218242,218947,0.29,0 R,0,218242,218947,1,0 C,0,218242,218947,170,255,170 P,0,218242,218947,A
Sprite,Foreground,Centre,"SB\star02.png",320,240 M,22,218242,218947,515,250,581,370 F,3,218242,218947,1,0 S,9,218242,218947,0.32,0 R,0,218242,218947,3,1 C,0,218242,218947,170,255,170 P,0,218242,218947,A
Sprite,Foreground,Centre,"SB\star02.png",320,240 M,22,218242,218947,515,250,594,209 F,3,218242,218947,1,0 S,9,218242,218947,0.17,0 R,0,218242,218947,4,1 C,0,218242,218947,170,255,170 P,0,218242,218947,A
Sprite,Foreground,Centre,"SB\star02.png",320,240 M,22,218242,218947,515,250,601,120 F,3,218242,218947,1,0 S,9,218242,218947,0.15,0 R,0,218242,218947,4,1 C,0,218242,218947,170,255,170 P,0,218242,218947,A
Sprite,Foreground,Centre,"SB\star01.png",320,240 M,22,218242,218947,515,250,522,112 F,3,218242,218947,1,0 S,9,218242,218947,0.2,0 R,0,218242,218947,0 C,0,218242,218947,170,255,170 P,0,218242,218947,A
Sprite,Foreground,Centre,"SB\star01.png",320,240 M,22,218242,218947,515,250,551,188 F,3,218242,218947,1,0 S,9,218242,218947,0.12,0 R,0,218242,218947,4,1 C,0,218242,218947,170,255,170 P,0,218242,218947,A
Sprite,Foreground,Centre,"SB\star02.png",320,240 M,22,218242,218947,515,250,357,206 F,3,218242,218947,1,0 S,9,218242,218947,0.07,0 R,0,218242,218947,5,0 C,0,218242,218947,170,255,170 P,0,218242,218947,A
Sprite,Foreground,Centre,"SB\star02.png",320,240 M,22,218242,218947,515,250,501,358 F,3,218242,218947,1,0 S,9,218242,218947,0.22,0 R,0,218242,218947,1,0 C,0,218242,218947,170,255,170 P,0,218242,218947,A
Sprite,Foreground,Centre,"SB\star01.png",320,240 M,22,218242,218947,515,250,447,171 F,3,218242,218947,1,0 S,9,218242,218947,0.08,0 R,0,218242,218947,2,0 C,0,218242,218947,170,255,170 P,0,218242,218947,A
Sprite,Foreground,Centre,"SB\ring.png",319,190 F,2,218572,218977,1,0 S,7,218572,218977,0.3,0.8 C,0,218572,218977,170,255,170 P,0,218572,218977,A
Sprite,Foreground,Centre,"SB\star01.png",320,240 M,22,218572,219277,319,190,425,216 F,3,218572,219277,1,0 S,9,218572,219277,0.31,0 R,0,218572,219277,3,1 C,0,218572,219277,170,255,170 P,0,218572,219277,A
Sprite,Foreground,Centre,"SB\star02.png",320,240 M,22,218572,219277,319,190,263,136 F,3,218572,219277,1,0 S,9,218572,219277,0.16,0 R,0,218572,219277,2,1 C,0,218572,219277,170,255,170 P,0,218572,219277,A
Sprite,Foreground,Centre,"SB\star01.png",320,240 M,22,218572,219277,319,190,330,308 F,3,218572,219277,1,0 S,9,218572,219277,0.08,0 R,0,218572,219277,1,0 C,0,218572,219277,170,255,170 P,0,218572,219277,A
Sprite,Foreground,Centre,"SB\star01.png",320,240 M,22,218572,219277,319,190,375,38 F,3,218572,219277,1,0 S,9,218572,219277,0.22,0 R,0,218572,219277,2,0 C,0,218572,219277,170,255,170 P,0,218572,219277,A
Sprite,Foreground,Centre,"SB\star01.png",320,240 M,22,218572,219277,319,190,271,244 F,3,218572,219277,1,0 S,9,218572,219277,0.2,0 R,0,218572,219277,0 C,0,218572,219277,170,255,170 P,0,218572,219277,A
Sprite,Foreground,Centre,"SB\star01.png",320,240 M,22,218572,219277,319,190,168,161 F,3,218572,219277,1,0 S,9,218572,219277,0.29,0 R,0,218572,219277,3,0 C,0,218572,219277,170,255,170 P,0,218572,219277,A
Sprite,Foreground,Centre,"SB\star01.png",320,240 M,22,218572,219277,319,190,274,112 F,3,218572,219277,1,0 S,9,218572,219277,0.26,0 R,0,218572,219277,1 C,0,218572,219277,170,255,170 P,0,218572,219277,A
Sprite,Foreground,Centre,"SB\star01.png",320,240 M,22,218572,219277,319,190,419,112 F,3,218572,219277,1,0 S,9,218572,219277,0.1,0 R,0,218572,219277,1,0 C,0,218572,219277,170,255,170 P,0,218572,219277,A
Sprite,Foreground,Centre,"SB\star01.png",320,240 M,22,218572,219277,319,190,365,89 F,3,218572,219277,1,0 S,9,218572,219277,0.3,0 R,0,218572,219277,5,2 C,0,218572,219277,170,255,170 P,0,218572,219277,A
Sprite,Foreground,Centre,"SB\star01.png",320,240 M,22,218572,219277,319,190,417,78 F,3,218572,219277,1,0 S,9,218572,219277,0.22,0 R,0,218572,219277,3,1 C,0,218572,219277,170,255,170 P,0,218572,219277,A
Sprite,Foreground,Centre,"SB\star01.png",320,240 M,22,218572,219277,319,190,477,149 F,3,218572,219277,1,0 S,9,218572,219277,0.34,0 R,0,218572,219277,5,0 C,0,218572,219277,170,255,170 P,0,218572,219277,A
Sprite,Foreground,Centre,"SB\star02.png",320,240 M,22,218572,219277,319,190,307,22 F,3,218572,219277,1,0 S,9,218572,219277,0.28,0 R,0,218572,219277,2 C,0,218572,219277,170,255,170 P,0,218572,219277,A
Sprite,Foreground,Centre,"SB\star02.png",320,240 M,22,218572,219277,319,190,199,191 F,3,218572,219277,1,0 S,9,218572,219277,0.16,0 R,0,218572,219277,3,2 C,0,218572,219277,170,255,170 P,0,218572,219277,A
Sprite,Foreground,Centre,"SB\star01.png",320,240 M,22,218572,219277,319,190,297,107 F,3,218572,219277,1,0 S,9,218572,219277,0.13,0 R,0,218572,219277,1,0 C,0,218572,219277,170,255,170 P,0,218572,219277,A
Sprite,Foreground,Centre,"SB\star02.png",320,240 M,22,218572,219277,319,190,273,141 F,3,218572,219277,1,0 S,9,218572,219277,0.38,0 R,0,218572,219277,3,1 C,0,218572,219277,170,255,170 P,0,218572,219277,A
Sprite,Foreground,Centre,"SB\star02.png",320,240 M,22,218572,219277,319,190,179,204 F,3,218572,219277,1,0 S,9,218572,219277,0.32,0 R,0,218572,219277,5,0 C,0,218572,219277,170,255,170 P,0,218572,219277,A
Sprite,Foreground,Centre,"SB\star02.png",320,240 M,22,218572,219277,319,190,390,221 F,3,218572,219277,1,0 S,9,218572,219277,0.14,0 R,0,218572,219277,3,2 C,0,218572,219277,170,255,170 P,0,218572,219277,A
Sprite,Foreground,Centre,"SB\star01.png",320,240 M,22,218572,219277,319,190,360,352 F,3,218572,219277,1,0 S,9,218572,219277,0.06,0 R,0,218572,219277,6,2 C,0,218572,219277,170,255,170 P,0,218572,219277,A
Sprite,Foreground,Centre,"SB\star02.png",320,240 M,22,218572,219277,319,190,160,163 F,3,218572,219277,1,0 S,9,218572,219277,0.12,0 R,0,218572,219277,4,1 C,0,218572,219277,170,255,170 P,0,218572,219277,A
Sprite,Foreground,Centre,"SB\star01.png",320,240 M,22,218572,219277,319,190,429,103 F,3,218572,219277,1,0 S,9,218572,219277,0.25,0 R,0,218572,219277,6,1 C,0,218572,219277,170,255,170 P,0,218572,219277,A
Sprite,Foreground,Centre,"SB\star01.png",320,240 M,22,218572,219277,319,190,313,357 F,3,218572,219277,1,0 S,9,218572,219277,0.24,0 R,0,218572,219277,5,3 C,0,218572,219277,170,255,170 P,0,218572,219277,A
Sprite,Foreground,Centre,"SB\star02.png",320,240 M,22,218572,219277,319,190,476,158 F,3,218572,219277,1,0 S,9,218572,219277,0.25,0 R,0,218572,219277,1,0 C,0,218572,219277,170,255,170 P,0,218572,219277,A
Sprite,Foreground,Centre,"SB\star01.png",320,240 M,22,218572,219277,319,190,417,226 F,3,218572,219277,1,0 S,9,218572,219277,0.33,0 R,0,218572,219277,3,2 C,0,218572,219277,170,255,170 P,0,218572,219277,A
Sprite,Foreground,Centre,"SB\star02.png",320,240 M,22,218572,219277,319,190,239,149 F,3,218572,219277,1,0 S,9,218572,219277,0.25,0 R,0,218572,219277,4,3 C,0,218572,219277,170,255,170 P,0,218572,219277,A
Sprite,Foreground,Centre,"SB\star01.png",320,240 M,22,218572,219277,319,190,255,55 F,3,218572,219277,1,0 S,9,218572,219277,0.23,0 R,0,218572,219277,1 C,0,218572,219277,170,255,170 P,0,218572,219277,A
Sprite,Foreground,Centre,"SB\star01.png",320,240 M,22,218572,219277,319,190,383,183 F,3,218572,219277,1,0 S,9,218572,219277,0.19,0 R,0,218572,219277,0,2 C,0,218572,219277,170,255,170 P,0,218572,219277,A
Sprite,Foreground,Centre,"SB\star02.png",320,240 M,22,218572,219277,319,190,286,120 F,3,218572,219277,1,0 S,9,218572,219277,0.17,0 R,0,218572,219277,5,2 C,0,218572,219277,170,255,170 P,0,218572,219277,A
Sprite,Foreground,Centre,"SB\star01.png",320,240 M,22,218572,219277,319,190,302,85 F,3,218572,219277,1,0 S,9,218572,219277,0.14,0 R,0,218572,219277,1,0 C,0,218572,219277,170,255,170 P,0,218572,219277,A
Sprite,Foreground,Centre,"SB\star02.png",320,240 M,22,218572,219277,319,190,244,62 F,3,218572,219277,1,0 S,9,218572,219277,0.35,0 R,0,218572,219277,4,1 C,0,218572,219277,170,255,170 P,0,218572,219277,A
Sprite,Foreground,Centre,"SB\star01.png",320,240 M,22,218572,219277,319,190,322,279 F,3,218572,219277,1,0 S,9,218572,219277,0.07,0 R,0,218572,219277,4,0 C,0,218572,219277,170,255,170 P,0,218572,219277,A
Sprite,Foreground,Centre,"SB\ring.png",286,358 F,2,218737,219142,1,0 S,7,218737,219142,0.3,0.8 C,0,218737,219142,170,255,170 P,0,218737,219142,A
Sprite,Foreground,Centre,"SB\star02.png",320,240 M,22,218737,219442,286,358,377,268 F,3,218737,219442,1,0 S,9,218737,219442,0.37,0 R,0,218737,219442,3,1 C,0,218737,219442,170,255,170 P,0,218737,219442,A
Sprite,Foreground,Centre,"SB\star01.png",320,240 M,22,218737,219442,286,358,160,286 F,3,218737,219442,1,0 S,9,218737,219442,0.36,0 R,0,218737,219442,2,1 C,0,218737,219442,170,255,170 P,0,218737,219442,A
Sprite,Foreground,Centre,"SB\star01.png",320,240 M,22,218737,219442,286,358,405,406 F,3,218737,219442,1,0 S,9,218737,219442,0.09,0 R,0,218737,219442,1 C,0,218737,219442,170,255,170 P,0,218737,219442,A
Sprite,Foreground,Centre,"SB\star02.png",320,240 M,22,218737,219442,286,358,159,426 F,3,218737,219442,1,0 S,9,218737,219442,0.13,0 R,0,218737,219442,1,2 C,0,218737,219442,170,255,170 P,0,218737,219442,A
Sprite,Foreground,Centre,"SB\star01.png",320,240 M,22,218737,219442,286,358,326,523 F,3,218737,219442,1,0 S,9,218737,219442,0.26,0 R,0,218737,219442,0,2 C,0,218737,219442,170,255,170 P,0,218737,219442,A
Sprite,Foreground,Centre,"SB\star01.png",320,240 M,22,218737,219442,286,358,225,358 F,3,218737,219442,1,0 S,9,218737,219442,0.08,0 R,0,218737,219442,0 C,0,218737,219442,170,255,170 P,0,218737,219442,A
Sprite,Foreground,Centre,"SB\star02.png",320,240 M,22,218737,219442,286,358,351,230 F,3,218737,219442,1,0 S,9,218737,219442,0.33,0 R,0,218737,219442,3,0 C,0,218737,219442,170,255,170 P,0,218737,219442,A
Sprite,Foreground,Centre,"SB\star02.png",320,240 M,22,218737,219442,286,358,364,451 F,3,218737,219442,1,0 S,9,218737,219442,0.1,0 R,0,218737,219442,0 C,0,218737,219442,170,255,170 P,0,218737,219442,A
Sprite,Foreground,Centre,"SB\star02.png",320,240 M,22,218737,219442,286,358,321,452 F,3,218737,219442,1,0 S,9,218737,219442,0.16,0 R,0,218737,219442,5,1 C,0,218737,219442,170,255,170 P,0,218737,219442,A
Sprite,Foreground,Centre,"SB\star01.png",320,240 M,22,218737,219442,286,358,248,213 F,3,218737,219442,1,0 S,9,218737,219442,0.2,0 R,0,218737,219442,2,0 C,0,218737,219442,170,255,170 P,0,218737,219442,A
Sprite,Foreground,Centre,"SB\star02.png",320,240 M,22,218737,219442,286,358,405,457 F,3,218737,219442,1,0 S,9,218737,219442,0.27,0 R,0,218737,219442,1 C,0,218737,219442,170,255,170 P,0,218737,219442,A
Sprite,Foreground,Centre,"SB\star02.png",320,240 M,22,218737,219442,286,358,230,217 F,3,218737,219442,1,0 S,9,218737,219442,0.13,0 R,0,218737,219442,1 C,0,218737,219442,170,255,170 P,0,218737,219442,A
Sprite,Foreground,Centre,"SB\star01.png",320,240 M,22,218737,219442,286,358,343,501 F,3,218737,219442,1,0 S,9,218737,219442,0.18,0 R,0,218737,219442,2,1 C,0,218737,219442,170,255,170 P,0,218737,219442,A
Sprite,Foreground,Centre,"SB\star01.png",320,240 M,22,218737,219442,286,358,158,460 F,3,218737,219442,1,0 S,9,218737,219442,0.37,0 R,0,218737,219442,5,1 C,0,218737,219442,170,255,170 P,0,218737,219442,A
Sprite,Foreground,Centre,"SB\star02.png",320,240 M,22,218737,219442,286,358,200,492 F,3,218737,219442,1,0 S,9,218737,219442,0.19,0 R,0,218737,219442,5,2 C,0,218737,219442,170,255,170 P,0,218737,219442,A
Sprite,Foreground,Centre,"SB\star02.png",320,240 M,22,218737,219442,286,358,392,428 F,3,218737,219442,1,0 S,9,218737,219442,0.34,0 R,0,218737,219442,3,0 C,0,218737,219442,170,255,170 P,0,218737,219442,A
Sprite,Foreground,Centre,"SB\star01.png",320,240 M,22,218737,219442,286,358,281,236 F,3,218737,219442,1,0 S,9,218737,219442,0.09,0 R,0,218737,219442,4,2 C,0,218737,219442,170,255,170 P,0,218737,219442,A
Sprite,Foreground,Centre,"SB\star01.png",320,240 M,22,218737,219442,286,358,375,319 F,3,218737,219442,1,0 S,9,218737,219442,0.11,0 R,0,218737,219442,4,1 C,0,218737,219442,170,255,170 P,0,218737,219442,A
Sprite,Foreground,Centre,"SB\star02.png",320,240 M,22,218737,219442,286,358,275,287 F,3,218737,219442,1,0 S,9,218737,219442,0.24,0 R,0,218737,219442,4,2 C,0,218737,219442,170,255,170 P,0,218737,219442,A
Sprite,Foreground,Centre,"SB\star02.png",320,240 M,22,218737,219442,286,358,392,283 F,3,218737,219442,1,0 S,9,218737,219442,0.27,0 R,0,218737,219442,0,2 C,0,218737,219442,170,255,170 P,0,218737,219442,A
Sprite,Foreground,Centre,"SB\star01.png",320,240 M,22,218737,219442,286,358,350,450 F,3,218737,219442,1,0 S,9,218737,219442,0.22,0 R,0,218737,219442,1,2 C,0,218737,219442,170,255,170 P,0,218737,219442,A
Sprite,Foreground,Centre,"SB\star01.png",320,240 M,22,218737,219442,286,358,237,319 F,3,218737,219442,1,0 S,9,218737,219442,0.24,0 R,0,218737,219442,4,1 C,0,218737,219442,170,255,170 P,0,218737,219442,A
Sprite,Foreground,Centre,"SB\star02.png",320,240 M,22,218737,219442,286,358,262,436 F,3,218737,219442,1,0 S,9,218737,219442,0.13,0 R,0,218737,219442,2,0 C,0,218737,219442,170,255,170 P,0,218737,219442,A
Sprite,Foreground,Centre,"SB\star02.png",320,240 M,22,218737,219442,286,358,203,478 F,3,218737,219442,1,0 S,9,218737,219442,0.1,0 R,0,218737,219442,4,1 C,0,218737,219442,170,255,170 P,0,218737,219442,A
Sprite,Foreground,Centre,"SB\star01.png",320,240 M,22,218737,219442,286,358,418,303 F,3,218737,219442,1,0 S,9,218737,219442,0.34,0 R,0,218737,219442,1 C,0,218737,219442,170,255,170 P,0,218737,219442,A
Sprite,Foreground,Centre,"SB\star02.png",320,240 M,22,218737,219442,286,358,341,409 F,3,218737,219442,1,0 S,9,218737,219442,0.24,0 R,0,218737,219442,1,0 C,0,218737,219442,170,255,170 P,0,218737,219442,A
Sprite,Foreground,Centre,"SB\star01.png",320,240 M,22,218737,219442,286,358,427,342 F,3,218737,219442,1,0 S,9,218737,219442,0.22,0 R,0,218737,219442,1,0 C,0,218737,219442,170,255,170 P,0,218737,219442,A
Sprite,Foreground,Centre,"SB\star02.png",320,240 M,22,218737,219442,286,358,230,403 F,3,218737,219442,1,0 S,9,218737,219442,0.39,0 R,0,218737,219442,1,0 C,0,218737,219442,170,255,170 P,0,218737,219442,A
Sprite,Foreground,Centre,"SB\star01.png",320,240 M,22,218737,219442,286,358,318,476 F,3,218737,219442,1,0 S,9,218737,219442,0.28,0 R,0,218737,219442,5,1 C,0,218737,219442,170,255,170 P,0,218737,219442,A
Sprite,Foreground,Centre,"SB\star02.png",320,240 M,22,218737,219442,286,358,190,334 F,3,218737,219442,1,0 S,9,218737,219442,0.26,0 R,0,218737,219442,0,1 C,0,218737,219442,170,255,170 P,0,218737,219442,A
Sprite,Foreground,Centre,"SB\ring.png",334,133 F,2,219066,219471,1,0 S,7,219066,219471,0.3,0.8 C,0,219066,219471,255,255,62 P,0,219066,219471,A
Sprite,Foreground,Centre,"SB\star01.png",320,240 M,22,219066,219771,334,133,498,125 F,3,219066,219771,1,0 S,9,219066,219771,0.3,0 R,0,219066,219771,5,0 C,0,219066,219771,255,255,62 P,0,219066,219771,A
Sprite,Foreground,Centre,"SB\star01.png",320,240 M,22,219066,219771,334,133,432,259 F,3,219066,219771,1,0 S,9,219066,219771,0.05,0 R,0,219066,219771,1,2 C,0,219066,219771,255,255,62 P,0,219066,219771,A
Sprite,Foreground,Centre,"SB\star01.png",320,240 M,22,219066,219771,334,133,402,220 F,3,219066,219771,1,0 S,9,219066,219771,0.28,0 R,0,219066,219771,5,1 C,0,219066,219771,255,255,62 P,0,219066,219771,A
Sprite,Foreground,Centre,"SB\star01.png",320,240 M,22,219066,219771,334,133,280,201 F,3,219066,219771,1,0 S,9,219066,219771,0.06,0 R,0,219066,219771,5,1 C,0,219066,219771,255,255,62 P,0,219066,219771,A
Sprite,Foreground,Centre,"SB\star02.png",320,240 M,22,219066,219771,334,133,446,134 F,3,219066,219771,1,0 S,9,219066,219771,0.33,0 R,0,219066,219771,1,2 C,0,219066,219771,255,255,62 P,0,219066,219771,A
Sprite,Foreground,Centre,"SB\star01.png",320,240 M,22,219066,219771,334,133,331,59 F,3,219066,219771,1,0 S,9,219066,219771,0.08,0 R,0,219066,219771,1 C,0,219066,219771,255,255,62 P,0,219066,219771,A
Sprite,Foreground,Centre,"SB\star01.png",320,240 M,22,219066,219771,334,133,450,99 F,3,219066,219771,1,0 S,9,219066,219771,0.33,0 R,0,219066,219771,2,1 C,0,219066,219771,255,255,62 P,0,219066,219771,A
Sprite,Foreground,Centre,"SB\star01.png",320,240 M,22,219066,219771,334,133,342,-33 F,3,219066,219771,1,0 S,9,219066,219771,0.09,0 R,0,219066,219771,1,2 C,0,219066,219771,255,255,62 P,0,219066,219771,A
Sprite,Foreground,Centre,"SB\star01.png",320,240 M,22,219066,219771,334,133,445,88 F,3,219066,219771,1,0 S,9,219066,219771,0.12,0 R,0,219066,219771,1,0 C,0,219066,219771,255,255,62 P,0,219066,219771,A
Sprite,Foreground,Centre,"SB\star01.png",320,240 M,22,219066,219771,334,133,185,106 F,3,219066,219771,1,0 S,9,219066,219771,0.18,0 R,0,219066,219771,5,3 C,0,219066,219771,255,255,62 P,0,219066,219771,A
Sprite,Foreground,Centre,"SB\star01.png",320,240 M,22,219066,219771,334,133,256,112 F,3,219066,219771,1,0 S,9,219066,219771,0.1,0 R,0,219066,219771,1,0 C,0,219066,219771,255,255,62 P,0,219066,219771,A
Sprite,Foreground,Centre,"SB\star02.png",320,240 M,22,219066,219771,334,133,373,206 F,3,219066,219771,1,0 S,9,219066,219771,0.23,0 R,0,219066,219771,3,0 C,0,219066,219771,255,255,62 P,0,219066,219771,A
Sprite,Foreground,Centre,"SB\star02.png",320,240 M,22,219066,219771,334,133,384,75 F,3,219066,219771,1,0 S,9,219066,219771,0.08,0 R,0,219066,219771,4,0 C,0,219066,219771,255,255,62 P,0,219066,219771,A
Sprite,Foreground,Centre,"SB\star01.png",320,240 M,22,219066,219771,334,133,443,232 F,3,219066,219771,1,0 S,9,219066,219771,0.14,0 R,0,219066,219771,3,0 C,0,219066,219771,255,255,62 P,0,219066,219771,A
Sprite,Foreground,Centre,"SB\star01.png",320,240 M,22,219066,219771,334,133,205,163 F,3,219066,219771,1,0 S,9,219066,219771,0.1,0 R,0,219066,219771,0,1 C,0,219066,219771,255,255,62 P,0,219066,219771,A
Sprite,Foreground,Centre,"SB\star01.png",320,240 M,22,219066,219771,334,133,274,240 F,3,219066,219771,1,0 S,9,219066,219771,0.26,0 R,0,219066,219771,2,3 C,0,219066,219771,255,255,62 P,0,219066,219771,A
Sprite,Foreground,Centre,"SB\star02.png",320,240 M,22,219066,219771,334,133,234,29 F,3,219066,219771,1,0 S,9,219066,219771,0.26,0 R,0,219066,219771,5,2 C,0,219066,219771,255,255,62 P,0,219066,219771,A
Sprite,Foreground,Centre,"SB\star02.png",320,240 M,22,219066,219771,334,133,285,229 F,3,219066,219771,1,0 S,9,219066,219771,0.32,0 R,0,219066,219771,6,0 C,0,219066,219771,255,255,62 P,0,219066,219771,A
Sprite,Foreground,Centre,"SB\star01.png",320,240 M,22,219066,219771,334,133,292,54 F,3,219066,219771,1,0 S,9,219066,219771,0.16,0 R,0,219066,219771,1,0 C,0,219066,219771,255,255,62 P,0,219066,219771,A
Sprite,Foreground,Centre,"SB\star01.png",320,240 M,22,219066,219771,334,133,444,229 F,3,219066,219771,1,0 S,9,219066,219771,0.18,0 R,0,219066,219771,1,2 C,0,219066,219771,255,255,62 P,0,219066,219771,A
Sprite,Foreground,Centre,"SB\star02.png",320,240 M,22,219066,219771,334,133,356,230 F,3,219066,219771,1,0 S,9,219066,219771,0.25,0 R,0,219066,219771,4,0 C,0,219066,219771,255,255,62 P,0,219066,219771,A
Sprite,Foreground,Centre,"SB\star01.png",320,240 M,22,219066,219771,334,133,223,170 F,3,219066,219771,1,0 S,9,219066,219771,0.31,0 R,0,219066,219771,5,1 C,0,219066,219771,255,255,62 P,0,219066,219771,A
Sprite,Foreground,Centre,"SB\star02.png",320,240 M,22,219066,219771,334,133,352,10 F,3,219066,219771,1,0 S,9,219066,219771,0.13,0 R,0,219066,219771,1,0 C,0,219066,219771,255,255,62 P,0,219066,219771,A
Sprite,Foreground,Centre,"SB\star02.png",320,240 M,22,219066,219771,334,133,214,237 F,3,219066,219771,1,0 S,9,219066,219771,0.3,0 R,0,219066,219771,1,0 C,0,219066,219771,255,255,62 P,0,219066,219771,A
Sprite,Foreground,Centre,"SB\star02.png",320,240 M,22,219066,219771,334,133,215,177 F,3,219066,219771,1,0 S,9,219066,219771,0.21,0 R,0,219066,219771,4,2 C,0,219066,219771,255,255,62 P,0,219066,219771,A
Sprite,Foreground,Centre,"SB\star01.png",320,240 M,22,219066,219771,334,133,386,239 F,3,219066,219771,1,0 S,9,219066,219771,0.16,0 R,0,219066,219771,2 C,0,219066,219771,255,255,62 P,0,219066,219771,A
Sprite,Foreground,Centre,"SB\star02.png",320,240 M,22,219066,219771,334,133,267,69 F,3,219066,219771,1,0 S,9,219066,219771,0.37,0 R,0,219066,219771,0,1 C,0,219066,219771,255,255,62 P,0,219066,219771,A
Sprite,Foreground,Centre,"SB\star02.png",320,240 M,22,219066,219771,334,133,471,226 F,3,219066,219771,1,0 S,9,219066,219771,0.36,0 R,0,219066,219771,2 C,0,219066,219771,255,255,62 P,0,219066,219771,A
Sprite,Foreground,Centre,"SB\star01.png",320,240 M,22,219066,219771,334,133,447,254 F,3,219066,219771,1,0 S,9,219066,219771,0.11,0 R,0,219066,219771,3,0 C,0,219066,219771,255,255,62 P,0,219066,219771,A
Sprite,Foreground,Centre,"SB\star02.png",320,240 M,22,219066,219771,334,133,263,11 F,3,219066,219771,1,0 S,9,219066,219771,0.14,0 R,0,219066,219771,0 C,0,219066,219771,255,255,62 P,0,219066,219771,A
Sprite,Foreground,Centre,"SB\ring.png",327,162 F,2,219149,219554,1,0 S,7,219149,219554,0.3,0.8 C,0,219149,219554,255,255,62 P,0,219149,219554,A
Sprite,Foreground,Centre,"SB\star02.png",320,240 M,22,219149,219854,327,162,337,49 F,3,219149,219854,1,0 S,9,219149,219854,0.39,0 R,0,219149,219854,3,1 C,0,219149,219854,255,255,62 P,0,219149,219854,A
Sprite,Foreground,Centre,"SB\star02.png",320,240 M,22,219149,219854,327,162,426,114 F,3,219149,219854,1,0 S,9,219149,219854,0.08,0 R,0,219149,219854,1 C,0,219149,219854,255,255,62 P,0,219149,219854,A
Sprite,Foreground,Centre,"SB\star01.png",320,240 M,22,219149,219854,327,162,287,96 F,3,219149,219854,1,0 S,9,219149,219854,0.37,0 R,0,219149,219854,4,0 C,0,219149,219854,255,255,62 P,0,219149,219854,A
Sprite,Foreground,Centre,"SB\star01.png",320,240 M,22,219149,219854,327,162,217,108 F,3,219149,219854,1,0 S,9,219149,219854,0.17,0 R,0,219149,219854,1,3 C,0,219149,219854,255,255,62 P,0,219149,219854,A
Sprite,Foreground,Centre,"SB\star01.png",320,240 M,22,219149,219854,327,162,377,55 F,3,219149,219854,1,0 S,9,219149,219854,0.2,0 R,0,219149,219854,3,1 C,0,219149,219854,255,255,62 P,0,219149,219854,A
Sprite,Foreground,Centre,"SB\star01.png",320,240 M,22,219149,219854,327,162,438,193 F,3,219149,219854,1,0 S,9,219149,219854,0.22,0 R,0,219149,219854,3,0 C,0,219149,219854,255,255,62 P,0,219149,219854,A
Sprite,Foreground,Centre,"SB\star01.png",320,240 M,22,219149,219854,327,162,272,244 F,3,219149,219854,1,0 S,9,219149,219854,0.33,0 R,0,219149,219854,0 C,0,219149,219854,255,255,62 P,0,219149,219854,A
Sprite,Foreground,Centre,"SB\star02.png",320,240 M,22,219149,219854,327,162,215,157 F,3,219149,219854,1,0 S,9,219149,219854,0.22,0 R,0,219149,219854,5,1 C,0,219149,219854,255,255,62 P,0,219149,219854,A
Sprite,Foreground,Centre,"SB\star01.png",320,240 M,22,219149,219854,327,162,444,208 F,3,219149,219854,1,0 S,9,219149,219854,0.2,0 R,0,219149,219854,2 C,0,219149,219854,255,255,62 P,0,219149,219854,A
Sprite,Foreground,Centre,"SB\star02.png",320,240 M,22,219149,219854,327,162,444,187 F,3,219149,219854,1,0 S,9,219149,219854,0.12,0 R,0,219149,219854,0,2 C,0,219149,219854,255,255,62 P,0,219149,219854,A
Sprite,Foreground,Centre,"SB\star02.png",320,240 M,22,219149,219854,327,162,239,234 F,3,219149,219854,1,0 S,9,219149,219854,0.25,0 R,0,219149,219854,0,1 C,0,219149,219854,255,255,62 P,0,219149,219854,A
Sprite,Foreground,Centre,"SB\star02.png",320,240 M,22,219149,219854,327,162,318,59 F,3,219149,219854,1,0 S,9,219149,219854,0.23,0 R,0,219149,219854,2 C,0,219149,219854,255,255,62 P,0,219149,219854,A
Sprite,Foreground,Centre,"SB\star02.png",320,240 M,22,219149,219854,327,162,308,237 F,3,219149,219854,1,0 S,9,219149,219854,0.33,0 R,0,219149,219854,1,2 C,0,219149,219854,255,255,62 P,0,219149,219854,A
Sprite,Foreground,Centre,"SB\star02.png",320,240 M,22,219149,219854,327,162,288,91 F,3,219149,219854,1,0 S,9,219149,219854,0.07,0 R,0,219149,219854,0,2 C,0,219149,219854,255,255,62 P,0,219149,219854,A
Sprite,Foreground,Centre,"SB\star01.png",320,240 M,22,219149,219854,327,162,326,1 F,3,219149,219854,1,0 S,9,219149,219854,0.29,0 R,0,219149,219854,1,0 C,0,219149,219854,255,255,62 P,0,219149,219854,A
Sprite,Foreground,Centre,"SB\star02.png",320,240 M,22,219149,219854,327,162,486,208 F,3,219149,219854,1,0 S,9,219149,219854,0.37,0 R,0,219149,219854,2,1 C,0,219149,219854,255,255,62 P,0,219149,219854,A
Sprite,Foreground,Centre,"SB\star02.png",320,240 M,22,219149,219854,327,162,344,26 F,3,219149,219854,1,0 S,9,219149,219854,0.4,0 R,0,219149,219854,5,1 C,0,219149,219854,255,255,62 P,0,219149,219854,A
Sprite,Foreground,Centre,"SB\star02.png",320,240 M,22,219149,219854,327,162,279,313 F,3,219149,219854,1,0 S,9,219149,219854,0.15,0 R,0,219149,219854,1,2 C,0,219149,219854,255,255,62 P,0,219149,219854,A
Sprite,Foreground,Centre,"SB\star02.png",320,240 M,22,219149,219854,327,162,205,127 F,3,219149,219854,1,0 S,9,219149,219854,0.34,0 R,0,219149,219854,3,1 C,0,219149,219854,255,255,62 P,0,219149,219854,A
Sprite,Foreground,Centre,"SB\star01.png",320,240 M,22,219149,219854,327,162,413,139 F,3,219149,219854,1,0 S,9,219149,219854,0.25,0 R,0,219149,219854,1,0 C,0,219149,219854,255,255,62 P,0,219149,219854,A
Sprite,Foreground,Centre,"SB\star02.png",320,240 M,22,219149,219854,327,162,470,196 F,3,219149,219854,1,0 S,9,219149,219854,0.38,0 R,0,219149,219854,5,1 C,0,219149,219854,255,255,62 P,0,219149,219854,A
Sprite,Foreground,Centre,"SB\star02.png",320,240 M,22,219149,219854,327,162,328,81 F,3,219149,219854,1,0 S,9,219149,219854,0.32,0 R,0,219149,219854,4,2 C,0,219149,219854,255,255,62 P,0,219149,219854,A
Sprite,Foreground,Centre,"SB\star01.png",320,240 M,22,219149,219854,327,162,450,123 F,3,219149,219854,1,0 S,9,219149,219854,0.32,0 R,0,219149,219854,6,0 C,0,219149,219854,255,255,62 P,0,219149,219854,A
Sprite,Foreground,Centre,"SB\star01.png",320,240 M,22,219149,219854,327,162,396,207 F,3,219149,219854,1,0 S,9,219149,219854,0.34,0 R,0,219149,219854,1 C,0,219149,219854,255,255,62 P,0,219149,219854,A
Sprite,Foreground,Centre,"SB\star01.png",320,240 M,22,219149,219854,327,162,394,215 F,3,219149,219854,1,0 S,9,219149,219854,0.4,0 R,0,219149,219854,1,2 C,0,219149,219854,255,255,62 P,0,219149,219854,A
Sprite,Foreground,Centre,"SB\star01.png",320,240 M,22,219149,219854,327,162,351,12 F,3,219149,219854,1,0 S,9,219149,219854,0.24,0 R,0,219149,219854,1 C,0,219149,219854,255,255,62 P,0,219149,219854,A
Sprite,Foreground,Centre,"SB\star02.png",320,240 M,22,219149,219854,327,162,247,286 F,3,219149,219854,1,0 S,9,219149,219854,0.09,0 R,0,219149,219854,3,0 C,0,219149,219854,255,255,62 P,0,219149,219854,A
Sprite,Foreground,Centre,"SB\star02.png",320,240 M,22,219149,219854,327,162,286,48 F,3,219149,219854,1,0 S,9,219149,219854,0.19,0 R,0,219149,219854,6,0 C,0,219149,219854,255,255,62 P,0,219149,219854,A
Sprite,Foreground,Centre,"SB\star02.png",320,240 M,22,219149,219854,327,162,394,158 F,3,219149,219854,1,0 S,9,219149,219854,0.28,0 R,0,219149,219854,3,2 C,0,219149,219854,255,255,62 P,0,219149,219854,A
Sprite,Foreground,Centre,"SB\star01.png",320,240 M,22,219149,219854,327,162,251,114 F,3,219149,219854,1,0 S,9,219149,219854,0.14,0 R,0,219149,219854,1,0 C,0,219149,219854,255,255,62 P,0,219149,219854,A
Sprite,Foreground,Centre,"SB\ring.png",319,190 F,2,219231,219636,1,0 S,7,219231,219636,0.3,0.8 C,0,219231,219636,255,255,62 P,0,219231,219636,A
Sprite,Foreground,Centre,"SB\star01.png",320,240 M,22,219231,219936,319,190,319,128 F,3,219231,219936,1,0 S,9,219231,219936,0.27,0 R,0,219231,219936,0 C,0,219231,219936,255,255,62 P,0,219231,219936,A
Sprite,Foreground,Centre,"SB\star02.png",320,240 M,22,219231,219936,319,190,408,183 F,3,219231,219936,1,0 S,9,219231,219936,0.21,0 R,0,219231,219936,1,0 C,0,219231,219936,255,255,62 P,0,219231,219936,A
Sprite,Foreground,Centre,"SB\star01.png",320,240 M,22,219231,219936,319,190,223,166 F,3,219231,219936,1,0 S,9,219231,219936,0.33,0 R,0,219231,219936,3,2 C,0,219231,219936,255,255,62 P,0,219231,219936,A
Sprite,Foreground,Centre,"SB\star01.png",320,240 M,22,219231,219936,319,190,349,43 F,3,219231,219936,1,0 S,9,219231,219936,0.34,0 R,0,219231,219936,1,0 C,0,219231,219936,255,255,62 P,0,219231,219936,A
Sprite,Foreground,Centre,"SB\star01.png",320,240 M,22,219231,219936,319,190,227,90 F,3,219231,219936,1,0 S,9,219231,219936,0.25,0 R,0,219231,219936,1 C,0,219231,219936,255,255,62 P,0,219231,219936,A
Sprite,Foreground,Centre,"SB\star02.png",320,240 M,22,219231,219936,319,190,280,136 F,3,219231,219936,1,0 S,9,219231,219936,0.2,0 R,0,219231,219936,1 C,0,219231,219936,255,255,62 P,0,219231,219936,A
Sprite,Foreground,Centre,"SB\star01.png",320,240 M,22,219231,219936,319,190,350,296 F,3,219231,219936,1,0 S,9,219231,219936,0.05,0 R,0,219231,219936,3,2 C,0,219231,219936,255,255,62 P,0,219231,219936,A
Sprite,Foreground,Centre,"SB\star01.png",320,240 M,22,219231,219936,319,190,390,194 F,3,219231,219936,1,0 S,9,219231,219936,0.3,0 R,0,219231,219936,0,1 C,0,219231,219936,255,255,62 P,0,219231,219936,A
Sprite,Foreground,Centre,"SB\star01.png",320,240 M,22,219231,219936,319,190,396,185 F,3,219231,219936,1,0 S,9,219231,219936,0.33,0 R,0,219231,219936,5,2 C,0,219231,219936,255,255,62 P,0,219231,219936,A
Sprite,Foreground,Centre,"SB\star02.png",320,240 M,22,219231,219936,319,190,198,75 F,3,219231,219936,1,0 S,9,219231,219936,0.15,0 R,0,219231,219936,5,2 C,0,219231,219936,255,255,62 P,0,219231,219936,A
Sprite,Foreground,Centre,"SB\star02.png",320,240 M,22,219231,219936,319,190,468,173 F,3,219231,219936,1,0 S,9,219231,219936,0.06,0 R,0,219231,219936,5,2 C,0,219231,219936,255,255,62 P,0,219231,219936,A
Sprite,Foreground,Centre,"SB\star02.png",320,240 M,22,219231,219936,319,190,291,288 F,3,219231,219936,1,0 S,9,219231,219936,0.11,0 R,0,219231,219936,1,3 C,0,219231,219936,255,255,62 P,0,219231,219936,A
Sprite,Foreground,Centre,"SB\star01.png",320,240 M,22,219231,219936,319,190,355,84 F,3,219231,219936,1,0 S,9,219231,219936,0.19,0 R,0,219231,219936,0 C,0,219231,219936,255,255,62 P,0,219231,219936,A
Sprite,Foreground,Centre,"SB\star02.png",320,240 M,22,219231,219936,319,190,225,278 F,3,219231,219936,1,0 S,9,219231,219936,0.36,0 R,0,219231,219936,0 C,0,219231,219936,255,255,62 P,0,219231,219936,A
Sprite,Foreground,Centre,"SB\star02.png",320,240 M,22,219231,219936,319,190,269,135 F,3,219231,219936,1,0 S,9,219231,219936,0.31,0 R,0,219231,219936,3,1 C,0,219231,219936,255,255,62 P,0,219231,219936,A
Sprite,Foreground,Centre,"SB\star02.png",320,240 M,22,219231,219936,319,190,452,120 F,3,219231,219936,1,0 S,9,219231,219936,0.17,0 R,0,219231,219936,1,0 C,0,219231,219936,255,255,62 P,0,219231,219936,A
Sprite,Foreground,Centre,"SB\star02.png",320,240 M,22,219231,219936,319,190,243,179 F,3,219231,219936,1,0 S,9,219231,219936,0.15,0 R,0,219231,219936,4,1 C,0,219231,219936,255,255,62 P,0,219231,219936,A
Sprite,Foreground,Centre,"SB\star01.png",320,240 M,22,219231,219936,319,190,426,192 F,3,219231,219936,1,0 S,9,219231,219936,0.08,0 R,0,219231,219936,0,2 C,0,219231,219936,255,255,62 P,0,219231,219936,A
Sprite,Foreground,Centre,"SB\star02.png",320,240 M,22,219231,219936,319,190,239,230 F,3,219231,219936,1,0 S,9,219231,219936,0.23,0 R,0,219231,219936,1,0 C,0,219231,219936,255,255,62 P,0,219231,219936,A
Sprite,Foreground,Centre,"SB\star01.png",320,240 M,22,219231,219936,319,190,385,209 F,3,219231,219936,1,0 S,9,219231,219936,0.33,0 R,0,219231,219936,3,2 C,0,219231,219936,255,255,62 P,0,219231,219936,A
Sprite,Foreground,Centre,"SB\star02.png",320,240 M,22,219231,219936,319,190,400,330 F,3,219231,219936,1,0 S,9,219231,219936,0.38,0 R,0,219231,219936,0,2 C,0,219231,219936,255,255,62 P,0,219231,219936,A
Sprite,Foreground,Centre,"SB\star01.png",320,240 M,22,219231,219936,319,190,363,129 F,3,219231,219936,1,0 S,9,219231,219936,0.33,0 R,0,219231,219936,3,1 C,0,219231,219936,255,255,62 P,0,219231,219936,A
Sprite,Foreground,Centre,"SB\star02.png",320,240 M,22,219231,219936,319,190,398,98 F,3,219231,219936,1,0 S,9,219231,219936,0.26,0 R,0,219231,219936,3 C,0,219231,219936,255,255,62 P,0,219231,219936,A
Sprite,Foreground,Centre,"SB\star01.png",320,240 M,22,219231,219936,319,190,234,228 F,3,219231,219936,1,0 S,9,219231,219936,0.24,0 R,0,219231,219936,1,0 C,0,219231,219936,255,255,62 P,0,219231,219936,A
Sprite,Foreground,Centre,"SB\star01.png",320,240 M,22,219231,219936,319,190,349,260 F,3,219231,219936,1,0 S,9,219231,219936,0.1,0 R,0,219231,219936,5,0 C,0,219231,219936,255,255,62 P,0,219231,219936,A
Sprite,Foreground,Centre,"SB\star01.png",320,240 M,22,219231,219936,319,190,173,118 F,3,219231,219936,1,0 S,9,219231,219936,0.3,0 R,0,219231,219936,5,0 C,0,219231,219936,255,255,62 P,0,219231,219936,A
Sprite,Foreground,Centre,"SB\star01.png",320,240 M,22,219231,219936,319,190,341,273 F,3,219231,219936,1,0 S,9,219231,219936,0.21,0 R,0,219231,219936,5,0 C,0,219231,219936,255,255,62 P,0,219231,219936,A
Sprite,Foreground,Centre,"SB\star02.png",320,240 M,22,219231,219936,319,190,461,213 F,3,219231,219936,1,0 S,9,219231,219936,0.38,0 R,0,219231,219936,1,2 C,0,219231,219936,255,255,62 P,0,219231,219936,A
Sprite,Foreground,Centre,"SB\star01.png",320,240 M,22,219231,219936,319,190,333,253 F,3,219231,219936,1,0 S,9,219231,219936,0.2,0 R,0,219231,219936,0,2 C,0,219231,219936,255,255,62 P,0,219231,219936,A
Sprite,Foreground,Centre,"SB\star01.png",320,240 M,22,219231,219936,319,190,432,118 F,3,219231,219936,1,0 S,9,219231,219936,0.12,0 R,0,219231,219936,3,1 C,0,219231,219936,255,255,62 P,0,219231,219936,A
Sprite,Foreground,Centre,"SB\ring.png",313,219 F,2,219314,219719,1,0 S,7,219314,219719,0.3,0.8 C,0,219314,219719,255,255,62 P,0,219314,219719,A
Sprite,Foreground,Centre,"SB\star02.png",320,240 M,22,219314,220019,313,219,339,352 F,3,219314,220019,1,0 S,9,219314,220019,0.28,0 R,0,219314,220019,0 C,0,219314,220019,255,255,62 P,0,219314,220019,A
Sprite,Foreground,Centre,"SB\star01.png",320,240 M,22,219314,220019,313,219,411,174 F,3,219314,220019,1,0 S,9,219314,220019,0.13,0 R,0,219314,220019,0,1 C,0,219314,220019,255,255,62 P,0,219314,220019,A
Sprite,Foreground,Centre,"SB\star01.png",320,240 M,22,219314,220019,313,219,348,124 F,3,219314,220019,1,0 S,9,219314,220019,0.35,0 R,0,219314,220019,4,1 C,0,219314,220019,255,255,62 P,0,219314,220019,A
Sprite,Foreground,Centre,"SB\star02.png",320,240 M,22,219314,220019,313,219,237,133 F,3,219314,220019,1,0 S,9,219314,220019,0.14,0 R,0,219314,220019,2,1 C,0,219314,220019,255,255,62 P,0,219314,220019,A
Sprite,Foreground,Centre,"SB\star02.png",320,240 M,22,219314,220019,313,219,221,84 F,3,219314,220019,1,0 S,9,219314,220019,0.23,0 R,0,219314,220019,4,1 C,0,219314,220019,255,255,62 P,0,219314,220019,A
Sprite,Foreground,Centre,"SB\star02.png",320,240 M,22,219314,220019,313,219,267,259 F,3,219314,220019,1,0 S,9,219314,220019,0.23,0 R,0,219314,220019,0 C,0,219314,220019,255,255,62 P,0,219314,220019,A
Sprite,Foreground,Centre,"SB\star01.png",320,240 M,22,219314,220019,313,219,322,154 F,3,219314,220019,1,0 S,9,219314,220019,0.32,0 R,0,219314,220019,0,2 C,0,219314,220019,255,255,62 P,0,219314,220019,A
Sprite,Foreground,Centre,"SB\star01.png",320,240 M,22,219314,220019,313,219,440,318 F,3,219314,220019,1,0 S,9,219314,220019,0.3,0 R,0,219314,220019,0,1 C,0,219314,220019,255,255,62 P,0,219314,220019,A
Sprite,Foreground,Centre,"SB\star01.png",320,240 M,22,219314,220019,313,219,280,361 F,3,219314,220019,1,0 S,9,219314,220019,0.29,0 R,0,219314,220019,4,2 C,0,219314,220019,255,255,62 P,0,219314,220019,A
Sprite,Foreground,Centre,"SB\star01.png",320,240 M,22,219314,220019,313,219,273,308 F,3,219314,220019,1,0 S,9,219314,220019,0.26,0 R,0,219314,220019,1,2 C,0,219314,220019,255,255,62 P,0,219314,220019,A
Sprite,Foreground,Centre,"SB\star01.png",320,240 M,22,219314,220019,313,219,373,295 F,3,219314,220019,1,0 S,9,219314,220019,0.13,0 R,0,219314,220019,2,3 C,0,219314,220019,255,255,62 P,0,219314,220019,A
Sprite,Foreground,Centre,"SB\star02.png",320,240 M,22,219314,220019,313,219,327,284 F,3,219314,220019,1,0 S,9,219314,220019,0.13,0 R,0,219314,220019,5,0 C,0,219314,220019,255,255,62 P,0,219314,220019,A
Sprite,Foreground,Centre,"SB\star02.png",320,240 M,22,219314,220019,313,219,218,151 F,3,219314,220019,1,0 S,9,219314,220019,0.18,0 R,0,219314,220019,2,1 C,0,219314,220019,255,255,62 P,0,219314,220019,A
Sprite,Foreground,Centre,"SB\star01.png",320,240 M,22,219314,220019,313,219,189,134 F,3,219314,220019,1,0 S,9,219314,220019,0.29,0 R,0,219314,220019,1,0 C,0,219314,220019,255,255,62 P,0,219314,220019,A
Sprite,Foreground,Centre,"SB\star02.png",320,240 M,22,219314,220019,313,219,324,116 F,3,219314,220019,1,0 S,9,219314,220019,0.19,0 R,0,219314,220019,0 C,0,219314,220019,255,255,62 P,0,219314,220019,A
Sprite,Foreground,Centre,"SB\star01.png",320,240 M,22,219314,220019,313,219,251,255 F,3,219314,220019,1,0 S,9,219314,220019,0.2,0 R,0,219314,220019,4,2 C,0,219314,220019,255,255,62 P,0,219314,220019,A
Sprite,Foreground,Centre,"SB\star02.png",320,240 M,22,219314,220019,313,219,269,171 F,3,219314,220019,1,0 S,9,219314,220019,0.22,0 R,0,219314,220019,1,0 C,0,219314,220019,255,255,62 P,0,219314,220019,A
Sprite,Foreground,Centre,"SB\star02.png",320,240 M,22,219314,220019,313,219,325,285 F,3,219314,220019,1,0 S,9,219314,220019,0.22,0 R,0,219314,220019,5,1 C,0,219314,220019,255,255,62 P,0,219314,220019,A
Sprite,Foreground,Centre,"SB\star01.png",320,240 M,22,219314,220019,313,219,467,231 F,3,219314,220019,1,0 S,9,219314,220019,0.08,0 R,0,219314,220019,4,2 C,0,219314,220019,255,255,62 P,0,219314,220019,A
Sprite,Foreground,Centre,"SB\star02.png",320,240 M,22,219314,220019,313,219,371,75 F,3,219314,220019,1,0 S,9,219314,220019,0.1,0 R,0,219314,220019,1,0 C,0,219314,220019,255,255,62 P,0,219314,220019,A
Sprite,Foreground,Centre,"SB\star01.png",320,240 M,22,219314,220019,313,219,315,383 F,3,219314,220019,1,0 S,9,219314,220019,0.32,0 R,0,219314,220019,3,2 C,0,219314,220019,255,255,62 P,0,219314,220019,A
Sprite,Foreground,Centre,"SB\star02.png",320,240 M,22,219314,220019,313,219,331,82 F,3,219314,220019,1,0 S,9,219314,220019,0.33,0 R,0,219314,220019,2,1 C,0,219314,220019,255,255,62 P,0,219314,220019,A
Sprite,Foreground,Centre,"SB\star01.png",320,240 M,22,219314,220019,313,219,249,362 F,3,219314,220019,1,0 S,9,219314,220019,0.22,0 R,0,219314,220019,4,2 C,0,219314,220019,255,255,62 P,0,219314,220019,A
Sprite,Foreground,Centre,"SB\star02.png",320,240 M,22,219314,220019,313,219,407,80 F,3,219314,220019,1,0 S,9,219314,220019,0.09,0 R,0,219314,220019,4,1 C,0,219314,220019,255,255,62 P,0,219314,220019,A
Sprite,Foreground,Centre,"SB\star02.png",320,240 M,22,219314,220019,313,219,249,177 F,3,219314,220019,1,0 S,9,219314,220019,0.11,0 R,0,219314,220019,0,1 C,0,219314,220019,255,255,62 P,0,219314,220019,A
Sprite,Foreground,Centre,"SB\star02.png",320,240 M,22,219314,220019,313,219,434,209 F,3,219314,220019,1,0 S,9,219314,220019,0.28,0 R,0,219314,220019,3,2 C,0,219314,220019,255,255,62 P,0,219314,220019,A
Sprite,Foreground,Centre,"SB\star01.png",320,240 M,22,219314,220019,313,219,400,285 F,3,219314,220019,1,0 S,9,219314,220019,0.38,0 R,0,219314,220019,3,0 C,0,219314,220019,255,255,62 P,0,219314,220019,A
Sprite,Foreground,Centre,"SB\star01.png",320,240 M,22,219314,220019,313,219,180,324 F,3,219314,220019,1,0 S,9,219314,220019,0.31,0 R,0,219314,220019,3,1 C,0,219314,220019,255,255,62 P,0,219314,220019,A
Sprite,Foreground,Centre,"SB\star02.png",320,240 M,22,219314,220019,313,219,346,318 F,3,219314,220019,1,0 S,9,219314,220019,0.16,0 R,0,219314,220019,5,0 C,0,219314,220019,255,255,62 P,0,219314,220019,A
Sprite,Foreground,Centre,"SB\star02.png",320,240 M,22,219314,220019,313,219,208,194 F,3,219314,220019,1,0 S,9,219314,220019,0.05,0 R,0,219314,220019,3,1 C,0,219314,220019,255,255,62 P,0,219314,220019,A
Sprite,Foreground,Centre,"SB\ring.png",306,247 F,2,219396,219801,1,0 S,7,219396,219801,0.3,0.8 C,0,219396,219801,255,255,62 P,0,219396,219801,A
Sprite,Foreground,Centre,"SB\star02.png",320,240 M,22,219396,220101,306,247,175,155 F,3,219396,220101,1,0 S,9,219396,220101,0.17,0 R,0,219396,220101,4,1 C,0,219396,220101,255,255,62 P,0,219396,220101,A
Sprite,Foreground,Centre,"SB\star01.png",320,240 M,22,219396,220101,306,247,369,265 F,3,219396,220101,1,0 S,9,219396,220101,0.33,0 R,0,219396,220101,1,0 C,0,219396,220101,255,255,62 P,0,219396,220101,A
Sprite,Foreground,Centre,"SB\star02.png",320,240 M,22,219396,220101,306,247,216,309 F,3,219396,220101,1,0 S,9,219396,220101,0.06,0 R,0,219396,220101,4,1 C,0,219396,220101,255,255,62 P,0,219396,220101,A
Sprite,Foreground,Centre,"SB\star01.png",320,240 M,22,219396,220101,306,247,208,229 F,3,219396,220101,1,0 S,9,219396,220101,0.23,0 R,0,219396,220101,0,2 C,0,219396,220101,255,255,62 P,0,219396,220101,A
Sprite,Foreground,Centre,"SB\star01.png",320,240 M,22,219396,220101,306,247,259,376 F,3,219396,220101,1,0 S,9,219396,220101,0.21,0 R,0,219396,220101,6,2 C,0,219396,220101,255,255,62 P,0,219396,220101,A
Sprite,Foreground,Centre,"SB\star01.png",320,240 M,22,219396,220101,306,247,407,343 F,3,219396,220101,1,0 S,9,219396,220101,0.24,0 R,0,219396,220101,0 C,0,219396,220101,255,255,62 P,0,219396,220101,A
Sprite,Foreground,Centre,"SB\star02.png",320,240 M,22,219396,220101,306,247,410,243 F,3,219396,220101,1,0 S,9,219396,220101,0.08,0 R,0,219396,220101,4,0 C,0,219396,220101,255,255,62 P,0,219396,220101,A
Sprite,Foreground,Centre,"SB\star02.png",320,240 M,22,219396,220101,306,247,266,149 F,3,219396,220101,1,0 S,9,219396,220101,0.09,0 R,0,219396,220101,0 C,0,219396,220101,255,255,62 P,0,219396,220101,A
Sprite,Foreground,Centre,"SB\star01.png",320,240 M,22,219396,220101,306,247,369,290 F,3,219396,220101,1,0 S,9,219396,220101,0.24,0 R,0,219396,220101,3,0 C,0,219396,220101,255,255,62 P,0,219396,220101,A
Sprite,Foreground,Centre,"SB\star02.png",320,240 M,22,219396,220101,306,247,341,335 F,3,219396,220101,1,0 S,9,219396,220101,0.26,0 R,0,219396,220101,3,2 C,0,219396,220101,255,255,62 P,0,219396,220101,A
Sprite,Foreground,Centre,"SB\star01.png",320,240 M,22,219396,220101,306,247,206,351 F,3,219396,220101,1,0 S,9,219396,220101,0.37,0 R,0,219396,220101,5,2 C,0,219396,220101,255,255,62 P,0,219396,220101,A
Sprite,Foreground,Centre,"SB\star01.png",320,240 M,22,219396,220101,306,247,276,315 F,3,219396,220101,1,0 S,9,219396,220101,0.3,0 R,0,219396,220101,5,1 C,0,219396,220101,255,255,62 P,0,219396,220101,A
Sprite,Foreground,Centre,"SB\star02.png",320,240 M,22,219396,220101,306,247,290,158 F,3,219396,220101,1,0 S,9,219396,220101,0.27,0 R,0,219396,220101,5,0 C,0,219396,220101,255,255,62 P,0,219396,220101,A
Sprite,Foreground,Centre,"SB\star02.png",320,240 M,22,219396,220101,306,247,340,128 F,3,219396,220101,1,0 S,9,219396,220101,0.06,0 R,0,219396,220101,4,2 C,0,219396,220101,255,255,62 P,0,219396,220101,A
Sprite,Foreground,Centre,"SB\star01.png",320,240 M,22,219396,220101,306,247,452,251 F,3,219396,220101,1,0 S,9,219396,220101,0.28,0 R,0,219396,220101,4,1 C,0,219396,220101,255,255,62 P,0,219396,220101,A
Sprite,Foreground,Centre,"SB\star01.png",320,240 M,22,219396,220101,306,247,269,312 F,3,219396,220101,1,0 S,9,219396,220101,0.15,0 R,0,219396,220101,0 C,0,219396,220101,255,255,62 P,0,219396,220101,A
Sprite,Foreground,Centre,"SB\star01.png",320,240 M,22,219396,220101,306,247,440,288 F,3,219396,220101,1,0 S,9,219396,220101,0.15,0 R,0,219396,220101,2,1 C,0,219396,220101,255,255,62 P,0,219396,220101,A
Sprite,Foreground,Centre,"SB\star01.png",320,240 M,22,219396,220101,306,247,233,233 F,3,219396,220101,1,0 S,9,219396,220101,0.17,0 R,0,219396,220101,4,0 C,0,219396,220101,255,255,62 P,0,219396,220101,A
Sprite,Foreground,Centre,"SB\star01.png",320,240 M,22,219396,220101,306,247,235,93 F,3,219396,220101,1,0 S,9,219396,220101,0.32,0 R,0,219396,220101,2,1 C,0,219396,220101,255,255,62 P,0,219396,220101,A
Sprite,Foreground,Centre,"SB\star02.png",320,240 M,22,219396,220101,306,247,265,159 F,3,219396,220101,1,0 S,9,219396,220101,0.15,0 R,0,219396,220101,4,0 C,0,219396,220101,255,255,62 P,0,219396,220101,A
Sprite,Foreground,Centre,"SB\star01.png",320,240 M,22,219396,220101,306,247,380,320 F,3,219396,220101,1,0 S,9,219396,220101,0.34,0 R,0,219396,220101,5,3 C,0,219396,220101,255,255,62 P,0,219396,220101,A
Sprite,Foreground,Centre,"SB\star01.png",320,240 M,22,219396,220101,306,247,372,383 F,3,219396,220101,1,0 S,9,219396,220101,0.06,0 R,0,219396,220101,3,2 C,0,219396,220101,255,255,62 P,0,219396,220101,A
Sprite,Foreground,Centre,"SB\star01.png",320,240 M,22,219396,220101,306,247,159,220 F,3,219396,220101,1,0 S,9,219396,220101,0.33,0 R,0,219396,220101,4,2 C,0,219396,220101,255,255,62 P,0,219396,220101,A
Sprite,Foreground,Centre,"SB\star01.png",320,240 M,22,219396,220101,306,247,192,257 F,3,219396,220101,1,0 S,9,219396,220101,0.23,0 R,0,219396,220101,0,2 C,0,219396,220101,255,255,62 P,0,219396,220101,A
Sprite,Foreground,Centre,"SB\star02.png",320,240 M,22,219396,220101,306,247,379,308 F,3,219396,220101,1,0 S,9,219396,220101,0.35,0 R,0,219396,220101,0,1 C,0,219396,220101,255,255,62 P,0,219396,220101,A
Sprite,Foreground,Centre,"SB\star02.png",320,240 M,22,219396,220101,306,247,186,281 F,3,219396,220101,1,0 S,9,219396,220101,0.34,0 R,0,219396,220101,2,0 C,0,219396,220101,255,255,62 P,0,219396,220101,A
Sprite,Foreground,Centre,"SB\star02.png",320,240 M,22,219396,220101,306,247,173,202 F,3,219396,220101,1,0 S,9,219396,220101,0.12,0 R,0,219396,220101,1,0 C,0,219396,220101,255,255,62 P,0,219396,220101,A
Sprite,Foreground,Centre,"SB\star01.png",320,240 M,22,219396,220101,306,247,266,175 F,3,219396,220101,1,0 S,9,219396,220101,0.16,0 R,0,219396,220101,2,0 C,0,219396,220101,255,255,62 P,0,219396,220101,A
Sprite,Foreground,Centre,"SB\star01.png",320,240 M,22,219396,220101,306,247,436,217 F,3,219396,220101,1,0 S,9,219396,220101,0.32,0 R,0,219396,220101,6,1 C,0,219396,220101,255,255,62 P,0,219396,220101,A
Sprite,Foreground,Centre,"SB\star02.png",320,240 M,22,219396,220101,306,247,366,332 F,3,219396,220101,1,0 S,9,219396,220101,0.16,0 R,0,219396,220101,0 C,0,219396,220101,255,255,62 P,0,219396,220101,A
Sprite,Foreground,Centre,"SB\ring.png",423,114 F,2,219561,219966,1,0 S,7,219561,219966,0.3,0.8 C,0,219561,219966,128,255,255 P,0,219561,219966,A
Sprite,Foreground,Centre,"SB\star02.png",320,240 M,22,219561,220266,423,114,548,54 F,3,219561,220266,1,0 S,9,219561,220266,0.37,0 R,0,219561,220266,2,0 C,0,219561,220266,128,255,255 P,0,219561,220266,A
Sprite,Foreground,Centre,"SB\star02.png",320,240 M,22,219561,220266,423,114,568,182 F,3,219561,220266,1,0 S,9,219561,220266,0.25,0 R,0,219561,220266,0 C,0,219561,220266,128,255,255 P,0,219561,220266,A
Sprite,Foreground,Centre,"SB\star01.png",320,240 M,22,219561,220266,423,114,357,-1 F,3,219561,220266,1,0 S,9,219561,220266,0.07,0 R,0,219561,220266,1 C,0,219561,220266,128,255,255 P,0,219561,220266,A
Sprite,Foreground,Centre,"SB\star02.png",320,240 M,22,219561,220266,423,114,367,255 F,3,219561,220266,1,0 S,9,219561,220266,0.29,0 R,0,219561,220266,4,1 C,0,219561,220266,128,255,255 P,0,219561,220266,A
Sprite,Foreground,Centre,"SB\star01.png",320,240 M,22,219561,220266,423,114,354,110 F,3,219561,220266,1,0 S,9,219561,220266,0.07,0 R,0,219561,220266,0 C,0,219561,220266,128,255,255 P,0,219561,220266,A
Sprite,Foreground,Centre,"SB\star01.png",320,240 M,22,219561,220266,423,114,549,112 F,3,219561,220266,1,0 S,9,219561,220266,0.26,0 R,0,219561,220266,4,1 C,0,219561,220266,128,255,255 P,0,219561,220266,A
Sprite,Foreground,Centre,"SB\star01.png",320,240 M,22,219561,220266,423,114,451,33 F,3,219561,220266,1,0 S,9,219561,220266,0.33,0 R,0,219561,220266,4,1 C,0,219561,220266,128,255,255 P,0,219561,220266,A
Sprite,Foreground,Centre,"SB\star01.png",320,240 M,22,219561,220266,423,114,489,156 F,3,219561,220266,1,0 S,9,219561,220266,0.26,0 R,0,219561,220266,3,2 C,0,219561,220266,128,255,255 P,0,219561,220266,A
Sprite,Foreground,Centre,"SB\star02.png",320,240 M,22,219561,220266,423,114,260,157 F,3,219561,220266,1,0 S,9,219561,220266,0.32,0 R,0,219561,220266,4,1 C,0,219561,220266,128,255,255 P,0,219561,220266,A
Sprite,Foreground,Centre,"SB\star02.png",320,240 M,22,219561,220266,423,114,364,-32 F,3,219561,220266,1,0 S,9,219561,220266,0.13,0 R,0,219561,220266,0,2 C,0,219561,220266,128,255,255 P,0,219561,220266,A
Sprite,Foreground,Centre,"SB\star01.png",320,240 M,22,219561,220266,423,114,456,188 F,3,219561,220266,1,0 S,9,219561,220266,0.12,0 R,0,219561,220266,6,2 C,0,219561,220266,128,255,255 P,0,219561,220266,A
Sprite,Foreground,Centre,"SB\star02.png",320,240 M,22,219561,220266,423,114,283,208 F,3,219561,220266,1,0 S,9,219561,220266,0.07,0 R,0,219561,220266,3,1 C,0,219561,220266,128,255,255 P,0,219561,220266,A
Sprite,Foreground,Centre,"SB\star01.png",320,240 M,22,219561,220266,423,114,438,-51 F,3,219561,220266,1,0 S,9,219561,220266,0.19,0 R,0,219561,220266,1 C,0,219561,220266,128,255,255 P,0,219561,220266,A
Sprite,Foreground,Centre,"SB\star01.png",320,240 M,22,219561,220266,423,114,582,109 F,3,219561,220266,1,0 S,9,219561,220266,0.24,0 R,0,219561,220266,2,0 C,0,219561,220266,128,255,255 P,0,219561,220266,A
Sprite,Foreground,Centre,"SB\star01.png",320,240 M,22,219561,220266,423,114,483,158 F,3,219561,220266,1,0 S,9,219561,220266,0.15,0 R,0,219561,220266,3,1 C,0,219561,220266,128,255,255 P,0,219561,220266,A
Sprite,Foreground,Centre,"SB\star02.png",320,240 M,22,219561,220266,423,114,390,270 F,3,219561,220266,1,0 S,9,219561,220266,0.14,0 R,0,219561,220266,4,1 C,0,219561,220266,128,255,255 P,0,219561,220266,A
Sprite,Foreground,Centre,"SB\star02.png",320,240 M,22,219561,220266,423,114,318,186 F,3,219561,220266,1,0 S,9,219561,220266,0.18,0 R,0,219561,220266,5,2 C,0,219561,220266,128,255,255 P,0,219561,220266,A
Sprite,Foreground,Centre,"SB\star01.png",320,240 M,22,219561,220266,423,114,474,49 F,3,219561,220266,1,0 S,9,219561,220266,0.35,0 R,0,219561,220266,4,2 C,0,219561,220266,128,255,255 P,0,219561,220266,A
Sprite,Foreground,Centre,"SB\star02.png",320,240 M,22,219561,220266,423,114,325,242 F,3,219561,220266,1,0 S,9,219561,220266,0.35,0 R,0,219561,220266,0,2 C,0,219561,220266,128,255,255 P,0,219561,220266,A
Sprite,Foreground,Centre,"SB\star02.png",320,240 M,22,219561,220266,423,114,513,56 F,3,219561,220266,1,0 S,9,219561,220266,0.21,0 R,0,219561,220266,1 C,0,219561,220266,128,255,255 P,0,219561,220266,A
Sprite,Foreground,Centre,"SB\star01.png",320,240 M,22,219561,220266,423,114,450,190 F,3,219561,220266,1,0 S,9,219561,220266,0.36,0 R,0,219561,220266,3,0 C,0,219561,220266,128,255,255 P,0,219561,220266,A
Sprite,Foreground,Centre,"SB\star01.png",320,240 M,22,219561,220266,423,114,312,-12 F,3,219561,220266,1,0 S,9,219561,220266,0.36,0 R,0,219561,220266,2,0 C,0,219561,220266,128,255,255 P,0,219561,220266,A
Sprite,Foreground,Centre,"SB\star01.png",320,240 M,22,219561,220266,423,114,490,83 F,3,219561,220266,1,0 S,9,219561,220266,0.3,0 R,0,219561,220266,3,0 C,0,219561,220266,128,255,255 P,0,219561,220266,A
Sprite,Foreground,Centre,"SB\star01.png",320,240 M,22,219561,220266,423,114,499,142 F,3,219561,220266,1,0 S,9,219561,220266,0.08,0 R,0,219561,220266,0,1 C,0,219561,220266,128,255,255 P,0,219561,220266,A
Sprite,Foreground,Centre,"SB\star02.png",320,240 M,22,219561,220266,423,114,413,197 F,3,219561,220266,1,0 S,9,219561,220266,0.23,0 R,0,219561,220266,5,2 C,0,219561,220266,128,255,255 P,0,219561,220266,A
Sprite,Foreground,Centre,"SB\star01.png",320,240 M,22,219561,220266,423,114,507,125 F,3,219561,220266,1,0 S,9,219561,220266,0.3,0 R,0,219561,220266,1 C,0,219561,220266,128,255,255 P,0,219561,220266,A
Sprite,Foreground,Centre,"SB\star02.png",320,240 M,22,219561,220266,423,114,553,70 F,3,219561,220266,1,0 S,9,219561,220266,0.25,0 R,0,219561,220266,1,0 C,0,219561,220266,128,255,255 P,0,219561,220266,A
Sprite,Foreground,Centre,"SB\star02.png",320,240 M,22,219561,220266,423,114,426,240 F,3,219561,220266,1,0 S,9,219561,220266,0.17,0 R,0,219561,220266,1,0 C,0,219561,220266,128,255,255 P,0,219561,220266,A
Sprite,Foreground,Centre,"SB\star01.png",320,240 M,22,219561,220266,423,114,512,144 F,3,219561,220266,1,0 S,9,219561,220266,0.38,0 R,0,219561,220266,0,3 C,0,219561,220266,128,255,255 P,0,219561,220266,A
Sprite,Foreground,Centre,"SB\star01.png",320,240 M,22,219561,220266,423,114,503,175 F,3,219561,220266,1,0 S,9,219561,220266,0.39,0 R,0,219561,220266,4,2 C,0,219561,220266,128,255,255 P,0,219561,220266,A
Sprite,Foreground,Centre,"SB\ring.png",423,114 F,2,219891,220296,1,0 S,7,219891,220296,0.3,0.8 C,0,219891,220296,128,255,255 P,0,219891,220296,A
Sprite,Foreground,Centre,"SB\star02.png",320,240 M,22,219891,220596,423,114,329,85 F,3,219891,220596,1,0 S,9,219891,220596,0.28,0 R,0,219891,220596,2,0 C,0,219891,220596,128,255,255 P,0,219891,220596,A
Sprite,Foreground,Centre,"SB\star02.png",320,240 M,22,219891,220596,423,114,436,247 F,3,219891,220596,1,0 S,9,219891,220596,0.27,0 R,0,219891,220596,3,0 C,0,219891,220596,128,255,255 P,0,219891,220596,A
Sprite,Foreground,Centre,"SB\star02.png",320,240 M,22,219891,220596,423,114,485,155 F,3,219891,220596,1,0 S,9,219891,220596,0.07,0 R,0,219891,220596,5,1 C,0,219891,220596,128,255,255 P,0,219891,220596,A
Sprite,Foreground,Centre,"SB\star02.png",320,240 M,22,219891,220596,423,114,351,-22 F,3,219891,220596,1,0 S,9,219891,220596,0.14,0 R,0,219891,220596,0 C,0,219891,220596,128,255,255 P,0,219891,220596,A
Sprite,Foreground,Centre,"SB\star01.png",320,240 M,22,219891,220596,423,114,314,36 F,3,219891,220596,1,0 S,9,219891,220596,0.1,0 R,0,219891,220596,4,2 C,0,219891,220596,128,255,255 P,0,219891,220596,A
Sprite,Foreground,Centre,"SB\star02.png",320,240 M,22,219891,220596,423,114,542,126 F,3,219891,220596,1,0 S,9,219891,220596,0.37,0 R,0,219891,220596,0,1 C,0,219891,220596,128,255,255 P,0,219891,220596,A
Sprite,Foreground,Centre,"SB\star02.png",320,240 M,22,219891,220596,423,114,361,271 F,3,219891,220596,1,0 S,9,219891,220596,0.08,0 R,0,219891,220596,3,1 C,0,219891,220596,128,255,255 P,0,219891,220596,A
Sprite,Foreground,Centre,"SB\star01.png",320,240 M,22,219891,220596,423,114,522,-24 F,3,219891,220596,1,0 S,9,219891,220596,0.08,0 R,0,219891,220596,2,0 C,0,219891,220596,128,255,255 P,0,219891,220596,A
Sprite,Foreground,Centre,"SB\star02.png",320,240 M,22,219891,220596,423,114,327,23 F,3,219891,220596,1,0 S,9,219891,220596,0.37,0 R,0,219891,220596,1 C,0,219891,220596,128,255,255 P,0,219891,220596,A
Sprite,Foreground,Centre,"SB\star01.png",320,240 M,22,219891,220596,423,114,399,-44 F,3,219891,220596,1,0 S,9,219891,220596,0.29,0 R,0,219891,220596,2,1 C,0,219891,220596,128,255,255 P,0,219891,220596,A
Sprite,Foreground,Centre,"SB\star02.png",320,240 M,22,219891,220596,423,114,327,57 F,3,219891,220596,1,0 S,9,219891,220596,0.33,0 R,0,219891,220596,5,2 C,0,219891,220596,128,255,255 P,0,219891,220596,A
Sprite,Foreground,Centre,"SB\star02.png",320,240 M,22,219891,220596,423,114,291,108 F,3,219891,220596,1,0 S,9,219891,220596,0.23,0 R,0,219891,220596,5,2 C,0,219891,220596,128,255,255 P,0,219891,220596,A
Sprite,Foreground,Centre,"SB\star02.png",320,240 M,22,219891,220596,423,114,525,144 F,3,219891,220596,1,0 S,9,219891,220596,0.21,0 R,0,219891,220596,4,0 C,0,219891,220596,128,255,255 P,0,219891,220596,A
Sprite,Foreground,Centre,"SB\star02.png",320,240 M,22,219891,220596,423,114,380,165 F,3,219891,220596,1,0 S,9,219891,220596,0.16,0 R,0,219891,220596,4,0 C,0,219891,220596,128,255,255 P,0,219891,220596,A
Sprite,Foreground,Centre,"SB\star01.png",320,240 M,22,219891,220596,423,114,538,112 F,3,219891,220596,1,0 S,9,219891,220596,0.21,0 R,0,219891,220596,5,0 C,0,219891,220596,128,255,255 P,0,219891,220596,A
Sprite,Foreground,Centre,"SB\star02.png",320,240 M,22,219891,220596,423,114,382,249 F,3,219891,220596,1,0 S,9,219891,220596,0.18,0 R,0,219891,220596,2,0 C,0,219891,220596,128,255,255 P,0,219891,220596,A
Sprite,Foreground,Centre,"SB\star01.png",320,240 M,22,219891,220596,423,114,346,179 F,3,219891,220596,1,0 S,9,219891,220596,0.29,0 R,0,219891,220596,4,1 C,0,219891,220596,128,255,255 P,0,219891,220596,A
Sprite,Foreground,Centre,"SB\star02.png",320,240 M,22,219891,220596,423,114,331,106 F,3,219891,220596,1,0 S,9,219891,220596,0.15,0 R,0,219891,220596,4,3 C,0,219891,220596,128,255,255 P,0,219891,220596,A
Sprite,Foreground,Centre,"SB\star02.png",320,240 M,22,219891,220596,423,114,302,130 F,3,219891,220596,1,0 S,9,219891,220596,0.32,0 R,0,219891,220596,3,0 C,0,219891,220596,128,255,255 P,0,219891,220596,A
Sprite,Foreground,Centre,"SB\star01.png",320,240 M,22,219891,220596,423,114,420,40 F,3,219891,220596,1,0 S,9,219891,220596,0.18,0 R,0,219891,220596,2 C,0,219891,220596,128,255,255 P,0,219891,220596,A
Sprite,Foreground,Centre,"SB\star02.png",320,240 M,22,219891,220596,423,114,329,185 F,3,219891,220596,1,0 S,9,219891,220596,0.3,0 R,0,219891,220596,4,2 C,0,219891,220596,128,255,255 P,0,219891,220596,A
Sprite,Foreground,Centre,"SB\star01.png",320,240 M,22,219891,220596,423,114,506,234 F,3,219891,220596,1,0 S,9,219891,220596,0.27,0 R,0,219891,220596,4,1 C,0,219891,220596,128,255,255 P,0,219891,220596,A
Sprite,Foreground,Centre,"SB\star01.png",320,240 M,22,219891,220596,423,114,513,51 F,3,219891,220596,1,0 S,9,219891,220596,0.21,0 R,0,219891,220596,1,2 C,0,219891,220596,128,255,255 P,0,219891,220596,A
Sprite,Foreground,Centre,"SB\star02.png",320,240 M,22,219891,220596,423,114,571,177 F,3,219891,220596,1,0 S,9,219891,220596,0.28,0 R,0,219891,220596,3,1 C,0,219891,220596,128,255,255 P,0,219891,220596,A
Sprite,Foreground,Centre,"SB\star02.png",320,240 M,22,219891,220596,423,114,377,-44 F,3,219891,220596,1,0 S,9,219891,220596,0.09,0 R,0,219891,220596,3,0 C,0,219891,220596,128,255,255 P,0,219891,220596,A
Sprite,Foreground,Centre,"SB\star02.png",320,240 M,22,219891,220596,423,114,482,182 F,3,219891,220596,1,0 S,9,219891,220596,0.34,0 R,0,219891,220596,1,2 C,0,219891,220596,128,255,255 P,0,219891,220596,A
Sprite,Foreground,Centre,"SB\star01.png",320,240 M,22,219891,220596,423,114,479,71 F,3,219891,220596,1,0 S,9,219891,220596,0.09,0 R,0,219891,220596,4,1 C,0,219891,220596,128,255,255 P,0,219891,220596,A
Sprite,Foreground,Centre,"SB\star02.png",320,240 M,22,219891,220596,423,114,455,58 F,3,219891,220596,1,0 S,9,219891,220596,0.1,0 R,0,219891,220596,3,2 C,0,219891,220596,128,255,255 P,0,219891,220596,A
Sprite,Foreground,Centre,"SB\star01.png",320,240 M,22,219891,220596,423,114,344,15 F,3,219891,220596,1,0 S,9,219891,220596,0.22,0 R,0,219891,220596,5,0 C,0,219891,220596,128,255,255 P,0,219891,220596,A
Sprite,Foreground,Centre,"SB\star01.png",320,240 M,22,219891,220596,423,114,286,213 F,3,219891,220596,1,0 S,9,219891,220596,0.16,0 R,0,219891,220596,1,3 C,0,219891,220596,128,255,255 P,0,219891,220596,A
Sprite,Foreground,Centre,"SB\ring.png",468,243 F,2,220055,220460,1,0 S,7,220055,220460,0.3,0.8 C,0,220055,220460,128,255,255 P,0,220055,220460,A
Sprite,Foreground,Centre,"SB\star02.png",320,240 M,22,220055,220760,468,243,454,303 F,3,220055,220760,1,0 S,9,220055,220760,0.28,0 R,0,220055,220760,3,2 C,0,220055,220760,128,255,255 P,0,220055,220760,A
Sprite,Foreground,Centre,"SB\star01.png",320,240 M,22,220055,220760,468,243,542,239 F,3,220055,220760,1,0 S,9,220055,220760,0.18,0 R,0,220055,220760,2,1 C,0,220055,220760,128,255,255 P,0,220055,220760,A
Sprite,Foreground,Centre,"SB\star01.png",320,240 M,22,220055,220760,468,243,320,209 F,3,220055,220760,1,0 S,9,220055,220760,0.06,0 R,0,220055,220760,6,1 C,0,220055,220760,128,255,255 P,0,220055,220760,A
Sprite,Foreground,Centre,"SB\star01.png",320,240 M,22,220055,220760,468,243,501,181 F,3,220055,220760,1,0 S,9,220055,220760,0.17,0 R,0,220055,220760,1 C,0,220055,220760,128,255,255 P,0,220055,220760,A
Sprite,Foreground,Centre,"SB\star02.png",320,240 M,22,220055,220760,468,243,394,113 F,3,220055,220760,1,0 S,9,220055,220760,0.31,0 R,0,220055,220760,1 C,0,220055,220760,128,255,255 P,0,220055,220760,A
Sprite,Foreground,Centre,"SB\star02.png",320,240 M,22,220055,220760,468,243,408,314 F,3,220055,220760,1,0 S,9,220055,220760,0.33,0 R,0,220055,220760,3,0 C,0,220055,220760,128,255,255 P,0,220055,220760,A
Sprite,Foreground,Centre,"SB\star02.png",320,240 M,22,220055,220760,468,243,450,112 F,3,220055,220760,1,0 S,9,220055,220760,0.21,0 R,0,220055,220760,5,1 C,0,220055,220760,128,255,255 P,0,220055,220760,A
Sprite,Foreground,Centre,"SB\star01.png",320,240 M,22,220055,220760,468,243,563,210 F,3,220055,220760,1,0 S,9,220055,220760,0.2,0 R,0,220055,220760,5,2 C,0,220055,220760,128,255,255 P,0,220055,220760,A
Sprite,Foreground,Centre,"SB\star01.png",320,240 M,22,220055,220760,468,243,474,167 F,3,220055,220760,1,0 S,9,220055,220760,0.07,0 R,0,220055,220760,4,2 C,0,220055,220760,128,255,255 P,0,220055,220760,A
Sprite,Foreground,Centre,"SB\star01.png",320,240 M,22,220055,220760,468,243,377,258 F,3,220055,220760,1,0 S,9,220055,220760,0.36,0 R,0,220055,220760,2,0 C,0,220055,220760,128,255,255 P,0,220055,220760,A
Sprite,Foreground,Centre,"SB\star01.png",320,240 M,22,220055,220760,468,243,480,118 F,3,220055,220760,1,0 S,9,220055,220760,0.22,0 R,0,220055,220760,4,1 C,0,220055,220760,128,255,255 P,0,220055,220760,A
Sprite,Foreground,Centre,"SB\star01.png",320,240 M,22,220055,220760,468,243,615,167 F,3,220055,220760,1,0 S,9,220055,220760,0.37,0 R,0,220055,220760,3,2 C,0,220055,220760,128,255,255 P,0,220055,220760,A
Sprite,Foreground,Centre,"SB\star02.png",320,240 M,22,220055,220760,468,243,501,77 F,3,220055,220760,1,0 S,9,220055,220760,0.39,0 R,0,220055,220760,1 C,0,220055,220760,128,255,255 P,0,220055,220760,A
Sprite,Foreground,Centre,"SB\star02.png",320,240 M,22,220055,220760,468,243,419,95 F,3,220055,220760,1,0 S,9,220055,220760,0.34,0 R,0,220055,220760,5,0 C,0,220055,220760,128,255,255 P,0,220055,220760,A
Sprite,Foreground,Centre,"SB\star02.png",320,240 M,22,220055,220760,468,243,479,125 F,3,220055,220760,1,0 S,9,220055,220760,0.32,0 R,0,220055,220760,2 C,0,220055,220760,128,255,255 P,0,220055,220760,A
Sprite,Foreground,Centre,"SB\star01.png",320,240 M,22,220055,220760,468,243,442,310 F,3,220055,220760,1,0 S,9,220055,220760,0.21,0 R,0,220055,220760,2,0 C,0,220055,220760,128,255,255 P,0,220055,220760,A
Sprite,Foreground,Centre,"SB\star01.png",320,240 M,22,220055,220760,468,243,404,148 F,3,220055,220760,1,0 S,9,220055,220760,0.07,0 R,0,220055,220760,5,2 C,0,220055,220760,128,255,255 P,0,220055,220760,A
Sprite,Foreground,Centre,"SB\star01.png",320,240 M,22,220055,220760,468,243,482,338 F,3,220055,220760,1,0 S,9,220055,220760,0.06,0 R,0,220055,220760,3 C,0,220055,220760,128,255,255 P,0,220055,220760,A
Sprite,Foreground,Centre,"SB\star02.png",320,240 M,22,220055,220760,468,243,364,362 F,3,220055,220760,1,0 S,9,220055,220760,0.21,0 R,0,220055,220760,4,0 C,0,220055,220760,128,255,255 P,0,220055,220760,A
Sprite,Foreground,Centre,"SB\star02.png",320,240 M,22,220055,220760,468,243,395,264 F,3,220055,220760,1,0 S,9,220055,220760,0.21,0 R,0,220055,220760,2 C,0,220055,220760,128,255,255 P,0,220055,220760,A
Sprite,Foreground,Centre,"SB\star02.png",320,240 M,22,220055,220760,468,243,340,159 F,3,220055,220760,1,0 S,9,220055,220760,0.39,0 R,0,220055,220760,2,0 C,0,220055,220760,128,255,255 P,0,220055,220760,A
Sprite,Foreground,Centre,"SB\star02.png",320,240 M,22,220055,220760,468,243,560,292 F,3,220055,220760,1,0 S,9,220055,220760,0.11,0 R,0,220055,220760,5,0 C,0,220055,220760,128,255,255 P,0,220055,220760,A
Sprite,Foreground,Centre,"SB\star01.png",320,240 M,22,220055,220760,468,243,387,349 F,3,220055,220760,1,0 S,9,220055,220760,0.27,0 R,0,220055,220760,1,0 C,0,220055,220760,128,255,255 P,0,220055,220760,A
Sprite,Foreground,Centre,"SB\star02.png",320,240 M,22,220055,220760,468,243,357,138 F,3,220055,220760,1,0 S,9,220055,220760,0.28,0 R,0,220055,220760,0,1 C,0,220055,220760,128,255,255 P,0,220055,220760,A
Sprite,Foreground,Centre,"SB\star01.png",320,240 M,22,220055,220760,468,243,385,213 F,3,220055,220760,1,0 S,9,220055,220760,0.06,0 R,0,220055,220760,3,1 C,0,220055,220760,128,255,255 P,0,220055,220760,A
Sprite,Foreground,Centre,"SB\star02.png",320,240 M,22,220055,220760,468,243,419,344 F,3,220055,220760,1,0 S,9,220055,220760,0.12,0 R,0,220055,220760,2,3 C,0,220055,220760,128,255,255 P,0,220055,220760,A
Sprite,Foreground,Centre,"SB\star02.png",320,240 M,22,220055,220760,468,243,393,220 F,3,220055,220760,1,0 S,9,220055,220760,0.13,0 R,0,220055,220760,2 C,0,220055,220760,128,255,255 P,0,220055,220760,A
Sprite,Foreground,Centre,"SB\star02.png",320,240 M,22,220055,220760,468,243,505,146 F,3,220055,220760,1,0 S,9,220055,220760,0.16,0 R,0,220055,220760,5,0 C,0,220055,220760,128,255,255 P,0,220055,220760,A
Sprite,Foreground,Centre,"SB\star02.png",320,240 M,22,220055,220760,468,243,569,153 F,3,220055,220760,1,0 S,9,220055,220760,0.21,0 R,0,220055,220760,4,2 C,0,220055,220760,128,255,255 P,0,220055,220760,A
Sprite,Foreground,Centre,"SB\star01.png",320,240 M,22,220055,220760,468,243,569,258 F,3,220055,220760,1,0 S,9,220055,220760,0.34,0 R,0,220055,220760,3,0 C,0,220055,220760,128,255,255 P,0,220055,220760,A
Sprite,Foreground,Centre,"SB\ring.png",258,139 F,2,220220,220625,1,0 S,7,220220,220625,0.3,0.8 C,0,220220,220625,128,255,255 P,0,220220,220625,A
Sprite,Foreground,Centre,"SB\star01.png",320,240 M,22,220220,220925,258,139,345,134 F,3,220220,220925,1,0 S,9,220220,220925,0.15,0 R,0,220220,220925,4,1 C,0,220220,220925,128,255,255 P,0,220220,220925,A
Sprite,Foreground,Centre,"SB\star01.png",320,240 M,22,220220,220925,258,139,362,254 F,3,220220,220925,1,0 S,9,220220,220925,0.22,0 R,0,220220,220925,1,0 C,0,220220,220925,128,255,255 P,0,220220,220925,A
Sprite,Foreground,Centre,"SB\star02.png",320,240 M,22,220220,220925,258,139,330,29 F,3,220220,220925,1,0 S,9,220220,220925,0.39,0 R,0,220220,220925,4,0 C,0,220220,220925,128,255,255 P,0,220220,220925,A
Sprite,Foreground,Centre,"SB\star02.png",320,240 M,22,220220,220925,258,139,175,207 F,3,220220,220925,1,0 S,9,220220,220925,0.21,0 R,0,220220,220925,5,1 C,0,220220,220925,128,255,255 P,0,220220,220925,A
Sprite,Foreground,Centre,"SB\star02.png",320,240 M,22,220220,220925,258,139,297,11 F,3,220220,220925,1,0 S,9,220220,220925,0.28,0 R,0,220220,220925,3,1 C,0,220220,220925,128,255,255 P,0,220220,220925,A
Sprite,Foreground,Centre,"SB\star02.png",320,240 M,22,220220,220925,258,139,316,68 F,3,220220,220925,1,0 S,9,220220,220925,0.15,0 R,0,220220,220925,3,2 C,0,220220,220925,128,255,255 P,0,220220,220925,A
Sprite,Foreground,Centre,"SB\star01.png",320,240 M,22,220220,220925,258,139,151,255 F,3,220220,220925,1,0 S,9,220220,220925,0.19,0 R,0,220220,220925,2,3 C,0,220220,220925,128,255,255 P,0,220220,220925,A
Sprite,Foreground,Centre,"SB\star02.png",320,240 M,22,220220,220925,258,139,329,184 F,3,220220,220925,1,0 S,9,220220,220925,0.2,0 R,0,220220,220925,0 C,0,220220,220925,128,255,255 P,0,220220,220925,A
Sprite,Foreground,Centre,"SB\star02.png",320,240 M,22,220220,220925,258,139,279,290 F,3,220220,220925,1,0 S,9,220220,220925,0.31,0 R,0,220220,220925,5,2 C,0,220220,220925,128,255,255 P,0,220220,220925,A
Sprite,Foreground,Centre,"SB\star01.png",320,240 M,22,220220,220925,258,139,325,80 F,3,220220,220925,1,0 S,9,220220,220925,0.05,0 R,0,220220,220925,5,2 C,0,220220,220925,128,255,255 P,0,220220,220925,A
Sprite,Foreground,Centre,"SB\star01.png",320,240 M,22,220220,220925,258,139,318,109 F,3,220220,220925,1,0 S,9,220220,220925,0.18,0 R,0,220220,220925,2,0 C,0,220220,220925,128,255,255 P,0,220220,220925,A
Sprite,Foreground,Centre,"SB\star02.png",320,240 M,22,220220,220925,258,139,295,294 F,3,220220,220925,1,0 S,9,220220,220925,0.3,0 R,0,220220,220925,2 C,0,220220,220925,128,255,255 P,0,220220,220925,A
Sprite,Foreground,Centre,"SB\star01.png",320,240 M,22,220220,220925,258,139,388,142 F,3,220220,220925,1,0 S,9,220220,220925,0.3,0 R,0,220220,220925,1,2 C,0,220220,220925,128,255,255 P,0,220220,220925,A
Sprite,Foreground,Centre,"SB\star01.png",320,240 M,22,220220,220925,258,139,336,127 F,3,220220,220925,1,0 S,9,220220,220925,0.06,0 R,0,220220,220925,5,0 C,0,220220,220925,128,255,255 P,0,220220,220925,A
Sprite,Foreground,Centre,"SB\star01.png",320,240 M,22,220220,220925,258,139,350,100 F,3,220220,220925,1,0 S,9,220220,220925,0.16,0 R,0,220220,220925,2 C,0,220220,220925,128,255,255 P,0,220220,220925,A
Sprite,Foreground,Centre,"SB\star01.png",320,240 M,22,220220,220925,258,139,153,59 F,3,220220,220925,1,0 S,9,220220,220925,0.13,0 R,0,220220,220925,4,2 C,0,220220,220925,128,255,255 P,0,220220,220925,A
Sprite,Foreground,Centre,"SB\star01.png",320,240 M,22,220220,220925,258,139,346,144 F,3,220220,220925,1,0 S,9,220220,220925,0.07,0 R,0,220220,220925,5,0 C,0,220220,220925,128,255,255 P,0,220220,220925,A
Sprite,Foreground,Centre,"SB\star01.png",320,240 M,22,220220,220925,258,139,140,92 F,3,220220,220925,1,0 S,9,220220,220925,0.37,0 R,0,220220,220925,4,2 C,0,220220,220925,128,255,255 P,0,220220,220925,A
Sprite,Foreground,Centre,"SB\star01.png",320,240 M,22,220220,220925,258,139,369,131 F,3,220220,220925,1,0 S,9,220220,220925,0.1,0 R,0,220220,220925,1 C,0,220220,220925,128,255,255 P,0,220220,220925,A
Sprite,Foreground,Centre,"SB\star02.png",320,240 M,22,220220,220925,258,139,315,42 F,3,220220,220925,1,0 S,9,220220,220925,0.11,0 R,0,220220,220925,0,1 C,0,220220,220925,128,255,255 P,0,220220,220925,A
Sprite,Foreground,Centre,"SB\star01.png",320,240 M,22,220220,220925,258,139,240,54 F,3,220220,220925,1,0 S,9,220220,220925,0.29,0 R,0,220220,220925,3,1 C,0,220220,220925,128,255,255 P,0,220220,220925,A
Sprite,Foreground,Centre,"SB\star02.png",320,240 M,22,220220,220925,258,139,195,105 F,3,220220,220925,1,0 S,9,220220,220925,0.24,0 R,0,220220,220925,2 C,0,220220,220925,128,255,255 P,0,220220,220925,A
Sprite,Foreground,Centre,"SB\star02.png",320,240 M,22,220220,220925,258,139,322,105 F,3,220220,220925,1,0 S,9,220220,220925,0.24,0 R,0,220220,220925,0 C,0,220220,220925,128,255,255 P,0,220220,220925,A
Sprite,Foreground,Centre,"SB\star02.png",320,240 M,22,220220,220925,258,139,191,209 F,3,220220,220925,1,0 S,9,220220,220925,0.31,0 R,0,220220,220925,0,3 C,0,220220,220925,128,255,255 P,0,220220,220925,A
Sprite,Foreground,Centre,"SB\star02.png",320,240 M,22,220220,220925,258,139,296,221 F,3,220220,220925,1,0 S,9,220220,220925,0.18,0 R,0,220220,220925,0,3 C,0,220220,220925,128,255,255 P,0,220220,220925,A
Sprite,Foreground,Centre,"SB\star01.png",320,240 M,22,220220,220925,258,139,117,87 F,3,220220,220925,1,0 S,9,220220,220925,0.12,0 R,0,220220,220925,4,1 C,0,220220,220925,128,255,255 P,0,220220,220925,A
Sprite,Foreground,Centre,"SB\star01.png",320,240 M,22,220220,220925,258,139,201,197 F,3,220220,220925,1,0 S,9,220220,220925,0.3,0 R,0,220220,220925,4,3 C,0,220220,220925,128,255,255 P,0,220220,220925,A
Sprite,Foreground,Centre,"SB\star01.png",320,240 M,22,220220,220925,258,139,411,128 F,3,220220,220925,1,0 S,9,220220,220925,0.32,0 R,0,220220,220925,3,0 C,0,220220,220925,128,255,255 P,0,220220,220925,A
Sprite,Foreground,Centre,"SB\star02.png",320,240 M,22,220220,220925,258,139,390,98 F,3,220220,220925,1,0 S,9,220220,220925,0.21,0 R,0,220220,220925,4,2 C,0,220220,220925,128,255,255 P,0,220220,220925,A
Sprite,Foreground,Centre,"SB\star01.png",320,240 M,22,220220,220925,258,139,353,33 F,3,220220,220925,1,0 S,9,220220,220925,0.08,0 R,0,220220,220925,3 C,0,220220,220925,128,255,255 P,0,220220,220925,A
Sprite,Foreground,Centre,"SB\star02.png",320,240 M,22,275770,276770,344,408,281,372 F,3,275770,276770,1,0 S,9,275770,276770,0.17,0 R,0,275770,276770,0,1 C,0,275770,276770,170,255,170 P,0,275770,276770,A
Sprite,Foreground,Centre,"SB\star01.png",320,240 M,22,275770,276770,344,408,415,404 F,3,275770,276770,1,0 S,9,275770,276770,0.2,0 R,0,275770,276770,3,1 C,0,275770,276770,170,255,170 P,0,275770,276770,A
Sprite,Foreground,Centre,"SB\star01.png",320,240 M,22,275770,276770,344,408,257,397 F,3,275770,276770,1,0 S,9,275770,276770,0.18,0 R,0,275770,276770,5,2 C,0,275770,276770,170,255,170 P,0,275770,276770,A
Sprite,Foreground,Centre,"SB\star02.png",320,240 M,22,275770,276770,344,408,285,368 F,3,275770,276770,1,0 S,9,275770,276770,0.11,0 R,0,275770,276770,3 C,0,275770,276770,170,255,170 P,0,275770,276770,A
Sprite,Foreground,Centre,"SB\star02.png",320,240 M,22,275770,276770,344,408,323,300 F,3,275770,276770,1,0 S,9,275770,276770,0.11,0 R,0,275770,276770,1,0 C,0,275770,276770,170,255,170 P,0,275770,276770,A
Sprite,Foreground,Centre,"SB\star01.png",320,240 M,22,275770,276770,344,408,396,353 F,3,275770,276770,1,0 S,9,275770,276770,0.09,0 R,0,275770,276770,0 C,0,275770,276770,170,255,170 P,0,275770,276770,A
Sprite,Foreground,Centre,"SB\star01.png",320,240 M,22,275770,276770,344,408,283,446 F,3,275770,276770,1,0 S,9,275770,276770,0.07,0 R,0,275770,276770,0 C,0,275770,276770,170,255,170 P,0,275770,276770,A
Sprite,Foreground,Centre,"SB\star01.png",320,240 M,22,275770,276770,344,408,307,466 F,3,275770,276770,1,0 S,9,275770,276770,0.07,0 R,0,275770,276770,3,1 C,0,275770,276770,170,255,170 P,0,275770,276770,A
Sprite,Foreground,Centre,"SB\star01.png",320,240 M,22,275770,276770,344,408,396,468 F,3,275770,276770,1,0 S,9,275770,276770,0.15,0 R,0,275770,276770,2,1 C,0,275770,276770,170,255,170 P,0,275770,276770,A
Sprite,Foreground,Centre,"SB\star02.png",320,240 M,22,275770,276770,344,408,277,414 F,3,275770,276770,1,0 S,9,275770,276770,0.1,0 R,0,275770,276770,2,1 C,0,275770,276770,170,255,170 P,0,275770,276770,A
Sprite,Foreground,Centre,"SB\star02.png",320,240 M,22,275770,276770,344,408,384,445 F,3,275770,276770,1,0 S,9,275770,276770,0.14,0 R,0,275770,276770,5,2 C,0,275770,276770,170,255,170 P,0,275770,276770,A
Sprite,Foreground,Centre,"SB\star02.png",320,240 M,22,275770,276770,344,408,308,459 F,3,275770,276770,1,0 S,9,275770,276770,0.05,0 R,0,275770,276770,5,0 C,0,275770,276770,170,255,170 P,0,275770,276770,A
Sprite,Foreground,Centre,"SB\star02.png",320,240 M,22,275770,276770,344,408,334,323 F,3,275770,276770,1,0 S,9,275770,276770,0.25,0 R,0,275770,276770,0 C,0,275770,276770,170,255,170 P,0,275770,276770,A
Sprite,Foreground,Centre,"SB\star02.png",320,240 M,22,275770,276770,344,408,292,362 F,3,275770,276770,1,0 S,9,275770,276770,0.06,0 R,0,275770,276770,5,2 C,0,275770,276770,170,255,170 P,0,275770,276770,A
Sprite,Foreground,Centre,"SB\star02.png",320,240 M,22,275770,276770,344,408,262,430 F,3,275770,276770,1,0 S,9,275770,276770,0.29,0 R,0,275770,276770,0,1 C,0,275770,276770,170,255,170 P,0,275770,276770,A
Sprite,Foreground,Centre,"SB\star02.png",320,240 M,22,275770,276770,344,408,432,442 F,3,275770,276770,1,0 S,9,275770,276770,0.22,0 R,0,275770,276770,2,1 C,0,275770,276770,170,255,170 P,0,275770,276770,A
Sprite,Foreground,Centre,"SB\star01.png",320,240 M,22,275770,276770,344,408,345,476 F,3,275770,276770,1,0 S,9,275770,276770,0.16,0 R,0,275770,276770,4,2 C,0,275770,276770,170,255,170 P,0,275770,276770,A
Sprite,Foreground,Centre,"SB\star02.png",320,240 M,22,275770,276770,344,408,444,396 F,3,275770,276770,1,0 S,9,275770,276770,0.22,0 R,0,275770,276770,0,3 C,0,275770,276770,170,255,170 P,0,275770,276770,A
Sprite,Foreground,Centre,"SB\star02.png",320,240 M,22,275770,276770,344,408,404,400 F,3,275770,276770,1,0 S,9,275770,276770,0.19,0 R,0,275770,276770,5,3 C,0,275770,276770,170,255,170 P,0,275770,276770,A
Sprite,Foreground,Centre,"SB\star02.png",320,240 M,22,275770,276770,344,408,279,438 F,3,275770,276770,1,0 S,9,275770,276770,0.18,0 R,0,275770,276770,2,1 C,0,275770,276770,170,255,170 P,0,275770,276770,A
Sprite,Foreground,Centre,"SB\star01.png",320,240 M,22,275770,276770,344,408,282,453 F,3,275770,276770,1,0 S,9,275770,276770,0.16,0 R,0,275770,276770,2,1 C,0,275770,276770,170,255,170 P,0,275770,276770,A
Sprite,Foreground,Centre,"SB\star02.png",320,240 M,22,275770,276770,344,408,396,390 F,3,275770,276770,1,0 S,9,275770,276770,0.15,0 R,0,275770,276770,6,1 C,0,275770,276770,170,255,170 P,0,275770,276770,A
Sprite,Foreground,Centre,"SB\star01.png",320,240 M,22,275770,276770,344,408,285,418 F,3,275770,276770,1,0 S,9,275770,276770,0.15,0 R,0,275770,276770,1 C,0,275770,276770,170,255,170 P,0,275770,276770,A
Sprite,Foreground,Centre,"SB\star02.png",320,240 M,22,275770,276770,344,408,346,344 F,3,275770,276770,1,0 S,9,275770,276770,0.05,0 R,0,275770,276770,1,0 C,0,275770,276770,170,255,170 P,0,275770,276770,A
Sprite,Foreground,Centre,"SB\star01.png",320,240 M,22,275770,276770,344,408,346,507 F,3,275770,276770,1,0 S,9,275770,276770,0.22,0 R,0,275770,276770,1,0 C,0,275770,276770,170,255,170 P,0,275770,276770,A
Sprite,Foreground,Centre,"SB\star01.png",320,240 M,22,275770,276770,344,408,287,439 F,3,275770,276770,1,0 S,9,275770,276770,0.05,0 R,0,275770,276770,2,0 C,0,275770,276770,170,255,170 P,0,275770,276770,A
Sprite,Foreground,Centre,"SB\star02.png",320,240 M,22,275770,276770,344,408,259,351 F,3,275770,276770,1,0 S,9,275770,276770,0.16,0 R,0,275770,276770,3,1 C,0,275770,276770,170,255,170 P,0,275770,276770,A
Sprite,Foreground,Centre,"SB\star01.png",320,240 M,22,275770,276770,344,408,250,403 F,3,275770,276770,1,0 S,9,275770,276770,0.14,0 R,0,275770,276770,1,2 C,0,275770,276770,170,255,170 P,0,275770,276770,A
Sprite,Foreground,Centre,"SB\star02.png",320,240 M,22,275770,276770,344,408,293,424 F,3,275770,276770,1,0 S,9,275770,276770,0.18,0 R,0,275770,276770,3,1 C,0,275770,276770,170,255,170 P,0,275770,276770,A
Sprite,Foreground,Centre,"SB\star01.png",320,240 M,22,275770,276770,344,408,269,337 F,3,275770,276770,1,0 S,9,275770,276770,0.09,0 R,0,275770,276770,3,1 C,0,275770,276770,170,255,170 P,0,275770,276770,A
Sprite,Foreground,Centre,"SB\star02.png",320,240 M,22,276264,277264,464,432,376,382 F,3,276264,277264,1,0 S,9,276264,277264,0.06,0 R,0,276264,277264,1 C,0,276264,277264,170,255,170 P,0,276264,277264,A
Sprite,Foreground,Centre,"SB\star01.png",320,240 M,22,276264,277264,464,432,499,519 F,3,276264,277264,1,0 S,9,276264,277264,0.29,0 R,0,276264,277264,1,2 C,0,276264,277264,170,255,170 P,0,276264,277264,A
Sprite,Foreground,Centre,"SB\star02.png",320,240 M,22,276264,277264,464,432,385,372 F,3,276264,277264,1,0 S,9,276264,277264,0.07,0 R,0,276264,277264,3,0 C,0,276264,277264,170,255,170 P,0,276264,277264,A
Sprite,Foreground,Centre,"SB\star01.png",320,240 M,22,276264,277264,464,432,555,435 F,3,276264,277264,1,0 S,9,276264,277264,0.09,0 R,0,276264,277264,4,0 C,0,276264,277264,170,255,170 P,0,276264,277264,A
Sprite,Foreground,Centre,"SB\star01.png",320,240 M,22,276264,277264,464,432,522,449 F,3,276264,277264,1,0 S,9,276264,277264,0.11,0 R,0,276264,277264,2,0 C,0,276264,277264,170,255,170 P,0,276264,277264,A
Sprite,Foreground,Centre,"SB\star02.png",320,240 M,22,276264,277264,464,432,378,482 F,3,276264,277264,1,0 S,9,276264,277264,0.05,0 R,0,276264,277264,3,1 C,0,276264,277264,170,255,170 P,0,276264,277264,A
Sprite,Foreground,Centre,"SB\star01.png",320,240 M,22,276264,277264,464,432,511,351 F,3,276264,277264,1,0 S,9,276264,277264,0.09,0 R,0,276264,277264,4,1 C,0,276264,277264,170,255,170 P,0,276264,277264,A
Sprite,Foreground,Centre,"SB\star01.png",320,240 M,22,276264,277264,464,432,438,482 F,3,276264,277264,1,0 S,9,276264,277264,0.16,0 R,0,276264,277264,4,2 C,0,276264,277264,170,255,170 P,0,276264,277264,A
Sprite,Foreground,Centre,"SB\star02.png",320,240 M,22,276264,277264,464,432,515,516 F,3,276264,277264,1,0 S,9,276264,277264,0.29,0 R,0,276264,277264,2,1 C,0,276264,277264,170,255,170 P,0,276264,277264,A
Sprite,Foreground,Centre,"SB\star02.png",320,240 M,22,276264,277264,464,432,568,431 F,3,276264,277264,1,0 S,9,276264,277264,0.16,0 R,0,276264,277264,1 C,0,276264,277264,170,255,170 P,0,276264,277264,A
Sprite,Foreground,Centre,"SB\star02.png",320,240 M,22,276264,277264,464,432,389,380 F,3,276264,277264,1,0 S,9,276264,277264,0.1,0 R,0,276264,277264,5,0 C,0,276264,277264,170,255,170 P,0,276264,277264,A
Sprite,Foreground,Centre,"SB\star02.png",320,240 M,22,276264,277264,464,432,429,354 F,3,276264,277264,1,0 S,9,276264,277264,0.05,0 R,0,276264,277264,4,2 C,0,276264,277264,170,255,170 P,0,276264,277264,A
Sprite,Foreground,Centre,"SB\star02.png",320,240 M,22,276264,277264,464,432,537,414 F,3,276264,277264,1,0 S,9,276264,277264,0.12,0 R,0,276264,277264,6,0 C,0,276264,277264,170,255,170 P,0,276264,277264,A
Sprite,Foreground,Centre,"SB\star01.png",320,240 M,22,276264,277264,464,432,422,511 F,3,276264,277264,1,0 S,9,276264,277264,0.09,0 R,0,276264,277264,5,0 C,0,276264,277264,170,255,170 P,0,276264,277264,A
Sprite,Foreground,Centre,"SB\star01.png",320,240 M,22,276264,277264,464,432,536,460 F,3,276264,277264,1,0 S,9,276264,277264,0.08,0 R,0,276264,277264,1,0 C,0,276264,277264,170,255,170 P,0,276264,277264,A
Sprite,Foreground,Centre,"SB\star02.png",320,240 M,22,276264,277264,464,432,527,391 F,3,276264,277264,1,0 S,9,276264,277264,0.25,0 R,0,276264,277264,0,2 C,0,276264,277264,170,255,170 P,0,276264,277264,A
Sprite,Foreground,Centre,"SB\star01.png",320,240 M,22,276264,277264,464,432,433,357 F,3,276264,277264,1,0 S,9,276264,277264,0.14,0 R,0,276264,277264,3,0 C,0,276264,277264,170,255,170 P,0,276264,277264,A
Sprite,Foreground,Centre,"SB\star01.png",320,240 M,22,276264,277264,464,432,477,535 F,3,276264,277264,1,0 S,9,276264,277264,0.15,0 R,0,276264,277264,3,1 C,0,276264,277264,170,255,170 P,0,276264,277264,A
Sprite,Foreground,Centre,"SB\star02.png",320,240 M,22,276264,277264,464,432,467,376 F,3,276264,277264,1,0 S,9,276264,277264,0.12,0 R,0,276264,277264,4,0 C,0,276264,277264,170,255,170 P,0,276264,277264,A
Sprite,Foreground,Centre,"SB\star01.png",320,240 M,22,276264,277264,464,432,541,483 F,3,276264,277264,1,0 S,9,276264,277264,0.17,0 R,0,276264,277264,0,2 C,0,276264,277264,170,255,170 P,0,276264,277264,A
Sprite,Foreground,Centre,"SB\star02.png",320,240 M,22,276264,277264,464,432,403,421 F,3,276264,277264,1,0 S,9,276264,277264,0.23,0 R,0,276264,277264,5,2 C,0,276264,277264,170,255,170 P,0,276264,277264,A
Sprite,Foreground,Centre,"SB\star01.png",320,240 M,22,276264,277264,464,432,536,457 F,3,276264,277264,1,0 S,9,276264,277264,0.24,0 R,0,276264,277264,6,0 C,0,276264,277264,170,255,170 P,0,276264,277264,A
Sprite,Foreground,Centre,"SB\star01.png",320,240 M,22,276264,277264,464,432,408,457 F,3,276264,277264,1,0 S,9,276264,277264,0.19,0 R,0,276264,277264,5,1 C,0,276264,277264,170,255,170 P,0,276264,277264,A
Sprite,Foreground,Centre,"SB\star02.png",320,240 M,22,276264,277264,464,432,501,393 F,3,276264,277264,1,0 S,9,276264,277264,0.25,0 R,0,276264,277264,6,2 C,0,276264,277264,170,255,170 P,0,276264,277264,A
Sprite,Foreground,Centre,"SB\star01.png",320,240 M,22,276264,277264,464,432,484,489 F,3,276264,277264,1,0 S,9,276264,277264,0.2,0 R,0,276264,277264,0 C,0,276264,277264,170,255,170 P,0,276264,277264,A
Sprite,Foreground,Centre,"SB\star02.png",320,240 M,22,276264,277264,464,432,413,344 F,3,276264,277264,1,0 S,9,276264,277264,0.07,0 R,0,276264,277264,0 C,0,276264,277264,170,255,170 P,0,276264,277264,A
Sprite,Foreground,Centre,"SB\star02.png",320,240 M,22,276264,277264,464,432,549,438 F,3,276264,277264,1,0 S,9,276264,277264,0.04,0 R,0,276264,277264,6,1 C,0,276264,277264,170,255,170 P,0,276264,277264,A
Sprite,Foreground,Centre,"SB\star01.png",320,240 M,22,276264,277264,464,432,388,473 F,3,276264,277264,1,0 S,9,276264,277264,0.05,0 R,0,276264,277264,4,2 C,0,276264,277264,170,255,170 P,0,276264,277264,A
Sprite,Foreground,Centre,"SB\star01.png",320,240 M,22,276264,277264,464,432,487,348 F,3,276264,277264,1,0 S,9,276264,277264,0.04,0 R,0,276264,277264,1 C,0,276264,277264,170,255,170 P,0,276264,277264,A
Sprite,Foreground,Centre,"SB\star02.png",320,240 M,22,276264,277264,464,432,524,357 F,3,276264,277264,1,0 S,9,276264,277264,0.05,0 R,0,276264,277264,5,1 C,0,276264,277264,170,255,170 P,0,276264,277264,A
Sprite,Foreground,Centre,"SB\star02.png",320,240 M,22,276759,277759,496,240,420,281 F,3,276759,277759,1,0 S,9,276759,277759,0.15,0 R,0,276759,277759,4,2 C,0,276759,277759,170,255,170 P,0,276759,277759,A
Sprite,Foreground,Centre,"SB\star01.png",320,240 M,22,276759,277759,496,240,448,225 F,3,276759,277759,1,0 S,9,276759,277759,0.2,0 R,0,276759,277759,6,2 C,0,276759,277759,170,255,170 P,0,276759,277759,A
Sprite,Foreground,Centre,"SB\star01.png",320,240 M,22,276759,277759,496,240,446,265 F,3,276759,277759,1,0 S,9,276759,277759,0.21,0 R,0,276759,277759,3,1 C,0,276759,277759,170,255,170 P,0,276759,277759,A
Sprite,Foreground,Centre,"SB\star01.png",320,240 M,22,276759,277759,496,240,587,290 F,3,276759,277759,1,0 S,9,276759,277759,0.08,0 R,0,276759,277759,5,3 C,0,276759,277759,170,255,170 P,0,276759,277759,A
Sprite,Foreground,Centre,"SB\star02.png",320,240 M,22,276759,277759,496,240,558,309 F,3,276759,277759,1,0 S,9,276759,277759,0.13,0 R,0,276759,277759,5,0 C,0,276759,277759,170,255,170 P,0,276759,277759,A
Sprite,Foreground,Centre,"SB\star02.png",320,240 M,22,276759,277759,496,240,436,317 F,3,276759,277759,1,0 S,9,276759,277759,0.18,0 R,0,276759,277759,4,2 C,0,276759,277759,170,255,170 P,0,276759,277759,A
Sprite,Foreground,Centre,"SB\star01.png",320,240 M,22,276759,277759,496,240,392,224 F,3,276759,277759,1,0 S,9,276759,277759,0.06,0 R,0,276759,277759,2 C,0,276759,277759,170,255,170 P,0,276759,277759,A
Sprite,Foreground,Centre,"SB\star01.png",320,240 M,22,276759,277759,496,240,410,213 F,3,276759,277759,1,0 S,9,276759,277759,0.22,0 R,0,276759,277759,0 C,0,276759,277759,170,255,170 P,0,276759,277759,A
Sprite,Foreground,Centre,"SB\star01.png",320,240 M,22,276759,277759,496,240,600,226 F,3,276759,277759,1,0 S,9,276759,277759,0.3,0 R,0,276759,277759,5,1 C,0,276759,277759,170,255,170 P,0,276759,277759,A
Sprite,Foreground,Centre,"SB\star01.png",320,240 M,22,276759,277759,496,240,508,321 F,3,276759,277759,1,0 S,9,276759,277759,0.22,0 R,0,276759,277759,1 C,0,276759,277759,170,255,170 P,0,276759,277759,A
Sprite,Foreground,Centre,"SB\star02.png",320,240 M,22,276759,277759,496,240,530,322 F,3,276759,277759,1,0 S,9,276759,277759,0.18,0 R,0,276759,277759,4,2 C,0,276759,277759,170,255,170 P,0,276759,277759,A
Sprite,Foreground,Centre,"SB\star01.png",320,240 M,22,276759,277759,496,240,601,231 F,3,276759,277759,1,0 S,9,276759,277759,0.21,0 R,0,276759,277759,3 C,0,276759,277759,170,255,170 P,0,276759,277759,A
Sprite,Foreground,Centre,"SB\star01.png",320,240 M,22,276759,277759,496,240,558,175 F,3,276759,277759,1,0 S,9,276759,277759,0.04,0 R,0,276759,277759,2,0 C,0,276759,277759,170,255,170 P,0,276759,277759,A
Sprite,Foreground,Centre,"SB\star02.png",320,240 M,22,276759,277759,496,240,387,254 F,3,276759,277759,1,0 S,9,276759,277759,0.25,0 R,0,276759,277759,4,0 C,0,276759,277759,170,255,170 P,0,276759,277759,A
Sprite,Foreground,Centre,"SB\star01.png",320,240 M,22,276759,277759,496,240,433,269 F,3,276759,277759,1,0 S,9,276759,277759,0.09,0 R,0,276759,277759,0,1 C,0,276759,277759,170,255,170 P,0,276759,277759,A
Sprite,Foreground,Centre,"SB\star01.png",320,240 M,22,276759,277759,496,240,440,288 F,3,276759,277759,1,0 S,9,276759,277759,0.12,0 R,0,276759,277759,3,1 C,0,276759,277759,170,255,170 P,0,276759,277759,A
Sprite,Foreground,Centre,"SB\star01.png",320,240 M,22,276759,277759,496,240,421,287 F,3,276759,277759,1,0 S,9,276759,277759,0.13,0 R,0,276759,277759,5,2 C,0,276759,277759,170,255,170 P,0,276759,277759,A
Sprite,Foreground,Centre,"SB\star02.png",320,240 M,22,276759,277759,496,240,584,181 F,3,276759,277759,1,0 S,9,276759,277759,0.07,0 R,0,276759,277759,5,1 C,0,276759,277759,170,255,170 P,0,276759,277759,A
Sprite,Foreground,Centre,"SB\star02.png",320,240 M,22,276759,277759,496,240,471,148 F,3,276759,277759,1,0 S,9,276759,277759,0.25,0 R,0,276759,277759,4,1 C,0,276759,277759,170,255,170 P,0,276759,277759,A
Sprite,Foreground,Centre,"SB\star01.png",320,240 M,22,276759,277759,496,240,510,335 F,3,276759,277759,1,0 S,9,276759,277759,0.3,0 R,0,276759,277759,0 C,0,276759,277759,170,255,170 P,0,276759,277759,A
Sprite,Foreground,Centre,"SB\star02.png",320,240 M,22,276759,277759,496,240,447,322 F,3,276759,277759,1,0 S,9,276759,277759,0.19,0 R,0,276759,277759,3,2 C,0,276759,277759,170,255,170 P,0,276759,277759,A
Sprite,Foreground,Centre,"SB\star02.png",320,240 M,22,276759,277759,496,240,568,230 F,3,276759,277759,1,0 S,9,276759,277759,0.18,0 R,0,276759,277759,5,1 C,0,276759,277759,170,255,170 P,0,276759,277759,A
Sprite,Foreground,Centre,"SB\star01.png",320,240 M,22,276759,277759,496,240,538,187 F,3,276759,277759,1,0 S,9,276759,277759,0.13,0 R,0,276759,277759,3,2 C,0,276759,277759,170,255,170 P,0,276759,277759,A
Sprite,Foreground,Centre,"SB\star01.png",320,240 M,22,276759,277759,496,240,586,300 F,3,276759,277759,1,0 S,9,276759,277759,0.22,0 R,0,276759,277759,2 C,0,276759,277759,170,255,170 P,0,276759,277759,A
Sprite,Foreground,Centre,"SB\star01.png",320,240 M,22,276759,277759,496,240,540,287 F,3,276759,277759,1,0 S,9,276759,277759,0.21,0 R,0,276759,277759,5,0 C,0,276759,277759,170,255,170 P,0,276759,277759,A
Sprite,Foreground,Centre,"SB\star02.png",320,240 M,22,276759,277759,496,240,496,302 F,3,276759,277759,1,0 S,9,276759,277759,0.13,0 R,0,276759,277759,0,1 C,0,276759,277759,170,255,170 P,0,276759,277759,A
Sprite,Foreground,Centre,"SB\star01.png",320,240 M,22,276759,277759,496,240,473,331 F,3,276759,277759,1,0 S,9,276759,277759,0.06,0 R,0,276759,277759,4,1 C,0,276759,277759,170,255,170 P,0,276759,277759,A
Sprite,Foreground,Centre,"SB\star02.png",320,240 M,22,276759,277759,496,240,467,193 F,3,276759,277759,1,0 S,9,276759,277759,0.19,0 R,0,276759,277759,3,2 C,0,276759,277759,170,255,170 P,0,276759,277759,A
Sprite,Foreground,Centre,"SB\star02.png",320,240 M,22,276759,277759,496,240,496,162 F,3,276759,277759,1,0 S,9,276759,277759,0.14,0 R,0,276759,277759,3,0 C,0,276759,277759,170,255,170 P,0,276759,277759,A
Sprite,Foreground,Centre,"SB\star01.png",320,240 M,22,276759,277759,496,240,475,140 F,3,276759,277759,1,0 S,9,276759,277759,0.3,0 R,0,276759,277759,1 C,0,276759,277759,170,255,170 P,0,276759,277759,A
Sprite,Foreground,Centre,"SB\star01.png",320,240 M,22,277088,278088,320,128,244,131 F,3,277088,278088,1,0 S,9,277088,278088,0.09,0 R,0,277088,278088,2 C,0,277088,278088,255,255,62 P,0,277088,278088,A
Sprite,Foreground,Centre,"SB\star02.png",320,240 M,22,277088,278088,320,128,289,203 F,3,277088,278088,1,0 S,9,277088,278088,0.21,0 R,0,277088,278088,4,1 C,0,277088,278088,255,255,62 P,0,277088,278088,A
Sprite,Foreground,Centre,"SB\star02.png",320,240 M,22,277088,278088,320,128,298,194 F,3,277088,278088,1,0 S,9,277088,278088,0.28,0 R,0,277088,278088,4,3 C,0,277088,278088,255,255,62 P,0,277088,278088,A
Sprite,Foreground,Centre,"SB\star01.png",320,240 M,22,277088,278088,320,128,250,112 F,3,277088,278088,1,0 S,9,277088,278088,0.21,0 R,0,277088,278088,4,0 C,0,277088,278088,255,255,62 P,0,277088,278088,A
Sprite,Foreground,Centre,"SB\star01.png",320,240 M,22,277088,278088,320,128,258,147 F,3,277088,278088,1,0 S,9,277088,278088,0.3,0 R,0,277088,278088,1,3 C,0,277088,278088,255,255,62 P,0,277088,278088,A
Sprite,Foreground,Centre,"SB\star02.png",320,240 M,22,277088,278088,320,128,259,199 F,3,277088,278088,1,0 S,9,277088,278088,0.28,0 R,0,277088,278088,2,1 C,0,277088,278088,255,255,62 P,0,277088,278088,A
Sprite,Foreground,Centre,"SB\star01.png",320,240 M,22,277088,278088,320,128,282,52 F,3,277088,278088,1,0 S,9,277088,278088,0.16,0 R,0,277088,278088,2,1 C,0,277088,278088,255,255,62 P,0,277088,278088,A
Sprite,Foreground,Centre,"SB\star02.png",320,240 M,22,277088,278088,320,128,380,121 F,3,277088,278088,1,0 S,9,277088,278088,0.24,0 R,0,277088,278088,1,2 C,0,277088,278088,255,255,62 P,0,277088,278088,A
Sprite,Foreground,Centre,"SB\star01.png",320,240 M,22,277088,278088,320,128,267,123 F,3,277088,278088,1,0 S,9,277088,278088,0.13,0 R,0,277088,278088,3,0 C,0,277088,278088,255,255,62 P,0,277088,278088,A
Sprite,Foreground,Centre,"SB\star01.png",320,240 M,22,277088,278088,320,128,396,185 F,3,277088,278088,1,0 S,9,277088,278088,0.19,0 R,0,277088,278088,3,0 C,0,277088,278088,255,255,62 P,0,277088,278088,A
Sprite,Foreground,Centre,"SB\star02.png",320,240 M,22,277088,278088,320,128,268,118 F,3,277088,278088,1,0 S,9,277088,278088,0.09,0 R,0,277088,278088,5,2 C,0,277088,278088,255,255,62 P,0,277088,278088,A
Sprite,Foreground,Centre,"SB\star01.png",320,240 M,22,277088,278088,320,128,269,67 F,3,277088,278088,1,0 S,9,277088,278088,0.28,0 R,0,277088,278088,2 C,0,277088,278088,255,255,62 P,0,277088,278088,A
Sprite,Foreground,Centre,"SB\star01.png",320,240 M,22,277088,278088,320,128,271,164 F,3,277088,278088,1,0 S,9,277088,278088,0.27,0 R,0,277088,278088,4,0 C,0,277088,278088,255,255,62 P,0,277088,278088,A
Sprite,Foreground,Centre,"SB\star02.png",320,240 M,22,277088,278088,320,128,405,185 F,3,277088,278088,1,0 S,9,277088,278088,0.11,0 R,0,277088,278088,6,1 C,0,277088,278088,255,255,62 P,0,277088,278088,A
Sprite,Foreground,Centre,"SB\star01.png",320,240 M,22,277088,278088,320,128,311,37 F,3,277088,278088,1,0 S,9,277088,278088,0.23,0 R,0,277088,278088,1 C,0,277088,278088,255,255,62 P,0,277088,278088,A
Sprite,Foreground,Centre,"SB\star01.png",320,240 M,22,277088,278088,320,128,375,122 F,3,277088,278088,1,0 S,9,277088,278088,0.16,0 R,0,277088,278088,6,2 C,0,277088,278088,255,255,62 P,0,277088,278088,A
Sprite,Foreground,Centre,"SB\star02.png",320,240 M,22,277088,278088,320,128,263,128 F,3,277088,278088,1,0 S,9,277088,278088,0.19,0 R,0,277088,278088,3,0 C,0,277088,278088,255,255,62 P,0,277088,278088,A
Sprite,Foreground,Centre,"SB\star01.png",320,240 M,22,277088,278088,320,128,255,143 F,3,277088,278088,1,0 S,9,277088,278088,0.1,0 R,0,277088,278088,2,1 C,0,277088,278088,255,255,62 P,0,277088,278088,A
Sprite,Foreground,Centre,"SB\star02.png",320,240 M,22,277088,278088,320,128,351,177 F,3,277088,278088,1,0 S,9,277088,278088,0.11,0 R,0,277088,278088,3,1 C,0,277088,278088,255,255,62 P,0,277088,278088,A
Sprite,Foreground,Centre,"SB\star01.png",320,240 M,22,277088,278088,320,128,309,189 F,3,277088,278088,1,0 S,9,277088,278088,0.28,0 R,0,277088,278088,4,2 C,0,277088,278088,255,255,62 P,0,277088,278088,A
Sprite,Foreground,Centre,"SB\star01.png",320,240 M,22,277088,278088,320,128,342,33 F,3,277088,278088,1,0 S,9,277088,278088,0.16,0 R,0,277088,278088,4,1 C,0,277088,278088,255,255,62 P,0,277088,278088,A
Sprite,Foreground,Centre,"SB\star01.png",320,240 M,22,277088,278088,320,128,340,221 F,3,277088,278088,1,0 S,9,277088,278088,0.18,0 R,0,277088,278088,1,2 C,0,277088,278088,255,255,62 P,0,277088,278088,A
Sprite,Foreground,Centre,"SB\star02.png",320,240 M,22,277088,278088,320,128,351,84 F,3,277088,278088,1,0 S,9,277088,278088,0.23,0 R,0,277088,278088,1,0 C,0,277088,278088,255,255,62 P,0,277088,278088,A
Sprite,Foreground,Centre,"SB\star02.png",320,240 M,22,277088,278088,320,128,368,224 F,3,277088,278088,1,0 S,9,277088,278088,0.16,0 R,0,277088,278088,3,2 C,0,277088,278088,255,255,62 P,0,277088,278088,A
Sprite,Foreground,Centre,"SB\star01.png",320,240 M,22,277088,278088,320,128,250,177 F,3,277088,278088,1,0 S,9,277088,278088,0.22,0 R,0,277088,278088,0,1 C,0,277088,278088,255,255,62 P,0,277088,278088,A
Sprite,Foreground,Centre,"SB\star01.png",320,240 M,22,277088,278088,320,128,306,61 F,3,277088,278088,1,0 S,9,277088,278088,0.15,0 R,0,277088,278088,2,0 C,0,277088,278088,255,255,62 P,0,277088,278088,A
Sprite,Foreground,Centre,"SB\star02.png",320,240 M,22,277088,278088,320,128,260,69 F,3,277088,278088,1,0 S,9,277088,278088,0.11,0 R,0,277088,278088,1,0 C,0,277088,278088,255,255,62 P,0,277088,278088,A
Sprite,Foreground,Centre,"SB\star02.png",320,240 M,22,277088,278088,320,128,302,218 F,3,277088,278088,1,0 S,9,277088,278088,0.17,0 R,0,277088,278088,5,0 C,0,277088,278088,255,255,62 P,0,277088,278088,A
Sprite,Foreground,Centre,"SB\star02.png",320,240 M,22,277088,278088,320,128,307,194 F,3,277088,278088,1,0 S,9,277088,278088,0.08,0 R,0,277088,278088,1 C,0,277088,278088,255,255,62 P,0,277088,278088,A
Sprite,Foreground,Centre,"SB\star01.png",320,240 M,22,277088,278088,320,128,323,28 F,3,277088,278088,1,0 S,9,277088,278088,0.27,0 R,0,277088,278088,2 C,0,277088,278088,255,255,62 P,0,277088,278088,A
Sprite,Foreground,Centre,"SB\star02.png",320,240 M,22,277253,278253,442,205,385,171 F,3,277253,278253,1,0 S,9,277253,278253,0.3,0 R,0,277253,278253,4,0 C,0,277253,278253,255,255,62 P,0,277253,278253,A
Sprite,Foreground,Centre,"SB\star02.png",320,240 M,22,277253,278253,442,205,403,236 F,3,277253,278253,1,0 S,9,277253,278253,0.24,0 R,0,277253,278253,1 C,0,277253,278253,255,255,62 P,0,277253,278253,A
Sprite,Foreground,Centre,"SB\star01.png",320,240 M,22,277253,278253,442,205,483,171 F,3,277253,278253,1,0 S,9,277253,278253,0.06,0 R,0,277253,278253,1,0 C,0,277253,278253,255,255,62 P,0,277253,278253,A
Sprite,Foreground,Centre,"SB\star02.png",320,240 M,22,277253,278253,442,205,510,147 F,3,277253,278253,1,0 S,9,277253,278253,0.19,0 R,0,277253,278253,0,2 C,0,277253,278253,255,255,62 P,0,277253,278253,A
Sprite,Foreground,Centre,"SB\star02.png",320,240 M,22,277253,278253,442,205,461,302 F,3,277253,278253,1,0 S,9,277253,278253,0.07,0 R,0,277253,278253,1 C,0,277253,278253,255,255,62 P,0,277253,278253,A
Sprite,Foreground,Centre,"SB\star01.png",320,240 M,22,277253,278253,442,205,502,206 F,3,277253,278253,1,0 S,9,277253,278253,0.09,0 R,0,277253,278253,0,2 C,0,277253,278253,255,255,62 P,0,277253,278253,A
Sprite,Foreground,Centre,"SB\star01.png",320,240 M,22,277253,278253,442,205,504,151 F,3,277253,278253,1,0 S,9,277253,278253,0.07,0 R,0,277253,278253,2,1 C,0,277253,278253,255,255,62 P,0,277253,278253,A
Sprite,Foreground,Centre,"SB\star01.png",320,240 M,22,277253,278253,442,205,542,215 F,3,277253,278253,1,0 S,9,277253,278253,0.12,0 R,0,277253,278253,0,2 C,0,277253,278253,255,255,62 P,0,277253,278253,A
Sprite,Foreground,Centre,"SB\star01.png",320,240 M,22,277253,278253,442,205,499,280 F,3,277253,278253,1,0 S,9,277253,278253,0.23,0 R,0,277253,278253,1,2 C,0,277253,278253,255,255,62 P,0,277253,278253,A
Sprite,Foreground,Centre,"SB\star01.png",320,240 M,22,277253,278253,442,205,405,158 F,3,277253,278253,1,0 S,9,277253,278253,0.11,0 R,0,277253,278253,1 C,0,277253,278253,255,255,62 P,0,277253,278253,A
Sprite,Foreground,Centre,"SB\star01.png",320,240 M,22,277253,278253,442,205,493,113 F,3,277253,278253,1,0 S,9,277253,278253,0.27,0 R,0,277253,278253,5,0 C,0,277253,278253,255,255,62 P,0,277253,278253,A
Sprite,Foreground,Centre,"SB\star02.png",320,240 M,22,277253,278253,442,205,512,176 F,3,277253,278253,1,0 S,9,277253,278253,0.25,0 R,0,277253,278253,3,2 C,0,277253,278253,255,255,62 P,0,277253,278253,A
Sprite,Foreground,Centre,"SB\star01.png",320,240 M,22,277253,278253,442,205,417,119 F,3,277253,278253,1,0 S,9,277253,278253,0.05,0 R,0,277253,278253,0,1 C,0,277253,278253,255,255,62 P,0,277253,278253,A
Sprite,Foreground,Centre,"SB\star01.png",320,240 M,22,277253,278253,442,205,363,194 F,3,277253,278253,1,0 S,9,277253,278253,0.3,0 R,0,277253,278253,5,0 C,0,277253,278253,255,255,62 P,0,277253,278253,A
Sprite,Foreground,Centre,"SB\star01.png",320,240 M,22,277253,278253,442,205,440,264 F,3,277253,278253,1,0 S,9,277253,278253,0.13,0 R,0,277253,278253,1,0 C,0,277253,278253,255,255,62 P,0,277253,278253,A
Sprite,Foreground,Centre,"SB\star02.png",320,240 M,22,277253,278253,442,205,380,207 F,3,277253,278253,1,0 S,9,277253,278253,0.19,0 R,0,277253,278253,1,2 C,0,277253,278253,255,255,62 P,0,277253,278253,A
Sprite,Foreground,Centre,"SB\star02.png",320,240 M,22,277253,278253,442,205,385,229 F,3,277253,278253,1,0 S,9,277253,278253,0.1,0 R,0,277253,278253,1,2 C,0,277253,278253,255,255,62 P,0,277253,278253,A
Sprite,Foreground,Centre,"SB\star02.png",320,240 M,22,277253,278253,442,205,396,155 F,3,277253,278253,1,0 S,9,277253,278253,0.25,0 R,0,277253,278253,5,2 C,0,277253,278253,255,255,62 P,0,277253,278253,A
Sprite,Foreground,Centre,"SB\star01.png",320,240 M,22,277253,278253,442,205,512,271 F,3,277253,278253,1,0 S,9,277253,278253,0.24,0 R,0,277253,278253,4,0 C,0,277253,278253,255,255,62 P,0,277253,278253,A
Sprite,Foreground,Centre,"SB\star01.png",320,240 M,22,277253,278253,442,205,392,228 F,3,277253,278253,1,0 S,9,277253,278253,0.08,0 R,0,277253,278253,6,0 C,0,277253,278253,255,255,62 P,0,277253,278253,A
Sprite,Foreground,Centre,"SB\star02.png",320,240 M,22,277253,278253,442,205,412,135 F,3,277253,278253,1,0 S,9,277253,278253,0.11,0 R,0,277253,278253,3,0 C,0,277253,278253,255,255,62 P,0,277253,278253,A
Sprite,Foreground,Centre,"SB\star02.png",320,240 M,22,277253,278253,442,205,494,182 F,3,277253,278253,1,0 S,9,277253,278253,0.16,0 R,0,277253,278253,0,2 C,0,277253,278253,255,255,62 P,0,277253,278253,A
Sprite,Foreground,Centre,"SB\star02.png",320,240 M,22,277253,278253,442,205,531,264 F,3,277253,278253,1,0 S,9,277253,278253,0.03,0 R,0,277253,278253,4,2 C,0,277253,278253,255,255,62 P,0,277253,278253,A
Sprite,Foreground,Centre,"SB\star02.png",320,240 M,22,277253,278253,442,205,420,289 F,3,277253,278253,1,0 S,9,277253,278253,0.06,0 R,0,277253,278253,0,1 C,0,277253,278253,255,255,62 P,0,277253,278253,A
Sprite,Foreground,Centre,"SB\star01.png",320,240 M,22,277253,278253,442,205,339,213 F,3,277253,278253,1,0 S,9,277253,278253,0.07,0 R,0,277253,278253,2,3 C,0,277253,278253,255,255,62 P,0,277253,278253,A
Sprite,Foreground,Centre,"SB\star01.png",320,240 M,22,277253,278253,442,205,369,246 F,3,277253,278253,1,0 S,9,277253,278253,0.12,0 R,0,277253,278253,3,0 C,0,277253,278253,255,255,62 P,0,277253,278253,A
Sprite,Foreground,Centre,"SB\star02.png",320,240 M,22,277253,278253,442,205,485,150 F,3,277253,278253,1,0 S,9,277253,278253,0.29,0 R,0,277253,278253,3,1 C,0,277253,278253,255,255,62 P,0,277253,278253,A
Sprite,Foreground,Centre,"SB\star01.png",320,240 M,22,277253,278253,442,205,400,233 F,3,277253,278253,1,0 S,9,277253,278253,0.24,0 R,0,277253,278253,1,0 C,0,277253,278253,255,255,62 P,0,277253,278253,A
Sprite,Foreground,Centre,"SB\star01.png",320,240 M,22,277253,278253,442,205,411,258 F,3,277253,278253,1,0 S,9,277253,278253,0.12,0 R,0,277253,278253,4,1 C,0,277253,278253,255,255,62 P,0,277253,278253,A
Sprite,Foreground,Centre,"SB\star02.png",320,240 M,22,277253,278253,442,205,469,112 F,3,277253,278253,1,0 S,9,277253,278253,0.08,0 R,0,277253,278253,3,2 C,0,277253,278253,255,255,62 P,0,277253,278253,A
Sprite,Foreground,Centre,"SB\star02.png",320,240 M,22,277418,278418,264,252,274,312 F,3,277418,278418,1,0 S,9,277418,278418,0.07,0 R,0,277418,278418,1,0 C,0,277418,278418,255,255,62 P,0,277418,278418,A
Sprite,Foreground,Centre,"SB\star01.png",320,240 M,22,277418,278418,264,252,166,244 F,3,277418,278418,1,0 S,9,277418,278418,0.1,0 R,0,277418,278418,3,0 C,0,277418,278418,255,255,62 P,0,277418,278418,A
Sprite,Foreground,Centre,"SB\star02.png",320,240 M,22,277418,278418,264,252,190,176 F,3,277418,278418,1,0 S,9,277418,278418,0.19,0 R,0,277418,278418,0 C,0,277418,278418,255,255,62 P,0,277418,278418,A
Sprite,Foreground,Centre,"SB\star01.png",320,240 M,22,277418,278418,264,252,174,291 F,3,277418,278418,1,0 S,9,277418,278418,0.22,0 R,0,277418,278418,1,2 C,0,277418,278418,255,255,62 P,0,277418,278418,A
Sprite,Foreground,Centre,"SB\star01.png",320,240 M,22,277418,278418,264,252,350,217 F,3,277418,278418,1,0 S,9,277418,278418,0.16,0 R,0,277418,278418,1,0 C,0,277418,278418,255,255,62 P,0,277418,278418,A
Sprite,Foreground,Centre,"SB\star01.png",320,240 M,22,277418,278418,264,252,187,314 F,3,277418,278418,1,0 S,9,277418,278418,0.22,0 R,0,277418,278418,3,1 C,0,277418,278418,255,255,62 P,0,277418,278418,A
Sprite,Foreground,Centre,"SB\star02.png",320,240 M,22,277418,278418,264,252,333,256 F,3,277418,278418,1,0 S,9,277418,278418,0.07,0 R,0,277418,278418,0,2 C,0,277418,278418,255,255,62 P,0,277418,278418,A
Sprite,Foreground,Centre,"SB\star02.png",320,240 M,22,277418,278418,264,252,336,179 F,3,277418,278418,1,0 S,9,277418,278418,0.21,0 R,0,277418,278418,3,0 C,0,277418,278418,255,255,62 P,0,277418,278418,A
Sprite,Foreground,Centre,"SB\star02.png",320,240 M,22,277418,278418,264,252,165,277 F,3,277418,278418,1,0 S,9,277418,278418,0.12,0 R,0,277418,278418,2,1 C,0,277418,278418,255,255,62 P,0,277418,278418,A
Sprite,Foreground,Centre,"SB\star01.png",320,240 M,22,277418,278418,264,252,316,219 F,3,277418,278418,1,0 S,9,277418,278418,0.07,0 R,0,277418,278418,3,0 C,0,277418,278418,255,255,62 P,0,277418,278418,A
Sprite,Foreground,Centre,"SB\star02.png",320,240 M,22,277418,278418,264,252,196,182 F,3,277418,278418,1,0 S,9,277418,278418,0.3,0 R,0,277418,278418,2,0 C,0,277418,278418,255,255,62 P,0,277418,278418,A
Sprite,Foreground,Centre,"SB\star02.png",320,240 M,22,277418,278418,264,252,347,309 F,3,277418,278418,1,0 S,9,277418,278418,0.24,0 R,0,277418,278418,2,1 C,0,277418,278418,255,255,62 P,0,277418,278418,A
Sprite,Foreground,Centre,"SB\star02.png",320,240 M,22,277418,278418,264,252,317,245 F,3,277418,278418,1,0 S,9,277418,278418,0.17,0 R,0,277418,278418,3 C,0,277418,278418,255,255,62 P,0,277418,278418,A
Sprite,Foreground,Centre,"SB\star01.png",320,240 M,22,277418,278418,264,252,238,147 F,3,277418,278418,1,0 S,9,277418,278418,0.18,0 R,0,277418,278418,3,2 C,0,277418,278418,255,255,62 P,0,277418,278418,A
Sprite,Foreground,Centre,"SB\star01.png",320,240 M,22,277418,278418,264,252,311,275 F,3,277418,278418,1,0 S,9,277418,278418,0.07,0 R,0,277418,278418,2,1 C,0,277418,278418,255,255,62 P,0,277418,278418,A
Sprite,Foreground,Centre,"SB\star01.png",320,240 M,22,277418,278418,264,252,332,227 F,3,277418,278418,1,0 S,9,277418,278418,0.21,0 R,0,277418,278418,5,1 C,0,277418,278418,255,255,62 P,0,277418,278418,A
Sprite,Foreground,Centre,"SB\star01.png",320,240 M,22,277418,278418,264,252,334,252 F,3,277418,278418,1,0 S,9,277418,278418,0.23,0 R,0,277418,278418,4,2 C,0,277418,278418,255,255,62 P,0,277418,278418,A
Sprite,Foreground,Centre,"SB\star02.png",320,240 M,22,277418,278418,264,252,161,258 F,3,277418,278418,1,0 S,9,277418,278418,0.28,0 R,0,277418,278418,3,0 C,0,277418,278418,255,255,62 P,0,277418,278418,A
Sprite,Foreground,Centre,"SB\star01.png",320,240 M,22,277418,278418,264,252,202,312 F,3,277418,278418,1,0 S,9,277418,278418,0.15,0 R,0,277418,278418,5,2 C,0,277418,278418,255,255,62 P,0,277418,278418,A
Sprite,Foreground,Centre,"SB\star02.png",320,240 M,22,277418,278418,264,252,324,283 F,3,277418,278418,1,0 S,9,277418,278418,0.21,0 R,0,277418,278418,3,1 C,0,277418,278418,255,255,62 P,0,277418,278418,A
Sprite,Foreground,Centre,"SB\star01.png",320,240 M,22,277418,278418,264,252,212,310 F,3,277418,278418,1,0 S,9,277418,278418,0.05,0 R,0,277418,278418,3,0 C,0,277418,278418,255,255,62 P,0,277418,278418,A
Sprite,Foreground,Centre,"SB\star02.png",320,240 M,22,277418,278418,264,252,184,251 F,3,277418,278418,1,0 S,9,277418,278418,0.06,0 R,0,277418,278418,4,1 C,0,277418,278418,255,255,62 P,0,277418,278418,A
Sprite,Foreground,Centre,"SB\star01.png",320,240 M,22,277418,278418,264,252,326,211 F,3,277418,278418,1,0 S,9,277418,278418,0.18,0 R,0,277418,278418,2 C,0,277418,278418,255,255,62 P,0,277418,278418,A
Sprite,Foreground,Centre,"SB\star02.png",320,240 M,22,277418,278418,264,252,188,310 F,3,277418,278418,1,0 S,9,277418,278418,0.17,0 R,0,277418,278418,1 C,0,277418,278418,255,255,62 P,0,277418,278418,A
Sprite,Foreground,Centre,"SB\star01.png",320,240 M,22,277418,278418,264,252,168,276 F,3,277418,278418,1,0 S,9,277418,278418,0.11,0 R,0,277418,278418,4,1 C,0,277418,278418,255,255,62 P,0,277418,278418,A
Sprite,Foreground,Centre,"SB\star01.png",320,240 M,22,277418,278418,264,252,259,189 F,3,277418,278418,1,0 S,9,277418,278418,0.22,0 R,0,277418,278418,3,1 C,0,277418,278418,255,255,62 P,0,277418,278418,A
Sprite,Foreground,Centre,"SB\star01.png",320,240 M,22,277418,278418,264,252,316,189 F,3,277418,278418,1,0 S,9,277418,278418,0.26,0 R,0,277418,278418,5,1 C,0,277418,278418,255,255,62 P,0,277418,278418,A
Sprite,Foreground,Centre,"SB\star02.png",320,240 M,22,277418,278418,264,252,293,309 F,3,277418,278418,1,0 S,9,277418,278418,0.2,0 R,0,277418,278418,5,2 C,0,277418,278418,255,255,62 P,0,277418,278418,A
Sprite,Foreground,Centre,"SB\star01.png",320,240 M,22,277418,278418,264,252,235,189 F,3,277418,278418,1,0 S,9,277418,278418,0.05,0 R,0,277418,278418,3,1 C,0,277418,278418,255,255,62 P,0,277418,278418,A
Sprite,Foreground,Centre,"SB\star02.png",320,240 M,22,277418,278418,264,252,274,170 F,3,277418,278418,1,0 S,9,277418,278418,0.16,0 R,0,277418,278418,0 C,0,277418,278418,255,255,62 P,0,277418,278418,A
Sprite,Foreground,Centre,"SB\star01.png",320,240 M,22,277583,278583,412,120,418,56 F,3,277583,278583,1,0 S,9,277583,278583,0.15,0 R,0,277583,278583,2 C,0,277583,278583,255,255,62 P,0,277583,278583,A
Sprite,Foreground,Centre,"SB\star02.png",320,240 M,22,277583,278583,412,120,405,217 F,3,277583,278583,1,0 S,9,277583,278583,0.04,0 R,0,277583,278583,3,2 C,0,277583,278583,255,255,62 P,0,277583,278583,A
Sprite,Foreground,Centre,"SB\star02.png",320,240 M,22,277583,278583,412,120,506,86 F,3,277583,278583,1,0 S,9,277583,278583,0.06,0 R,0,277583,278583,0,1 C,0,277583,278583,255,255,62 P,0,277583,278583,A
Sprite,Foreground,Centre,"SB\star02.png",320,240 M,22,277583,278583,412,120,362,153 F,3,277583,278583,1,0 S,9,277583,278583,0.22,0 R,0,277583,278583,1,3 C,0,277583,278583,255,255,62 P,0,277583,278583,A
Sprite,Foreground,Centre,"SB\star02.png",320,240 M,22,277583,278583,412,120,331,149 F,3,277583,278583,1,0 S,9,277583,278583,0.29,0 R,0,277583,278583,0 C,0,277583,278583,255,255,62 P,0,277583,278583,A
Sprite,Foreground,Centre,"SB\star01.png",320,240 M,22,277583,278583,412,120,454,23 F,3,277583,278583,1,0 S,9,277583,278583,0.29,0 R,0,277583,278583,5,1 C,0,277583,278583,255,255,62 P,0,277583,278583,A
Sprite,Foreground,Centre,"SB\star01.png",320,240 M,22,277583,278583,412,120,445,67 F,3,277583,278583,1,0 S,9,277583,278583,0.12,0 R,0,277583,278583,0,1 C,0,277583,278583,255,255,62 P,0,277583,278583,A
Sprite,Foreground,Centre,"SB\star02.png",320,240 M,22,277583,278583,412,120,444,187 F,3,277583,278583,1,0 S,9,277583,278583,0.17,0 R,0,277583,278583,5,1 C,0,277583,278583,255,255,62 P,0,277583,278583,A
Sprite,Foreground,Centre,"SB\star02.png",320,240 M,22,277583,278583,412,120,377,79 F,3,277583,278583,1,0 S,9,277583,278583,0.15,0 R,0,277583,278583,1,0 C,0,277583,278583,255,255,62 P,0,277583,278583,A
Sprite,Foreground,Centre,"SB\star02.png",320,240 M,22,277583,278583,412,120,388,58 F,3,277583,278583,1,0 S,9,277583,278583,0.26,0 R,0,277583,278583,5,0 C,0,277583,278583,255,255,62 P,0,277583,278583,A
Sprite,Foreground,Centre,"SB\star01.png",320,240 M,22,277583,278583,412,120,392,214 F,3,277583,278583,1,0 S,9,277583,278583,0.29,0 R,0,277583,278583,2,0 C,0,277583,278583,255,255,62 P,0,277583,278583,A
Sprite,Foreground,Centre,"SB\star01.png",320,240 M,22,277583,278583,412,120,515,103 F,3,277583,278583,1,0 S,9,277583,278583,0.1,0 R,0,277583,278583,0 C,0,277583,278583,255,255,62 P,0,277583,278583,A
Sprite,Foreground,Centre,"SB\star02.png",320,240 M,22,277583,278583,412,120,334,194 F,3,277583,278583,1,0 S,9,277583,278583,0.21,0 R,0,277583,278583,3,1 C,0,277583,278583,255,255,62 P,0,277583,278583,A
Sprite,Foreground,Centre,"SB\star01.png",320,240 M,22,277583,278583,412,120,464,89 F,3,277583,278583,1,0 S,9,277583,278583,0.09,0 R,0,277583,278583,0 C,0,277583,278583,255,255,62 P,0,277583,278583,A
Sprite,Foreground,Centre,"SB\star02.png",320,240 M,22,277583,278583,412,120,494,83 F,3,277583,278583,1,0 S,9,277583,278583,0.24,0 R,0,277583,278583,0,1 C,0,277583,278583,255,255,62 P,0,277583,278583,A
Sprite,Foreground,Centre,"SB\star01.png",320,240 M,22,277583,278583,412,120,417,50 F,3,277583,278583,1,0 S,9,277583,278583,0.22,0 R,0,277583,278583,3,0 C,0,277583,278583,255,255,62 P,0,277583,278583,A
Sprite,Foreground,Centre,"SB\star01.png",320,240 M,22,277583,278583,412,120,341,77 F,3,277583,278583,1,0 S,9,277583,278583,0.13,0 R,0,277583,278583,1 C,0,277583,278583,255,255,62 P,0,277583,278583,A
Sprite,Foreground,Centre,"SB\star02.png",320,240 M,22,277583,278583,412,120,333,144 F,3,277583,278583,1,0 S,9,277583,278583,0.03,0 R,0,277583,278583,4,2 C,0,277583,278583,255,255,62 P,0,277583,278583,A
Sprite,Foreground,Centre,"SB\star01.png",320,240 M,22,277583,278583,412,120,478,84 F,3,277583,278583,1,0 S,9,277583,278583,0.28,0 R,0,277583,278583,0,1 C,0,277583,278583,255,255,62 P,0,277583,278583,A
Sprite,Foreground,Centre,"SB\star02.png",320,240 M,22,277583,278583,412,120,435,36 F,3,277583,278583,1,0 S,9,277583,278583,0.18,0 R,0,277583,278583,1,3 C,0,277583,278583,255,255,62 P,0,277583,278583,A
Sprite,Foreground,Centre,"SB\star02.png",320,240 M,22,277583,278583,412,120,462,192 F,3,277583,278583,1,0 S,9,277583,278583,0.11,0 R,0,277583,278583,3,2 C,0,277583,278583,255,255,62 P,0,277583,278583,A
Sprite,Foreground,Centre,"SB\star02.png",320,240 M,22,277583,278583,412,120,423,43 F,3,277583,278583,1,0 S,9,277583,278583,0.09,0 R,0,277583,278583,3,2 C,0,277583,278583,255,255,62 P,0,277583,278583,A
Sprite,Foreground,Centre,"SB\star02.png",320,240 M,22,277583,278583,412,120,463,120 F,3,277583,278583,1,0 S,9,277583,278583,0.13,0 R,0,277583,278583,4,0 C,0,277583,278583,255,255,62 P,0,277583,278583,A
Sprite,Foreground,Centre,"SB\star01.png",320,240 M,22,277583,278583,412,120,421,185 F,3,277583,278583,1,0 S,9,277583,278583,0.26,0 R,0,277583,278583,5,2 C,0,277583,278583,255,255,62 P,0,277583,278583,A
Sprite,Foreground,Centre,"SB\star01.png",320,240 M,22,277583,278583,412,120,353,162 F,3,277583,278583,1,0 S,9,277583,278583,0.16,0 R,0,277583,278583,6,0 C,0,277583,278583,255,255,62 P,0,277583,278583,A
Sprite,Foreground,Centre,"SB\star02.png",320,240 M,22,277583,278583,412,120,325,66 F,3,277583,278583,1,0 S,9,277583,278583,0.25,0 R,0,277583,278583,5,1 C,0,277583,278583,255,255,62 P,0,277583,278583,A
Sprite,Foreground,Centre,"SB\star02.png",320,240 M,22,277583,278583,412,120,403,179 F,3,277583,278583,1,0 S,9,277583,278583,0.14,0 R,0,277583,278583,1,2 C,0,277583,278583,255,255,62 P,0,277583,278583,A
Sprite,Foreground,Centre,"SB\star01.png",320,240 M,22,277583,278583,412,120,374,55 F,3,277583,278583,1,0 S,9,277583,278583,0.24,0 R,0,277583,278583,6,2 C,0,277583,278583,255,255,62 P,0,277583,278583,A
Sprite,Foreground,Centre,"SB\star02.png",320,240 M,22,277583,278583,412,120,451,20 F,3,277583,278583,1,0 S,9,277583,278583,0.07,0 R,0,277583,278583,6,0 C,0,277583,278583,255,255,62 P,0,277583,278583,A
Sprite,Foreground,Centre,"SB\star01.png",320,240 M,22,277583,278583,412,120,461,153 F,3,277583,278583,1,0 S,9,277583,278583,0.11,0 R,0,277583,278583,3,0 C,0,277583,278583,255,255,62 P,0,277583,278583,A
Sprite,Foreground,Centre,"SB\star01.png",320,240 M,22,277913,278913,412,120,395,52 F,3,277913,278913,1,0 S,9,277913,278913,0.09,0 R,0,277913,278913,2,0 C,0,277913,278913,255,255,62 P,0,277913,278913,A
Sprite,Foreground,Centre,"SB\star02.png",320,240 M,22,277913,278913,412,120,446,186 F,3,277913,278913,1,0 S,9,277913,278913,0.28,0 R,0,277913,278913,1 C,0,277913,278913,255,255,62 P,0,277913,278913,A
Sprite,Foreground,Centre,"SB\star02.png",320,240 M,22,277913,278913,412,120,490,181 F,3,277913,278913,1,0 S,9,277913,278913,0.11,0 R,0,277913,278913,4,1 C,0,277913,278913,255,255,62 P,0,277913,278913,A
Sprite,Foreground,Centre,"SB\star01.png",320,240 M,22,277913,278913,412,120,471,27 F,3,277913,278913,1,0 S,9,277913,278913,0.12,0 R,0,277913,278913,4,0 C,0,277913,278913,255,255,62 P,0,277913,278913,A
Sprite,Foreground,Centre,"SB\star01.png",320,240 M,22,277913,278913,412,120,433,32 F,3,277913,278913,1,0 S,9,277913,278913,0.15,0 R,0,277913,278913,2 C,0,277913,278913,255,255,62 P,0,277913,278913,A
Sprite,Foreground,Centre,"SB\star02.png",320,240 M,22,277913,278913,412,120,457,58 F,3,277913,278913,1,0 S,9,277913,278913,0.22,0 R,0,277913,278913,2 C,0,277913,278913,255,255,62 P,0,277913,278913,A
Sprite,Foreground,Centre,"SB\star02.png",320,240 M,22,277913,278913,412,120,465,152 F,3,277913,278913,1,0 S,9,277913,278913,0.09,0 R,0,277913,278913,1,0 C,0,277913,278913,255,255,62 P,0,277913,278913,A
Sprite,Foreground,Centre,"SB\star02.png",320,240 M,22,277913,278913,412,120,329,132 F,3,277913,278913,1,0 S,9,277913,278913,0.28,0 R,0,277913,278913,3,2 C,0,277913,278913,255,255,62 P,0,277913,278913,A
Sprite,Foreground,Centre,"SB\star01.png",320,240 M,22,277913,278913,412,120,462,217 F,3,277913,278913,1,0 S,9,277913,278913,0.06,0 R,0,277913,278913,5,1 C,0,277913,278913,255,255,62 P,0,277913,278913,A
Sprite,Foreground,Centre,"SB\star01.png",320,240 M,22,277913,278913,412,120,438,224 F,3,277913,278913,1,0 S,9,277913,278913,0.18,0 R,0,277913,278913,3 C,0,277913,278913,255,255,62 P,0,277913,278913,A
Sprite,Foreground,Centre,"SB\star01.png",320,240 M,22,277913,278913,412,120,469,141 F,3,277913,278913,1,0 S,9,277913,278913,0.18,0 R,0,277913,278913,4,1 C,0,277913,278913,255,255,62 P,0,277913,278913,A
Sprite,Foreground,Centre,"SB\star01.png",320,240 M,22,277913,278913,412,120,503,96 F,3,277913,278913,1,0 S,9,277913,278913,0.05,0 R,0,277913,278913,4,2 C,0,277913,278913,255,255,62 P,0,277913,278913,A
Sprite,Foreground,Centre,"SB\star01.png",320,240 M,22,277913,278913,412,120,378,165 F,3,277913,278913,1,0 S,9,277913,278913,0.21,0 R,0,277913,278913,4,0 C,0,277913,278913,255,255,62 P,0,277913,278913,A
Sprite,Foreground,Centre,"SB\star02.png",320,240 M,22,277913,278913,412,120,473,29 F,3,277913,278913,1,0 S,9,277913,278913,0.12,0 R,0,277913,278913,3,2 C,0,277913,278913,255,255,62 P,0,277913,278913,A
Sprite,Foreground,Centre,"SB\star01.png",320,240 M,22,277913,278913,412,120,477,68 F,3,277913,278913,1,0 S,9,277913,278913,0.28,0 R,0,277913,278913,0 C,0,277913,278913,255,255,62 P,0,277913,278913,A
Sprite,Foreground,Centre,"SB\star01.png",320,240 M,22,277913,278913,412,120,437,39 F,3,277913,278913,1,0 S,9,277913,278913,0.06,0 R,0,277913,278913,4,1 C,0,277913,278913,255,255,62 P,0,277913,278913,A
Sprite,Foreground,Centre,"SB\star02.png",320,240 M,22,277913,278913,412,120,390,220 F,3,277913,278913,1,0 S,9,277913,278913,0.27,0 R,0,277913,278913,3,2 C,0,277913,278913,255,255,62 P,0,277913,278913,A
Sprite,Foreground,Centre,"SB\star01.png",320,240 M,22,277913,278913,412,120,414,67 F,3,277913,278913,1,0 S,9,277913,278913,0.3,0 R,0,277913,278913,3,0 C,0,277913,278913,255,255,62 P,0,277913,278913,A
Sprite,Foreground,Centre,"SB\star01.png",320,240 M,22,277913,278913,412,120,404,30 F,3,277913,278913,1,0 S,9,277913,278913,0.29,0 R,0,277913,278913,1,0 C,0,277913,278913,255,255,62 P,0,277913,278913,A
Sprite,Foreground,Centre,"SB\star02.png",320,240 M,22,277913,278913,412,120,459,178 F,3,277913,278913,1,0 S,9,277913,278913,0.27,0 R,0,277913,278913,5,0 C,0,277913,278913,255,255,62 P,0,277913,278913,A
Sprite,Foreground,Centre,"SB\star01.png",320,240 M,22,277913,278913,412,120,397,49 F,3,277913,278913,1,0 S,9,277913,278913,0.26,0 R,0,277913,278913,0,1 C,0,277913,278913,255,255,62 P,0,277913,278913,A
Sprite,Foreground,Centre,"SB\star01.png",320,240 M,22,277913,278913,412,120,500,80 F,3,277913,278913,1,0 S,9,277913,278913,0.1,0 R,0,277913,278913,3,1 C,0,277913,278913,255,255,62 P,0,277913,278913,A
Sprite,Foreground,Centre,"SB\star02.png",320,240 M,22,277913,278913,412,120,423,221 F,3,277913,278913,1,0 S,9,277913,278913,0.16,0 R,0,277913,278913,3,2 C,0,277913,278913,255,255,62 P,0,277913,278913,A
Sprite,Foreground,Centre,"SB\star01.png",320,240 M,22,277913,278913,412,120,406,173 F,3,277913,278913,1,0 S,9,277913,278913,0.07,0 R,0,277913,278913,0,1 C,0,277913,278913,255,255,62 P,0,277913,278913,A
Sprite,Foreground,Centre,"SB\star02.png",320,240 M,22,277913,278913,412,120,489,185 F,3,277913,278913,1,0 S,9,277913,278913,0.03,0 R,0,277913,278913,4,1 C,0,277913,278913,255,255,62 P,0,277913,278913,A
Sprite,Foreground,Centre,"SB\star02.png",320,240 M,22,277913,278913,412,120,449,45 F,3,277913,278913,1,0 S,9,277913,278913,0.05,0 R,0,277913,278913,4,0 C,0,277913,278913,255,255,62 P,0,277913,278913,A
Sprite,Foreground,Centre,"SB\star02.png",320,240 M,22,277913,278913,412,120,414,199 F,3,277913,278913,1,0 S,9,277913,278913,0.27,0 R,0,277913,278913,3,0 C,0,277913,278913,255,255,62 P,0,277913,278913,A
Sprite,Foreground,Centre,"SB\star01.png",320,240 M,22,277913,278913,412,120,419,67 F,3,277913,278913,1,0 S,9,277913,278913,0.23,0 R,0,277913,278913,0,2 C,0,277913,278913,255,255,62 P,0,277913,278913,A
Sprite,Foreground,Centre,"SB\star01.png",320,240 M,22,277913,278913,412,120,384,37 F,3,277913,278913,1,0 S,9,277913,278913,0.2,0 R,0,277913,278913,5,1 C,0,277913,278913,255,255,62 P,0,277913,278913,A
Sprite,Foreground,Centre,"SB\star01.png",320,240 M,22,277913,278913,412,120,443,179 F,3,277913,278913,1,0 S,9,277913,278913,0.15,0 R,0,277913,278913,3,0 C,0,277913,278913,255,255,62 P,0,277913,278913,A
Sprite,Foreground,Centre,"SB\star01.png",320,240 M,22,278407,279407,412,120,407,68 F,3,278407,279407,1,0 S,9,278407,279407,0.15,0 R,0,278407,279407,1,2 C,0,278407,279407,128,255,255 P,0,278407,279407,A
Sprite,Foreground,Centre,"SB\star02.png",320,240 M,22,278407,279407,412,120,384,77 F,3,278407,279407,1,0 S,9,278407,279407,0.23,0 R,0,278407,279407,4,0 C,0,278407,279407,128,255,255 P,0,278407,279407,A
Sprite,Foreground,Centre,"SB\star01.png",320,240 M,22,278407,279407,412,120,399,209 F,3,278407,279407,1,0 S,9,278407,279407,0.04,0 R,0,278407,279407,4,1 C,0,278407,279407,128,255,255 P,0,278407,279407,A
Sprite,Foreground,Centre,"SB\star01.png",320,240 M,22,278407,279407,412,120,514,151 F,3,278407,279407,1,0 S,9,278407,279407,0.05,0 R,0,278407,279407,3,0 C,0,278407,279407,128,255,255 P,0,278407,279407,A
Sprite,Foreground,Centre,"SB\star01.png",320,240 M,22,278407,279407,412,120,497,155 F,3,278407,279407,1,0 S,9,278407,279407,0.21,0 R,0,278407,279407,0,1 C,0,278407,279407,128,255,255 P,0,278407,279407,A
Sprite,Foreground,Centre,"SB\star02.png",320,240 M,22,278407,279407,412,120,360,121 F,3,278407,279407,1,0 S,9,278407,279407,0.21,0 R,0,278407,279407,6,1 C,0,278407,279407,128,255,255 P,0,278407,279407,A
Sprite,Foreground,Centre,"SB\star02.png",320,240 M,22,278407,279407,412,120,380,171 F,3,278407,279407,1,0 S,9,278407,279407,0.11,0 R,0,278407,279407,3,2 C,0,278407,279407,128,255,255 P,0,278407,279407,A
Sprite,Foreground,Centre,"SB\star01.png",320,240 M,22,278407,279407,412,120,464,185 F,3,278407,279407,1,0 S,9,278407,279407,0.12,0 R,0,278407,279407,2 C,0,278407,279407,128,255,255 P,0,278407,279407,A
Sprite,Foreground,Centre,"SB\star01.png",320,240 M,22,278407,279407,412,120,375,78 F,3,278407,279407,1,0 S,9,278407,279407,0.21,0 R,0,278407,279407,2 C,0,278407,279407,128,255,255 P,0,278407,279407,A
Sprite,Foreground,Centre,"SB\star01.png",320,240 M,22,278407,279407,412,120,466,154 F,3,278407,279407,1,0 S,9,278407,279407,0.23,0 R,0,278407,279407,4,1 C,0,278407,279407,128,255,255 P,0,278407,279407,A
Sprite,Foreground,Centre,"SB\star02.png",320,240 M,22,278407,279407,412,120,337,187 F,3,278407,279407,1,0 S,9,278407,279407,0.16,0 R,0,278407,279407,5,2 C,0,278407,279407,128,255,255 P,0,278407,279407,A
Sprite,Foreground,Centre,"SB\star01.png",320,240 M,22,278407,279407,412,120,359,115 F,3,278407,279407,1,0 S,9,278407,279407,0.24,0 R,0,278407,279407,3 C,0,278407,279407,128,255,255 P,0,278407,279407,A
Sprite,Foreground,Centre,"SB\star02.png",320,240 M,22,278407,279407,412,120,401,66 F,3,278407,279407,1,0 S,9,278407,279407,0.09,0 R,0,278407,279407,5,3 C,0,278407,279407,128,255,255 P,0,278407,279407,A
Sprite,Foreground,Centre,"SB\star01.png",320,240 M,22,278407,279407,412,120,463,172 F,3,278407,279407,1,0 S,9,278407,279407,0.19,0 R,0,278407,279407,1 C,0,278407,279407,128,255,255 P,0,278407,279407,A
Sprite,Foreground,Centre,"SB\star02.png",320,240 M,22,278407,279407,412,120,350,115 F,3,278407,279407,1,0 S,9,278407,279407,0.24,0 R,0,278407,279407,0 C,0,278407,279407,128,255,255 P,0,278407,279407,A
Sprite,Foreground,Centre,"SB\star01.png",320,240 M,22,278407,279407,412,120,425,33 F,3,278407,279407,1,0 S,9,278407,279407,0.05,0 R,0,278407,279407,4,2 C,0,278407,279407,128,255,255 P,0,278407,279407,A
Sprite,Foreground,Centre,"SB\star02.png",320,240 M,22,278407,279407,412,120,353,159 F,3,278407,279407,1,0 S,9,278407,279407,0.17,0 R,0,278407,279407,0,1 C,0,278407,279407,128,255,255 P,0,278407,279407,A
Sprite,Foreground,Centre,"SB\star01.png",320,240 M,22,278407,279407,412,120,405,220 F,3,278407,279407,1,0 S,9,278407,279407,0.28,0 R,0,278407,279407,0,1 C,0,278407,279407,128,255,255 P,0,278407,279407,A
Sprite,Foreground,Centre,"SB\star01.png",320,240 M,22,278407,279407,412,120,332,53 F,3,278407,279407,1,0 S,9,278407,279407,0.08,0 R,0,278407,279407,3,0 C,0,278407,279407,128,255,255 P,0,278407,279407,A
Sprite,Foreground,Centre,"SB\star01.png",320,240 M,22,278407,279407,412,120,475,208 F,3,278407,279407,1,0 S,9,278407,279407,0.19,0 R,0,278407,279407,4,3 C,0,278407,279407,128,255,255 P,0,278407,279407,A
Sprite,Foreground,Centre,"SB\star01.png",320,240 M,22,278407,279407,412,120,421,180 F,3,278407,279407,1,0 S,9,278407,279407,0.29,0 R,0,278407,279407,0,1 C,0,278407,279407,128,255,255 P,0,278407,279407,A
Sprite,Foreground,Centre,"SB\star01.png",320,240 M,22,278407,279407,412,120,407,172 F,3,278407,279407,1,0 S,9,278407,279407,0.09,0 R,0,278407,279407,4,1 C,0,278407,279407,128,255,255 P,0,278407,279407,A
Sprite,Foreground,Centre,"SB\star01.png",320,240 M,22,278407,279407,412,120,420,49 F,3,278407,279407,1,0 S,9,278407,279407,0.28,0 R,0,278407,279407,5,2 C,0,278407,279407,128,255,255 P,0,278407,279407,A
Sprite,Foreground,Centre,"SB\star02.png",320,240 M,22,278407,279407,412,120,481,89 F,3,278407,279407,1,0 S,9,278407,279407,0.09,0 R,0,278407,279407,5,1 C,0,278407,279407,128,255,255 P,0,278407,279407,A
Sprite,Foreground,Centre,"SB\star02.png",320,240 M,22,278407,279407,412,120,428,33 F,3,278407,279407,1,0 S,9,278407,279407,0.26,0 R,0,278407,279407,4,1 C,0,278407,279407,128,255,255 P,0,278407,279407,A
Sprite,Foreground,Centre,"SB\star01.png",320,240 M,22,278407,279407,412,120,368,182 F,3,278407,279407,1,0 S,9,278407,279407,0.13,0 R,0,278407,279407,4,2 C,0,278407,279407,128,255,255 P,0,278407,279407,A
Sprite,Foreground,Centre,"SB\star02.png",320,240 M,22,278407,279407,412,120,462,25 F,3,278407,279407,1,0 S,9,278407,279407,0.05,0 R,0,278407,279407,4,1 C,0,278407,279407,128,255,255 P,0,278407,279407,A
Sprite,Foreground,Centre,"SB\star02.png",320,240 M,22,278407,279407,412,120,430,65 F,3,278407,279407,1,0 S,9,278407,279407,0.21,0 R,0,278407,279407,2,0 C,0,278407,279407,128,255,255 P,0,278407,279407,A
Sprite,Foreground,Centre,"SB\star01.png",320,240 M,22,278407,279407,412,120,442,78 F,3,278407,279407,1,0 S,9,278407,279407,0.27,0 R,0,278407,279407,5,0 C,0,278407,279407,128,255,255 P,0,278407,279407,A
Sprite,Foreground,Centre,"SB\star02.png",320,240 M,22,278407,279407,412,120,469,65 F,3,278407,279407,1,0 S,9,278407,279407,0.07,0 R,0,278407,279407,2,1 C,0,278407,279407,128,255,255 P,0,278407,279407,A
Sprite,Foreground,Centre,"SB\star01.png",320,240 M,22,278901,279901,484,264,463,212 F,3,278901,279901,1,0 S,9,278901,279901,0.18,0 R,0,278901,279901,4,2 C,0,278901,279901,128,255,255 P,0,278901,279901,A
Sprite,Foreground,Centre,"SB\star02.png",320,240 M,22,278901,279901,484,264,487,162 F,3,278901,279901,1,0 S,9,278901,279901,0.09,0 R,0,278901,279901,3,1 C,0,278901,279901,128,255,255 P,0,278901,279901,A
Sprite,Foreground,Centre,"SB\star01.png",320,240 M,22,278901,279901,484,264,495,319 F,3,278901,279901,1,0 S,9,278901,279901,0.14,0 R,0,278901,279901,3,1 C,0,278901,279901,128,255,255 P,0,278901,279901,A
Sprite,Foreground,Centre,"SB\star01.png",320,240 M,22,278901,279901,484,264,396,269 F,3,278901,279901,1,0 S,9,278901,279901,0.17,0 R,0,278901,279901,2,0 C,0,278901,279901,128,255,255 P,0,278901,279901,A
Sprite,Foreground,Centre,"SB\star02.png",320,240 M,22,278901,279901,484,264,539,185 F,3,278901,279901,1,0 S,9,278901,279901,0.24,0 R,0,278901,279901,3,0 C,0,278901,279901,128,255,255 P,0,278901,279901,A
Sprite,Foreground,Centre,"SB\star02.png",320,240 M,22,278901,279901,484,264,442,211 F,3,278901,279901,1,0 S,9,278901,279901,0.2,0 R,0,278901,279901,0 C,0,278901,279901,128,255,255 P,0,278901,279901,A
Sprite,Foreground,Centre,"SB\star02.png",320,240 M,22,278901,279901,484,264,559,265 F,3,278901,279901,1,0 S,9,278901,279901,0.18,0 R,0,278901,279901,2,0 C,0,278901,279901,128,255,255 P,0,278901,279901,A
Sprite,Foreground,Centre,"SB\star02.png",320,240 M,22,278901,279901,484,264,385,267 F,3,278901,279901,1,0 S,9,278901,279901,0.19,0 R,0,278901,279901,0 C,0,278901,279901,128,255,255 P,0,278901,279901,A
Sprite,Foreground,Centre,"SB\star01.png",320,240 M,22,278901,279901,484,264,558,311 F,3,278901,279901,1,0 S,9,278901,279901,0.03,0 R,0,278901,279901,3,0 C,0,278901,279901,128,255,255 P,0,278901,279901,A
Sprite,Foreground,Centre,"SB\star02.png",320,240 M,22,278901,279901,484,264,461,313 F,3,278901,279901,1,0 S,9,278901,279901,0.04,0 R,0,278901,279901,4,0 C,0,278901,279901,128,255,255 P,0,278901,279901,A
Sprite,Foreground,Centre,"SB\star01.png",320,240 M,22,278901,279901,484,264,389,262 F,3,278901,279901,1,0 S,9,278901,279901,0.19,0 R,0,278901,279901,3,2 C,0,278901,279901,128,255,255 P,0,278901,279901,A
Sprite,Foreground,Centre,"SB\star02.png",320,240 M,22,278901,279901,484,264,557,290 F,3,278901,279901,1,0 S,9,278901,279901,0.29,0 R,0,278901,279901,2,0 C,0,278901,279901,128,255,255 P,0,278901,279901,A
Sprite,Foreground,Centre,"SB\star01.png",320,240 M,22,278901,279901,484,264,513,326 F,3,278901,279901,1,0 S,9,278901,279901,0.24,0 R,0,278901,279901,3,1 C,0,278901,279901,128,255,255 P,0,278901,279901,A
Sprite,Foreground,Centre,"SB\star02.png",320,240 M,22,278901,279901,484,264,466,192 F,3,278901,279901,1,0 S,9,278901,279901,0.17,0 R,0,278901,279901,2,1 C,0,278901,279901,128,255,255 P,0,278901,279901,A
Sprite,Foreground,Centre,"SB\star02.png",320,240 M,22,278901,279901,484,264,452,201 F,3,278901,279901,1,0 S,9,278901,279901,0.04,0 R,0,278901,279901,2 C,0,278901,279901,128,255,255 P,0,278901,279901,A
Sprite,Foreground,Centre,"SB\star01.png",320,240 M,22,278901,279901,484,264,398,314 F,3,278901,279901,1,0 S,9,278901,279901,0.11,0 R,0,278901,279901,0 C,0,278901,279901,128,255,255 P,0,278901,279901,A
Sprite,Foreground,Centre,"SB\star02.png",320,240 M,22,278901,279901,484,264,546,187 F,3,278901,279901,1,0 S,9,278901,279901,0.23,0 R,0,278901,279901,2,0 C,0,278901,279901,128,255,255 P,0,278901,279901,A
Sprite,Foreground,Centre,"SB\star01.png",320,240 M,22,278901,279901,484,264,486,172 F,3,278901,279901,1,0 S,9,278901,279901,0.21,0 R,0,278901,279901,3,0 C,0,278901,279901,128,255,255 P,0,278901,279901,A
Sprite,Foreground,Centre,"SB\star01.png",320,240 M,22,278901,279901,484,264,557,302 F,3,278901,279901,1,0 S,9,278901,279901,0.13,0 R,0,278901,279901,0,1 C,0,278901,279901,128,255,255 P,0,278901,279901,A
Sprite,Foreground,Centre,"SB\star02.png",320,240 M,22,278901,279901,484,264,549,327 F,3,278901,279901,1,0 S,9,278901,279901,0.16,0 R,0,278901,279901,2,0 C,0,278901,279901,128,255,255 P,0,278901,279901,A
Sprite,Foreground,Centre,"SB\star01.png",320,240 M,22,278901,279901,484,264,521,310 F,3,278901,279901,1,0 S,9,278901,279901,0.18,0 R,0,278901,279901,1,0 C,0,278901,279901,128,255,255 P,0,278901,279901,A
Sprite,Foreground,Centre,"SB\star01.png",320,240 M,22,278901,279901,484,264,430,350 F,3,278901,279901,1,0 S,9,278901,279901,0.22,0 R,0,278901,279901,1 C,0,278901,279901,128,255,255 P,0,278901,279901,A
Sprite,Foreground,Centre,"SB\star02.png",320,240 M,22,278901,279901,484,264,456,343 F,3,278901,279901,1,0 S,9,278901,279901,0.06,0 R,0,278901,279901,0,2 C,0,278901,279901,128,255,255 P,0,278901,279901,A
Sprite,Foreground,Centre,"SB\star01.png",320,240 M,22,278901,279901,484,264,413,259 F,3,278901,279901,1,0 S,9,278901,279901,0.1,0 R,0,278901,279901,1,0 C,0,278901,279901,128,255,255 P,0,278901,279901,A
Sprite,Foreground,Centre,"SB\star01.png",320,240 M,22,278901,279901,484,264,392,268 F,3,278901,279901,1,0 S,9,278901,279901,0.25,0 R,0,278901,279901,1 C,0,278901,279901,128,255,255 P,0,278901,279901,A
Sprite,Foreground,Centre,"SB\star01.png",320,240 M,22,278901,279901,484,264,426,265 F,3,278901,279901,1,0 S,9,278901,279901,0.1,0 R,0,278901,279901,4,0 C,0,278901,279901,128,255,255 P,0,278901,279901,A
Sprite,Foreground,Centre,"SB\star01.png",320,240 M,22,278901,279901,484,264,418,315 F,3,278901,279901,1,0 S,9,278901,279901,0.21,0 R,0,278901,279901,2,0 C,0,278901,279901,128,255,255 P,0,278901,279901,A
Sprite,Foreground,Centre,"SB\star01.png",320,240 M,22,278901,279901,484,264,470,324 F,3,278901,279901,1,0 S,9,278901,279901,0.06,0 R,0,278901,279901,4,1 C,0,278901,279901,128,255,255 P,0,278901,279901,A
Sprite,Foreground,Centre,"SB\star02.png",320,240 M,22,278901,279901,484,264,442,205 F,3,278901,279901,1,0 S,9,278901,279901,0.2,0 R,0,278901,279901,4,1 C,0,278901,279901,128,255,255 P,0,278901,279901,A
Sprite,Foreground,Centre,"SB\star01.png",320,240 M,22,278901,279901,484,264,399,266 F,3,278901,279901,1,0 S,9,278901,279901,0.04,0 R,0,278901,279901,5,2 C,0,278901,279901,128,255,255 P,0,278901,279901,A
Sprite,Foreground,Centre,"SB\star02.png",320,240 M,22,279396,280396,286,339,256,289 F,3,279396,280396,1,0 S,9,279396,280396,0.28,0 R,0,279396,280396,5,1 C,0,279396,280396,128,255,255 P,0,279396,280396,A
Sprite,Foreground,Centre,"SB\star02.png",320,240 M,22,279396,280396,286,339,343,274 F,3,279396,280396,1,0 S,9,279396,280396,0.13,0 R,0,279396,280396,4,1 C,0,279396,280396,128,255,255 P,0,279396,280396,A
Sprite,Foreground,Centre,"SB\star01.png",320,240 M,22,279396,280396,286,339,271,279 F,3,279396,280396,1,0 S,9,279396,280396,0.05,0 R,0,279396,280396,0,3 C,0,279396,280396,128,255,255 P,0,279396,280396,A
Sprite,Foreground,Centre,"SB\star02.png",320,240 M,22,279396,280396,286,339,279,256 F,3,279396,280396,1,0 S,9,279396,280396,0.13,0 R,0,279396,280396,5,0 C,0,279396,280396,128,255,255 P,0,279396,280396,A
Sprite,Foreground,Centre,"SB\star01.png",320,240 M,22,279396,280396,286,339,282,246 F,3,279396,280396,1,0 S,9,279396,280396,0.2,0 R,0,279396,280396,5,2 C,0,279396,280396,128,255,255 P,0,279396,280396,A
Sprite,Foreground,Centre,"SB\star01.png",320,240 M,22,279396,280396,286,339,282,280 F,3,279396,280396,1,0 S,9,279396,280396,0.05,0 R,0,279396,280396,1,0 C,0,279396,280396,128,255,255 P,0,279396,280396,A
Sprite,Foreground,Centre,"SB\star01.png",320,240 M,22,279396,280396,286,339,223,283 F,3,279396,280396,1,0 S,9,279396,280396,0.21,0 R,0,279396,280396,0,1 C,0,279396,280396,128,255,255 P,0,279396,280396,A
Sprite,Foreground,Centre,"SB\star01.png",320,240 M,22,279396,280396,286,339,202,292 F,3,279396,280396,1,0 S,9,279396,280396,0.19,0 R,0,279396,280396,0,2 C,0,279396,280396,128,255,255 P,0,279396,280396,A
Sprite,Foreground,Centre,"SB\star02.png",320,240 M,22,279396,280396,286,339,317,249 F,3,279396,280396,1,0 S,9,279396,280396,0.12,0 R,0,279396,280396,0,2 C,0,279396,280396,128,255,255 P,0,279396,280396,A
Sprite,Foreground,Centre,"SB\star02.png",320,240 M,22,279396,280396,286,339,235,268 F,3,279396,280396,1,0 S,9,279396,280396,0.12,0 R,0,279396,280396,0,1 C,0,279396,280396,128,255,255 P,0,279396,280396,A
Sprite,Foreground,Centre,"SB\star01.png",320,240 M,22,279396,280396,286,339,238,419 F,3,279396,280396,1,0 S,9,279396,280396,0.13,0 R,0,279396,280396,5,1 C,0,279396,280396,128,255,255 P,0,279396,280396,A
Sprite,Foreground,Centre,"SB\star01.png",320,240 M,22,279396,280396,286,339,215,353 F,3,279396,280396,1,0 S,9,279396,280396,0.09,0 R,0,279396,280396,5,3 C,0,279396,280396,128,255,255 P,0,279396,280396,A
Sprite,Foreground,Centre,"SB\star02.png",320,240 M,22,279396,280396,286,339,285,427 F,3,279396,280396,1,0 S,9,279396,280396,0.06,0 R,0,279396,280396,2,1 C,0,279396,280396,128,255,255 P,0,279396,280396,A
Sprite,Foreground,Centre,"SB\star02.png",320,240 M,22,279396,280396,286,339,305,395 F,3,279396,280396,1,0 S,9,279396,280396,0.15,0 R,0,279396,280396,4,2 C,0,279396,280396,128,255,255 P,0,279396,280396,A
Sprite,Foreground,Centre,"SB\star02.png",320,240 M,22,279396,280396,286,339,288,435 F,3,279396,280396,1,0 S,9,279396,280396,0.27,0 R,0,279396,280396,3,0 C,0,279396,280396,128,255,255 P,0,279396,280396,A
Sprite,Foreground,Centre,"SB\star01.png",320,240 M,22,279396,280396,286,339,253,432 F,3,279396,280396,1,0 S,9,279396,280396,0.1,0 R,0,279396,280396,1 C,0,279396,280396,128,255,255 P,0,279396,280396,A
Sprite,Foreground,Centre,"SB\star01.png",320,240 M,22,279396,280396,286,339,327,440 F,3,279396,280396,1,0 S,9,279396,280396,0.18,0 R,0,279396,280396,2,1 C,0,279396,280396,128,255,255 P,0,279396,280396,A
Sprite,Foreground,Centre,"SB\star01.png",320,240 M,22,279396,280396,286,339,211,399 F,3,279396,280396,1,0 S,9,279396,280396,0.28,0 R,0,279396,280396,0 C,0,279396,280396,128,255,255 P,0,279396,280396,A
Sprite,Foreground,Centre,"SB\star01.png",320,240 M,22,279396,280396,286,339,210,332 F,3,279396,280396,1,0 S,9,279396,280396,0.03,0 R,0,279396,280396,2 C,0,279396,280396,128,255,255 P,0,279396,280396,A
Sprite,Foreground,Centre,"SB\star02.png",320,240 M,22,279396,280396,286,339,377,384 F,3,279396,280396,1,0 S,9,279396,280396,0.27,0 R,0,279396,280396,0 C,0,279396,280396,128,255,255 P,0,279396,280396,A
Sprite,Foreground,Centre,"SB\star02.png",320,240 M,22,279396,280396,286,339,206,289 F,3,279396,280396,1,0 S,9,279396,280396,0.16,0 R,0,279396,280396,2,1 C,0,279396,280396,128,255,255 P,0,279396,280396,A
Sprite,Foreground,Centre,"SB\star02.png",320,240 M,22,279396,280396,286,339,272,392 F,3,279396,280396,1,0 S,9,279396,280396,0.24,0 R,0,279396,280396,0 C,0,279396,280396,128,255,255 P,0,279396,280396,A
Sprite,Foreground,Centre,"SB\star01.png",320,240 M,22,279396,280396,286,339,221,329 F,3,279396,280396,1,0 S,9,279396,280396,0.19,0 R,0,279396,280396,0,2 C,0,279396,280396,128,255,255 P,0,279396,280396,A
Sprite,Foreground,Centre,"SB\star01.png",320,240 M,22,279396,280396,286,339,234,357 F,3,279396,280396,1,0 S,9,279396,280396,0.25,0 R,0,279396,280396,5,2 C,0,279396,280396,128,255,255 P,0,279396,280396,A
Sprite,Foreground,Centre,"SB\star01.png",320,240 M,22,279396,280396,286,339,292,241 F,3,279396,280396,1,0 S,9,279396,280396,0.07,0 R,0,279396,280396,1,2 C,0,279396,280396,128,255,255 P,0,279396,280396,A
Sprite,Foreground,Centre,"SB\star02.png",320,240 M,22,279396,280396,286,339,284,231 F,3,279396,280396,1,0 S,9,279396,280396,0.26,0 R,0,279396,280396,5,2 C,0,279396,280396,128,255,255 P,0,279396,280396,A
Sprite,Foreground,Centre,"SB\star01.png",320,240 M,22,279396,280396,286,339,292,271 F,3,279396,280396,1,0 S,9,279396,280396,0.19,0 R,0,279396,280396,2 C,0,279396,280396,128,255,255 P,0,279396,280396,A
Sprite,Foreground,Centre,"SB\star02.png",320,240 M,22,279396,280396,286,339,219,281 F,3,279396,280396,1,0 S,9,279396,280396,0.28,0 R,0,279396,280396,5,1 C,0,279396,280396,128,255,255 P,0,279396,280396,A
Sprite,Foreground,Centre,"SB\star01.png",320,240 M,22,279396,280396,286,339,344,320 F,3,279396,280396,1,0 S,9,279396,280396,0.07,0 R,0,279396,280396,3,1 C,0,279396,280396,128,255,255 P,0,279396,280396,A
Sprite,Foreground,Centre,"SB\star02.png",320,240 M,22,279396,280396,286,339,357,307 F,3,279396,280396,1,0 S,9,279396,280396,0.17,0 R,0,279396,280396,3,0 C,0,279396,280396,128,255,255 P,0,279396,280396,A
Sprite,Foreground,Centre,"SB\star01.png",320,240 M,22,279726,280726,292,160,351,202 F,3,279726,280726,1,0 S,9,279726,280726,0.14,0 R,0,279726,280726,6,0 C,0,279726,280726,87,133,255 P,0,279726,280726,A
Sprite,Foreground,Centre,"SB\star02.png",320,240 M,22,279726,280726,292,160,325,205 F,3,279726,280726,1,0 S,9,279726,280726,0.28,0 R,0,279726,280726,2,0 C,0,279726,280726,87,133,255 P,0,279726,280726,A
Sprite,Foreground,Centre,"SB\star02.png",320,240 M,22,279726,280726,292,160,228,162 F,3,279726,280726,1,0 S,9,279726,280726,0.2,0 R,0,279726,280726,3,2 C,0,279726,280726,87,133,255 P,0,279726,280726,A
Sprite,Foreground,Centre,"SB\star01.png",320,240 M,22,279726,280726,292,160,235,90 F,3,279726,280726,1,0 S,9,279726,280726,0.3,0 R,0,279726,280726,0,1 C,0,279726,280726,87,133,255 P,0,279726,280726,A
Sprite,Foreground,Centre,"SB\star02.png",320,240 M,22,279726,280726,292,160,336,106 F,3,279726,280726,1,0 S,9,279726,280726,0.08,0 R,0,279726,280726,3,0 C,0,279726,280726,87,133,255 P,0,279726,280726,A
Sprite,Foreground,Centre,"SB\star01.png",320,240 M,22,279726,280726,292,160,307,77 F,3,279726,280726,1,0 S,9,279726,280726,0.3,0 R,0,279726,280726,3,1 C,0,279726,280726,87,133,255 P,0,279726,280726,A
Sprite,Foreground,Centre,"SB\star01.png",320,240 M,22,279726,280726,292,160,249,118 F,3,279726,280726,1,0 S,9,279726,280726,0.23,0 R,0,279726,280726,5,2 C,0,279726,280726,87,133,255 P,0,279726,280726,A
Sprite,Foreground,Centre,"SB\star02.png",320,240 M,22,279726,280726,292,160,296,70 F,3,279726,280726,1,0 S,9,279726,280726,0.08,0 R,0,279726,280726,3,2 C,0,279726,280726,87,133,255 P,0,279726,280726,A
Sprite,Foreground,Centre,"SB\star01.png",320,240 M,22,279726,280726,292,160,342,151 F,3,279726,280726,1,0 S,9,279726,280726,0.08,0 R,0,279726,280726,6,1 C,0,279726,280726,87,133,255 P,0,279726,280726,A
Sprite,Foreground,Centre,"SB\star01.png",320,240 M,22,279726,280726,292,160,277,86 F,3,279726,280726,1,0 S,9,279726,280726,0.25,0 R,0,279726,280726,1 C,0,279726,280726,87,133,255 P,0,279726,280726,A
Sprite,Foreground,Centre,"SB\star01.png",320,240 M,22,279726,280726,292,160,197,178 F,3,279726,280726,1,0 S,9,279726,280726,0.22,0 R,0,279726,280726,5,0 C,0,279726,280726,87,133,255 P,0,279726,280726,A
Sprite,Foreground,Centre,"SB\star02.png",320,240 M,22,279726,280726,292,160,332,234 F,3,279726,280726,1,0 S,9,279726,280726,0.08,0 R,0,279726,280726,3,0 C,0,279726,280726,87,133,255 P,0,279726,280726,A
Sprite,Foreground,Centre,"SB\star02.png",320,240 M,22,279726,280726,292,160,283,230 F,3,279726,280726,1,0 S,9,279726,280726,0.27,0 R,0,279726,280726,2,0 C,0,279726,280726,87,133,255 P,0,279726,280726,A
Sprite,Foreground,Centre,"SB\star01.png",320,240 M,22,279726,280726,292,160,370,91 F,3,279726,280726,1,0 S,9,279726,280726,0.14,0 R,0,279726,280726,2,0 C,0,279726,280726,87,133,255 P,0,279726,280726,A
Sprite,Foreground,Centre,"SB\star02.png",320,240 M,22,279726,280726,292,160,235,94 F,3,279726,280726,1,0 S,9,279726,280726,0.19,0 R,0,279726,280726,4,0 C,0,279726,280726,87,133,255 P,0,279726,280726,A
Sprite,Foreground,Centre,"SB\star02.png",320,240 M,22,279726,280726,292,160,245,204 F,3,279726,280726,1,0 S,9,279726,280726,0.26,0 R,0,279726,280726,3,2 C,0,279726,280726,87,133,255 P,0,279726,280726,A
Sprite,Foreground,Centre,"SB\star01.png",320,240 M,22,279726,280726,292,160,328,221 F,3,279726,280726,1,0 S,9,279726,280726,0.1,0 R,0,279726,280726,5,3 C,0,279726,280726,87,133,255 P,0,279726,280726,A
Sprite,Foreground,Centre,"SB\star02.png",320,240 M,22,279726,280726,292,160,262,76 F,3,279726,280726,1,0 S,9,279726,280726,0.22,0 R,0,279726,280726,1 C,0,279726,280726,87,133,255 P,0,279726,280726,A
Sprite,Foreground,Centre,"SB\star02.png",320,240 M,22,279726,280726,292,160,397,128 F,3,279726,280726,1,0 S,9,279726,280726,0.17,0 R,0,279726,280726,3,1 C,0,279726,280726,87,133,255 P,0,279726,280726,A
Sprite,Foreground,Centre,"SB\star01.png",320,240 M,22,279726,280726,292,160,259,213 F,3,279726,280726,1,0 S,9,279726,280726,0.17,0 R,0,279726,280726,1,2 C,0,279726,280726,87,133,255 P,0,279726,280726,A
Sprite,Foreground,Centre,"SB\star01.png",320,240 M,22,279726,280726,292,160,384,117 F,3,279726,280726,1,0 S,9,279726,280726,0.19,0 R,0,279726,280726,1,2 C,0,279726,280726,87,133,255 P,0,279726,280726,A
Sprite,Foreground,Centre,"SB\star02.png",320,240 M,22,279726,280726,292,160,385,130 F,3,279726,280726,1,0 S,9,279726,280726,0.3,0 R,0,279726,280726,0 C,0,279726,280726,87,133,255 P,0,279726,280726,A
Sprite,Foreground,Centre,"SB\star01.png",320,240 M,22,279726,280726,292,160,328,120 F,3,279726,280726,1,0 S,9,279726,280726,0.06,0 R,0,279726,280726,5,2 C,0,279726,280726,87,133,255 P,0,279726,280726,A
Sprite,Foreground,Centre,"SB\star02.png",320,240 M,22,279726,280726,292,160,297,50 F,3,279726,280726,1,0 S,9,279726,280726,0.26,0 R,0,279726,280726,5,0 C,0,279726,280726,87,133,255 P,0,279726,280726,A
Sprite,Foreground,Centre,"SB\star02.png",320,240 M,22,279726,280726,292,160,205,151 F,3,279726,280726,1,0 S,9,279726,280726,0.27,0 R,0,279726,280726,2,1 C,0,279726,280726,87,133,255 P,0,279726,280726,A
Sprite,Foreground,Centre,"SB\star02.png",320,240 M,22,279726,280726,292,160,310,95 F,3,279726,280726,1,0 S,9,279726,280726,0.11,0 R,0,279726,280726,0,1 C,0,279726,280726,87,133,255 P,0,279726,280726,A
Sprite,Foreground,Centre,"SB\star02.png",320,240 M,22,279726,280726,292,160,320,55 F,3,279726,280726,1,0 S,9,279726,280726,0.15,0 R,0,279726,280726,6,0 C,0,279726,280726,87,133,255 P,0,279726,280726,A
Sprite,Foreground,Centre,"SB\star02.png",320,240 M,22,279726,280726,292,160,389,184 F,3,279726,280726,1,0 S,9,279726,280726,0.15,0 R,0,279726,280726,1,2 C,0,279726,280726,87,133,255 P,0,279726,280726,A
Sprite,Foreground,Centre,"SB\star02.png",320,240 M,22,279726,280726,292,160,247,125 F,3,279726,280726,1,0 S,9,279726,280726,0.07,0 R,0,279726,280726,5,1 C,0,279726,280726,87,133,255 P,0,279726,280726,A
Sprite,Foreground,Centre,"SB\star01.png",320,240 M,22,279726,280726,292,160,292,74 F,3,279726,280726,1,0 S,9,279726,280726,0.09,0 R,0,279726,280726,2,0 C,0,279726,280726,87,133,255 P,0,279726,280726,A
Sprite,Foreground,Centre,"SB\star02.png",320,240 M,22,279808,280808,292,160,380,172 F,3,279808,280808,1,0 S,9,279808,280808,0.11,0 R,0,279808,280808,3,1 C,0,279808,280808,87,133,255 P,0,279808,280808,A
Sprite,Foreground,Centre,"SB\star02.png",320,240 M,22,279808,280808,292,160,226,221 F,3,279808,280808,1,0 S,9,279808,280808,0.13,0 R,0,279808,280808,1,2 C,0,279808,280808,87,133,255 P,0,279808,280808,A
Sprite,Foreground,Centre,"SB\star02.png",320,240 M,22,279808,280808,292,160,386,155 F,3,279808,280808,1,0 S,9,279808,280808,0.17,0 R,0,279808,280808,3,2 C,0,279808,280808,87,133,255 P,0,279808,280808,A
Sprite,Foreground,Centre,"SB\star02.png",320,240 M,22,279808,280808,292,160,265,86 F,3,279808,280808,1,0 S,9,279808,280808,0.24,0 R,0,279808,280808,4,0 C,0,279808,280808,87,133,255 P,0,279808,280808,A
Sprite,Foreground,Centre,"SB\star01.png",320,240 M,22,279808,280808,292,160,317,102 F,3,279808,280808,1,0 S,9,279808,280808,0.19,0 R,0,279808,280808,1 C,0,279808,280808,87,133,255 P,0,279808,280808,A
Sprite,Foreground,Centre,"SB\star02.png",320,240 M,22,279808,280808,292,160,328,201 F,3,279808,280808,1,0 S,9,279808,280808,0.26,0 R,0,279808,280808,0,2 C,0,279808,280808,87,133,255 P,0,279808,280808,A
Sprite,Foreground,Centre,"SB\star01.png",320,240 M,22,279808,280808,292,160,212,143 F,3,279808,280808,1,0 S,9,279808,280808,0.1,0 R,0,279808,280808,1,2 C,0,279808,280808,87,133,255 P,0,279808,280808,A
Sprite,Foreground,Centre,"SB\star01.png",320,240 M,22,279808,280808,292,160,354,138 F,3,279808,280808,1,0 S,9,279808,280808,0.26,0 R,0,279808,280808,3,0 C,0,279808,280808,87,133,255 P,0,279808,280808,A
Sprite,Foreground,Centre,"SB\star01.png",320,240 M,22,279808,280808,292,160,305,75 F,3,279808,280808,1,0 S,9,279808,280808,0.18,0 R,0,279808,280808,2 C,0,279808,280808,87,133,255 P,0,279808,280808,A
Sprite,Foreground,Centre,"SB\star02.png",320,240 M,22,279808,280808,292,160,331,225 F,3,279808,280808,1,0 S,9,279808,280808,0.11,0 R,0,279808,280808,4,1 C,0,279808,280808,87,133,255 P,0,279808,280808,A
Sprite,Foreground,Centre,"SB\star01.png",320,240 M,22,279808,280808,292,160,298,227 F,3,279808,280808,1,0 S,9,279808,280808,0.16,0 R,0,279808,280808,2,0 C,0,279808,280808,87,133,255 P,0,279808,280808,A
Sprite,Foreground,Centre,"SB\star02.png",320,240 M,22,279808,280808,292,160,248,108 F,3,279808,280808,1,0 S,9,279808,280808,0.23,0 R,0,279808,280808,4,1 C,0,279808,280808,87,133,255 P,0,279808,280808,A
Sprite,Foreground,Centre,"SB\star02.png",320,240 M,22,279808,280808,292,160,351,208 F,3,279808,280808,1,0 S,9,279808,280808,0.11,0 R,0,279808,280808,3 C,0,279808,280808,87,133,255 P,0,279808,280808,A
Sprite,Foreground,Centre,"SB\star02.png",320,240 M,22,279808,280808,292,160,274,105 F,3,279808,280808,1,0 S,9,279808,280808,0.21,0 R,0,279808,280808,4,1 C,0,279808,280808,87,133,255 P,0,279808,280808,A
Sprite,Foreground,Centre,"SB\star01.png",320,240 M,22,279808,280808,292,160,340,244 F,3,279808,280808,1,0 S,9,279808,280808,0.21,0 R,0,279808,280808,2 C,0,279808,280808,87,133,255 P,0,279808,280808,A
Sprite,Foreground,Centre,"SB\star01.png",320,240 M,22,279808,280808,292,160,251,192 F,3,279808,280808,1,0 S,9,279808,280808,0.19,0 R,0,279808,280808,0,2 C,0,279808,280808,87,133,255 P,0,279808,280808,A
Sprite,Foreground,Centre,"SB\star01.png",320,240 M,22,279808,280808,292,160,329,240 F,3,279808,280808,1,0 S,9,279808,280808,0.27,0 R,0,279808,280808,4,2 C,0,279808,280808,87,133,255 P,0,279808,280808,A
Sprite,Foreground,Centre,"SB\star02.png",320,240 M,22,279808,280808,292,160,242,181 F,3,279808,280808,1,0 S,9,279808,280808,0.27,0 R,0,279808,280808,0 C,0,279808,280808,87,133,255 P,0,279808,280808,A
Sprite,Foreground,Centre,"SB\star02.png",320,240 M,22,279808,280808,292,160,215,162 F,3,279808,280808,1,0 S,9,279808,280808,0.15,0 R,0,279808,280808,0,1 C,0,279808,280808,87,133,255 P,0,279808,280808,A
Sprite,Foreground,Centre,"SB\star01.png",320,240 M,22,279808,280808,292,160,289,233 F,3,279808,280808,1,0 S,9,279808,280808,0.16,0 R,0,279808,280808,1,0 C,0,279808,280808,87,133,255 P,0,279808,280808,A
Sprite,Foreground,Centre,"SB\star01.png",320,240 M,22,279808,280808,292,160,259,236 F,3,279808,280808,1,0 S,9,279808,280808,0.07,0 R,0,279808,280808,4,2 C,0,279808,280808,87,133,255 P,0,279808,280808,A
Sprite,Foreground,Centre,"SB\star02.png",320,240 M,22,279808,280808,292,160,251,248 F,3,279808,280808,1,0 S,9,279808,280808,0.26,0 R,0,279808,280808,5,2 C,0,279808,280808,87,133,255 P,0,279808,280808,A
Sprite,Foreground,Centre,"SB\star02.png",320,240 M,22,279808,280808,292,160,335,96 F,3,279808,280808,1,0 S,9,279808,280808,0.27,0 R,0,279808,280808,5,1 C,0,279808,280808,87,133,255 P,0,279808,280808,A
Sprite,Foreground,Centre,"SB\star01.png",320,240 M,22,279808,280808,292,160,395,136 F,3,279808,280808,1,0 S,9,279808,280808,0.16,0 R,0,279808,280808,1,2 C,0,279808,280808,87,133,255 P,0,279808,280808,A
Sprite,Foreground,Centre,"SB\star02.png",320,240 M,22,279808,280808,292,160,365,79 F,3,279808,280808,1,0 S,9,279808,280808,0.06,0 R,0,279808,280808,5,2 C,0,279808,280808,87,133,255 P,0,279808,280808,A
Sprite,Foreground,Centre,"SB\star02.png",320,240 M,22,279808,280808,292,160,355,78 F,3,279808,280808,1,0 S,9,279808,280808,0.25,0 R,0,279808,280808,2,0 C,0,279808,280808,87,133,255 P,0,279808,280808,A
Sprite,Foreground,Centre,"SB\star01.png",320,240 M,22,279808,280808,292,160,398,150 F,3,279808,280808,1,0 S,9,279808,280808,0.15,0 R,0,279808,280808,4,0 C,0,279808,280808,87,133,255 P,0,279808,280808,A
Sprite,Foreground,Centre,"SB\star01.png",320,240 M,22,279808,280808,292,160,369,158 F,3,279808,280808,1,0 S,9,279808,280808,0.07,0 R,0,279808,280808,1,0 C,0,279808,280808,87,133,255 P,0,279808,280808,A
Sprite,Foreground,Centre,"SB\star02.png",320,240 M,22,279808,280808,292,160,378,205 F,3,279808,280808,1,0 S,9,279808,280808,0.24,0 R,0,279808,280808,6,1 C,0,279808,280808,87,133,255 P,0,279808,280808,A
Sprite,Foreground,Centre,"SB\star02.png",320,240 M,22,279808,280808,292,160,321,79 F,3,279808,280808,1,0 S,9,279808,280808,0.08,0 R,0,279808,280808,2,1 C,0,279808,280808,87,133,255 P,0,279808,280808,A
Sprite,Foreground,Centre,"SB\star01.png",320,240 M,22,279891,280891,292,160,274,52 F,3,279891,280891,1,0 S,9,279891,280891,0.3,0 R,0,279891,280891,3,0 C,0,279891,280891,87,133,255 P,0,279891,280891,A
Sprite,Foreground,Centre,"SB\star01.png",320,240 M,22,279891,280891,292,160,371,179 F,3,279891,280891,1,0 S,9,279891,280891,0.16,0 R,0,279891,280891,5,1 C,0,279891,280891,87,133,255 P,0,279891,280891,A
Sprite,Foreground,Centre,"SB\star01.png",320,240 M,22,279891,280891,292,160,232,167 F,3,279891,280891,1,0 S,9,279891,280891,0.05,0 R,0,279891,280891,0,2 C,0,279891,280891,87,133,255 P,0,279891,280891,A
Sprite,Foreground,Centre,"SB\star01.png",320,240 M,22,279891,280891,292,160,209,166 F,3,279891,280891,1,0 S,9,279891,280891,0.22,0 R,0,279891,280891,3,2 C,0,279891,280891,87,133,255 P,0,279891,280891,A
Sprite,Foreground,Centre,"SB\star01.png",320,240 M,22,279891,280891,292,160,235,163 F,3,279891,280891,1,0 S,9,279891,280891,0.22,0 R,0,279891,280891,3 C,0,279891,280891,87,133,255 P,0,279891,280891,A
Sprite,Foreground,Centre,"SB\star02.png",320,240 M,22,279891,280891,292,160,384,165 F,3,279891,280891,1,0 S,9,279891,280891,0.07,0 R,0,279891,280891,0,2 C,0,279891,280891,87,133,255 P,0,279891,280891,A
Sprite,Foreground,Centre,"SB\star01.png",320,240 M,22,279891,280891,292,160,245,229 F,3,279891,280891,1,0 S,9,279891,280891,0.04,0 R,0,279891,280891,3,1 C,0,279891,280891,87,133,255 P,0,279891,280891,A
Sprite,Foreground,Centre,"SB\star01.png",320,240 M,22,279891,280891,292,160,340,220 F,3,279891,280891,1,0 S,9,279891,280891,0.22,0 R,0,279891,280891,1,0 C,0,279891,280891,87,133,255 P,0,279891,280891,A
Sprite,Foreground,Centre,"SB\star01.png",320,240 M,22,279891,280891,292,160,289,99 F,3,279891,280891,1,0 S,9,279891,280891,0.18,0 R,0,279891,280891,5,2 C,0,279891,280891,87,133,255 P,0,279891,280891,A
Sprite,Foreground,Centre,"SB\star02.png",320,240 M,22,279891,280891,292,160,316,262 F,3,279891,280891,1,0 S,9,279891,280891,0.16,0 R,0,279891,280891,3,2 C,0,279891,280891,87,133,255 P,0,279891,280891,A
Sprite,Foreground,Centre,"SB\star01.png",320,240 M,22,279891,280891,292,160,337,133 F,3,279891,280891,1,0 S,9,279891,280891,0.27,0 R,0,279891,280891,3,1 C,0,279891,280891,87,133,255 P,0,279891,280891,A
Sprite,Foreground,Centre,"SB\star02.png",320,240 M,22,279891,280891,292,160,357,85 F,3,279891,280891,1,0 S,9,279891,280891,0.27,0 R,0,279891,280891,2,1 C,0,279891,280891,87,133,255 P,0,279891,280891,A
Sprite,Foreground,Centre,"SB\star01.png",320,240 M,22,279891,280891,292,160,298,259 F,3,279891,280891,1,0 S,9,279891,280891,0.13,0 R,0,279891,280891,0 C,0,279891,280891,87,133,255 P,0,279891,280891,A
Sprite,Foreground,Centre,"SB\star02.png",320,240 M,22,279891,280891,292,160,282,85 F,3,279891,280891,1,0 S,9,279891,280891,0.11,0 R,0,279891,280891,2 C,0,279891,280891,87,133,255 P,0,279891,280891,A
Sprite,Foreground,Centre,"SB\star02.png",320,240 M,22,279891,280891,292,160,321,250 F,3,279891,280891,1,0 S,9,279891,280891,0.06,0 R,0,279891,280891,0,1 C,0,279891,280891,87,133,255 P,0,279891,280891,A
Sprite,Foreground,Centre,"SB\star02.png",320,240 M,22,279891,280891,292,160,342,91 F,3,279891,280891,1,0 S,9,279891,280891,0.16,0 R,0,279891,280891,0,2 C,0,279891,280891,87,133,255 P,0,279891,280891,A
Sprite,Foreground,Centre,"SB\star02.png",320,240 M,22,279891,280891,292,160,334,222 F,3,279891,280891,1,0 S,9,279891,280891,0.24,0 R,0,279891,280891,4,2 C,0,279891,280891,87,133,255 P,0,279891,280891,A
Sprite,Foreground,Centre,"SB\star02.png",320,240 M,22,279891,280891,292,160,205,114 F,3,279891,280891,1,0 S,9,279891,280891,0.11,0 R,0,279891,280891,3,2 C,0,279891,280891,87,133,255 P,0,279891,280891,A
Sprite,Foreground,Centre,"SB\star02.png",320,240 M,22,279891,280891,292,160,379,123 F,3,279891,280891,1,0 S,9,279891,280891,0.16,0 R,0,279891,280891,1,0 C,0,279891,280891,87,133,255 P,0,279891,280891,A
Sprite,Foreground,Centre,"SB\star02.png",320,240 M,22,279891,280891,292,160,371,124 F,3,279891,280891,1,0 S,9,279891,280891,0.03,0 R,0,279891,280891,1,0 C,0,279891,280891,87,133,255 P,0,279891,280891,A
Sprite,Foreground,Centre,"SB\star02.png",320,240 M,22,279891,280891,292,160,214,126 F,3,279891,280891,1,0 S,9,279891,280891,0.08,0 R,0,279891,280891,4,1 C,0,279891,280891,87,133,255 P,0,279891,280891,A
Sprite,Foreground,Centre,"SB\star02.png",320,240 M,22,279891,280891,292,160,267,81 F,3,279891,280891,1,0 S,9,279891,280891,0.23,0 R,0,279891,280891,1,2 C,0,279891,280891,87,133,255 P,0,279891,280891,A
Sprite,Foreground,Centre,"SB\star02.png",320,240 M,22,279891,280891,292,160,226,121 F,3,279891,280891,1,0 S,9,279891,280891,0.16,0 R,0,279891,280891,0,1 C,0,279891,280891,87,133,255 P,0,279891,280891,A
Sprite,Foreground,Centre,"SB\star01.png",320,240 M,22,279891,280891,292,160,259,203 F,3,279891,280891,1,0 S,9,279891,280891,0.23,0 R,0,279891,280891,1,2 C,0,279891,280891,87,133,255 P,0,279891,280891,A
Sprite,Foreground,Centre,"SB\star02.png",320,240 M,22,279891,280891,292,160,195,153 F,3,279891,280891,1,0 S,9,279891,280891,0.08,0 R,0,279891,280891,5,0 C,0,279891,280891,87,133,255 P,0,279891,280891,A
Sprite,Foreground,Centre,"SB\star01.png",320,240 M,22,279891,280891,292,160,220,94 F,3,279891,280891,1,0 S,9,279891,280891,0.27,0 R,0,279891,280891,2,0 C,0,279891,280891,87,133,255 P,0,279891,280891,A
Sprite,Foreground,Centre,"SB\star01.png",320,240 M,22,279891,280891,292,160,236,166 F,3,279891,280891,1,0 S,9,279891,280891,0.29,0 R,0,279891,280891,5,1 C,0,279891,280891,87,133,255 P,0,279891,280891,A
Sprite,Foreground,Centre,"SB\star01.png",320,240 M,22,279891,280891,292,160,298,233 F,3,279891,280891,1,0 S,9,279891,280891,0.09,0 R,0,279891,280891,3,0 C,0,279891,280891,87,133,255 P,0,279891,280891,A
Sprite,Foreground,Centre,"SB\star01.png",320,240 M,22,279891,280891,292,160,199,155 F,3,279891,280891,1,0 S,9,279891,280891,0.28,0 R,0,279891,280891,0,1 C,0,279891,280891,87,133,255 P,0,279891,280891,A
Sprite,Foreground,Centre,"SB\star02.png",320,240 M,22,279891,280891,292,160,199,161 F,3,279891,280891,1,0 S,9,279891,280891,0.16,0 R,0,279891,280891,0,1 C,0,279891,280891,87,133,255 P,0,279891,280891,A
Sprite,Foreground,Centre,"SB\star02.png",320,240 M,22,279973,280973,292,160,239,118 F,3,279973,280973,1,0 S,9,279973,280973,0.05,0 R,0,279973,280973,4,0 C,0,279973,280973,87,133,255 P,0,279973,280973,A
Sprite,Foreground,Centre,"SB\star01.png",320,240 M,22,279973,280973,292,160,350,162 F,3,279973,280973,1,0 S,9,279973,280973,0.17,0 R,0,279973,280973,6,2 C,0,279973,280973,87,133,255 P,0,279973,280973,A
Sprite,Foreground,Centre,"SB\star01.png",320,240 M,22,279973,280973,292,160,229,227 F,3,279973,280973,1,0 S,9,279973,280973,0.13,0 R,0,279973,280973,4,3 C,0,279973,280973,87,133,255 P,0,279973,280973,A
Sprite,Foreground,Centre,"SB\star02.png",320,240 M,22,279973,280973,292,160,347,132 F,3,279973,280973,1,0 S,9,279973,280973,0.14,0 R,0,279973,280973,1,2 C,0,279973,280973,87,133,255 P,0,279973,280973,A
Sprite,Foreground,Centre,"SB\star02.png",320,240 M,22,279973,280973,292,160,367,176 F,3,279973,280973,1,0 S,9,279973,280973,0.24,0 R,0,279973,280973,3,1 C,0,279973,280973,87,133,255 P,0,279973,280973,A
Sprite,Foreground,Centre,"SB\star01.png",320,240 M,22,279973,280973,292,160,219,111 F,3,279973,280973,1,0 S,9,279973,280973,0.15,0 R,0,279973,280973,0,2 C,0,279973,280973,87,133,255 P,0,279973,280973,A
Sprite,Foreground,Centre,"SB\star02.png",320,240 M,22,279973,280973,292,160,319,224 F,3,279973,280973,1,0 S,9,279973,280973,0.25,0 R,0,279973,280973,2,0 C,0,279973,280973,87,133,255 P,0,279973,280973,A
Sprite,Foreground,Centre,"SB\star01.png",320,240 M,22,279973,280973,292,160,204,216 F,3,279973,280973,1,0 S,9,279973,280973,0.24,0 R,0,279973,280973,1 C,0,279973,280973,87,133,255 P,0,279973,280973,A
Sprite,Foreground,Centre,"SB\star02.png",320,240 M,22,279973,280973,292,160,235,233 F,3,279973,280973,1,0 S,9,279973,280973,0.2,0 R,0,279973,280973,1,2 C,0,279973,280973,87,133,255 P,0,279973,280973,A
Sprite,Foreground,Centre,"SB\star01.png",320,240 M,22,279973,280973,292,160,356,197 F,3,279973,280973,1,0 S,9,279973,280973,0.16,0 R,0,279973,280973,0 C,0,279973,280973,87,133,255 P,0,279973,280973,A
Sprite,Foreground,Centre,"SB\star02.png",320,240 M,22,279973,280973,292,160,243,180 F,3,279973,280973,1,0 S,9,279973,280973,0.08,0 R,0,279973,280973,5,2 C,0,279973,280973,87,133,255 P,0,279973,280973,A
Sprite,Foreground,Centre,"SB\star01.png",320,240 M,22,279973,280973,292,160,225,200 F,3,279973,280973,1,0 S,9,279973,280973,0.06,0 R,0,279973,280973,5,1 C,0,279973,280973,87,133,255 P,0,279973,280973,A
Sprite,Foreground,Centre,"SB\star02.png",320,240 M,22,279973,280973,292,160,258,108 F,3,279973,280973,1,0 S,9,279973,280973,0.14,0 R,0,279973,280973,3,0 C,0,279973,280973,87,133,255 P,0,279973,280973,A
Sprite,Foreground,Centre,"SB\star02.png",320,240 M,22,279973,280973,292,160,372,119 F,3,279973,280973,1,0 S,9,279973,280973,0.14,0 R,0,279973,280973,5,3 C,0,279973,280973,87,133,255 P,0,279973,280973,A
Sprite,Foreground,Centre,"SB\star01.png",320,240 M,22,279973,280973,292,160,307,107 F,3,279973,280973,1,0 S,9,279973,280973,0.29,0 R,0,279973,280973,1 C,0,279973,280973,87,133,255 P,0,279973,280973,A
Sprite,Foreground,Centre,"SB\star01.png",320,240 M,22,279973,280973,292,160,288,222 F,3,279973,280973,1,0 S,9,279973,280973,0.24,0 R,0,279973,280973,3,0 C,0,279973,280973,87,133,255 P,0,279973,280973,A
Sprite,Foreground,Centre,"SB\star02.png",320,240 M,22,279973,280973,292,160,374,99 F,3,279973,280973,1,0 S,9,279973,280973,0.1,0 R,0,279973,280973,4,2 C,0,279973,280973,87,133,255 P,0,279973,280973,A
Sprite,Foreground,Centre,"SB\star01.png",320,240 M,22,279973,280973,292,160,302,257 F,3,279973,280973,1,0 S,9,279973,280973,0.19,0 R,0,279973,280973,5,2 C,0,279973,280973,87,133,255 P,0,279973,280973,A
Sprite,Foreground,Centre,"SB\star01.png",320,240 M,22,279973,280973,292,160,362,142 F,3,279973,280973,1,0 S,9,279973,280973,0.22,0 R,0,279973,280973,4,1 C,0,279973,280973,87,133,255 P,0,279973,280973,A
Sprite,Foreground,Centre,"SB\star01.png",320,240 M,22,279973,280973,292,160,254,258 F,3,279973,280973,1,0 S,9,279973,280973,0.05,0 R,0,279973,280973,3,2 C,0,279973,280973,87,133,255 P,0,279973,280973,A
Sprite,Foreground,Centre,"SB\star02.png",320,240 M,22,279973,280973,292,160,215,201 F,3,279973,280973,1,0 S,9,279973,280973,0.25,0 R,0,279973,280973,0,1 C,0,279973,280973,87,133,255 P,0,279973,280973,A
Sprite,Foreground,Centre,"SB\star02.png",320,240 M,22,279973,280973,292,160,252,195 F,3,279973,280973,1,0 S,9,279973,280973,0.3,0 R,0,279973,280973,1 C,0,279973,280973,87,133,255 P,0,279973,280973,A
Sprite,Foreground,Centre,"SB\star02.png",320,240 M,22,279973,280973,292,160,333,242 F,3,279973,280973,1,0 S,9,279973,280973,0.25,0 R,0,279973,280973,4,0 C,0,279973,280973,87,133,255 P,0,279973,280973,A
Sprite,Foreground,Centre,"SB\star01.png",320,240 M,22,279973,280973,292,160,222,162 F,3,279973,280973,1,0 S,9,279973,280973,0.1,0 R,0,279973,280973,5,3 C,0,279973,280973,87,133,255 P,0,279973,280973,A
Sprite,Foreground,Centre,"SB\star02.png",320,240 M,22,279973,280973,292,160,370,194 F,3,279973,280973,1,0 S,9,279973,280973,0.05,0 R,0,279973,280973,0,1 C,0,279973,280973,87,133,255 P,0,279973,280973,A
Sprite,Foreground,Centre,"SB\star01.png",320,240 M,22,279973,280973,292,160,346,150 F,3,279973,280973,1,0 S,9,279973,280973,0.12,0 R,0,279973,280973,4,1 C,0,279973,280973,87,133,255 P,0,279973,280973,A
Sprite,Foreground,Centre,"SB\star01.png",320,240 M,22,279973,280973,292,160,236,215 F,3,279973,280973,1,0 S,9,279973,280973,0.17,0 R,0,279973,280973,1 C,0,279973,280973,87,133,255 P,0,279973,280973,A
Sprite,Foreground,Centre,"SB\star02.png",320,240 M,22,279973,280973,292,160,229,175 F,3,279973,280973,1,0 S,9,279973,280973,0.22,0 R,0,279973,280973,5,0 C,0,279973,280973,87,133,255 P,0,279973,280973,A
Sprite,Foreground,Centre,"SB\star01.png",320,240 M,22,279973,280973,292,160,344,226 F,3,279973,280973,1,0 S,9,279973,280973,0.17,0 R,0,279973,280973,3,2 C,0,279973,280973,87,133,255 P,0,279973,280973,A
Sprite,Foreground,Centre,"SB\star01.png",320,240 M,22,279973,280973,292,160,369,198 F,3,279973,280973,1,0 S,9,279973,280973,0.15,0 R,0,279973,280973,2,0 C,0,279973,280973,87,133,255 P,0,279973,280973,A
Sprite,Foreground,Centre,"SB\star02.png",320,240 M,22,280055,281055,292,160,196,134 F,3,280055,281055,1,0 S,9,280055,281055,0.3,0 R,0,280055,281055,5,1 C,0,280055,281055,87,133,255 P,0,280055,281055,A
Sprite,Foreground,Centre,"SB\star01.png",320,240 M,22,280055,281055,292,160,212,125 F,3,280055,281055,1,0 S,9,280055,281055,0.17,0 R,0,280055,281055,3,1 C,0,280055,281055,87,133,255 P,0,280055,281055,A
Sprite,Foreground,Centre,"SB\star02.png",320,240 M,22,280055,281055,292,160,235,211 F,3,280055,281055,1,0 S,9,280055,281055,0.22,0 R,0,280055,281055,4,1 C,0,280055,281055,87,133,255 P,0,280055,281055,A
Sprite,Foreground,Centre,"SB\star02.png",320,240 M,22,280055,281055,292,160,204,142 F,3,280055,281055,1,0 S,9,280055,281055,0.1,0 R,0,280055,281055,0,2 C,0,280055,281055,87,133,255 P,0,280055,281055,A
Sprite,Foreground,Centre,"SB\star02.png",320,240 M,22,280055,281055,292,160,343,244 F,3,280055,281055,1,0 S,9,280055,281055,0.26,0 R,0,280055,281055,3,1 C,0,280055,281055,87,133,255 P,0,280055,281055,A
Sprite,Foreground,Centre,"SB\star02.png",320,240 M,22,280055,281055,292,160,282,97 F,3,280055,281055,1,0 S,9,280055,281055,0.16,0 R,0,280055,281055,2,1 C,0,280055,281055,87,133,255 P,0,280055,281055,A
Sprite,Foreground,Centre,"SB\star02.png",320,240 M,22,280055,281055,292,160,309,85 F,3,280055,281055,1,0 S,9,280055,281055,0.18,0 R,0,280055,281055,3,0 C,0,280055,281055,87,133,255 P,0,280055,281055,A
Sprite,Foreground,Centre,"SB\star01.png",320,240 M,22,280055,281055,292,160,349,110 F,3,280055,281055,1,0 S,9,280055,281055,0.16,0 R,0,280055,281055,5,2 C,0,280055,281055,87,133,255 P,0,280055,281055,A
Sprite,Foreground,Centre,"SB\star01.png",320,240 M,22,280055,281055,292,160,215,178 F,3,280055,281055,1,0 S,9,280055,281055,0.1,0 R,0,280055,281055,3,2 C,0,280055,281055,87,133,255 P,0,280055,281055,A
Sprite,Foreground,Centre,"SB\star02.png",320,240 M,22,280055,281055,292,160,305,227 F,3,280055,281055,1,0 S,9,280055,281055,0.05,0 R,0,280055,281055,1 C,0,280055,281055,87,133,255 P,0,280055,281055,A
Sprite,Foreground,Centre,"SB\star01.png",320,240 M,22,280055,281055,292,160,243,144 F,3,280055,281055,1,0 S,9,280055,281055,0.21,0 R,0,280055,281055,3,1 C,0,280055,281055,87,133,255 P,0,280055,281055,A
Sprite,Foreground,Centre,"SB\star02.png",320,240 M,22,280055,281055,292,160,370,163 F,3,280055,281055,1,0 S,9,280055,281055,0.2,0 R,0,280055,281055,2,0 C,0,280055,281055,87,133,255 P,0,280055,281055,A
Sprite,Foreground,Centre,"SB\star01.png",320,240 M,22,280055,281055,292,160,376,227 F,3,280055,281055,1,0 S,9,280055,281055,0.16,0 R,0,280055,281055,5,2 C,0,280055,281055,87,133,255 P,0,280055,281055,A
Sprite,Foreground,Centre,"SB\star02.png",320,240 M,22,280055,281055,292,160,346,129 F,3,280055,281055,1,0 S,9,280055,281055,0.14,0 R,0,280055,281055,0,1 C,0,280055,281055,87,133,255 P,0,280055,281055,A
Sprite,Foreground,Centre,"SB\star02.png",320,240 M,22,280055,281055,292,160,384,181 F,3,280055,281055,1,0 S,9,280055,281055,0.09,0 R,0,280055,281055,6,1 C,0,280055,281055,87,133,255 P,0,280055,281055,A
Sprite,Foreground,Centre,"SB\star02.png",320,240 M,22,280055,281055,292,160,253,113 F,3,280055,281055,1,0 S,9,280055,281055,0.26,0 R,0,280055,281055,3,2 C,0,280055,281055,87,133,255 P,0,280055,281055,A
Sprite,Foreground,Centre,"SB\star02.png",320,240 M,22,280055,281055,292,160,327,203 F,3,280055,281055,1,0 S,9,280055,281055,0.24,0 R,0,280055,281055,2 C,0,280055,281055,87,133,255 P,0,280055,281055,A
Sprite,Foreground,Centre,"SB\star02.png",320,240 M,22,280055,281055,292,160,354,168 F,3,280055,281055,1,0 S,9,280055,281055,0.15,0 R,0,280055,281055,4,2 C,0,280055,281055,87,133,255 P,0,280055,281055,A
Sprite,Foreground,Centre,"SB\star01.png",320,240 M,22,280055,281055,292,160,373,205 F,3,280055,281055,1,0 S,9,280055,281055,0.16,0 R,0,280055,281055,4,0 C,0,280055,281055,87,133,255 P,0,280055,281055,A
Sprite,Foreground,Centre,"SB\star02.png",320,240 M,22,280055,281055,292,160,340,180 F,3,280055,281055,1,0 S,9,280055,281055,0.1,0 R,0,280055,281055,3,2 C,0,280055,281055,87,133,255 P,0,280055,281055,A
Sprite,Foreground,Centre,"SB\star02.png",320,240 M,22,280055,281055,292,160,243,203 F,3,280055,281055,1,0 S,9,280055,281055,0.04,0 R,0,280055,281055,0 C,0,280055,281055,87,133,255 P,0,280055,281055,A
Sprite,Foreground,Centre,"SB\star02.png",320,240 M,22,280055,281055,292,160,381,190 F,3,280055,281055,1,0 S,9,280055,281055,0.1,0 R,0,280055,281055,2,0 C,0,280055,281055,87,133,255 P,0,280055,281055,A
Sprite,Foreground,Centre,"SB\star01.png",320,240 M,22,280055,281055,292,160,223,238 F,3,280055,281055,1,0 S,9,280055,281055,0.06,0 R,0,280055,281055,4,2 C,0,280055,281055,87,133,255 P,0,280055,281055,A
Sprite,Foreground,Centre,"SB\star01.png",320,240 M,22,280055,281055,292,160,220,120 F,3,280055,281055,1,0 S,9,280055,281055,0.09,0 R,0,280055,281055,3,2 C,0,280055,281055,87,133,255 P,0,280055,281055,A
Sprite,Foreground,Centre,"SB\star01.png",320,240 M,22,280055,281055,292,160,262,202 F,3,280055,281055,1,0 S,9,280055,281055,0.24,0 R,0,280055,281055,4,2 C,0,280055,281055,87,133,255 P,0,280055,281055,A
Sprite,Foreground,Centre,"SB\star02.png",320,240 M,22,280055,281055,292,160,371,206 F,3,280055,281055,1,0 S,9,280055,281055,0.26,0 R,0,280055,281055,1,0 C,0,280055,281055,87,133,255 P,0,280055,281055,A
Sprite,Foreground,Centre,"SB\star02.png",320,240 M,22,280055,281055,292,160,381,177 F,3,280055,281055,1,0 S,9,280055,281055,0.28,0 R,0,280055,281055,5,2 C,0,280055,281055,87,133,255 P,0,280055,281055,A
Sprite,Foreground,Centre,"SB\star02.png",320,240 M,22,280055,281055,292,160,356,207 F,3,280055,281055,1,0 S,9,280055,281055,0.24,0 R,0,280055,281055,3,2 C,0,280055,281055,87,133,255 P,0,280055,281055,A
Sprite,Foreground,Centre,"SB\star02.png",320,240 M,22,280055,281055,292,160,252,75 F,3,280055,281055,1,0 S,9,280055,281055,0.28,0 R,0,280055,281055,5,2 C,0,280055,281055,87,133,255 P,0,280055,281055,A
Sprite,Foreground,Centre,"SB\star01.png",320,240 M,22,280055,281055,292,160,229,200 F,3,280055,281055,1,0 S,9,280055,281055,0.2,0 R,0,280055,281055,0,2 C,0,280055,281055,87,133,255 P,0,280055,281055,A
Sprite,Foreground,Centre,"SB\star02.png",320,240 M,22,280220,281220,348,328,327,231 F,3,280220,281220,1,0 S,9,280220,281220,0.19,0 R,0,280220,281220,0,1 C,0,280220,281220,87,133,255 P,0,280220,281220,A
Sprite,Foreground,Centre,"SB\star01.png",320,240 M,22,280220,281220,348,328,330,378 F,3,280220,281220,1,0 S,9,280220,281220,0.27,0 R,0,280220,281220,1 C,0,280220,281220,87,133,255 P,0,280220,281220,A
Sprite,Foreground,Centre,"SB\star02.png",320,240 M,22,280220,281220,348,328,261,264 F,3,280220,281220,1,0 S,9,280220,281220,0.1,0 R,0,280220,281220,5,1 C,0,280220,281220,87,133,255 P,0,280220,281220,A
Sprite,Foreground,Centre,"SB\star01.png",320,240 M,22,280220,281220,348,328,268,400 F,3,280220,281220,1,0 S,9,280220,281220,0.13,0 R,0,280220,281220,0 C,0,280220,281220,87,133,255 P,0,280220,281220,A
Sprite,Foreground,Centre,"SB\star01.png",320,240 M,22,280220,281220,348,328,370,422 F,3,280220,281220,1,0 S,9,280220,281220,0.23,0 R,0,280220,281220,2 C,0,280220,281220,87,133,255 P,0,280220,281220,A
Sprite,Foreground,Centre,"SB\star01.png",320,240 M,22,280220,281220,348,328,316,430 F,3,280220,281220,1,0 S,9,280220,281220,0.09,0 R,0,280220,281220,2,0 C,0,280220,281220,87,133,255 P,0,280220,281220,A
Sprite,Foreground,Centre,"SB\star01.png",320,240 M,22,280220,281220,348,328,271,323 F,3,280220,281220,1,0 S,9,280220,281220,0.27,0 R,0,280220,281220,3,1 C,0,280220,281220,87,133,255 P,0,280220,281220,A
Sprite,Foreground,Centre,"SB\star01.png",320,240 M,22,280220,281220,348,328,291,290 F,3,280220,281220,1,0 S,9,280220,281220,0.04,0 R,0,280220,281220,3,1 C,0,280220,281220,87,133,255 P,0,280220,281220,A
Sprite,Foreground,Centre,"SB\star02.png",320,240 M,22,280220,281220,348,328,449,365 F,3,280220,281220,1,0 S,9,280220,281220,0.04,0 R,0,280220,281220,0 C,0,280220,281220,87,133,255 P,0,280220,281220,A
Sprite,Foreground,Centre,"SB\star01.png",320,240 M,22,280220,281220,348,328,407,330 F,3,280220,281220,1,0 S,9,280220,281220,0.25,0 R,0,280220,281220,0 C,0,280220,281220,87,133,255 P,0,280220,281220,A
Sprite,Foreground,Centre,"SB\star01.png",320,240 M,22,280220,281220,348,328,264,331 F,3,280220,281220,1,0 S,9,280220,281220,0.27,0 R,0,280220,281220,3 C,0,280220,281220,87,133,255 P,0,280220,281220,A
Sprite,Foreground,Centre,"SB\star01.png",320,240 M,22,280220,281220,348,328,336,278 F,3,280220,281220,1,0 S,9,280220,281220,0.12,0 R,0,280220,281220,4,0 C,0,280220,281220,87,133,255 P,0,280220,281220,A
Sprite,Foreground,Centre,"SB\star01.png",320,240 M,22,280220,281220,348,328,434,353 F,3,280220,281220,1,0 S,9,280220,281220,0.06,0 R,0,280220,281220,3,2 C,0,280220,281220,87,133,255 P,0,280220,281220,A
Sprite,Foreground,Centre,"SB\star01.png",320,240 M,22,280220,281220,348,328,282,300 F,3,280220,281220,1,0 S,9,280220,281220,0.18,0 R,0,280220,281220,1,2 C,0,280220,281220,87,133,255 P,0,280220,281220,A
Sprite,Foreground,Centre,"SB\star01.png",320,240 M,22,280220,281220,348,328,416,274 F,3,280220,281220,1,0 S,9,280220,281220,0.03,0 R,0,280220,281220,1 C,0,280220,281220,87,133,255 P,0,280220,281220,A
Sprite,Foreground,Centre,"SB\star02.png",320,240 M,22,280220,281220,348,328,389,232 F,3,280220,281220,1,0 S,9,280220,281220,0.21,0 R,0,280220,281220,1,0 C,0,280220,281220,87,133,255 P,0,280220,281220,A
Sprite,Foreground,Centre,"SB\star01.png",320,240 M,22,280220,281220,348,328,298,401 F,3,280220,281220,1,0 S,9,280220,281220,0.27,0 R,0,280220,281220,5,2 C,0,280220,281220,87,133,255 P,0,280220,281220,A
Sprite,Foreground,Centre,"SB\star02.png",320,240 M,22,280220,281220,348,328,276,387 F,3,280220,281220,1,0 S,9,280220,281220,0.07,0 R,0,280220,281220,1 C,0,280220,281220,87,133,255 P,0,280220,281220,A
Sprite,Foreground,Centre,"SB\star02.png",320,240 M,22,280220,281220,348,328,386,418 F,3,280220,281220,1,0 S,9,280220,281220,0.07,0 R,0,280220,281220,1,3 C,0,280220,281220,87,133,255 P,0,280220,281220,A
Sprite,Foreground,Centre,"SB\star01.png",320,240 M,22,280220,281220,348,328,390,264 F,3,280220,281220,1,0 S,9,280220,281220,0.27,0 R,0,280220,281220,4,1 C,0,280220,281220,87,133,255 P,0,280220,281220,A
Sprite,Foreground,Centre,"SB\star01.png",320,240 M,22,280220,281220,348,328,416,273 F,3,280220,281220,1,0 S,9,280220,281220,0.06,0 R,0,280220,281220,3,1 C,0,280220,281220,87,133,255 P,0,280220,281220,A
Sprite,Foreground,Centre,"SB\star01.png",320,240 M,22,280220,281220,348,328,439,293 F,3,280220,281220,1,0 S,9,280220,281220,0.11,0 R,0,280220,281220,2 C,0,280220,281220,87,133,255 P,0,280220,281220,A
Sprite,Foreground,Centre,"SB\star02.png",320,240 M,22,280220,281220,348,328,295,367 F,3,280220,281220,1,0 S,9,280220,281220,0.15,0 R,0,280220,281220,4,0 C,0,280220,281220,87,133,255 P,0,280220,281220,A
Sprite,Foreground,Centre,"SB\star01.png",320,240 M,22,280220,281220,348,328,428,350 F,3,280220,281220,1,0 S,9,280220,281220,0.14,0 R,0,280220,281220,6,0 C,0,280220,281220,87,133,255 P,0,280220,281220,A
Sprite,Foreground,Centre,"SB\star01.png",320,240 M,22,280220,281220,348,328,436,333 F,3,280220,281220,1,0 S,9,280220,281220,0.3,0 R,0,280220,281220,3,2 C,0,280220,281220,87,133,255 P,0,280220,281220,A
Sprite,Foreground,Centre,"SB\star01.png",320,240 M,22,280220,281220,348,328,322,385 F,3,280220,281220,1,0 S,9,280220,281220,0.21,0 R,0,280220,281220,3,1 C,0,280220,281220,87,133,255 P,0,280220,281220,A
Sprite,Foreground,Centre,"SB\star01.png",320,240 M,22,280220,281220,348,328,330,241 F,3,280220,281220,1,0 S,9,280220,281220,0.14,0 R,0,280220,281220,0,2 C,0,280220,281220,87,133,255 P,0,280220,281220,A
Sprite,Foreground,Centre,"SB\star01.png",320,240 M,22,280220,281220,348,328,399,279 F,3,280220,281220,1,0 S,9,280220,281220,0.06,0 R,0,280220,281220,0,1 C,0,280220,281220,87,133,255 P,0,280220,281220,A
Sprite,Foreground,Centre,"SB\star02.png",320,240 M,22,280220,281220,348,328,334,257 F,3,280220,281220,1,0 S,9,280220,281220,0.12,0 R,0,280220,281220,3,1 C,0,280220,281220,87,133,255 P,0,280220,281220,A
Sprite,Foreground,Centre,"SB\star02.png",320,240 M,22,280220,281220,348,328,273,364 F,3,280220,281220,1,0 S,9,280220,281220,0.24,0 R,0,280220,281220,4,2 C,0,280220,281220,87,133,255 P,0,280220,281220,A
Sprite,Foreground,Centre,"SB\star02.png",320,240 M,22,280550,281550,348,328,433,277 F,3,280550,281550,1,0 S,9,280550,281550,0.11,0 R,0,280550,281550,5,0 C,0,280550,281550,87,133,255 P,0,280550,281550,A
Sprite,Foreground,Centre,"SB\star02.png",320,240 M,22,280550,281550,348,328,316,258 F,3,280550,281550,1,0 S,9,280550,281550,0.19,0 R,0,280550,281550,3,0 C,0,280550,281550,87,133,255 P,0,280550,281550,A
Sprite,Foreground,Centre,"SB\star02.png",320,240 M,22,280550,281550,348,328,318,225 F,3,280550,281550,1,0 S,9,280550,281550,0.23,0 R,0,280550,281550,2,0 C,0,280550,281550,87,133,255 P,0,280550,281550,A
Sprite,Foreground,Centre,"SB\star02.png",320,240 M,22,280550,281550,348,328,292,394 F,3,280550,281550,1,0 S,9,280550,281550,0.26,0 R,0,280550,281550,3,0 C,0,280550,281550,87,133,255 P,0,280550,281550,A
Sprite,Foreground,Centre,"SB\star02.png",320,240 M,22,280550,281550,348,328,414,365 F,3,280550,281550,1,0 S,9,280550,281550,0.14,0 R,0,280550,281550,2 C,0,280550,281550,87,133,255 P,0,280550,281550,A
Sprite,Foreground,Centre,"SB\star02.png",320,240 M,22,280550,281550,348,328,366,387 F,3,280550,281550,1,0 S,9,280550,281550,0.27,0 R,0,280550,281550,2 C,0,280550,281550,87,133,255 P,0,280550,281550,A
Sprite,Foreground,Centre,"SB\star01.png",320,240 M,22,280550,281550,348,328,369,251 F,3,280550,281550,1,0 S,9,280550,281550,0.18,0 R,0,280550,281550,5,0 C,0,280550,281550,87,133,255 P,0,280550,281550,A
Sprite,Foreground,Centre,"SB\star02.png",320,240 M,22,280550,281550,348,328,433,334 F,3,280550,281550,1,0 S,9,280550,281550,0.15,0 R,0,280550,281550,0,2 C,0,280550,281550,87,133,255 P,0,280550,281550,A
Sprite,Foreground,Centre,"SB\star02.png",320,240 M,22,280550,281550,348,328,385,373 F,3,280550,281550,1,0 S,9,280550,281550,0.05,0 R,0,280550,281550,1 C,0,280550,281550,87,133,255 P,0,280550,281550,A
Sprite,Foreground,Centre,"SB\star01.png",320,240 M,22,280550,281550,348,328,345,271 F,3,280550,281550,1,0 S,9,280550,281550,0.16,0 R,0,280550,281550,4,0 C,0,280550,281550,87,133,255 P,0,280550,281550,A
Sprite,Foreground,Centre,"SB\star01.png",320,240 M,22,280550,281550,348,328,442,288 F,3,280550,281550,1,0 S,9,280550,281550,0.1,0 R,0,280550,281550,1,0 C,0,280550,281550,87,133,255 P,0,280550,281550,A
Sprite,Foreground,Centre,"SB\star01.png",320,240 M,22,280550,281550,348,328,377,401 F,3,280550,281550,1,0 S,9,280550,281550,0.09,0 R,0,280550,281550,0,1 C,0,280550,281550,87,133,255 P,0,280550,281550,A
Sprite,Foreground,Centre,"SB\star02.png",320,240 M,22,280550,281550,348,328,282,393 F,3,280550,281550,1,0 S,9,280550,281550,0.18,0 R,0,280550,281550,3 C,0,280550,281550,87,133,255 P,0,280550,281550,A
Sprite,Foreground,Centre,"SB\star01.png",320,240 M,22,280550,281550,348,328,341,269 F,3,280550,281550,1,0 S,9,280550,281550,0.27,0 R,0,280550,281550,2 C,0,280550,281550,87,133,255 P,0,280550,281550,A
Sprite,Foreground,Centre,"SB\star01.png",320,240 M,22,280550,281550,348,328,315,369 F,3,280550,281550,1,0 S,9,280550,281550,0.06,0 R,0,280550,281550,5,1 C,0,280550,281550,87,133,255 P,0,280550,281550,A
Sprite,Foreground,Centre,"SB\star02.png",320,240 M,22,280550,281550,348,328,390,411 F,3,280550,281550,1,0 S,9,280550,281550,0.25,0 R,0,280550,281550,0,2 C,0,280550,281550,87,133,255 P,0,280550,281550,A
Sprite,Foreground,Centre,"SB\star02.png",320,240 M,22,280550,281550,348,328,422,397 F,3,280550,281550,1,0 S,9,280550,281550,0.23,0 R,0,280550,281550,0,1 C,0,280550,281550,87,133,255 P,0,280550,281550,A
Sprite,Foreground,Centre,"SB\star02.png",320,240 M,22,280550,281550,348,328,417,381 F,3,280550,281550,1,0 S,9,280550,281550,0.04,0 R,0,280550,281550,4,0 C,0,280550,281550,87,133,255 P,0,280550,281550,A
Sprite,Foreground,Centre,"SB\star01.png",320,240 M,22,280550,281550,348,328,346,427 F,3,280550,281550,1,0 S,9,280550,281550,0.18,0 R,0,280550,281550,3,0 C,0,280550,281550,87,133,255 P,0,280550,281550,A
Sprite,Foreground,Centre,"SB\star02.png",320,240 M,22,280550,281550,348,328,354,275 F,3,280550,281550,1,0 S,9,280550,281550,0.04,0 R,0,280550,281550,4,3 C,0,280550,281550,87,133,255 P,0,280550,281550,A
Sprite,Foreground,Centre,"SB\star01.png",320,240 M,22,280550,281550,348,328,344,411 F,3,280550,281550,1,0 S,9,280550,281550,0.12,0 R,0,280550,281550,1,2 C,0,280550,281550,87,133,255 P,0,280550,281550,A
Sprite,Foreground,Centre,"SB\star02.png",320,240 M,22,280550,281550,348,328,278,285 F,3,280550,281550,1,0 S,9,280550,281550,0.11,0 R,0,280550,281550,2 C,0,280550,281550,87,133,255 P,0,280550,281550,A
Sprite,Foreground,Centre,"SB\star01.png",320,240 M,22,280550,281550,348,328,385,278 F,3,280550,281550,1,0 S,9,280550,281550,0.25,0 R,0,280550,281550,4,1 C,0,280550,281550,87,133,255 P,0,280550,281550,A
Sprite,Foreground,Centre,"SB\star02.png",320,240 M,22,280550,281550,348,328,247,298 F,3,280550,281550,1,0 S,9,280550,281550,0.27,0 R,0,280550,281550,3,1 C,0,280550,281550,87,133,255 P,0,280550,281550,A
Sprite,Foreground,Centre,"SB\star02.png",320,240 M,22,280550,281550,348,328,284,334 F,3,280550,281550,1,0 S,9,280550,281550,0.1,0 R,0,280550,281550,2,1 C,0,280550,281550,87,133,255 P,0,280550,281550,A
Sprite,Foreground,Centre,"SB\star01.png",320,240 M,22,280550,281550,348,328,300,310 F,3,280550,281550,1,0 S,9,280550,281550,0.24,0 R,0,280550,281550,1,0 C,0,280550,281550,87,133,255 P,0,280550,281550,A
Sprite,Foreground,Centre,"SB\star01.png",320,240 M,22,280550,281550,348,328,340,411 F,3,280550,281550,1,0 S,9,280550,281550,0.09,0 R,0,280550,281550,2,0 C,0,280550,281550,87,133,255 P,0,280550,281550,A
Sprite,Foreground,Centre,"SB\star02.png",320,240 M,22,280550,281550,348,328,411,255 F,3,280550,281550,1,0 S,9,280550,281550,0.27,0 R,0,280550,281550,3,0 C,0,280550,281550,87,133,255 P,0,280550,281550,A
Sprite,Foreground,Centre,"SB\star01.png",320,240 M,22,280550,281550,348,328,249,339 F,3,280550,281550,1,0 S,9,280550,281550,0.29,0 R,0,280550,281550,0,2 C,0,280550,281550,87,133,255 P,0,280550,281550,A
Sprite,Foreground,Centre,"SB\star01.png",320,240 M,22,280550,281550,348,328,447,339 F,3,280550,281550,1,0 S,9,280550,281550,0.13,0 R,0,280550,281550,2,1 C,0,280550,281550,87,133,255 P,0,280550,281550,A
Sprite,Foreground,Centre,"SB\star02.png",320,240 M,22,280715,281715,264,196,288,255 F,3,280715,281715,1,0 S,9,280715,281715,0.07,0 R,0,280715,281715,2,1 C,0,280715,281715,87,133,255 P,0,280715,281715,A
Sprite,Foreground,Centre,"SB\star01.png",320,240 M,22,280715,281715,264,196,179,252 F,3,280715,281715,1,0 S,9,280715,281715,0.2,0 R,0,280715,281715,4,1 C,0,280715,281715,87,133,255 P,0,280715,281715,A
Sprite,Foreground,Centre,"SB\star02.png",320,240 M,22,280715,281715,264,196,288,134 F,3,280715,281715,1,0 S,9,280715,281715,0.19,0 R,0,280715,281715,3,0 C,0,280715,281715,87,133,255 P,0,280715,281715,A
Sprite,Foreground,Centre,"SB\star01.png",320,240 M,22,280715,281715,264,196,225,130 F,3,280715,281715,1,0 S,9,280715,281715,0.28,0 R,0,280715,281715,0 C,0,280715,281715,87,133,255 P,0,280715,281715,A
Sprite,Foreground,Centre,"SB\star02.png",320,240 M,22,280715,281715,264,196,243,101 F,3,280715,281715,1,0 S,9,280715,281715,0.16,0 R,0,280715,281715,0,1 C,0,280715,281715,87,133,255 P,0,280715,281715,A
Sprite,Foreground,Centre,"SB\star02.png",320,240 M,22,280715,281715,264,196,315,244 F,3,280715,281715,1,0 S,9,280715,281715,0.22,0 R,0,280715,281715,3,0 C,0,280715,281715,87,133,255 P,0,280715,281715,A
Sprite,Foreground,Centre,"SB\star02.png",320,240 M,22,280715,281715,264,196,289,272 F,3,280715,281715,1,0 S,9,280715,281715,0.19,0 R,0,280715,281715,5,2 C,0,280715,281715,87,133,255 P,0,280715,281715,A
Sprite,Foreground,Centre,"SB\star02.png",320,240 M,22,280715,281715,264,196,308,153 F,3,280715,281715,1,0 S,9,280715,281715,0.29,0 R,0,280715,281715,1,2 C,0,280715,281715,87,133,255 P,0,280715,281715,A
Sprite,Foreground,Centre,"SB\star02.png",320,240 M,22,280715,281715,264,196,372,180 F,3,280715,281715,1,0 S,9,280715,281715,0.12,0 R,0,280715,281715,2 C,0,280715,281715,87,133,255 P,0,280715,281715,A
Sprite,Foreground,Centre,"SB\star01.png",320,240 M,22,280715,281715,264,196,246,250 F,3,280715,281715,1,0 S,9,280715,281715,0.28,0 R,0,280715,281715,1,2 C,0,280715,281715,87,133,255 P,0,280715,281715,A
Sprite,Foreground,Centre,"SB\star01.png",320,240 M,22,280715,281715,264,196,182,242 F,3,280715,281715,1,0 S,9,280715,281715,0.25,0 R,0,280715,281715,1,0 C,0,280715,281715,87,133,255 P,0,280715,281715,A
Sprite,Foreground,Centre,"SB\star01.png",320,240 M,22,280715,281715,264,196,226,126 F,3,280715,281715,1,0 S,9,280715,281715,0.19,0 R,0,280715,281715,1 C,0,280715,281715,87,133,255 P,0,280715,281715,A
Sprite,Foreground,Centre,"SB\star02.png",320,240 M,22,280715,281715,264,196,277,92 F,3,280715,281715,1,0 S,9,280715,281715,0.09,0 R,0,280715,281715,3,1 C,0,280715,281715,87,133,255 P,0,280715,281715,A
Sprite,Foreground,Centre,"SB\star01.png",320,240 M,22,280715,281715,264,196,320,190 F,3,280715,281715,1,0 S,9,280715,281715,0.08,0 R,0,280715,281715,5,1 C,0,280715,281715,87,133,255 P,0,280715,281715,A
Sprite,Foreground,Centre,"SB\star02.png",320,240 M,22,280715,281715,264,196,239,260 F,3,280715,281715,1,0 S,9,280715,281715,0.15,0 R,0,280715,281715,4,2 C,0,280715,281715,87,133,255 P,0,280715,281715,A
Sprite,Foreground,Centre,"SB\star02.png",320,240 M,22,280715,281715,264,196,194,242 F,3,280715,281715,1,0 S,9,280715,281715,0.18,0 R,0,280715,281715,1,2 C,0,280715,281715,87,133,255 P,0,280715,281715,A
Sprite,Foreground,Centre,"SB\star02.png",320,240 M,22,280715,281715,264,196,205,192 F,3,280715,281715,1,0 S,9,280715,281715,0.24,0 R,0,280715,281715,2,0 C,0,280715,281715,87,133,255 P,0,280715,281715,A
Sprite,Foreground,Centre,"SB\star01.png",320,240 M,22,280715,281715,264,196,280,111 F,3,280715,281715,1,0 S,9,280715,281715,0.1,0 R,0,280715,281715,3,0 C,0,280715,281715,87,133,255 P,0,280715,281715,A
Sprite,Foreground,Centre,"SB\star01.png",320,240 M,22,280715,281715,264,196,317,247 F,3,280715,281715,1,0 S,9,280715,281715,0.08,0 R,0,280715,281715,4,2 C,0,280715,281715,87,133,255 P,0,280715,281715,A
Sprite,Foreground,Centre,"SB\star01.png",320,240 M,22,280715,281715,264,196,264,131 F,3,280715,281715,1,0 S,9,280715,281715,0.29,0 R,0,280715,281715,1,2 C,0,280715,281715,87,133,255 P,0,280715,281715,A
Sprite,Foreground,Centre,"SB\star02.png",320,240 M,22,280715,281715,264,196,185,134 F,3,280715,281715,1,0 S,9,280715,281715,0.22,0 R,0,280715,281715,1,0 C,0,280715,281715,87,133,255 P,0,280715,281715,A
Sprite,Foreground,Centre,"SB\star02.png",320,240 M,22,280715,281715,264,196,237,256 F,3,280715,281715,1,0 S,9,280715,281715,0.09,0 R,0,280715,281715,5,2 C,0,280715,281715,87,133,255 P,0,280715,281715,A
Sprite,Foreground,Centre,"SB\star02.png",320,240 M,22,280715,281715,264,196,247,145 F,3,280715,281715,1,0 S,9,280715,281715,0.3,0 R,0,280715,281715,0,1 C,0,280715,281715,87,133,255 P,0,280715,281715,A
Sprite,Foreground,Centre,"SB\star02.png",320,240 M,22,280715,281715,264,196,203,209 F,3,280715,281715,1,0 S,9,280715,281715,0.1,0 R,0,280715,281715,1,2 C,0,280715,281715,87,133,255 P,0,280715,281715,A
Sprite,Foreground,Centre,"SB\star01.png",320,240 M,22,280715,281715,264,196,281,139 F,3,280715,281715,1,0 S,9,280715,281715,0.13,0 R,0,280715,281715,0 C,0,280715,281715,87,133,255 P,0,280715,281715,A
Sprite,Foreground,Centre,"SB\star02.png",320,240 M,22,280715,281715,264,196,349,240 F,3,280715,281715,1,0 S,9,280715,281715,0.24,0 R,0,280715,281715,1 C,0,280715,281715,87,133,255 P,0,280715,281715,A
Sprite,Foreground,Centre,"SB\star02.png",320,240 M,22,280715,281715,264,196,193,280 F,3,280715,281715,1,0 S,9,280715,281715,0.05,0 R,0,280715,281715,3 C,0,280715,281715,87,133,255 P,0,280715,281715,A
Sprite,Foreground,Centre,"SB\star01.png",320,240 M,22,280715,281715,264,196,346,247 F,3,280715,281715,1,0 S,9,280715,281715,0.25,0 R,0,280715,281715,2 C,0,280715,281715,87,133,255 P,0,280715,281715,A
Sprite,Foreground,Centre,"SB\star02.png",320,240 M,22,280715,281715,264,196,223,143 F,3,280715,281715,1,0 S,9,280715,281715,0.1,0 R,0,280715,281715,3,2 C,0,280715,281715,87,133,255 P,0,280715,281715,A
Sprite,Foreground,Centre,"SB\star01.png",320,240 M,22,280715,281715,264,196,273,247 F,3,280715,281715,1,0 S,9,280715,281715,0.04,0 R,0,280715,281715,5,2 C,0,280715,281715,87,133,255 P,0,280715,281715,A
Sprite,Foreground,Centre,"SB\star01.png",320,240 M,22,280880,281880,196,332,167,277 F,3,280880,281880,1,0 S,9,280880,281880,0.04,0 R,0,280880,281880,3,2 C,0,280880,281880,87,133,255 P,0,280880,281880,A
Sprite,Foreground,Centre,"SB\star02.png",320,240 M,22,280880,281880,196,332,91,327 F,3,280880,281880,1,0 S,9,280880,281880,0.12,0 R,0,280880,281880,2 C,0,280880,281880,87,133,255 P,0,280880,281880,A
Sprite,Foreground,Centre,"SB\star02.png",320,240 M,22,280880,281880,196,332,129,327 F,3,280880,281880,1,0 S,9,280880,281880,0.27,0 R,0,280880,281880,6,1 C,0,280880,281880,87,133,255 P,0,280880,281880,A
Sprite,Foreground,Centre,"SB\star02.png",320,240 M,22,280880,281880,196,332,240,288 F,3,280880,281880,1,0 S,9,280880,281880,0.23,0 R,0,280880,281880,3,2 C,0,280880,281880,87,133,255 P,0,280880,281880,A
Sprite,Foreground,Centre,"SB\star01.png",320,240 M,22,280880,281880,196,332,114,329 F,3,280880,281880,1,0 S,9,280880,281880,0.04,0 R,0,280880,281880,0,1 C,0,280880,281880,87,133,255 P,0,280880,281880,A
Sprite,Foreground,Centre,"SB\star02.png",320,240 M,22,280880,281880,196,332,133,282 F,3,280880,281880,1,0 S,9,280880,281880,0.12,0 R,0,280880,281880,6,0 C,0,280880,281880,87,133,255 P,0,280880,281880,A
Sprite,Foreground,Centre,"SB\star02.png",320,240 M,22,280880,281880,196,332,139,358 F,3,280880,281880,1,0 S,9,280880,281880,0.14,0 R,0,280880,281880,0,1 C,0,280880,281880,87,133,255 P,0,280880,281880,A
Sprite,Foreground,Centre,"SB\star02.png",320,240 M,22,280880,281880,196,332,178,266 F,3,280880,281880,1,0 S,9,280880,281880,0.24,0 R,0,280880,281880,2,0 C,0,280880,281880,87,133,255 P,0,280880,281880,A
Sprite,Foreground,Centre,"SB\star01.png",320,240 M,22,280880,281880,196,332,220,437 F,3,280880,281880,1,0 S,9,280880,281880,0.06,0 R,0,280880,281880,4,1 C,0,280880,281880,87,133,255 P,0,280880,281880,A
Sprite,Foreground,Centre,"SB\star02.png",320,240 M,22,280880,281880,196,332,118,313 F,3,280880,281880,1,0 S,9,280880,281880,0.13,0 R,0,280880,281880,5,3 C,0,280880,281880,87,133,255 P,0,280880,281880,A
Sprite,Foreground,Centre,"SB\star01.png",320,240 M,22,280880,281880,196,332,197,388 F,3,280880,281880,1,0 S,9,280880,281880,0.24,0 R,0,280880,281880,5,2 C,0,280880,281880,87,133,255 P,0,280880,281880,A
Sprite,Foreground,Centre,"SB\star01.png",320,240 M,22,280880,281880,196,332,134,299 F,3,280880,281880,1,0 S,9,280880,281880,0.21,0 R,0,280880,281880,3,2 C,0,280880,281880,87,133,255 P,0,280880,281880,A
Sprite,Foreground,Centre,"SB\star01.png",320,240 M,22,280880,281880,196,332,145,407 F,3,280880,281880,1,0 S,9,280880,281880,0.15,0 R,0,280880,281880,3 C,0,280880,281880,87,133,255 P,0,280880,281880,A
Sprite,Foreground,Centre,"SB\star02.png",320,240 M,22,280880,281880,196,332,156,279 F,3,280880,281880,1,0 S,9,280880,281880,0.28,0 R,0,280880,281880,5,0 C,0,280880,281880,87,133,255 P,0,280880,281880,A
Sprite,Foreground,Centre,"SB\star01.png",320,240 M,22,280880,281880,196,332,256,339 F,3,280880,281880,1,0 S,9,280880,281880,0.21,0 R,0,280880,281880,2,0 C,0,280880,281880,87,133,255 P,0,280880,281880,A
Sprite,Foreground,Centre,"SB\star02.png",320,240 M,22,280880,281880,196,332,130,338 F,3,280880,281880,1,0 S,9,280880,281880,0.09,0 R,0,280880,281880,3,0 C,0,280880,281880,87,133,255 P,0,280880,281880,A
Sprite,Foreground,Centre,"SB\star02.png",320,240 M,22,280880,281880,196,332,131,249 F,3,280880,281880,1,0 S,9,280880,281880,0.1,0 R,0,280880,281880,6,1 C,0,280880,281880,87,133,255 P,0,280880,281880,A
Sprite,Foreground,Centre,"SB\star01.png",320,240 M,22,280880,281880,196,332,259,319 F,3,280880,281880,1,0 S,9,280880,281880,0.14,0 R,0,280880,281880,5,1 C,0,280880,281880,87,133,255 P,0,280880,281880,A
Sprite,Foreground,Centre,"SB\star01.png",320,240 M,22,280880,281880,196,332,288,375 F,3,280880,281880,1,0 S,9,280880,281880,0.04,0 R,0,280880,281880,2 C,0,280880,281880,87,133,255 P,0,280880,281880,A
Sprite,Foreground,Centre,"SB\star01.png",320,240 M,22,280880,281880,196,332,214,426 F,3,280880,281880,1,0 S,9,280880,281880,0.11,0 R,0,280880,281880,2 C,0,280880,281880,87,133,255 P,0,280880,281880,A
Sprite,Foreground,Centre,"SB\star02.png",320,240 M,22,280880,281880,196,332,279,381 F,3,280880,281880,1,0 S,9,280880,281880,0.04,0 R,0,280880,281880,3,1 C,0,280880,281880,87,133,255 P,0,280880,281880,A
Sprite,Foreground,Centre,"SB\star02.png",320,240 M,22,280880,281880,196,332,259,353 F,3,280880,281880,1,0 S,9,280880,281880,0.12,0 R,0,280880,281880,1,2 C,0,280880,281880,87,133,255 P,0,280880,281880,A
Sprite,Foreground,Centre,"SB\star02.png",320,240 M,22,280880,281880,196,332,187,404 F,3,280880,281880,1,0 S,9,280880,281880,0.16,0 R,0,280880,281880,5,2 C,0,280880,281880,87,133,255 P,0,280880,281880,A
Sprite,Foreground,Centre,"SB\star02.png",320,240 M,22,280880,281880,196,332,91,352 F,3,280880,281880,1,0 S,9,280880,281880,0.23,0 R,0,280880,281880,3,0 C,0,280880,281880,87,133,255 P,0,280880,281880,A
Sprite,Foreground,Centre,"SB\star01.png",320,240 M,22,280880,281880,196,332,242,389 F,3,280880,281880,1,0 S,9,280880,281880,0.17,0 R,0,280880,281880,1 C,0,280880,281880,87,133,255 P,0,280880,281880,A
Sprite,Foreground,Centre,"SB\star01.png",320,240 M,22,280880,281880,196,332,237,379 F,3,280880,281880,1,0 S,9,280880,281880,0.13,0 R,0,280880,281880,0 C,0,280880,281880,87,133,255 P,0,280880,281880,A
Sprite,Foreground,Centre,"SB\star01.png",320,240 M,22,280880,281880,196,332,134,358 F,3,280880,281880,1,0 S,9,280880,281880,0.14,0 R,0,280880,281880,2,0 C,0,280880,281880,87,133,255 P,0,280880,281880,A
Sprite,Foreground,Centre,"SB\star01.png",320,240 M,22,280880,281880,196,332,262,249 F,3,280880,281880,1,0 S,9,280880,281880,0.18,0 R,0,280880,281880,4,1 C,0,280880,281880,87,133,255 P,0,280880,281880,A
Sprite,Foreground,Centre,"SB\star01.png",320,240 M,22,280880,281880,196,332,157,301 F,3,280880,281880,1,0 S,9,280880,281880,0.28,0 R,0,280880,281880,1 C,0,280880,281880,87,133,255 P,0,280880,281880,A
Sprite,Foreground,Centre,"SB\star01.png",320,240 M,22,280880,281880,196,332,172,254 F,3,280880,281880,1,0 S,9,280880,281880,0.27,0 R,0,280880,281880,0 C,0,280880,281880,87,133,255 P,0,280880,281880,A
//Storyboard Sound Samples

[TimingPoints]
826,329.67032967033,4,2,1,45,1,0
826,-133.333333333333,4,2,1,45,0,0
4782,-133.333333333333,4,2,1,60,0,0
5441,-100,4,2,1,65,0,0
6100,-100,4,2,1,60,0,0
16650,-117.647058823529,4,2,1,50,0,0
24562,-100,4,2,1,60,0,0
48298,-133.333333333333,4,2,1,55,0,0
54891,-100,4,2,1,30,0,0
55221,-100,4,2,1,40,0,0
55551,-100,4,2,1,50,0,0
55880,-100,4,2,1,60,0,0
56210,-100,4,2,1,65,0,0
59836,344.827586206897,4,2,1,65,1,0
60180,329.67032967033,4,2,1,65,1,0
62785,329.67032967033,4,2,1,65,1,0
63114,349.854227405248,4,2,1,65,1,0
63463,329.67032967033,4,2,1,65,1,0
63793,-100,4,2,1,65,0,0
64122,329.67032967033,4,2,1,70,1,1
64122,-90.9090909090909,4,2,1,70,0,1
90496,-133.333333333333,4,2,1,70,0,1
93133,-86.9565217391303,4,2,1,70,0,1
94452,-200,4,2,1,70,0,1
95770,-100,4,2,1,60,0,0
107639,-117.647058823529,4,2,1,50,0,0
115550,342.857142857143,4,2,1,40,1,0
115551,-133.333333333333,4,2,1,40,0,0
116064,331.491712707182,4,2,1,40,1,0
116395,324.324324324324,4,2,1,40,1,0
116881,326.530612244898,4,2,1,60,1,0
116881,-133.333333333333,4,2,1,60,0,0
117370,-100,4,2,1,60,0,0
118187,329.67032967033,4,2,1,60,1,0
128736,-133.333333333333,4,2,1,55,0,0
135329,-100,4,2,1,30,0,0
135659,-100,4,2,1,40,0,0
135989,-100,4,2,1,50,0,0
136318,-100,4,2,1,60,0,0
136648,-100,4,2,1,65,0,0
144560,-90.9090909090909,4,2,1,70,0,1
174890,-200,4,2,1,70,0,0
175880,-100,4,2,1,60,0,0
191208,285.714285714286,4,2,1,60,1,0
191350,329.67032967033,4,2,1,60,1,0
191679,354.505169867061,4,2,1,60,1,0
192033,329.67032967033,4,2,1,60,1,0
197980,329.67032967033,4,2,1,60,1,0
213144,324.324324324324,4,2,1,60,1,0
213792,329.67032967033,4,2,1,50,1,0
213792,-100,4,2,1,50,0,0
215110,-100,4,2,1,55,0,0
215770,-100,4,2,1,60,0,0
216429,-100,4,2,1,65,0,0
224341,-90.9090909090909,4,2,1,70,0,1
250715,-90.9090909090909,4,2,1,55,0,1
251374,-90.9090909090909,4,2,1,60,0,1
252033,-90.9090909090909,4,2,1,65,0,1
252693,-90.9090909090909,4,2,1,70,0,1
253352,-100,4,2,1,60,0,0
275440,345.821325648415,4,2,1,60,1,0
275785,329.67032967033,4,2,1,60,1,0
275785,-133.333333333333,4,2,1,60,0,0
276938,300,4,2,1,60,1,0
277088,329.67032967033,4,2,1,60,1,0
278241,398.671096345515,4,2,1,60,1,0
278440,329.67032967033,4,2,1,60,1,0
278440,-133.333333333333,4,2,1,60,0,0
279593,264.31718061674,4,2,1,60,1,0
279725,329.67032967033,4,2,1,60,1,0
279726,-100,4,2,1,60,0,0

[Colours]
Combo1 : 255,189,255
Combo2 : 170,255,170
Combo3 : 255,255,62
Combo4 : 128,255,255
Combo5 : 87,133,255

[HitObjects]
336,56,826,6,0,L|304:111,1,63.7500024318696,4|0,0:0|0:0,0:0:0:0:
260,180,1155,1,0,0:0:0:0:
194,130,1320,2,0,P|132:119|71:135,1,127.500004863739
4,264,1815,1,0,0:0:0:0:
0,180,1979,1,0,0:0:0:0:
120,244,2144,6,0,L|108:316,1,63.7500024318696
172,360,2474,1,0,0:0:0:0:
236,308,2639,2,0,P|297:291|361:287,1,127.500004863739
416,348,3133,1,0,0:0:0:0:
360,286,3298,1,2,0:0:0:0:
455,205,3463,6,0,L|440:267,1,63.7500024318696,2|0,0:0|0:0,0:0:0:0:
332,332,3793,1,0,0:0:0:0:
288,216,3957,2,0,P|232:185|169:184,1,127.500004863739
152,352,4452,1,0,0:0:0:0:
240,312,4617,1,0,0:0:0:0:
169,183,4782,5,8,0:0:0:0:
1,188,4946,1,8,0:0:0:0:
133,85,5111,1,8,0:0:0:0:
87,246,5276,1,8,0:0:0:0:
133,85,5441,1,8,0:0:0:0:
159,61,5523,1,8,0:3:0:0:
194,45,5606,1,8,0:3:0:0:
232,42,5688,1,4,0:3:0:0:
268,53,5771,1,4,0:0:0:0:
284,280,6100,6,0,P|200:294|117:278,1,170,4|8,0:0|0:0,0:0:0:0:
92,165,6595,1,0,0:0:0:0:
211,118,6760,1,2,0:0:0:0:
117,278,6924,1,2,0:0:0:0:
11,142,7089,2,0,L|93:166,1,85,8|0,0:0|0:0,0:0:0:0:
178,39,7419,6,0,L|217:134,1,85,2|0,0:0|0:0,0:0:0:0:
321,242,7749,1,8,0:0:0:0:
180,208,7913,1,0,0:0:0:0:
282,318,8078,2,0,L|334:220,1,85,2|2,0:0|0:0,0:0:0:0:
373,144,8408,1,8,0:0:0:0:
321,242,8573,1,0,0:0:0:0:
295,65,8738,6,0,P|256:47|214:38,1,85,2|0,0:0|0:0,0:0:0:0:
244,216,9067,1,8,0:0:0:0:
373,144,9232,1,0,0:0:0:0:
398,342,9397,2,0,L|297:318,1,85,0|2,0:0|0:0,0:0:0:0:
206,344,9727,1,8,0:0:0:0:
332,228,9891,1,0,0:0:0:0:
207,103,10056,6,0,L|226:186,1,85,2|0,0:0|0:0,0:0:0:0:
174,350,10386,1,8,0:0:0:0:
348,259,10551,1,0,0:0:0:0:
168,80,10716,2,0,L|186:162,1,85,2|2,0:0|0:0,0:0:0:0:
384,72,11045,1,8,0:0:0:0:
296,252,11210,1,2,0:0:0:0:
168,80,11375,5,4,0:0:0:0:
277,230,11540,1,2,0:0:0:0:
149,238,11705,1,8,0:0:0:0:
266,66,11869,1,2,0:0:0:0:
287,77,12199,1,2,0:0:0:0:
308,89,12529,1,4,0:0:0:0:
308,89,12858,5,2,0:0:0:0:
408,44,13023,1,8,0:0:0:0:
307,89,13188,2,0,P|296:173|292:258,1,170,4|8,0:0|0:0,0:0:0:0:
332,364,13683,1,8,0:3:0:0:
208,249,13847,1,4,0:3:0:0:
370,198,14012,5,4,0:0:0:0:
216,363,14177,1,2,0:0:0:0:
190,229,14342,1,8,0:0:0:0:
385,268,14507,1,4,0:0:0:0:
385,268,14836,1,2,0:0:0:0:
324,88,15001,1,8,0:0:0:0:
190,229,15166,5,4,0:0:0:0:
190,229,15496,1,2,0:0:0:0:
305,42,15661,1,8,0:0:0:0:
354,250,15826,1,4,0:0:0:0:
354,250,16155,2,0,P|273:223|189:228,1,170,2|0,0:0|0:0,0:0:0:0:
122,281,16567,1,0,0:0:0:0:
122,281,16650,5,4,0:0:0:0:
16,208,16815,1,0,0:0:0:0:
111,101,16979,2,0,L|121:172,1,72.2500013780594,2|0,0:0|0:0,0:0:0:0:
218,36,17309,2,0,L|208:108,1,72.2500013780594,2|0,0:0|0:0,0:0:0:0:
192,228,17639,1,2,0:0:0:0:
329,250,17804,1,0,0:0:0:0:
370,98,17968,6,0,L|292:84,1,72.2500013780594,2|0,0:0|0:0,0:0:0:0:
372,238,18298,2,0,L|460:214,1,72.2500013780594,2|0,0:0|0:0,0:0:0:0:
238,209,18628,2,0,L|228:295,1,72.2500013780594,2|0,0:0|0:0,0:0:0:0:
106,305,18957,2,0,L|138:369,1,72.2500013780594,2|0,0:0|0:0,0:0:0:0:
121,185,19287,6,0,L|54:156,1,72.2500013780594,2|0,0:0|0:0,0:0:0:0:
248,115,19617,1,2,0:0:0:0:
229,280,19782,2,0,L|238:208,1,72.2500013780594,0|2,0:0|0:0,0:0:0:0:
333,59,20111,2,0,L|273:99,1,72.2500013780594,0|2,0:0|0:0,0:0:0:0:
390,228,20441,1,0,0:0:0:0:
390,228,20523,1,0,0:0:0:0:
390,228,20606,6,0,L|370:133,1,72.2500013780594,2|0,0:0|0:0,0:0:0:0:
356,48,20935,1,2,0:0:0:0:
300,184,21100,1,0,0:0:0:0:
464,180,21265,1,2,0:0:0:0:
376,96,21430,1,0,0:0:0:0:
382,261,21595,1,2,0:0:0:0:
376,96,21760,1,0,0:0:0:0:
376,96,21842,1,0,0:0:0:0:
376,96,21924,6,0,L|305:81,1,72.2500013780594,2|0,0:0|0:0,0:0:0:0:
208,184,22254,1,2,0:0:0:0:
155,50,22419,2,0,L|136:120,1,72.2500013780594,0|2,0:0|0:0,0:0:0:0:
112,212,22749,1,0,0:0:0:0:
244,164,22913,1,2,0:0:0:0:
84,224,23078,1,0,0:0:0:0:
239,284,23243,6,0,L|170:259,1,72.2500013780594,2|0,0:0|0:0,0:0:0:0:
300,192,23573,2,0,P|340:250|339:321,2,144.500002756119,2|2|2,0:0|0:0|0:0,0:0:0:0:
72,116,24562,5,4,0:0:0:0:
200,256,24727,1,2,0:0:0:0:
24,296,24891,1,8,0:0:0:0:
200,256,25056,2,0,P|166:178|99:128,1,170,4|2,0:0|0:0,0:0:0:0:
4,320,25551,1,8,0:0:0:0:
68,208,25716,1,0,0:0:0:0:
68,208,25798,1,8,0:0:0:0:
68,208,25880,5,4,0:0:0:0:
200,276,26045,1,8,0:3:0:0:
36,192,26210,1,8,0:0:0:0:
280,172,26375,2,0,P|304:253|311:337,1,170,4|8,0:0|0:0,0:0:0:0:
114,358,26869,1,8,0:3:0:0:
100,221,27034,1,4,0:3:0:0:
226,278,27199,5,6,0:0:0:0:
225,278,27529,2,0,P|266:266|308:258,1,85,8|0,0:0|0:0,0:0:0:0:
424,264,27858,1,2,0:0:0:0:
352,122,28023,1,2,0:0:0:0:
352,122,28353,6,0,P|410:181|425:264,1,170,8|2,0:0|0:0,0:0:0:0:
328,372,28847,2,0,P|265:359|202:356,1,127.5,8|8,0:0|0:0,0:0:0:0:
160,364,29177,1,2,0:0:0:0:
248,232,29342,1,2,0:0:0:0:
116,104,29507,2,0,P|107:146|101:188,1,85,8|0,0:0|0:0,0:0:0:0:
116,276,29754,1,0,0:0:0:0:
116,276,29836,5,2,0:0:0:0:
116,276,30166,2,0,P|177:256|240:254,1,127.5,8|8,0:0|0:0,0:0:0:0:
324,280,30496,1,2,0:0:0:0:
424,132,30661,1,2,0:0:0:0:
248,120,30826,1,0,0:0:0:0:
324,280,30990,6,0,P|339:196|337:111,1,170,8|2,0:0|0:0,0:0:0:0:
287,12,31485,1,8,0:0:0:0:
183,121,31650,1,8,0:0:0:0:
207,128,31733,1,8,0:0:0:0:
231,136,31815,1,2,0:0:0:0:
73,90,31979,1,2,0:0:0:0:
214,27,32144,1,8,0:0:0:0:
97,207,32309,1,0,0:0:0:0:
256,144,32474,5,2,0:0:0:0:
256,143,32804,2,0,P|233:203|227:266,1,127.5,8|8,0:0|0:0,0:0:0:0:
246,340,33133,1,2,0:0:0:0:
312,218,33298,1,2,0:0:0:0:
145,252,33463,1,0,0:0:0:0:
168,83,33628,6,0,P|244:48|328:54,1,170,8|2,0:0|0:0,0:0:0:0:
246,269,34122,2,0,P|240:206|262:147,1,127.5,8|8,0:0|0:0,0:0:0:0:
281,130,34452,1,2,0:0:0:0:
360,312,34617,1,2,0:0:0:0:
176,368,34782,2,0,P|159:328|139:291,1,85,4|8,0:0|0:0,0:0:0:0:
139,291,35029,1,8,0:0:0:0:
139,291,35111,5,4,0:0:0:0:
264,200,35276,1,2,0:0:0:0:
152,56,35441,1,8,0:0:0:0:
84,227,35606,2,0,P|143:168|216:123,1,170,4|8,0:0|0:0,0:0:0:0:
372,252,36100,1,8,0:3:0:0:
263,232,36265,1,4,0:3:0:0:
345,356,36430,6,0,P|351:314|363:274,1,85,4|8,0:0|0:0,0:0:0:0:
372,252,36677,1,8,0:0:0:0:
372,252,36760,1,8,0:0:0:0:
447,99,36924,2,0,P|379:51|296:56,1,170,4|2,0:0|0:0,0:0:0:0:
384,224,37419,1,8,0:0:0:0:
228,152,37584,1,8,0:0:0:0:
228,152,37666,1,8,0:0:0:0:
228,152,37749,6,0,P|206:237|200:328,1,170,4|8,0:0|0:0,0:0:0:0:
304,356,38243,1,0,0:0:0:0:
304,356,38326,1,8,0:0:0:0:
304,356,38408,1,2,0:0:0:0:
199,318,38573,1,2,0:0:0:0:
336,172,38738,2,0,L|352:256,1,85,8|0,0:0|0:0,0:0:0:0:
228,152,39067,5,2,0:0:0:0:
316,84,39232,1,2,0:0:0:0:
135,63,39397,1,8,0:0:0:0:
188,226,39562,2,0,L|268:198,1,85,2|0,0:0|0:0,0:0:0:0:
372,160,39891,1,2,0:0:0:0:
412,302,40056,2,0,L|328:300,1,85,8|0,0:0|0:0,0:0:0:0:
188,368,40386,6,0,P|168:285|120:216,1,170,2|8,0:0|0:0,0:0:0:0:
236,83,40880,1,0,0:0:0:0:
236,83,40963,1,8,0:0:0:0:
236,83,41045,1,2,0:0:0:0:
233,227,41210,1,2,0:0:0:0:
116,109,41375,6,0,P|75:100|33:95,1,85,8|0,0:0|0:0,0:0:0:0:
124,248,41705,2,0,P|166:243|207:234,1,85,2|2,0:0|0:0,0:0:0:0:
304,180,42034,1,8,0:0:0:0:
392,248,42199,2,0,P|401:289|405:331,1,85,2|0,0:0|0:0,0:0:0:0:
207,234,42529,2,0,P|211:191|220:150,1,85,2|8,0:0|0:0,0:0:0:0:
260,36,42858,1,0,0:0:0:0:
371,210,43023,6,0,P|291:237|206:233,1,170,2|8,0:0|0:0,0:0:0:0:
104,168,43518,1,0,0:0:0:0:
104,168,43600,1,8,0:0:0:0:
104,168,43683,1,2,0:0:0:0:
52,272,43847,1,2,0:0:0:0:
206,233,44012,1,8,0:0:0:0:
180,76,44177,1,0,0:0:0:0:
0,117,44342,6,0,L|76:156,1,85,2|2,0:0|0:0,0:0:0:0:
192,100,44672,1,8,0:0:0:0:
232,248,44836,2,0,L|198:325,1,85,2|0,0:0|0:0,0:0:0:0:
280,140,45166,1,2,0:0:0:0:
352,316,45331,1,8,0:0:0:0:
182,348,45496,1,0,0:0:0:0:
182,348,45578,1,8,0:0:0:0:
182,348,45661,6,0,P|194:264|233:189,1,170,2|8,0:0|0:0,0:0:0:0:
190,88,46155,1,0,0:0:0:0:
348,24,46320,2,0,P|358:65|365:107,1,85,2|2,0:0|0:0,0:0:0:0:
368,252,46650,1,8,0:0:0:0:
272,108,46815,1,0,0:0:0:0:
272,108,46897,1,0,0:0:0:0:
272,108,46979,6,0,P|232:93|189:88,1,85,2|2,0:0|0:0,0:0:0:0:
231,288,47309,2,0,P|224:247|208:208,1,85,8|2,0:0|0:0,0:0:0:0:
192,188,47556,1,8,0:0:0:0:
176,168,47639,1,8,0:0:0:0:
136,344,47804,1,8,0:3:0:0:
308,292,47968,1,4,0:3:0:0:
192,188,48133,1,2,0:0:0:0:
160,340,48298,5,6,0:0:0:0:
276,208,48463,1,2,0:0:0:0:
276,208,48793,1,2,0:0:0:0:
268,112,48957,1,8,0:0:0:0:
284,284,49122,1,8,0:0:0:0:
268,112,49287,1,2,0:0:0:0:
120,224,49452,1,2,0:0:0:0:
120,224,49782,5,8,0:0:0:0:
160,136,49946,1,0,0:0:0:0:
216,212,50111,1,2,0:0:0:0:
120,224,50276,1,8,0:0:0:0:
300,200,50441,1,2,0:0:0:0:
136,120,50606,1,0,0:0:0:0:
136,120,50935,5,6,0:0:0:0:
236,320,51100,1,2,0:0:0:0:
236,320,51430,1,2,0:0:0:0:
276,232,51595,1,8,0:0:0:0:
224,356,51760,1,8,0:0:0:0:
364,256,51924,1,2,0:0:0:0:
204,184,52089,1,2,0:0:0:0:
204,184,52419,5,8,0:0:0:0:
248,268,52584,1,0,0:0:0:0:
292,184,52749,1,2,0:0:0:0:
116,180,52913,1,8,0:0:0:0:
292,184,53078,1,2,0:0:0:0:
112,320,53243,1,8,0:0:0:0:
256,192,53573,5,4,0:0:0:0:
256,192,54891,5,8,0:0:0:0:
352,264,55056,1,8,0:0:0:0:
257,193,55221,1,8,0:0:0:0:
366,147,55386,1,8,0:0:0:0:
366,297,55551,1,8,0:0:0:0:
221,188,55716,1,8,0:0:0:0:
388,117,55881,1,8,0:0:0:0:
258,290,56046,1,8,0:0:0:0:
409,91,56210,5,6,0:0:0:0:
244,48,56869,5,6,0:0:0:0:
288,212,57529,5,6,0:0:0:0:
409,91,58188,5,8,0:3:0:0:
432,200,58353,1,2,0:0:0:0:
239,226,58518,2,0,L|324:216,1,85,4|2,0:0|0:0,0:0:0:0:
132,88,58847,6,0,P|121:129|113:170,1,85,4|2,0:0|0:0,0:0:0:0:
224,312,59177,1,2,0:0:0:0:
283,94,59342,2,0,P|246:115|212:140,1,85,4|2,0:0|0:0,0:0:0:0:
120,288,59672,1,2,0:0:0:0:
268,344,59836,2,0,P|262:301|253:260,1,85,8|2,0:0|0:0,0:0:0:0:
368,168,60180,6,0,P|339:136|308:107,1,85,4|2,0:0|0:0,0:0:0:0:
176,248,60509,1,2,0:0:0:0:
141,95,60674,2,0,P|100:81|59:70,1,85,4|2,0:0|0:0,0:0:0:0:
164,280,61003,1,2,0:0:0:0:
286,192,61168,2,0,P|326:178|367:167,1,85,8|2,0:0|0:0,0:0:0:0:
172,16,61498,6,0,P|156:55|142:95,1,85,4|0,0:0|0:0,0:0:0:0:
136,176,61745,1,8,0:0:0:0:
136,176,61828,1,8,0:0:0:0:
320,56,61992,5,2,0:0:0:0:
320,56,62322,1,2,0:0:0:0:
367,167,62487,1,8,0:0:0:0:
144,96,62652,1,4,0:0:0:0:
256,192,63628,5,2,0:0:0:0:
440,216,63793,1,8,0:0:0:0:
464,224,64122,6,0,P|426:141|340:109,1,187.000005706787,4|8,0:0|0:0,0:0:0:0:
184,204,64617,1,0,0:0:0:0:
344,232,64782,1,2,0:0:0:0:
236,363,64946,1,2,0:0:0:0:
344,232,65111,2,0,P|298:244|256:262,1,93.5000028533936,8|0,0:0|0:0,0:0:0:0:
87,263,65441,6,0,P|48:183|99:110,1,187.000005706787,2|8,0:0|0:0,0:0:0:0:
216,275,65935,1,0,0:0:0:0:
226,160,66100,2,0,P|180:171|139:192,1,93.5000028533936,2|2,0:0|0:0,0:0:0:0:
316,24,66430,2,0,P|336:66|348:112,1,93.5000028533936,8|0,0:0|0:0,0:0:0:0:
240,304,66760,6,0,P|278:223|367:213,1,187.000005706787,2|8,0:0|0:0,0:0:0:0:
224,160,67254,1,0,0:0:0:0:
396,140,67419,1,2,0:0:0:0:
332,300,67584,1,2,0:0:0:0:
288,96,67749,2,0,P|242:84|196:76,1,93.5000028533936,8|0,0:0|0:0,0:0:0:0:
90,273,68078,6,0,P|137:274|183:272,1,93.5000028533936,2|0,0:0|0:0,0:0:0:0:
320,196,68408,1,8,0:0:0:0:
348,372,68573,1,0,0:0:0:0:
166,363,68738,2,0,L|184:272,1,93.5000028533936,2|2,0:0|0:0,0:0:0:0:
302,104,69067,2,0,L|320:196,1,93.5000028533936,8|0,0:0|0:0,0:0:0:0:
83,264,69397,6,0,P|130:187|220:176,1,187.000005706787,2|8,0:0|0:0,0:0:0:0:
288,312,69891,2,0,P|332:297|377:285,1,93.5000028533936,0|2,0:0|0:0,0:0:0:0:
194,364,70221,2,0,L|184:272,1,93.5000028533936,2|8,0:0|0:0,0:0:0:0:
224,156,70551,1,0,0:0:0:0:
132,76,70716,6,0,P|86:66|39:60,1,93.5000028533936,2|0,0:0|0:0,0:0:0:0:
204,172,71045,1,8,0:0:0:0:
272,20,71210,1,0,0:0:0:0:
272,20,71293,1,0,0:0:0:0:
272,20,71375,2,0,P|248:60|227:102,1,93.5000028533936,2|2,0:0|0:0,0:0:0:0:
296,220,71705,1,8,0:0:0:0:
180,188,71869,1,0,0:0:0:0:
380,124,72034,6,0,P|388:169|392:216,1,93.5000028533936,2|0,0:0|0:0,0:0:0:0:
352,332,72364,1,8,0:0:0:0:
224,204,72529,2,0,P|180:186|135:174,1,93.5000028533936,0|2,0:0|0:0,0:0:0:0:
32,316,72858,1,2,0:0:0:0:
152,288,73023,1,8,0:0:0:0:
0,180,73188,1,0,0:0:0:0:
159,83,73353,6,0,P|142:127|120:168,1,93.5000028533936,2|2,0:0|0:0,0:0:0:0:
264,20,73683,2,0,P|283:62|296:107,1,93.5000028533936,8|0,0:0|0:0,0:0:0:0:
216,256,74012,1,2,0:0:0:0:
159,83,74177,1,8,0:0:0:0:
336,120,74342,1,8,0:0:0:0:
192,280,74507,1,8,0:0:0:0:
143,60,74672,6,0,P|227:24|314:54,1,187.000005706787,4|8,0:0|0:0,0:0:0:0:
360,220,75166,1,0,0:0:0:0:
440,96,75331,1,2,0:0:0:0:
432,276,75496,1,2,0:0:0:0:
264,208,75661,2,0,P|261:161|262:114,1,93.5000028533936,8|0,0:0|0:0,0:0:0:0:
304,304,75990,6,0,B|259:324|259:324|214:281|133:276,1,187.000005706787,2|8,0:0|0:0,0:0:0:0:
264,208,76485,1,0,0:0:0:0:
181,60,76650,2,0,L|160:152,1,93.5000028533936,2|2,0:0|0:0,0:0:0:0:
344,167,76979,2,0,P|389:155|435:147,1,93.5000028533936,8|0,0:0|0:0,0:0:0:0:
216,24,77309,6,0,L|172:205,1,187.000005706787,2|8,0:0|0:0,0:0:0:0:
328,116,77804,1,0,0:0:0:0:
360,264,77968,2,0,P|313:259|266:259,1,93.5000028533936,2|2,0:0|0:0,0:0:0:0:
204,364,78298,1,8,0:0:0:0:
266,259,78463,1,0,0:0:0:0:
132,171,78628,6,0,L|144:264,1,93.5000028533936,2|0,0:0|0:0,0:0:0:0:
40,96,78957,2,0,P|76:67|119:48,1,93.5000028533936,8|0,0:0|0:0,0:0:0:0:
216,196,79287,1,2,0:0:0:0:
119,48,79452,1,2,0:0:0:0:
296,38,79617,2,0,P|324:74|343:117,1,93.5000028533936,8|0,0:0|0:0,0:0:0:0:
144,264,79946,6,0,P|158:175|242:143,1,187.000005706787,4|8,0:0|0:0,0:0:0:0:
329,301,80441,1,0,0:0:0:0:
229,233,80606,1,2,0:0:0:0:
393,172,80771,1,2,0:0:0:0:
336,352,80935,2,0,L|320:243,1,93.5000028533936,8|0,0:0|0:0,0:0:0:0:
404,137,81265,6,0,L|317:100,1,93.5000028533936,2|0,0:0|0:0,0:0:0:0:
205,53,81595,1,8,0:0:0:0:
171,204,81760,2,0,P|217:199|263:189,1,93.5000028533936,0|2,0:0|0:0,0:0:0:0:
112,97,82089,1,2,0:0:0:0:
107,274,82254,1,8,0:0:0:0:
263,189,82419,1,0,0:0:0:0:
84,78,82584,6,0,L|78:264,1,187.000005706787,2|8,0:0|0:0,0:0:0:0:
200,180,83078,1,0,0:0:0:0:
84,78,83243,1,2,0:0:0:0:
216,31,83408,1,2,0:0:0:0:
220,171,83573,2,0,P|264:153|308:138,1,93.5000028533936,8|0,0:0|0:0,0:0:0:0:
407,295,83902,6,0,P|360:288|314:279,1,93.5000028533936,2|2,0:0|0:0,0:0:0:0:
431,68,84232,2,0,P|440:114|446:161,1,93.5000028533936,8|0,0:0|0:0,0:0:0:0:
445,160,84479,1,8,0:0:0:0:
445,160,84562,1,2,0:0:0:0:
243,82,84727,1,8,0:0:0:0:
205,82,84809,1,8,0:0:0:0:
171,98,84891,1,2,0:0:0:0:
146,126,84974,1,8,0:0:0:0:
132,164,85056,1,8,0:0:0:0:
134,201,85139,1,8,0:0:0:0:
150,233,85221,6,0,P|240:208|334:210,1,187.000005706787,4|4,0:0|0:0,0:0:0:0:
257,353,85716,1,0,0:0:0:0:
317,117,85880,2,0,L|334:210,1,93.5000028533936,2|2,0:0|0:0,0:0:0:0:
352,330,86210,1,8,0:0:0:0:
170,372,86375,1,0,0:0:0:0:
170,372,86457,1,0,0:0:0:0:
170,372,86540,6,0,L|179:278,1,93.5000028533936,2|2,0:0|0:0,0:0:0:0:
109,131,86869,2,0,L|201:115,1,93.5000028533936,8|0,0:0|0:0,0:0:0:0:
80,216,87199,1,2,0:0:0:0:
84,44,87364,1,2,0:0:0:0:
256,48,87529,2,0,P|271:92|282:137,1,93.5000028533936,8|0,0:0|0:0,0:0:0:0:
296,220,87776,1,0,0:0:0:0:
295,220,87858,6,0,P|340:140|428:116,1,187.000005706787,4|8,0:0|0:0,0:0:0:0:
456,304,88353,1,0,0:0:0:0:
295,220,88518,1,2,0:0:0:0:
492,200,88683,1,2,0:0:0:0:
277,311,88847,2,0,L|295:220,1,93.5000028533936,8|2,0:0|0:0,0:0:0:0:
331,36,89177,5,8,0:0:0:0:
402,224,89342,1,2,0:0:0:0:
203,191,89507,1,8,0:0:0:0:
334,15,89672,1,6,0:0:0:0:
334,15,90001,1,2,0:0:0:0:
315,139,90166,2,0,L|223:122,1,93.5000028533936,8|2,0:0|0:0,0:0:0:0:
396,157,90496,5,8,0:0:0:0:
256,272,90661,1,8,0:0:0:0:
256,272,90990,1,8,0:3:0:0:
150,148,91320,2,0,L|219:127,2,63.7500024318696,8|4|4,0:3|0:3|0:3,0:0:0:0:
190,221,91815,5,8,0:0:0:0:
248,49,91979,1,8,0:0:0:0:
248,49,92309,2,0,P|266:110|277:176,1,127.500004863739,4|2,0:3|0:0,0:0:0:0:
261,311,92804,2,0,P|292:302|323:295,1,63.7500024318696,4|2,0:0|0:0,0:0:0:0:
144,360,93133,6,0,P|129:263|150:169,1,195.500003728867,4|8,0:0|0:0,0:0:0:0:
228,68,93628,1,8,0:0:0:0:
228,68,93793,1,8,0:0:0:0:
288,176,93957,1,8,0:0:0:0:
376,32,94122,1,8,0:0:0:0:
488,236,94287,1,8,0:0:0:0:
256,192,94452,6,0,P|354:151|457:128,1,212.5,4|2,0:0|0:0,0:0:0:0:
488,236,95441,1,8,0:0:0:0:
256,192,95771,5,4,0:0:0:0:
149,165,107638,5,8,0:0:0:0:
240,304,107803,1,8,0:0:0:0:
260,195,107968,2,0,P|295:188|331:184,1,72.2500013780594,2|0,0:0|0:0,0:0:0:0:
440,192,108298,2,0,P|436:156|428:120,2,72.2500013780594,2|0|2,0:0|0:0|0:0,0:0:0:0:
408,344,108793,6,0,P|343:312|272:317,1,144.500002756119,8|8,0:0|0:0,0:0:0:0:
272,317,109287,1,8,0:0:0:0:
180,204,109617,1,2,0:0:0:0:
324,180,109946,1,2,0:0:0:0:
272,317,110276,5,8,0:0:0:0:
244,124,110441,1,8,0:0:0:0:
324,180,110606,1,2,0:0:0:0:
172,275,110771,2,0,L|180:204,1,72.2500013780594,0|2,0:0|0:0,0:0:0:0:
264,340,111100,2,0,L|296:272,1,72.2500013780594,0|2,0:0|0:0,0:0:0:0:
360,132,111430,6,0,P|309:82|238:75,1,144.500002756119,8|8,0:0|0:0,0:0:0:0:
180,204,111924,1,8,0:0:0:0:
104,148,112089,1,0,0:0:0:0:
104,148,112172,1,0,0:0:0:0:
104,148,112254,1,2,0:0:0:0:
208,224,112419,1,0,0:0:0:0:
40,228,112584,1,2,0:0:0:0:
180,204,112749,1,0,0:0:0:0:
183,106,112913,5,8,0:0:0:0:
96,292,113078,1,8,0:0:0:0:
180,247,113243,2,0,P|215:244|251:243,1,72.2500013780594,2|0,0:0|0:0,0:0:0:0:
348,320,113573,2,0,P|366:289|380:256,2,72.2500013780594,2|0|2,0:0|0:0|0:0,0:0:0:0:
160,247,114067,6,0,P|164:176|183:106,1,144.500002756119,8|8,0:0|0:0,0:0:0:0:
308,140,114562,2,0,P|374:163|442:141,2,144.500002756119,2|2|2,0:0|0:0|0:0,0:0:0:0:
376,56,115551,5,0,0:0:0:0:
356,68,116064,1,0,0:0:0:0:
384,232,116395,1,0,0:0:0:0:
384,232,116476,1,0,0:0:0:0:
384,232,116557,1,0,0:0:0:0:
304,212,116719,1,0,0:0:0:0:
248,348,116881,6,0,L|272:288,1,63.7500024318696,12|0,0:0|0:0,0:0:0:0:
272,288,117125,1,0,0:0:0:0:
272,288,117207,1,8,0:0:0:0:
188,144,117370,2,0,P|268:120|355:139,1,170,4|2,0:0|0:0,0:0:0:0:
272,288,117860,1,8,0:0:0:0:
88,272,118023,5,8,0:0:0:0:
88,272,118106,1,8,0:0:0:0:
88,272,118187,2,0,P|88:188|112:100,1,170,4|8,0:0|0:0,0:0:0:0:
196,36,118682,1,0,0:0:0:0:
196,36,118764,1,8,0:0:0:0:
196,36,118846,1,2,0:0:0:0:
268,120,119011,1,2,0:0:0:0:
367,28,119176,2,0,P|375:69|379:112,1,85,8|0,0:0|0:0,0:0:0:0:
356,220,119506,6,0,P|398:215|440:207,1,85,2|2,0:0|0:0,0:0:0:0:
380,112,119835,1,8,0:0:0:0:
232,224,120000,2,0,P|224:265|219:308,1,85,2|0,0:0|0:0,0:0:0:0:
328,340,120330,1,2,0:0:0:0:
152,188,120495,2,0,P|184:161|219:137,1,85,8|0,0:0|0:0,0:0:0:0:
300,328,120825,6,0,P|215:335|131:324,1,170,2|8,0:0|0:0,0:0:0:0:
44,248,121319,1,0,0:0:0:0:
44,248,121401,1,8,0:0:0:0:
44,248,121484,1,2,0:0:0:0:
131,324,121649,1,2,0:0:0:0:
120,109,121814,2,0,L|152:188,1,85,8|0,0:0|0:0,0:0:0:0:
220,336,122143,6,0,L|248:252,2,85,2|2|8,0:0|0:0|0:0,0:0:0:0:
243,144,122638,2,0,P|285:139|326:129,1,85,2|0,0:0|0:0,0:0:0:0:
472,80,122967,1,2,0:0:0:0:
404,212,123132,1,8,0:0:0:0:
323,87,123297,1,8,0:0:0:0:
323,87,123379,1,8,0:0:0:0:
322,86,123462,6,0,P|246:50|162:39,1,170,4|8,0:0|0:0,0:0:0:0:
74,107,123956,1,0,0:0:0:0:
74,107,124039,1,8,0:0:0:0:
74,107,124121,1,2,0:0:0:0:
162,39,124286,1,2,0:0:0:0:
188,176,124451,1,8,0:0:0:0:
322,86,124616,1,0,0:0:0:0:
355,255,124781,6,0,L|339:171,1,85,2|2,0:0|0:0,0:0:0:0:
320,64,125110,1,8,0:0:0:0:
212,168,125275,2,0,P|172:152|131:140,1,85,2|0,0:0|0:0,0:0:0:0:
184,336,125605,2,0,P|172:295|156:255,1,85,2|8,0:0|0:0,0:0:0:0:
96,164,125934,1,0,0:0:0:0:
208,35,126099,6,0,P|291:25|358:75,1,170,2|8,0:0|0:0,0:0:0:0:
456,128,126594,2,0,L|435:165,1,42.5,0|8,0:0|0:0,0:0:0:0:
388,244,126759,1,2,0:0:0:0:
288,156,126923,1,2,0:0:0:0:
203,308,127088,2,0,P|245:313|288:312,1,85,8|0,0:0|0:0,0:0:0:0:
256,144,127418,6,0,P|215:132|172:128,1,85,4|0,0:0|0:0,0:0:0:0:
96,136,127665,1,0,0:0:0:0:
96,136,127748,1,8,0:0:0:0:
96,284,127912,1,0,0:0:0:0:
96,284,127995,1,0,0:0:0:0:
96,284,128077,2,0,L|80:240,1,42.5,8|0,0:0|0:0,0:0:0:0:
188,348,128242,2,0,L|203:308,1,42.5,8|8,0:0|0:0,0:0:0:0:
244,216,128407,1,8,0:0:0:0:
104,304,128572,1,8,0:0:0:0:
44,136,128736,5,6,0:0:0:0:
44,136,128901,1,2,0:0:0:0:
152,68,129231,1,2,0:0:0:0:
152,68,129395,2,0,L|144:152,1,63.7500024318696,8|8,0:0|0:0,0:0:0:0:
140,216,129725,1,2,0:0:0:0:
140,216,129890,1,2,0:0:0:0:
300,172,130220,5,8,0:0:0:0:
379,48,130385,2,0,L|348:104,1,63.7500024318696,0|2,0:0|0:0,0:0:0:0:
436,176,130715,1,8,0:0:0:0:
366,260,130879,1,0,0:0:0:0:
300,172,131044,1,8,0:0:0:0:
300,172,131374,5,4,0:0:0:0:
300,172,131539,1,2,0:0:0:0:
176,284,131868,1,2,0:0:0:0:
292,334,132033,2,0,L|260:280,1,63.7500024318696,8|8,0:0|0:0,0:0:0:0:
220,208,132363,1,2,0:0:0:0:
220,208,132528,1,2,0:0:0:0:
220,208,132857,5,8,0:0:0:0:
332,114,133022,2,0,L|284:156,1,63.7500024318696,0|2,0:0|0:0,0:0:0:0:
308,36,133352,1,8,0:0:0:0:
412,96,133517,1,8,0:0:0:0:
425,117,133599,1,8,0:0:0:0:
436,139,133682,1,12,0:3:0:0:
446,162,133764,1,8,0:3:0:0:
452,186,133846,1,8,0:3:0:0:
455,211,133929,1,4,0:3:0:0:
457,236,134011,5,4,0:0:0:0:
256,192,135330,5,8,0:0:0:0:
336,268,135495,1,8,0:0:0:0:
336,268,135660,1,8,0:0:0:0:
320,160,135825,1,8,0:0:0:0:
224,256,135989,1,8,0:0:0:0:
336,144,136154,1,8,0:0:0:0:
340,304,136319,1,8,0:0:0:0:
204,140,136484,1,8,0:0:0:0:
130,339,136649,5,6,0:0:0:0:
57,185,137308,5,6,0:0:0:0:
226,198,137967,5,6,0:0:0:0:
130,339,138627,5,4,0:3:0:0:
36,280,138792,1,2,0:0:0:0:
130,339,138956,2,0,L|164:232,1,85,8|0,0:0|0:0,0:0:0:0:
56,152,139286,6,0,L|155:100,1,85,4|2,0:0|0:0,0:0:0:0:
232,68,139616,1,2,0:0:0:0:
260,222,139781,2,0,L|176:216,1,85,4|2,0:0|0:0,0:0:0:0:
372,232,140110,1,2,0:0:0:0:
391,76,140275,2,0,P|355:100|328:132,1,85,8|2,0:0|0:0,0:0:0:0:
472,285,140605,6,0,P|461:244|440:208,1,85,4|2,0:0|0:0,0:0:0:0:
328,131,140934,1,2,0:0:0:0:
279,308,141099,2,0,P|319:295|361:286,1,85,4|2,0:0|0:0,0:0:0:0:
248,200,141429,1,2,0:0:0:0:
172,352,141594,2,0,P|132:337|91:326,1,85,8|2,0:0|0:0,0:0:0:0:
20,200,141923,5,8,0:0:0:0:
52,192,142006,1,0,0:0:0:0:
84,184,142088,1,8,0:0:0:0:
116,176,142171,1,8,0:0:0:0:
148,168,142253,1,8,0:0:0:0:
204,316,142418,5,2,0:0:0:0:
204,316,142748,1,2,0:0:0:0:
240,212,142912,1,8,0:0:0:0:
20,200,143077,1,4,0:0:0:0:
256,72,144066,5,2,0:0:0:0:
340,248,144231,1,8,0:0:0:0:
347,215,144561,6,0,P|263:177|171:160,1,187.000005706787,4|8,0:0|0:0,0:0:0:0:
224,332,145055,1,0,0:0:0:0:
347,215,145220,1,2,0:0:0:0:
224,332,145385,1,2,0:0:0:0:
169,159,145550,2,0,P|215:154|262:153,1,93.5000028533936,8|0,0:0|0:0,0:0:0:0:
88,240,145879,6,0,P|89:146|117:58,1,187.000005706787,2|8,0:0|0:0,0:0:0:0:
236,20,146374,1,0,0:0:0:0:
352,60,146539,2,0,P|356:106|352:153,1,93.5000028533936,2|2,0:0|0:0,0:0:0:0:
245,272,146868,2,0,P|235:226|232:180,1,93.5000028533936,8|0,0:0|0:0,0:0:0:0:
350,32,147198,6,0,P|435:60|456:148,1,187.000005706787,2|8,0:0|0:0,0:0:0:0:
392,308,147693,1,0,0:0:0:0:
287,248,147857,2,0,P|241:251|195:259,2,93.5000028533936,2|2|8,0:0|0:0|0:0,0:0:0:0:
376,332,148352,1,0,0:0:0:0:
168,348,148517,6,0,P|168:255|206:170,1,187.000005706787,2|8,0:0|0:0,0:0:0:0:
376,136,149011,1,0,0:0:0:0:
320,312,149176,2,0,P|364:298|410:292,1,93.5000028533936,2|2,0:0|0:0,0:0:0:0:
268,148,149506,2,0,P|227:124|182:109,1,93.5000028533936,8|0,0:0|0:0,0:0:0:0:
420,92,149835,6,0,P|410:137|407:184,1,93.5000028533936,2|0,0:0|0:0,0:0:0:0:
428,304,150165,1,8,0:0:0:0:
316,260,150330,1,0,0:0:0:0:
488,232,150495,1,2,0:0:0:0:
318,166,150660,2,0,P|313:213|316:260,1,93.5000028533936,2|8,0:0|0:0,0:0:0:0:
420,92,150989,1,0,0:0:0:0:
252,72,151154,6,0,P|227:111|209:155,1,93.5000028533936,2|0,0:0|0:0,0:0:0:0:
212,320,151484,1,8,0:0:0:0:
209,154,151649,2,0,P|164:141|117:137,1,93.5000028533936,0|2,0:0|0:0,0:0:0:0:
44,284,151978,1,2,0:0:0:0:
160,244,152143,1,8,0:0:0:0:
140,364,152308,1,0,0:0:0:0:
0,207,152473,6,0,P|88:175|180:161,1,187.000005706787,2|8,0:0|0:0,0:0:0:0:
316,280,152967,1,0,0:0:0:0:
316,280,153050,1,8,0:0:0:0:
315,280,153132,2,0,P|327:234|331:187,1,93.5000028533936,2|2,0:0|0:0,0:0:0:0:
196,69,153462,2,0,P|183:114|180:161,1,93.5000028533936,8|0,0:0|0:0,0:0:0:0:
229,319,153792,6,0,L|314:280,1,93.5000028533936,2|2,0:0|0:0,0:0:0:0:
130,192,154121,2,0,L|224:200,1,93.5000028533936,8|2,0:0|0:0,0:0:0:0:
424,224,154451,1,2,0:0:0:0:
363,70,154616,1,10,0:0:0:0:
260,200,154781,1,8,0:0:0:0:
449,229,154946,1,8,0:0:0:0:
372,47,155110,6,0,P|351:138|347:231,1,187.000005706787,4|8,0:0|0:0,0:0:0:0:
380,360,155605,1,0,0:0:0:0:
260,360,155770,1,2,0:0:0:0:
347,231,155934,1,2,0:0:0:0:
260,360,156099,2,0,L|228:268,1,93.5000028533936,8|0,0:0|0:0,0:0:0:0:
276,112,156429,6,0,P|360:80|431:135,1,187.000005706787,2|8,0:0|0:0,0:0:0:0:
424,284,156923,1,0,0:0:0:0:
296,204,157088,2,0,P|252:187|206:176,1,93.5000028533936,2|2,0:0|0:0,0:0:0:0:
48,120,157418,2,0,P|65:163|77:208,1,93.5000028533936,8|0,0:0|0:0,0:0:0:0:
110,348,157748,6,0,P|198:318|290:307,1,187.000005706787,2|8,0:0|0:0,0:0:0:0:
421,311,158242,1,0,0:0:0:0:
368,168,158407,2,0,P|383:124|408:84,2,93.5000028533936,2|2|8,0:0|0:0|0:0,0:0:0:0:
433,268,158901,1,0,0:0:0:0:
408,84,159066,6,0,P|317:67|225:82,1,187.000005706787,2|8,0:0|0:0,0:0:0:0:
112,208,159561,1,0,0:0:0:0:
290,276,159726,2,0,P|287:230|280:184,1,93.5000028533936,2|2,0:0|0:0,0:0:0:0:
118,91,160055,2,0,P|111:137|108:184,1,93.5000028533936,8|0,0:0|0:0,0:0:0:0:
136,352,160385,6,0,P|181:339|226:329,1,93.5000028533936,4|0,0:0|0:0,0:0:0:0:
356,360,160715,1,8,0:0:0:0:
384,232,160879,2,0,P|399:183|417:144,2,93.5000028533936,0|2|2,0:0|0:0|0:0,0:0:0:0:
279,183,161374,2,0,P|233:169|187:161,1,93.5000028533936,8|0,0:0|0:0,0:0:0:0:
88,248,161704,6,0,P|71:291|60:337,1,93.5000028533936,2|0,0:0|0:0,0:0:0:0:
226,329,162033,1,8,0:0:0:0:
188,161,162198,1,0,0:0:0:0:
188,161,162281,1,8,0:0:0:0:
188,161,162363,2,0,P|231:144|276:132,1,93.5000028533936,2|2,0:0|0:0,0:0:0:0:
357,297,162693,1,8,0:0:0:0:
400,174,162857,1,0,0:0:0:0:
364,321,163022,6,0,P|310:248|220:247,1,187.000005706787,2|8,0:0|0:0,0:0:0:0:
174,361,163517,1,0,0:0:0:0:
174,361,163599,1,8,0:0:0:0:
174,361,163682,1,2,0:0:0:0:
68,312,163846,1,2,0:0:0:0:
141,135,164011,2,0,L|156:228,1,93.5000028533936,8|0,0:0|0:0,0:0:0:0:
68,84,164341,6,0,P|109:63|154:49,1,93.5000028533936,2|2,0:0|0:0,0:0:0:0:
320,164,164671,2,0,P|274:171|228:171,1,93.5000028533936,8|0,0:0|0:0,0:0:0:0:
381,62,165000,1,2,0:0:0:0:
404,80,165083,1,8,0:0:0:0:
419,102,165165,1,8,0:0:0:0:
430,127,165248,1,8,0:0:0:0:
436,154,165330,1,2,0:0:0:0:
437,181,165412,1,8,0:3:0:0:
432,208,165495,1,8,0:3:0:0:
419,232,165577,1,4,0:3:0:0:
403,255,165660,6,0,B|375:283|375:283|305:243|234:243,1,187.000005706787,4|8,0:0|0:0,0:0:0:0:
162,341,166154,1,0,0:0:0:0:
162,341,166237,1,8,0:0:0:0:
162,341,166319,1,2,0:0:0:0:
234,243,166484,1,2,0:0:0:0:
97,149,166649,2,0,L|124:239,1,93.5000028533936,8|0,0:0|0:0,0:0:0:0:
220,54,166978,6,0,L|202:146,1,93.5000028533936,2|2,0:0|0:0,0:0:0:0:
192,330,167308,2,0,P|237:319|284:314,1,93.5000028533936,8|0,0:0|0:0,0:0:0:0:
396,230,167638,2,0,P|360:200|320:176,2,93.5000028533936,2|2|8,0:0|0:0|0:0,0:0:0:0:
363,367,168132,1,0,0:0:0:0:
192,330,168297,6,0,P|192:283|201:237,1,93.5000028533936,4|2,0:0|0:0,0:0:0:0:
71,138,168627,2,0,P|105:106|146:82,1,93.5000028533936,8|0,0:0|0:0,0:0:0:0:
320,175,168956,1,2,0:0:0:0:
146,83,169121,1,2,0:0:0:0:
347,49,169286,2,0,P|336:94|327:140,1,93.5000028533936,8|2,0:0|0:0,0:0:0:0:
302,346,169616,5,8,0:0:0:0:
101,334,169781,1,2,0:0:0:0:
302,346,169945,1,8,0:0:0:0:
220,162,170110,1,2,0:0:0:0:
220,162,170440,1,2,0:0:0:0:
214,282,170605,2,0,P|172:263|127:250,1,93.5000028533936,8|2,0:0|0:0,0:0:0:0:
342,212,170934,5,8,0:0:0:0:
163,357,171099,1,8,0:0:0:0:
302,346,171264,1,2,0:0:0:0:
295,132,171429,2,0,P|321:171|342:212,1,93.5000028533936,8|2,0:3|0:0,0:0:0:0:
426,35,171759,2,0,P|412:79|403:125,1,93.5000028533936,8|2,0:3|0:0,0:0:0:0:
426,284,172088,1,4,0:3:0:0:
295,132,172253,5,12,0:0:0:0:
340,330,172418,1,8,0:0:0:0:
427,203,172583,1,2,0:0:0:0:
245,361,172748,2,0,P|224:318|196:281,1,93.5000028533936,12|0,0:0|0:0,0:0:0:0:
59,123,173077,2,0,P|46:167|42:214,1,93.5000028533936,8|2,0:0|0:0,0:0:0:0:
86,328,173407,1,4,0:3:0:0:
306,227,173572,6,0,P|253:155|164:167,1,187.000005706787,4|8,0:0|0:0,0:0:0:0:
288,348,174066,1,8,0:0:0:0:
338,238,174231,1,8,0:0:0:0:
217,249,174396,1,8,0:0:0:0:
288,348,174561,1,8,0:0:0:0:
372,156,174726,1,8,0:0:0:0:
164,167,174890,5,4,0:0:0:0:
256,192,175715,1,8,0:3:0:0:
340,120,175879,1,4,0:3:0:0:
360,228,176044,1,2,0:0:0:0:
171,196,176208,6,0,P|213:192|255:192,1,85,4|0,0:0|0:0,0:0:0:0:
360,228,176539,1,2,0:0:0:0:
384,104,176704,2,0,P|342:94|300:89,1,85,0|2,0:0|0:0,0:0:0:0:
212,152,177033,1,0,0:0:0:0:
352,268,177198,2,0,P|361:226|368:184,1,85,2|0,0:0|0:0,0:0:0:0:
368,184,177445,1,0,0:0:0:0:
368,184,177528,5,2,0:0:0:0:
227,67,177693,2,0,P|217:109|211:151,1,85,0|2,0:0|0:0,0:0:0:0:
236,280,178022,1,0,0:0:0:0:
104,232,178187,2,0,P|64:215|24:201,1,85,2|0,0:0|0:0,0:0:0:0:
211,150,178517,2,0,P|171:133|131:119,1,85,2|0,0:0|0:0,0:0:0:0:
52,352,178846,6,0,L|132:325,1,85,4|0,0:0|0:0,0:0:0:0:
116,212,179176,1,2,0:0:0:0:
264,248,179341,2,0,L|251:332,1,85,0|2,0:0|0:0,0:0:0:0:
208,152,179671,1,0,0:0:0:0:
316,124,179835,2,0,P|350:148|379:179,1,85,2|0,0:0|0:0,0:0:0:0:
353,309,180165,5,2,0:0:0:0:
379,179,180330,2,0,P|413:154|453:137,1,85,0|2,0:0|0:0,0:0:0:0:
373,47,180660,1,0,0:0:0:0:
292,204,180825,2,0,P|250:212|208:210,1,85,2|0,0:0|0:0,0:0:0:0:
155,71,181154,1,2,0:0:0:0:
155,71,181237,1,0,0:0:0:0:
155,71,181319,1,0,0:0:0:0:
155,71,181401,1,0,0:0:0:0:
155,71,181483,6,0,L|140:164,1,85,4|0,0:0|0:0,0:0:0:0:
132,265,181814,1,2,0:0:0:0:
231,218,181978,2,0,P|273:211|316:206,1,85,0|2,0:0|0:0,0:0:0:0:
370,109,182308,1,0,0:0:0:0:
504,176,182473,2,0,P|499:218|492:260,1,85,2|0,0:0|0:0,0:0:0:0:
464,336,182720,1,0,0:0:0:0:
464,336,182803,5,4,0:0:0:0:
368,192,182967,1,0,0:0:0:0:
292,272,183132,1,2,0:0:0:0:
325,83,183297,1,4,0:3:0:0:
325,83,183379,1,4,0:3:0:0:
325,83,183462,2,0,P|344:120|359:161,1,85,2|8,0:0|0:3,0:0:0:0:
420,214,183709,2,0,L|400:264,1,42.5,8|2,0:3|0:0,0:0:0:0:
260,172,183956,1,4,0:3:0:0:
452,136,184121,5,4,0:0:0:0:
476,304,184286,1,0,0:0:0:0:
316,240,184451,1,2,0:0:0:0:
452,136,184616,2,0,L|420:216,1,85,0|2,0:0|0:0,0:0:0:0:
334,323,184945,2,0,L|316:240,1,85,0|2,0:0|0:0,0:0:0:0:
341,59,185275,1,4,0:0:0:0:
152,156,185440,5,2,0:0:0:0:
152,156,185605,1,8,0:0:0:0:
232,68,185770,1,8,0:0:0:0:
312,220,185934,1,8,0:0:0:0:
392,32,186099,1,8,0:0:0:0:
392,32,186182,1,8,0:3:0:0:
392,32,186264,1,8,0:3:0:0:
392,32,186346,1,4,0:3:0:0:
392,32,186429,2,0,L|355:117,1,85,8|2,0:0|0:0,0:0:0:0:
311,336,186759,6,0,L|224:320,1,85,4|2,0:0|0:0,0:0:0:0:
259,155,187088,1,2,0:0:0:0:
48,160,187253,2,0,L|68:244,1,85,12|2,0:0|0:0,0:0:0:0:
272,244,187583,1,2,0:0:0:0:
160,47,187748,2,0,L|152:132,1,85,8|2,0:0|0:0,0:0:0:0:
264,200,188077,5,2,0:0:0:0:
336,21,188242,2,0,L|413:56,1,85,12|2,0:0|0:0,0:0:0:0:
505,118,188572,1,2,0:0:0:0:
410,203,188737,1,8,0:0:0:0:
400,183,188819,1,8,0:0:0:0:
384,167,188901,1,8,0:0:0:0:
365,156,188984,1,8,0:0:0:0:
344,150,189066,1,10,0:0:0:0:
322,151,189149,1,8,0:3:0:0:
301,159,189231,1,8,0:3:0:0:
286,173,189314,1,0,0:0:0:0:
271,188,189396,6,0,L|284:271,1,85,4|2,0:0|0:0,0:0:0:0:
192,109,189726,1,2,0:0:0:0:
156,300,189890,2,0,L|172:217,1,85,12|2,0:0|0:0,0:0:0:0:
192,109,190220,1,2,0:0:0:0:
284,271,190385,2,0,L|371:243,1,85,8|2,0:0|0:0,0:0:0:0:
411,144,190715,5,2,0:0:0:0:
260,79,190879,2,0,L|245:162,1,85,12|2,0:0|0:0,0:0:0:0:
284,271,191208,1,2,0:0:0:0:
139,196,191350,1,8,0:0:0:0:
139,196,191432,1,8,0:0:0:0:
139,196,191514,1,2,0:0:0:0:
245,162,191679,1,8,0:0:0:0:
203,323,191856,1,8,0:0:0:0:
203,323,191944,1,8,0:0:0:0:
202,323,192034,6,0,P|244:311|285:305,1,85,4|0,0:0|0:0,0:0:0:0:
397,302,192362,1,2,0:0:0:0:
416,158,192527,2,0,P|374:146|333:140,1,85,12|2,0:0|0:0,0:0:0:0:
237,196,192857,1,0,0:0:0:0:
240,34,193022,2,0,P|211:64|185:98,1,85,2|0,0:0|0:0,0:0:0:0:
74,87,193351,5,2,0:0:0:0:
47,286,193516,2,0,P|89:287|132:285,1,85,12|2,0:0|0:0,0:0:0:0:
94,180,193845,1,8,0:3:0:0:
218,365,194010,2,0,P|232:325|243:283,1,85,8|0,0:0|0:0,0:0:0:0:
363,197,194340,2,0,P|352:156|337:117,1,85,2|0,0:0|0:0,0:0:0:0:
168,236,194670,6,0,P|239:279|321:262,1,170,4|8,0:0|0:0,0:0:0:0:
368,162,195164,1,8,0:0:0:0:
258,171,195329,1,8,0:0:0:0:
321,262,195494,1,8,0:0:0:0:
400,95,195659,1,8,0:0:0:0:
216,92,195824,1,4,0:0:0:0:
320,112,208529,5,10,0:0:0:0:
192,272,208694,1,10,0:0:0:0:
218,259,209518,5,10,0:0:0:0:
404,172,209683,1,10,0:0:0:0:
404,172,210342,5,2,0:0:0:0:
400,200,210425,1,2,0:0:0:0:
396,228,210507,1,12,0:0:0:0:
328,92,210672,1,8,0:3:0:0:
480,172,210837,1,4,0:3:0:0:
336,264,211001,1,2,0:0:0:0:
328,92,211166,5,10,0:0:0:0:
336,296,211331,1,10,0:0:0:0:
312,279,212155,5,10,0:0:0:0:
168,136,212320,1,10,0:0:0:0:
168,136,212650,5,2,0:0:0:0:
261,33,212815,2,0,P|344:42|401:103,1,170,4|2,0:0|0:0,0:0:0:0:
397,116,213225,1,2,0:0:0:0:
392,128,213306,1,8,0:0:0:0:
387,140,213387,1,8,0:0:0:0:
382,152,213468,1,2,0:0:0:0:
378,164,213549,1,8,0:3:0:0:
373,176,213630,1,4,0:3:0:0:
368,188,213711,1,2,0:0:0:0:
364,200,213792,5,4,0:0:0:0:
456,200,213956,1,0,0:0:0:0:
408,280,214121,1,2,0:0:0:0:
472,176,214286,1,8,0:0:0:0:
328,192,214451,1,2,0:0:0:0:
414,308,214616,1,8,0:0:0:0:
396,126,214781,1,2,0:0:0:0:
248,233,214946,1,8,0:0:0:0:
414,308,215110,5,8,0:0:0:0:
328,192,215275,1,8,0:0:0:0:
427,91,215440,1,8,0:0:0:0:
285,39,215605,1,8,0:0:0:0:
311,188,215770,1,8,0:0:0:0:
427,91,215935,1,2,0:0:0:0:
257,27,216099,2,0,L|249:111,1,85,4|2,0:0|0:0,0:0:0:0:
223,309,216429,6,0,L|334:281,1,85,12|2,0:0|0:0,0:0:0:0:
423,256,216759,1,2,0:0:0:0:
219,203,216924,2,0,L|302:183,1,85,12|2,0:0|0:0,0:0:0:0:
201,316,217253,1,2,0:0:0:0:
118,146,217418,2,0,L|110:231,1,85,8|2,0:0|0:0,0:0:0:0:
314,372,217748,6,0,L|305:288,1,85,12|2,0:0|0:0,0:0:0:0:
255,136,218077,1,2,0:0:0:0:
451,196,218242,2,0,P|418:170|381:150,1,85,4|2,0:0|0:0,0:0:0:0:
255,136,218572,1,8,0:0:0:0:
222,304,218737,2,0,P|264:299|305:288,1,85,8|2,0:0|0:0,0:0:0:0:
270,79,219066,5,4,0:0:0:0:
263,108,219149,1,0,0:0:0:0:
255,136,219231,1,8,0:3:0:0:
249,165,219314,1,4,0:3:0:0:
242,193,219396,1,8,0:0:0:0:
359,60,219561,5,2,0:0:0:0:
359,60,219891,1,2,0:0:0:0:
404,189,220055,1,8,0:0:0:0:
194,85,220220,1,4,0:0:0:0:
123,108,222033,6,0,P|103:168|98:231,1,127.5,4|8,0:0|0:0,0:0:0:0:
119,310,222363,1,8,0:0:0:0:
188,159,222528,1,8,0:3:0:0:
23,175,222693,1,4,0:3:0:0:
201,315,222858,6,0,P|262:258|345:249,1,170,4|2,0:0|0:0,0:0:0:0:
446,296,223352,2,0,P|452:233|426:175,1,127.5,8|8,0:0|0:0,0:0:0:0:
370,98,223682,1,8,0:0:0:0:
343,118,223764,1,8,0:0:0:0:
314,137,223847,1,8,0:0:0:0:
282,148,223929,1,8,0:0:0:0:
249,155,224011,1,8,0:0:0:0:
214,157,224094,1,8,0:0:0:0:
180,153,224176,1,8,0:0:0:0:
147,143,224259,1,8,0:0:0:0:
112,128,224341,6,0,P|38:181|25:272,1,187.000005706787,4|8,0:0|0:0,0:0:0:0:
198,365,224836,1,0,0:0:0:0:
129,237,225000,1,2,0:0:0:0:
52,361,225165,1,2,0:0:0:0:
225,379,225330,2,0,L|245:284,1,93.5000028533936,8|0,0:0|0:0,0:0:0:0:
329,134,225660,6,0,L|359:318,1,187.000005706787,2|8,0:0|0:0,0:0:0:0:
184,252,226154,1,0,0:0:0:0:
328,134,226319,2,0,P|375:125|421:122,1,93.5000028533936,2|2,0:0|0:0,0:0:0:0:
359,318,226649,2,0,P|312:326|266:329,1,93.5000028533936,8|0,0:0|0:0,0:0:0:0:
248,89,226978,6,0,P|327:132|334:222,1,187.000005706787,2|8,0:0|0:0,0:0:0:0:
266,328,227473,2,0,P|222:310|178:296,1,93.5000028533936,0|2,0:0|0:0,0:0:0:0:
64,256,227803,1,2,0:0:0:0:
120,81,227968,1,8,0:0:0:0:
212,224,228132,1,0,0:0:0:0:
120,81,228297,6,0,L|99:172,1,93.5000028533936,2|0,0:0|0:0,0:0:0:0:
122,340,228627,1,8,0:0:0:0:
242,233,228792,1,0,0:0:0:0:
242,233,228874,1,0,0:0:0:0:
242,233,228957,2,0,P|196:223|149:219,1,93.5000028533936,2|2,0:0|0:0,0:0:0:0:
269,351,229286,1,8,0:0:0:0:
359,269,229451,1,0,0:0:0:0:
313,76,229616,6,0,P|249:141|242:233,1,187.000005706787,2|8,0:0|0:0,0:0:0:0:
269,351,230110,1,0,0:0:0:0:
269,351,230193,1,8,0:0:0:0:
269,351,230275,1,2,0:0:0:0:
359,269,230440,1,2,0:0:0:0:
152,206,230605,2,0,L|242:233,1,93.5000028533936,8|0,0:0|0:0,0:0:0:0:
313,76,230935,6,0,L|217:93,1,93.5000028533936,2|2,0:0|0:0,0:0:0:0:
359,271,231264,2,0,P|348:225|328:183,1,93.5000028533936,8|2,0:0|0:0,0:0:0:0:
152,24,231594,2,0,P|136:68|127:113,1,93.5000028533936,8|8,0:0|0:0,0:0:0:0:
130,190,231841,1,8,0:0:0:0:
130,190,231924,1,2,0:0:0:0:
236,348,232088,1,8,0:0:0:0:
236,348,232171,1,8,0:0:0:0:
236,348,232253,6,0,P|144:330|51:322,1,187.000005706787,4|8,0:0|0:0,0:0:0:0:
180,208,232748,1,0,0:0:0:0:
264,352,232913,1,2,0:0:0:0:
392,268,233077,1,2,0:0:0:0:
339,90,233242,2,0,P|332:136|328:183,1,93.5000028533936,8|0,0:0|0:0,0:0:0:0:
180,208,233572,6,0,P|187:114|210:24,1,187.000005706787,2|8,0:0|0:0,0:0:0:0:
360,24,234066,1,0,0:0:0:0:
408,180,234231,2,0,L|377:282,1,93.5000028533936,2|2,0:0|0:0,0:0:0:0:
204,224,234561,2,0,L|176:132,1,93.5000028533936,8|0,0:0|0:0,0:0:0:0:
287,248,234891,6,0,P|223:310|137:284,1,187.000005706787,2|8,0:0|0:0,0:0:0:0:
176,134,235385,1,0,0:0:0:0:
356,168,235550,2,0,P|377:218|389:269,1,93.5000028533936,2|2,0:0|0:0,0:0:0:0:
308,348,235880,1,8,0:0:0:0:
204,224,236044,1,0,0:0:0:0:
288,68,236209,6,0,P|243:55|196:48,1,93.5000028533936,2|2,0:0|0:0,0:0:0:0:
176,192,236539,1,8,0:0:0:0:
196,48,236704,1,0,0:0:0:0:
52,108,236869,2,0,P|39:153|33:199,1,93.5000028533936,2|2,0:0|0:0,0:0:0:0:
204,306,237198,2,0,P|198:260|185:215,1,93.5000028533936,8|0,0:0|0:0,0:0:0:0:
138,69,237528,6,0,P|219:26|311:34,1,187.000005706787,4|8,0:0|0:0,0:0:0:0:
379,201,238022,1,0,0:0:0:0:
251,264,238187,2,0,P|252:218|260:172,1,93.5000028533936,2|2,0:0|0:0,0:0:0:0:
400,74,238517,2,0,P|409:120|413:167,1,93.5000028533936,8|0,0:0|0:0,0:0:0:0:
426,333,238847,6,0,P|380:324|333:320,1,93.5000028533936,2|0,0:0|0:0,0:0:0:0:
214,342,239176,1,8,0:0:0:0:
167,184,239341,2,0,P|213:175|260:171,1,93.5000028533936,0|2,0:0|0:0,0:0:0:0:
368,224,239671,1,2,0:0:0:0:
336,108,239836,1,8,0:0:0:0:
224,248,240000,1,0,0:0:0:0:
380,316,240165,6,0,P|368:223|344:133,1,187.000005706787,4|8,0:0|0:0,0:0:0:0:
240,72,240660,1,0,0:0:0:0:
240,72,240742,1,8,0:0:0:0:
240,72,240825,1,2,0:0:0:0:
187,241,240989,1,2,0:0:0:0:
74,171,241154,2,0,P|64:216|59:263,1,93.5000028533936,8|0,0:0|0:0,0:0:0:0:
180,348,241484,6,0,P|226:349|273:346,1,93.5000028533936,2|2,0:0|0:0,0:0:0:0:
310,160,241814,2,0,P|263:158|216:161,1,93.5000028533936,8|0,0:0|0:0,0:0:0:0:
111,280,242143,1,2,0:0:0:0:
216,161,242308,1,8,0:0:0:0:
60,129,242473,1,2,0:0:0:0:
187,241,242638,1,4,0:3:0:0:
115,62,242803,6,0,P|58:136|31:225,1,187.000005706787,4|8,0:0|0:0,0:0:0:0:
111,316,243297,1,0,0:0:0:0:
237,236,243462,2,0,L|142:212,1,93.5000028533936,2|2,0:0|0:0,0:0:0:0:
242,352,243792,1,8,0:0:0:0:
352,268,243957,1,0,0:0:0:0:
226,143,244121,6,0,L|237:236,1,93.5000028533936,2|2,0:0|0:0,0:0:0:0:
333,83,244451,2,0,L|344:176,1,93.5000028533936,8|0,0:0|0:0,0:0:0:0:
216,46,244781,1,2,0:0:0:0:
333,83,244946,1,2,0:0:0:0:
146,191,245110,2,0,L|226:143,1,93.5000028533936,8|0,0:0|0:0,0:0:0:0:
356,336,245440,6,0,P|310:329|264:320,1,93.5000028533936,4|2,0:0|0:0,0:0:0:0:
38,242,245770,2,0,P|28:287|21:333,1,93.5000028533936,8|0,0:0|0:0,0:0:0:0:
263,225,246099,1,2,0:0:0:0:
146,191,246264,1,2,0:0:0:0:
154,373,246429,1,8,0:3:0:0:
38,242,246594,1,8,0:0:0:0:
38,242,246676,1,8,0:0:0:0:
38,242,246759,5,4,0:0:0:0:
211,303,246924,1,2,0:0:0:0:
223,140,247088,1,8,0:0:0:0:
38,242,247253,1,2,0:0:0:0:
38,242,247583,2,0,L|131:194,1,93.5000028533936,2|8,0:0|0:0,0:0:0:0:
266,226,247913,1,2,0:0:0:0:
182,85,248077,5,8,0:0:0:0:
170,285,248242,1,8,0:0:0:0:
169,285,248572,2,0,P|183:240|203:198,1,93.5000028533936,8|2,0:3|0:0,0:0:0:0:
87,375,248902,2,0,P|65:333|49:289,1,93.5000028533936,4|2,0:3|0:0,0:0:0:0:
97,177,249231,1,0,0:0:0:0:
169,285,249396,5,4,0:0:0:0:
200,87,249561,1,8,0:0:0:0:
252,196,249726,1,2,0:0:0:0:
8,206,249891,2,0,P|51:188|96:176,1,93.5000028533936,12|2,0:0|0:0,0:0:0:0:
278,28,250220,2,0,P|293:72|306:118,2,93.5000028533936,8|4|2,0:3|0:3|0:0,0:0:0:0:
402,232,250715,6,0,P|317:266|228:244,1,187.000005706787,4|2,0:0|0:0,0:0:0:0:
306,118,251209,1,8,0:0:0:0:
306,118,251374,1,8,0:0:0:0:
196,64,251539,1,8,0:0:0:0:
196,64,251704,1,8,0:0:0:0:
360,28,251869,1,8,0:0:0:0:
305,218,252033,5,8,0:0:0:0:
237,127,252198,1,8,0:0:0:0:
372,127,252363,1,8,0:0:0:0:
306,243,252527,1,8,0:0:0:0:
196,64,252692,1,8,0:0:0:0:
372,127,252857,1,8,0:0:0:0:
207,252,253022,1,8,0:0:0:0:
182,48,253187,1,8,0:0:0:0:
182,48,253270,1,0,0:0:0:0:
182,48,253352,5,4,0:0:0:0:
256,192,254176,1,2,0:0:0:0:
73,142,254341,1,8,0:0:0:0:
88,128,254671,6,0,P|164:92|248:88,1,170,4|8,0:0|0:0,0:0:0:0:
320,275,255165,1,0,0:0:0:0:
186,295,255330,2,0,P|189:252|195:210,1,85,2|2,0:0|0:0,0:0:0:0:
326,46,255660,2,0,P|331:88|335:130,1,85,8|0,0:0|0:0,0:0:0:0:
351,316,255989,6,0,P|269:291|185:294,1,170,2|8,0:0|0:0,0:0:0:0:
92,355,256484,1,2,0:0:0:0:
48,219,256649,2,0,P|88:205|129:195,1,85,0|2,0:0|0:0,0:0:0:0:
256,208,256978,1,8,0:0:0:0:
190,44,257143,1,0,0:0:0:0:
190,44,257226,1,0,0:0:0:0:
190,44,257308,6,0,P|139:110|128:194,1,170,2|8,0:0|0:0,0:0:0:0:
185,294,257803,2,0,L|238:267,1,42.5,0|8,0:0|0:0,0:0:0:0:
296,216,257968,2,0,L|320:297,1,85,2|2,0:0|0:0,0:0:0:0:
212,196,258297,1,8,0:0:0:0:
380,236,258462,1,0,0:0:0:0:
324,108,258627,6,0,P|343:70|369:37,2,85,2|2|8,0:0|0:0|0:0,0:0:0:0:
320,297,259121,2,0,P|280:281|238:273,1,85,2|0,0:0|0:0,0:0:0:0:
56,320,259451,1,2,0:0:0:0:
136,244,259616,1,8,0:0:0:0:
32,144,259781,1,0,0:0:0:0:
218,68,259946,6,0,L|180:144,1,85,4|0,0:0|0:0,0:0:0:0:
216,272,260275,1,8,0:0:0:0:
364,158,260440,2,0,P|323:168|284:184,1,85,0|2,0:0|0:0,0:0:0:0:
381,348,260770,2,0,P|371:307|356:268,1,85,2|8,0:0|0:0,0:0:0:0:
416,96,261099,2,0,P|374:87|332:84,1,85,0|2,0:0|0:0,0:0:0:0:
180,36,261429,5,2,0:0:0:0:
180,36,261511,1,0,0:0:0:0:
180,36,261594,2,0,L|168:128,1,85,8|2,0:0|0:0,0:0:0:0:
348,252,261924,1,0,0:0:0:0:
348,252,262006,1,0,0:0:0:0:
348,252,262088,2,0,L|328:164,1,85,2|8,0:0|0:0,0:0:0:0:
272,76,262418,1,0,0:0:0:0:
88,200,262583,6,0,P|166:227|246:202,1,170,2|8,0:0|0:0,0:0:0:0:
304,152,262995,1,0,0:0:0:0:
337,150,263077,1,0,0:0:0:0:
370,157,263160,1,0,0:0:0:0:
398,175,263242,1,2,0:0:0:0:
422,199,263325,1,0,0:0:0:0:
436,229,263407,1,2,0:0:0:0:
441,262,263489,1,0,0:0:0:0:
438,296,263572,1,8,0:0:0:0:
422,326,263654,1,0,0:0:0:0:
398,351,263737,1,0,0:0:0:0:
369,369,263819,1,0,0:0:0:0:
336,378,263902,5,2,0:0:0:0:
221,292,264066,1,2,0:0:0:0:
393,184,264231,2,0,L|318:231,1,85,8|4,0:0|0:0,0:0:0:0:
295,36,264561,2,0,L|291:121,1,85,8|2,0:0|0:0,0:0:0:0:
489,119,264891,1,8,0:0:0:0:
317,22,265055,1,8,0:0:0:0:
317,22,265138,1,8,0:0:0:0:
317,22,265220,6,0,L|308:191,1,170,4|8,0:0|0:0,0:0:0:0:
247,285,265715,1,0,0:0:0:0:
152,170,265880,2,0,P|110:161|68:157,2,85,2|2|8,0:0|0:0|0:0,0:0:0:0:
96,265,266374,1,0,0:0:0:0:
21,97,266539,6,0,P|103:76|188:74,1,170,2|8,0:0|0:0,0:0:0:0:
292,207,267033,1,2,0:0:0:0:
385,147,267198,2,0,P|425:135|467:126,1,85,0|2,0:0|0:0,0:0:0:0:
315,303,267528,2,0,P|274:295|233:285,1,85,8|0,0:0|0:0,0:0:0:0:
152,264,267775,1,0,0:0:0:0:
152,264,267858,6,0,B|127:286|127:286|135:214|116:151,1,170,2|8,0:0|0:0,0:0:0:0:
84,44,268352,1,0,0:0:0:0:
84,44,268435,1,8,0:0:0:0:
84,44,268517,1,2,0:0:0:0:
188,84,268682,1,2,0:0:0:0:
52,208,268847,2,0,L|115:150,1,85,8|0,0:0|0:0,0:0:0:0:
293,47,269176,6,0,L|316:129,1,85,2|2,0:0|0:0,0:0:0:0:
171,170,269506,1,8,0:0:0:0:
279,283,269671,2,0,P|320:273|362:267,1,85,2|0,0:0|0:0,0:0:0:0:
431,354,270000,1,2,0:0:0:0:
279,283,270165,1,8,0:0:0:0:
409,177,270330,1,8,0:0:0:0:
409,177,270413,1,8,0:0:0:0:
408,176,270495,6,0,P|343:124|260:113,1,170,4|8,0:0|0:0,0:0:0:0:
175,64,270935,6,0,L|145:111,1,56.6666666666667
67,196,271154,2,0,L|60:140,2,56.6666666666667,2|0|0,0:0|0:0|0:0,0:0:0:0:
68,288,271484,2,0,L|4:268,2,56.6666666666667,8|0|0,0:0|0:0|0:0,0:0:0:0:
164,200,271814,6,0,L|232:180,2,56.6666666666667,2|0|0,0:0|0:0|0:0,0:0:0:0:
216,336,272143,2,0,L|272:348,2,56.6666666666667,8|0|0,0:0|0:0|0:0,0:0:0:0:
340,240,272473,2,0,L|357:186,2,56.6666666666667,2|0|0,0:0|0:0|0:0,0:0:0:0:
256,96,272803,2,0,L|248:39,2,56.6666666666667,8|0|0,0:0|0:0|0:0,0:0:0:0:
276,223,273132,6,0,P|330:208|386:203,1,113.333333333333,4|0,0:0|0:0,0:0:0:0:
394,83,273462,2,0,L|443:113,2,56.6666666666667,8|0|0,0:0|0:0|0:0,0:0:0:0:
386,202,273792,2,0,L|408:255,2,56.6666666666667,2|0|0,0:0|0:0|0:0,0:0:0:0:
309,297,274121,2,0,L|297:353,2,56.6666666666667,8|0|0,0:0|0:0|0:0,0:0:0:0:
256,160,274451,6,0,P|217:144|175:135,1,85,12|2,0:0|0:0,0:0:0:0:
192,326,274781,1,8,0:0:0:0:
288,274,274946,1,8,0:0:0:0:
192,218,275110,1,8,0:0:0:0:
192,358,275275,1,8,0:0:0:0:
364,326,275440,1,8,0:0:0:0:
268,178,275612,1,8,0:0:0:0:
280,354,275785,6,0,L|288:288,2,63.7500024318696
400,378,276279,2,0,L|379:252,1,127.500004863739
432,186,276774,2,0,L|356:138,1,63.7500024318696
256,74,277088,5,12,0:0:0:0:
378,151,277253,1,8,0:3:0:0:
200,198,277418,1,8,0:0:0:0:
348,66,277583,1,2,0:0:0:0:
348,66,277913,1,2,0:0:0:0:
348,66,278440,6,0,L|368:142,2,63.7500024318696
420,210,278934,2,0,L|288:190,1,127.500004863739
222,285,279429,2,0,L|284:274,1,63.7500024318696
228,106,279725,5,6,0:0:0:0:
228,106,279807,1,8,0:0:0:0:
228,106,279889,1,8,0:0:0:0:
228,106,279972,1,8,0:0:0:0:
228,106,280054,1,8,0:0:0:0:
284,274,280219,1,2,0:0:0:0:
284,274,280549,1,10,0:0:0:0:
200,142,280714,1,8,0:3:0:0:
132,278,280878,1,4,0:0:0:0:
