osu file format v14

[General]
AudioFilename: MELODY FLAG.mp3
AudioLeadIn: 0
PreviewTime: 63114
Countdown: 0
SampleSet: Soft
StackLeniency: 0.7
Mode: 0
LetterboxInBreaks: 0
EpilepsyWarning: 1
WidescreenStoryboard: 1

[Editor]
DistanceSpacing: 1
BeatDivisor: 4
GridSize: 4
TimelineZoom: 1

[Metadata]
Title:MELODY FLAG
TitleUnicode:MELODY FLAG
Artist:Inori Minase
ArtistUnicode:水瀬いのり
Creator:Chirony
Version:Normal
Source:水瀬いのり MELODY FLAG
Tags:中野領太 ryota nakano
BeatmapID:1294195
BeatmapSetID:613403

[Difficulty]
HPDrainRate:3
CircleSize:3
OverallDifficulty:3
ApproachRate:4
SliderMultiplier:1.2
SliderTickRate:1

[Events]
//Background and Video events
0,0,"BG.jpg",0,0
//Break Periods
2,1026,4451
2,96018,106319
2,197968,207209
//Storyboard Layer 0 (Background)
//Storyboard Layer 1 (Fail)
//Storyboard Layer 2 (Pass)
//Storyboard Layer 3 (Foreground)
Sprite,Foreground,Centre,"SB\ring.png",420,350 F,2,213792,214197,1,0 S,7,213792,214197,0.3,0.8 C,0,213792,214197,87,133,255 P,0,213792,214197,A
Sprite,Foreground,Centre,"SB\ring.png",220,410 F,2,214451,214856,1,0 S,7,214451,214856,0.3,0.8 C,0,214451,214856,87,133,255 P,0,214451,214856,A
Sprite,Foreground,Centre,"SB\ring.png",224,234 F,2,215110,215515,1,0 S,7,215110,215515,0.3,0.8 C,0,215110,215515,87,133,255 P,0,215110,215515,A
Sprite,Foreground,Centre,"SB\ring.png",264,78 F,2,215605,216010,1,0 S,7,215605,216010,0.3,0.8 C,0,215605,216010,87,133,255 P,0,215605,216010,A
Sprite,Foreground,Centre,"SB\ring.png",320,94 F,2,215770,216175,1,0 S,7,215770,216175,0.3,0.8 C,0,215770,216175,87,133,255 P,0,215770,216175,A
Sprite,Foreground,Centre,"SB\ring.png",396,186 F,2,216429,216834,1,0 S,7,216429,216834,0.3,0.8 C,0,216429,216834,255,189,255 P,0,216429,216834,A
Sprite,Foreground,Centre,"SB\star02.png",320,240 M,22,216429,217134,396,186,262,155 F,3,216429,217134,1,0 S,9,216429,217134,0.14,0 R,0,216429,217134,4,1 C,0,216429,217134,255,189,255 P,0,216429,217134,A
Sprite,Foreground,Centre,"SB\star01.png",320,240 M,22,216429,217134,396,186,551,156 F,3,216429,217134,1,0 S,9,216429,217134,0.23,0 R,0,216429,217134,5,2 C,0,216429,217134,255,189,255 P,0,216429,217134,A
Sprite,Foreground,Centre,"SB\star01.png",320,240 M,22,216429,217134,396,186,565,176 F,3,216429,217134,1,0 S,9,216429,217134,0.1,0 R,0,216429,217134,0,2 C,0,216429,217134,255,189,255 P,0,216429,217134,A
Sprite,Foreground,Centre,"SB\star01.png",320,240 M,22,216429,217134,396,186,480,141 F,3,216429,217134,1,0 S,9,216429,217134,0.33,0 R,0,216429,217134,3,0 C,0,216429,217134,255,189,255 P,0,216429,217134,A
Sprite,Foreground,Centre,"SB\star01.png",320,240 M,22,216429,217134,396,186,459,43 F,3,216429,217134,1,0 S,9,216429,217134,0.28,0 R,0,216429,217134,3,1 C,0,216429,217134,255,189,255 P,0,216429,217134,A
Sprite,Foreground,Centre,"SB\star02.png",320,240 M,22,216429,217134,396,186,344,70 F,3,216429,217134,1,0 S,9,216429,217134,0.09,0 R,0,216429,217134,4,1 C,0,216429,217134,255,189,255 P,0,216429,217134,A
Sprite,Foreground,Centre,"SB\star01.png",320,240 M,22,216429,217134,396,186,281,117 F,3,216429,217134,1,0 S,9,216429,217134,0.22,0 R,0,216429,217134,4,0 C,0,216429,217134,255,189,255 P,0,216429,217134,A
Sprite,Foreground,Centre,"SB\star01.png",320,240 M,22,216429,217134,396,186,439,259 F,3,216429,217134,1,0 S,9,216429,217134,0.28,0 R,0,216429,217134,4,1 C,0,216429,217134,255,189,255 P,0,216429,217134,A
Sprite,Foreground,Centre,"SB\star01.png",320,240 M,22,216429,217134,396,186,288,77 F,3,216429,217134,1,0 S,9,216429,217134,0.16,0 R,0,216429,217134,3,2 C,0,216429,217134,255,189,255 P,0,216429,217134,A
Sprite,Foreground,Centre,"SB\star02.png",320,240 M,22,216429,217134,396,186,443,140 F,3,216429,217134,1,0 S,9,216429,217134,0.26,0 R,0,216429,217134,3 C,0,216429,217134,255,189,255 P,0,216429,217134,A
Sprite,Foreground,Centre,"SB\star02.png",320,240 M,22,216429,217134,396,186,321,168 F,3,216429,217134,1,0 S,9,216429,217134,0.31,0 R,0,216429,217134,1,2 C,0,216429,217134,255,189,255 P,0,216429,217134,A
Sprite,Foreground,Centre,"SB\star01.png",320,240 M,22,216429,217134,396,186,465,279 F,3,216429,217134,1,0 S,9,216429,217134,0.1,0 R,0,216429,217134,0,3 C,0,216429,217134,255,189,255 P,0,216429,217134,A
Sprite,Foreground,Centre,"SB\star01.png",320,240 M,22,216429,217134,396,186,371,269 F,3,216429,217134,1,0 S,9,216429,217134,0.23,0 R,0,216429,217134,2,0 C,0,216429,217134,255,189,255 P,0,216429,217134,A
Sprite,Foreground,Centre,"SB\star02.png",320,240 M,22,216429,217134,396,186,462,241 F,3,216429,217134,1,0 S,9,216429,217134,0.39,0 R,0,216429,217134,1,2 C,0,216429,217134,255,189,255 P,0,216429,217134,A
Sprite,Foreground,Centre,"SB\star02.png",320,240 M,22,216429,217134,396,186,371,85 F,3,216429,217134,1,0 S,9,216429,217134,0.38,0 R,0,216429,217134,2,0 C,0,216429,217134,255,189,255 P,0,216429,217134,A
Sprite,Foreground,Centre,"SB\star01.png",320,240 M,22,216429,217134,396,186,400,311 F,3,216429,217134,1,0 S,9,216429,217134,0.34,0 R,0,216429,217134,5,1 C,0,216429,217134,255,189,255 P,0,216429,217134,A
Sprite,Foreground,Centre,"SB\star01.png",320,240 M,22,216429,217134,396,186,412,250 F,3,216429,217134,1,0 S,9,216429,217134,0.06,0 R,0,216429,217134,5,1 C,0,216429,217134,255,189,255 P,0,216429,217134,A
Sprite,Foreground,Centre,"SB\star01.png",320,240 M,22,216429,217134,396,186,473,212 F,3,216429,217134,1,0 S,9,216429,217134,0.23,0 R,0,216429,217134,3 C,0,216429,217134,255,189,255 P,0,216429,217134,A
Sprite,Foreground,Centre,"SB\star01.png",320,240 M,22,216429,217134,396,186,314,93 F,3,216429,217134,1,0 S,9,216429,217134,0.06,0 R,0,216429,217134,3,1 C,0,216429,217134,255,189,255 P,0,216429,217134,A
Sprite,Foreground,Centre,"SB\star02.png",320,240 M,22,216429,217134,396,186,301,123 F,3,216429,217134,1,0 S,9,216429,217134,0.33,0 R,0,216429,217134,3,1 C,0,216429,217134,255,189,255 P,0,216429,217134,A
Sprite,Foreground,Centre,"SB\star01.png",320,240 M,22,216429,217134,396,186,445,139 F,3,216429,217134,1,0 S,9,216429,217134,0.24,0 R,0,216429,217134,5,2 C,0,216429,217134,255,189,255 P,0,216429,217134,A
Sprite,Foreground,Centre,"SB\star02.png",320,240 M,22,216429,217134,396,186,510,70 F,3,216429,217134,1,0 S,9,216429,217134,0.16,0 R,0,216429,217134,0,3 C,0,216429,217134,255,189,255 P,0,216429,217134,A
Sprite,Foreground,Centre,"SB\star02.png",320,240 M,22,216429,217134,396,186,483,95 F,3,216429,217134,1,0 S,9,216429,217134,0.38,0 R,0,216429,217134,1,3 C,0,216429,217134,255,189,255 P,0,216429,217134,A
Sprite,Foreground,Centre,"SB\star01.png",320,240 M,22,216429,217134,396,186,359,112 F,3,216429,217134,1,0 S,9,216429,217134,0.26,0 R,0,216429,217134,0,1 C,0,216429,217134,255,189,255 P,0,216429,217134,A
Sprite,Foreground,Centre,"SB\star02.png",320,240 M,22,216429,217134,396,186,345,229 F,3,216429,217134,1,0 S,9,216429,217134,0.07,0 R,0,216429,217134,0,1 C,0,216429,217134,255,189,255 P,0,216429,217134,A
Sprite,Foreground,Centre,"SB\star02.png",320,240 M,22,216429,217134,396,186,449,217 F,3,216429,217134,1,0 S,9,216429,217134,0.36,0 R,0,216429,217134,4,2 C,0,216429,217134,255,189,255 P,0,216429,217134,A
Sprite,Foreground,Centre,"SB\star02.png",320,240 M,22,216429,217134,396,186,462,139 F,3,216429,217134,1,0 S,9,216429,217134,0.31,0 R,0,216429,217134,3,2 C,0,216429,217134,255,189,255 P,0,216429,217134,A
Sprite,Foreground,Centre,"SB\star02.png",320,240 M,22,216429,217134,396,186,260,121 F,3,216429,217134,1,0 S,9,216429,217134,0.3,0 R,0,216429,217134,5,2 C,0,216429,217134,255,189,255 P,0,216429,217134,A
Sprite,Foreground,Centre,"SB\star02.png",320,240 M,22,216429,217134,396,186,442,88 F,3,216429,217134,1,0 S,9,216429,217134,0.06,0 R,0,216429,217134,5,1 C,0,216429,217134,255,189,255 P,0,216429,217134,A
Sprite,Foreground,Centre,"SB\star02.png",320,240 M,22,216429,217134,396,186,519,293 F,3,216429,217134,1,0 S,9,216429,217134,0.09,0 R,0,216429,217134,2,0 C,0,216429,217134,255,189,255 P,0,216429,217134,A
Sprite,Foreground,Centre,"SB\ring.png",432,362 F,2,216924,217329,1,0 S,7,216924,217329,0.3,0.8 C,0,216924,217329,255,189,255 P,0,216924,217329,A
Sprite,Foreground,Centre,"SB\star02.png",320,240 M,22,216924,217629,432,362,302,288 F,3,216924,217629,1,0 S,9,216924,217629,0.31,0 R,0,216924,217629,3,2 C,0,216924,217629,255,189,255 P,0,216924,217629,A
Sprite,Foreground,Centre,"SB\star01.png",320,240 M,22,216924,217629,432,362,528,419 F,3,216924,217629,1,0 S,9,216924,217629,0.3,0 R,0,216924,217629,3,2 C,0,216924,217629,255,189,255 P,0,216924,217629,A
Sprite,Foreground,Centre,"SB\star01.png",320,240 M,22,216924,217629,432,362,395,314 F,3,216924,217629,1,0 S,9,216924,217629,0.27,0 R,0,216924,217629,6,2 C,0,216924,217629,255,189,255 P,0,216924,217629,A
Sprite,Foreground,Centre,"SB\star01.png",320,240 M,22,216924,217629,432,362,472,266 F,3,216924,217629,1,0 S,9,216924,217629,0.35,0 R,0,216924,217629,0,1 C,0,216924,217629,255,189,255 P,0,216924,217629,A
Sprite,Foreground,Centre,"SB\star01.png",320,240 M,22,216924,217629,432,362,443,503 F,3,216924,217629,1,0 S,9,216924,217629,0.24,0 R,0,216924,217629,4,1 C,0,216924,217629,255,189,255 P,0,216924,217629,A
Sprite,Foreground,Centre,"SB\star01.png",320,240 M,22,216924,217629,432,362,512,244 F,3,216924,217629,1,0 S,9,216924,217629,0.24,0 R,0,216924,217629,2,0 C,0,216924,217629,255,189,255 P,0,216924,217629,A
Sprite,Foreground,Centre,"SB\star01.png",320,240 M,22,216924,217629,432,362,406,298 F,3,216924,217629,1,0 S,9,216924,217629,0.15,0 R,0,216924,217629,4,2 C,0,216924,217629,255,189,255 P,0,216924,217629,A
Sprite,Foreground,Centre,"SB\star01.png",320,240 M,22,216924,217629,432,362,460,264 F,3,216924,217629,1,0 S,9,216924,217629,0.23,0 R,0,216924,217629,5,1 C,0,216924,217629,255,189,255 P,0,216924,217629,A
Sprite,Foreground,Centre,"SB\star02.png",320,240 M,22,216924,217629,432,362,342,411 F,3,216924,217629,1,0 S,9,216924,217629,0.27,0 R,0,216924,217629,0,1 C,0,216924,217629,255,189,255 P,0,216924,217629,A
Sprite,Foreground,Centre,"SB\star01.png",320,240 M,22,216924,217629,432,362,479,301 F,3,216924,217629,1,0 S,9,216924,217629,0.23,0 R,0,216924,217629,1,0 C,0,216924,217629,255,189,255 P,0,216924,217629,A
Sprite,Foreground,Centre,"SB\star01.png",320,240 M,22,216924,217629,432,362,374,452 F,3,216924,217629,1,0 S,9,216924,217629,0.38,0 R,0,216924,217629,1,2 C,0,216924,217629,255,189,255 P,0,216924,217629,A
Sprite,Foreground,Centre,"SB\star01.png",320,240 M,22,216924,217629,432,362,481,421 F,3,216924,217629,1,0 S,9,216924,217629,0.21,0 R,0,216924,217629,0 C,0,216924,217629,255,189,255 P,0,216924,217629,A
Sprite,Foreground,Centre,"SB\star02.png",320,240 M,22,216924,217629,432,362,373,245 F,3,216924,217629,1,0 S,9,216924,217629,0.31,0 R,0,216924,217629,3,0 C,0,216924,217629,255,189,255 P,0,216924,217629,A
Sprite,Foreground,Centre,"SB\star01.png",320,240 M,22,216924,217629,432,362,453,466 F,3,216924,217629,1,0 S,9,216924,217629,0.06,0 R,0,216924,217629,3,2 C,0,216924,217629,255,189,255 P,0,216924,217629,A
Sprite,Foreground,Centre,"SB\star01.png",320,240 M,22,216924,217629,432,362,541,396 F,3,216924,217629,1,0 S,9,216924,217629,0.07,0 R,0,216924,217629,1,2 C,0,216924,217629,255,189,255 P,0,216924,217629,A
Sprite,Foreground,Centre,"SB\star01.png",320,240 M,22,216924,217629,432,362,469,272 F,3,216924,217629,1,0 S,9,216924,217629,0.1,0 R,0,216924,217629,1,0 C,0,216924,217629,255,189,255 P,0,216924,217629,A
Sprite,Foreground,Centre,"SB\star02.png",320,240 M,22,216924,217629,432,362,356,361 F,3,216924,217629,1,0 S,9,216924,217629,0.4,0 R,0,216924,217629,0,2 C,0,216924,217629,255,189,255 P,0,216924,217629,A
Sprite,Foreground,Centre,"SB\star01.png",320,240 M,22,216924,217629,432,362,512,454 F,3,216924,217629,1,0 S,9,216924,217629,0.07,0 R,0,216924,217629,2,0 C,0,216924,217629,255,189,255 P,0,216924,217629,A
Sprite,Foreground,Centre,"SB\star01.png",320,240 M,22,216924,217629,432,362,380,320 F,3,216924,217629,1,0 S,9,216924,217629,0.1,0 R,0,216924,217629,2,1 C,0,216924,217629,255,189,255 P,0,216924,217629,A
Sprite,Foreground,Centre,"SB\star02.png",320,240 M,22,216924,217629,432,362,291,360 F,3,216924,217629,1,0 S,9,216924,217629,0.32,0 R,0,216924,217629,4,0 C,0,216924,217629,255,189,255 P,0,216924,217629,A
Sprite,Foreground,Centre,"SB\star01.png",320,240 M,22,216924,217629,432,362,342,331 F,3,216924,217629,1,0 S,9,216924,217629,0.19,0 R,0,216924,217629,3,2 C,0,216924,217629,255,189,255 P,0,216924,217629,A
Sprite,Foreground,Centre,"SB\star01.png",320,240 M,22,216924,217629,432,362,451,245 F,3,216924,217629,1,0 S,9,216924,217629,0.38,0 R,0,216924,217629,2,0 C,0,216924,217629,255,189,255 P,0,216924,217629,A
Sprite,Foreground,Centre,"SB\star01.png",320,240 M,22,216924,217629,432,362,374,416 F,3,216924,217629,1,0 S,9,216924,217629,0.09,0 R,0,216924,217629,3,2 C,0,216924,217629,255,189,255 P,0,216924,217629,A
Sprite,Foreground,Centre,"SB\star02.png",320,240 M,22,216924,217629,432,362,560,427 F,3,216924,217629,1,0 S,9,216924,217629,0.4,0 R,0,216924,217629,6,0 C,0,216924,217629,255,189,255 P,0,216924,217629,A
Sprite,Foreground,Centre,"SB\star01.png",320,240 M,22,216924,217629,432,362,410,199 F,3,216924,217629,1,0 S,9,216924,217629,0.37,0 R,0,216924,217629,5,2 C,0,216924,217629,255,189,255 P,0,216924,217629,A
Sprite,Foreground,Centre,"SB\star02.png",320,240 M,22,216924,217629,432,362,331,454 F,3,216924,217629,1,0 S,9,216924,217629,0.39,0 R,0,216924,217629,4,1 C,0,216924,217629,255,189,255 P,0,216924,217629,A
Sprite,Foreground,Centre,"SB\star02.png",320,240 M,22,216924,217629,432,362,391,465 F,3,216924,217629,1,0 S,9,216924,217629,0.2,0 R,0,216924,217629,2,1 C,0,216924,217629,255,189,255 P,0,216924,217629,A
Sprite,Foreground,Centre,"SB\star01.png",320,240 M,22,216924,217629,432,362,429,227 F,3,216924,217629,1,0 S,9,216924,217629,0.23,0 R,0,216924,217629,2,0 C,0,216924,217629,255,189,255 P,0,216924,217629,A
Sprite,Foreground,Centre,"SB\star01.png",320,240 M,22,216924,217629,432,362,442,452 F,3,216924,217629,1,0 S,9,216924,217629,0.25,0 R,0,216924,217629,1 C,0,216924,217629,255,189,255 P,0,216924,217629,A
Sprite,Foreground,Centre,"SB\star01.png",320,240 M,22,216924,217629,432,362,290,451 F,3,216924,217629,1,0 S,9,216924,217629,0.39,0 R,0,216924,217629,5,1 C,0,216924,217629,255,189,255 P,0,216924,217629,A
Sprite,Foreground,Centre,"SB\ring.png",268,361 F,2,217418,217823,1,0 S,7,217418,217823,0.3,0.8 C,0,217418,217823,255,189,255 P,0,217418,217823,A
Sprite,Foreground,Centre,"SB\star01.png",320,240 M,22,217418,218123,268,361,179,275 F,3,217418,218123,1,0 S,9,217418,218123,0.11,0 R,0,217418,218123,6,1 C,0,217418,218123,255,189,255 P,0,217418,218123,A
Sprite,Foreground,Centre,"SB\star01.png",320,240 M,22,217418,218123,268,361,357,304 F,3,217418,218123,1,0 S,9,217418,218123,0.37,0 R,0,217418,218123,2,0 C,0,217418,218123,255,189,255 P,0,217418,218123,A
Sprite,Foreground,Centre,"SB\star02.png",320,240 M,22,217418,218123,268,361,250,428 F,3,217418,218123,1,0 S,9,217418,218123,0.3,0 R,0,217418,218123,0 C,0,217418,218123,255,189,255 P,0,217418,218123,A
Sprite,Foreground,Centre,"SB\star02.png",320,240 M,22,217418,218123,268,361,154,256 F,3,217418,218123,1,0 S,9,217418,218123,0.14,0 R,0,217418,218123,4,1 C,0,217418,218123,255,189,255 P,0,217418,218123,A
Sprite,Foreground,Centre,"SB\star02.png",320,240 M,22,217418,218123,268,361,239,503 F,3,217418,218123,1,0 S,9,217418,218123,0.1,0 R,0,217418,218123,4,0 C,0,217418,218123,255,189,255 P,0,217418,218123,A
Sprite,Foreground,Centre,"SB\star02.png",320,240 M,22,217418,218123,268,361,287,467 F,3,217418,218123,1,0 S,9,217418,218123,0.25,0 R,0,217418,218123,3,1 C,0,217418,218123,255,189,255 P,0,217418,218123,A
Sprite,Foreground,Centre,"SB\star01.png",320,240 M,22,217418,218123,268,361,332,288 F,3,217418,218123,1,0 S,9,217418,218123,0.16,0 R,0,217418,218123,3,1 C,0,217418,218123,255,189,255 P,0,217418,218123,A
Sprite,Foreground,Centre,"SB\star01.png",320,240 M,22,217418,218123,268,361,213,244 F,3,217418,218123,1,0 S,9,217418,218123,0.33,0 R,0,217418,218123,2,1 C,0,217418,218123,255,189,255 P,0,217418,218123,A
Sprite,Foreground,Centre,"SB\star01.png",320,240 M,22,217418,218123,268,361,369,465 F,3,217418,218123,1,0 S,9,217418,218123,0.14,0 R,0,217418,218123,0,1 C,0,217418,218123,255,189,255 P,0,217418,218123,A
Sprite,Foreground,Centre,"SB\star01.png",320,240 M,22,217418,218123,268,361,433,364 F,3,217418,218123,1,0 S,9,217418,218123,0.06,0 R,0,217418,218123,2 C,0,217418,218123,255,189,255 P,0,217418,218123,A
Sprite,Foreground,Centre,"SB\star01.png",320,240 M,22,217418,218123,268,361,303,225 F,3,217418,218123,1,0 S,9,217418,218123,0.07,0 R,0,217418,218123,3,0 C,0,217418,218123,255,189,255 P,0,217418,218123,A
Sprite,Foreground,Centre,"SB\star01.png",320,240 M,22,217418,218123,268,361,114,425 F,3,217418,218123,1,0 S,9,217418,218123,0.26,0 R,0,217418,218123,0,2 C,0,217418,218123,255,189,255 P,0,217418,218123,A
Sprite,Foreground,Centre,"SB\star02.png",320,240 M,22,217418,218123,268,361,180,287 F,3,217418,218123,1,0 S,9,217418,218123,0.14,0 R,0,217418,218123,4,2 C,0,217418,218123,255,189,255 P,0,217418,218123,A
Sprite,Foreground,Centre,"SB\star01.png",320,240 M,22,217418,218123,268,361,241,507 F,3,217418,218123,1,0 S,9,217418,218123,0.24,0 R,0,217418,218123,2,1 C,0,217418,218123,255,189,255 P,0,217418,218123,A
Sprite,Foreground,Centre,"SB\star02.png",320,240 M,22,217418,218123,268,361,301,459 F,3,217418,218123,1,0 S,9,217418,218123,0.27,0 R,0,217418,218123,4,0 C,0,217418,218123,255,189,255 P,0,217418,218123,A
Sprite,Foreground,Centre,"SB\star01.png",320,240 M,22,217418,218123,268,361,310,221 F,3,217418,218123,1,0 S,9,217418,218123,0.3,0 R,0,217418,218123,5,2 C,0,217418,218123,255,189,255 P,0,217418,218123,A
Sprite,Foreground,Centre,"SB\star02.png",320,240 M,22,217418,218123,268,361,313,271 F,3,217418,218123,1,0 S,9,217418,218123,0.11,0 R,0,217418,218123,3 C,0,217418,218123,255,189,255 P,0,217418,218123,A
Sprite,Foreground,Centre,"SB\star02.png",320,240 M,22,217418,218123,268,361,347,367 F,3,217418,218123,1,0 S,9,217418,218123,0.18,0 R,0,217418,218123,2,0 C,0,217418,218123,255,189,255 P,0,217418,218123,A
Sprite,Foreground,Centre,"SB\star02.png",320,240 M,22,217418,218123,268,361,201,435 F,3,217418,218123,1,0 S,9,217418,218123,0.4,0 R,0,217418,218123,0,3 C,0,217418,218123,255,189,255 P,0,217418,218123,A
Sprite,Foreground,Centre,"SB\star01.png",320,240 M,22,217418,218123,268,361,397,380 F,3,217418,218123,1,0 S,9,217418,218123,0.18,0 R,0,217418,218123,2,0 C,0,217418,218123,255,189,255 P,0,217418,218123,A
Sprite,Foreground,Centre,"SB\star02.png",320,240 M,22,217418,218123,268,361,388,382 F,3,217418,218123,1,0 S,9,217418,218123,0.22,0 R,0,217418,218123,0 C,0,217418,218123,255,189,255 P,0,217418,218123,A
Sprite,Foreground,Centre,"SB\star01.png",320,240 M,22,217418,218123,268,361,145,329 F,3,217418,218123,1,0 S,9,217418,218123,0.15,0 R,0,217418,218123,4,2 C,0,217418,218123,255,189,255 P,0,217418,218123,A
Sprite,Foreground,Centre,"SB\star01.png",320,240 M,22,217418,218123,268,361,321,247 F,3,217418,218123,1,0 S,9,217418,218123,0.28,0 R,0,217418,218123,3,0 C,0,217418,218123,255,189,255 P,0,217418,218123,A
Sprite,Foreground,Centre,"SB\star01.png",320,240 M,22,217418,218123,268,361,259,450 F,3,217418,218123,1,0 S,9,217418,218123,0.34,0 R,0,217418,218123,5,3 C,0,217418,218123,255,189,255 P,0,217418,218123,A
Sprite,Foreground,Centre,"SB\star02.png",320,240 M,22,217418,218123,268,361,180,400 F,3,217418,218123,1,0 S,9,217418,218123,0.32,0 R,0,217418,218123,5,2 C,0,217418,218123,255,189,255 P,0,217418,218123,A
Sprite,Foreground,Centre,"SB\star02.png",320,240 M,22,217418,218123,268,361,401,404 F,3,217418,218123,1,0 S,9,217418,218123,0.32,0 R,0,217418,218123,2 C,0,217418,218123,255,189,255 P,0,217418,218123,A
Sprite,Foreground,Centre,"SB\star01.png",320,240 M,22,217418,218123,268,361,380,408 F,3,217418,218123,1,0 S,9,217418,218123,0.17,0 R,0,217418,218123,1 C,0,217418,218123,255,189,255 P,0,217418,218123,A
Sprite,Foreground,Centre,"SB\star01.png",320,240 M,22,217418,218123,268,361,316,402 F,3,217418,218123,1,0 S,9,217418,218123,0.23,0 R,0,217418,218123,3,1 C,0,217418,218123,255,189,255 P,0,217418,218123,A
Sprite,Foreground,Centre,"SB\star02.png",320,240 M,22,217418,218123,268,361,186,351 F,3,217418,218123,1,0 S,9,217418,218123,0.26,0 R,0,217418,218123,2,0 C,0,217418,218123,255,189,255 P,0,217418,218123,A
Sprite,Foreground,Centre,"SB\star02.png",320,240 M,22,217418,218123,268,361,228,440 F,3,217418,218123,1,0 S,9,217418,218123,0.08,0 R,0,217418,218123,2,1 C,0,217418,218123,255,189,255 P,0,217418,218123,A
Sprite,Foreground,Centre,"SB\ring.png",156,406 F,2,217748,218153,1,0 S,7,217748,218153,0.3,0.8 C,0,217748,218153,255,189,255 P,0,217748,218153,A
Sprite,Foreground,Centre,"SB\star02.png",320,240 M,22,217748,218453,156,406,324,390 F,3,217748,218453,1,0 S,9,217748,218453,0.32,0 R,0,217748,218453,5,0 C,0,217748,218453,255,189,255 P,0,217748,218453,A
Sprite,Foreground,Centre,"SB\star01.png",320,240 M,22,217748,218453,156,406,222,433 F,3,217748,218453,1,0 S,9,217748,218453,0.33,0 R,0,217748,218453,1 C,0,217748,218453,255,189,255 P,0,217748,218453,A
Sprite,Foreground,Centre,"SB\star02.png",320,240 M,22,217748,218453,156,406,73,429 F,3,217748,218453,1,0 S,9,217748,218453,0.07,0 R,0,217748,218453,2,0 C,0,217748,218453,255,189,255 P,0,217748,218453,A
Sprite,Foreground,Centre,"SB\star01.png",320,240 M,22,217748,218453,156,406,83,460 F,3,217748,218453,1,0 S,9,217748,218453,0.17,0 R,0,217748,218453,2,0 C,0,217748,218453,255,189,255 P,0,217748,218453,A
Sprite,Foreground,Centre,"SB\star02.png",320,240 M,22,217748,218453,156,406,-1,417 F,3,217748,218453,1,0 S,9,217748,218453,0.27,0 R,0,217748,218453,4,0 C,0,217748,218453,255,189,255 P,0,217748,218453,A
Sprite,Foreground,Centre,"SB\star02.png",320,240 M,22,217748,218453,156,406,314,350 F,3,217748,218453,1,0 S,9,217748,218453,0.34,0 R,0,217748,218453,1,0 C,0,217748,218453,255,189,255 P,0,217748,218453,A
Sprite,Foreground,Centre,"SB\star01.png",320,240 M,22,217748,218453,156,406,151,267 F,3,217748,218453,1,0 S,9,217748,218453,0.09,0 R,0,217748,218453,1,0 C,0,217748,218453,255,189,255 P,0,217748,218453,A
Sprite,Foreground,Centre,"SB\star01.png",320,240 M,22,217748,218453,156,406,47,346 F,3,217748,218453,1,0 S,9,217748,218453,0.34,0 R,0,217748,218453,1,2 C,0,217748,218453,255,189,255 P,0,217748,218453,A
Sprite,Foreground,Centre,"SB\star02.png",320,240 M,22,217748,218453,156,406,257,344 F,3,217748,218453,1,0 S,9,217748,218453,0.23,0 R,0,217748,218453,5,0 C,0,217748,218453,255,189,255 P,0,217748,218453,A
Sprite,Foreground,Centre,"SB\star01.png",320,240 M,22,217748,218453,156,406,57,466 F,3,217748,218453,1,0 S,9,217748,218453,0.18,0 R,0,217748,218453,4,0 C,0,217748,218453,255,189,255 P,0,217748,218453,A
Sprite,Foreground,Centre,"SB\star02.png",320,240 M,22,217748,218453,156,406,27,434 F,3,217748,218453,1,0 S,9,217748,218453,0.06,0 R,0,217748,218453,3,1 C,0,217748,218453,255,189,255 P,0,217748,218453,A
Sprite,Foreground,Centre,"SB\star01.png",320,240 M,22,217748,218453,156,406,279,351 F,3,217748,218453,1,0 S,9,217748,218453,0.15,0 R,0,217748,218453,3,2 C,0,217748,218453,255,189,255 P,0,217748,218453,A
Sprite,Foreground,Centre,"SB\star02.png",320,240 M,22,217748,218453,156,406,251,357 F,3,217748,218453,1,0 S,9,217748,218453,0.28,0 R,0,217748,218453,0,1 C,0,217748,218453,255,189,255 P,0,217748,218453,A
Sprite,Foreground,Centre,"SB\star02.png",320,240 M,22,217748,218453,156,406,314,464 F,3,217748,218453,1,0 S,9,217748,218453,0.05,0 R,0,217748,218453,4,1 C,0,217748,218453,255,189,255 P,0,217748,218453,A
Sprite,Foreground,Centre,"SB\star02.png",320,240 M,22,217748,218453,156,406,205,280 F,3,217748,218453,1,0 S,9,217748,218453,0.37,0 R,0,217748,218453,4,2 C,0,217748,218453,255,189,255 P,0,217748,218453,A
Sprite,Foreground,Centre,"SB\star02.png",320,240 M,22,217748,218453,156,406,192,325 F,3,217748,218453,1,0 S,9,217748,218453,0.38,0 R,0,217748,218453,3,0 C,0,217748,218453,255,189,255 P,0,217748,218453,A
Sprite,Foreground,Centre,"SB\star01.png",320,240 M,22,217748,218453,156,406,176,510 F,3,217748,218453,1,0 S,9,217748,218453,0.19,0 R,0,217748,218453,3,1 C,0,217748,218453,255,189,255 P,0,217748,218453,A
Sprite,Foreground,Centre,"SB\star01.png",320,240 M,22,217748,218453,156,406,188,490 F,3,217748,218453,1,0 S,9,217748,218453,0.18,0 R,0,217748,218453,5,0 C,0,217748,218453,255,189,255 P,0,217748,218453,A
Sprite,Foreground,Centre,"SB\star02.png",320,240 M,22,217748,218453,156,406,258,386 F,3,217748,218453,1,0 S,9,217748,218453,0.16,0 R,0,217748,218453,4,2 C,0,217748,218453,255,189,255 P,0,217748,218453,A
Sprite,Foreground,Centre,"SB\star01.png",320,240 M,22,217748,218453,156,406,154,488 F,3,217748,218453,1,0 S,9,217748,218453,0.38,0 R,0,217748,218453,0 C,0,217748,218453,255,189,255 P,0,217748,218453,A
Sprite,Foreground,Centre,"SB\star02.png",320,240 M,22,217748,218453,156,406,97,466 F,3,217748,218453,1,0 S,9,217748,218453,0.09,0 R,0,217748,218453,0 C,0,217748,218453,255,189,255 P,0,217748,218453,A
Sprite,Foreground,Centre,"SB\star01.png",320,240 M,22,217748,218453,156,406,46,437 F,3,217748,218453,1,0 S,9,217748,218453,0.14,0 R,0,217748,218453,1,2 C,0,217748,218453,255,189,255 P,0,217748,218453,A
Sprite,Foreground,Centre,"SB\star01.png",320,240 M,22,217748,218453,156,406,224,281 F,3,217748,218453,1,0 S,9,217748,218453,0.39,0 R,0,217748,218453,5,0 C,0,217748,218453,255,189,255 P,0,217748,218453,A
Sprite,Foreground,Centre,"SB\star02.png",320,240 M,22,217748,218453,156,406,44,411 F,3,217748,218453,1,0 S,9,217748,218453,0.15,0 R,0,217748,218453,5,0 C,0,217748,218453,255,189,255 P,0,217748,218453,A
Sprite,Foreground,Centre,"SB\star02.png",320,240 M,22,217748,218453,156,406,184,498 F,3,217748,218453,1,0 S,9,217748,218453,0.26,0 R,0,217748,218453,5,0 C,0,217748,218453,255,189,255 P,0,217748,218453,A
Sprite,Foreground,Centre,"SB\star02.png",320,240 M,22,217748,218453,156,406,67,364 F,3,217748,218453,1,0 S,9,217748,218453,0.15,0 R,0,217748,218453,3,1 C,0,217748,218453,255,189,255 P,0,217748,218453,A
Sprite,Foreground,Centre,"SB\star02.png",320,240 M,22,217748,218453,156,406,25,440 F,3,217748,218453,1,0 S,9,217748,218453,0.33,0 R,0,217748,218453,1,2 C,0,217748,218453,255,189,255 P,0,217748,218453,A
Sprite,Foreground,Centre,"SB\star01.png",320,240 M,22,217748,218453,156,406,243,408 F,3,217748,218453,1,0 S,9,217748,218453,0.35,0 R,0,217748,218453,1,0 C,0,217748,218453,255,189,255 P,0,217748,218453,A
Sprite,Foreground,Centre,"SB\star01.png",320,240 M,22,217748,218453,156,406,67,535 F,3,217748,218453,1,0 S,9,217748,218453,0.2,0 R,0,217748,218453,1 C,0,217748,218453,255,189,255 P,0,217748,218453,A
Sprite,Foreground,Centre,"SB\star01.png",320,240 M,22,217748,218453,156,406,69,312 F,3,217748,218453,1,0 S,9,217748,218453,0.31,0 R,0,217748,218453,6,0 C,0,217748,218453,255,189,255 P,0,217748,218453,A
Sprite,Foreground,Centre,"SB\ring.png",84,241 F,2,218242,218647,1,0 S,7,218242,218647,0.3,0.8 C,0,218242,218647,255,189,255 P,0,218242,218647,A
Sprite,Foreground,Centre,"SB\star02.png",320,240 M,22,218242,218947,84,241,186,272 F,3,218242,218947,1,0 S,9,218242,218947,0.29,0 R,0,218242,218947,3,2 C,0,218242,218947,255,189,255 P,0,218242,218947,A
Sprite,Foreground,Centre,"SB\star02.png",320,240 M,22,218242,218947,84,241,173,284 F,3,218242,218947,1,0 S,9,218242,218947,0.28,0 R,0,218242,218947,0,2 C,0,218242,218947,255,189,255 P,0,218242,218947,A
Sprite,Foreground,Centre,"SB\star02.png",320,240 M,22,218242,218947,84,241,-59,208 F,3,218242,218947,1,0 S,9,218242,218947,0.13,0 R,0,218242,218947,6,2 C,0,218242,218947,255,189,255 P,0,218242,218947,A
Sprite,Foreground,Centre,"SB\star02.png",320,240 M,22,218242,218947,84,241,42,104 F,3,218242,218947,1,0 S,9,218242,218947,0.28,0 R,0,218242,218947,4,2 C,0,218242,218947,255,189,255 P,0,218242,218947,A
Sprite,Foreground,Centre,"SB\star02.png",320,240 M,22,218242,218947,84,241,47,104 F,3,218242,218947,1,0 S,9,218242,218947,0.17,0 R,0,218242,218947,5,0 C,0,218242,218947,255,189,255 P,0,218242,218947,A
Sprite,Foreground,Centre,"SB\star01.png",320,240 M,22,218242,218947,84,241,210,318 F,3,218242,218947,1,0 S,9,218242,218947,0.15,0 R,0,218242,218947,4,3 C,0,218242,218947,255,189,255 P,0,218242,218947,A
Sprite,Foreground,Centre,"SB\star02.png",320,240 M,22,218242,218947,84,241,26,311 F,3,218242,218947,1,0 S,9,218242,218947,0.38,0 R,0,218242,218947,5,0 C,0,218242,218947,255,189,255 P,0,218242,218947,A
Sprite,Foreground,Centre,"SB\star02.png",320,240 M,22,218242,218947,84,241,134,202 F,3,218242,218947,1,0 S,9,218242,218947,0.2,0 R,0,218242,218947,5,0 C,0,218242,218947,255,189,255 P,0,218242,218947,A
Sprite,Foreground,Centre,"SB\star01.png",320,240 M,22,218242,218947,84,241,132,188 F,3,218242,218947,1,0 S,9,218242,218947,0.36,0 R,0,218242,218947,0,2 C,0,218242,218947,255,189,255 P,0,218242,218947,A
Sprite,Foreground,Centre,"SB\star01.png",320,240 M,22,218242,218947,84,241,-27,164 F,3,218242,218947,1,0 S,9,218242,218947,0.34,0 R,0,218242,218947,3,1 C,0,218242,218947,255,189,255 P,0,218242,218947,A
Sprite,Foreground,Centre,"SB\star02.png",320,240 M,22,218242,218947,84,241,224,335 F,3,218242,218947,1,0 S,9,218242,218947,0.13,0 R,0,218242,218947,0,2 C,0,218242,218947,255,189,255 P,0,218242,218947,A
Sprite,Foreground,Centre,"SB\star01.png",320,240 M,22,218242,218947,84,241,173,306 F,3,218242,218947,1,0 S,9,218242,218947,0.08,0 R,0,218242,218947,3,0 C,0,218242,218947,255,189,255 P,0,218242,218947,A
Sprite,Foreground,Centre,"SB\star01.png",320,240 M,22,218242,218947,84,241,161,197 F,3,218242,218947,1,0 S,9,218242,218947,0.23,0 R,0,218242,218947,3,1 C,0,218242,218947,255,189,255 P,0,218242,218947,A
Sprite,Foreground,Centre,"SB\star01.png",320,240 M,22,218242,218947,84,241,149,298 F,3,218242,218947,1,0 S,9,218242,218947,0.22,0 R,0,218242,218947,2,0 C,0,218242,218947,255,189,255 P,0,218242,218947,A
Sprite,Foreground,Centre,"SB\star01.png",320,240 M,22,218242,218947,84,241,7,363 F,3,218242,218947,1,0 S,9,218242,218947,0.2,0 R,0,218242,218947,2,3 C,0,218242,218947,255,189,255 P,0,218242,218947,A
Sprite,Foreground,Centre,"SB\star01.png",320,240 M,22,218242,218947,84,241,112,356 F,3,218242,218947,1,0 S,9,218242,218947,0.11,0 R,0,218242,218947,3,0 C,0,218242,218947,255,189,255 P,0,218242,218947,A
Sprite,Foreground,Centre,"SB\star01.png",320,240 M,22,218242,218947,84,241,29,350 F,3,218242,218947,1,0 S,9,218242,218947,0.15,0 R,0,218242,218947,0 C,0,218242,218947,255,189,255 P,0,218242,218947,A
Sprite,Foreground,Centre,"SB\star01.png",320,240 M,22,218242,218947,84,241,170,215 F,3,218242,218947,1,0 S,9,218242,218947,0.22,0 R,0,218242,218947,5,2 C,0,218242,218947,255,189,255 P,0,218242,218947,A
Sprite,Foreground,Centre,"SB\star01.png",320,240 M,22,218242,218947,84,241,143,196 F,3,218242,218947,1,0 S,9,218242,218947,0.35,0 R,0,218242,218947,2 C,0,218242,218947,255,189,255 P,0,218242,218947,A
Sprite,Foreground,Centre,"SB\star01.png",320,240 M,22,218242,218947,84,241,161,271 F,3,218242,218947,1,0 S,9,218242,218947,0.21,0 R,0,218242,218947,3,1 C,0,218242,218947,255,189,255 P,0,218242,218947,A
Sprite,Foreground,Centre,"SB\star02.png",320,240 M,22,218242,218947,84,241,40,192 F,3,218242,218947,1,0 S,9,218242,218947,0.25,0 R,0,218242,218947,2,1 C,0,218242,218947,255,189,255 P,0,218242,218947,A
Sprite,Foreground,Centre,"SB\star01.png",320,240 M,22,218242,218947,84,241,123,172 F,3,218242,218947,1,0 S,9,218242,218947,0.12,0 R,0,218242,218947,0 C,0,218242,218947,255,189,255 P,0,218242,218947,A
Sprite,Foreground,Centre,"SB\star01.png",320,240 M,22,218242,218947,84,241,26,214 F,3,218242,218947,1,0 S,9,218242,218947,0.11,0 R,0,218242,218947,1 C,0,218242,218947,255,189,255 P,0,218242,218947,A
Sprite,Foreground,Centre,"SB\star02.png",320,240 M,22,218242,218947,84,241,188,169 F,3,218242,218947,1,0 S,9,218242,218947,0.12,0 R,0,218242,218947,5,2 C,0,218242,218947,255,189,255 P,0,218242,218947,A
Sprite,Foreground,Centre,"SB\star01.png",320,240 M,22,218242,218947,84,241,49,395 F,3,218242,218947,1,0 S,9,218242,218947,0.35,0 R,0,218242,218947,0,1 C,0,218242,218947,255,189,255 P,0,218242,218947,A
Sprite,Foreground,Centre,"SB\star02.png",320,240 M,22,218242,218947,84,241,7,308 F,3,218242,218947,1,0 S,9,218242,218947,0.35,0 R,0,218242,218947,0,1 C,0,218242,218947,255,189,255 P,0,218242,218947,A
Sprite,Foreground,Centre,"SB\star02.png",320,240 M,22,218242,218947,84,241,38,190 F,3,218242,218947,1,0 S,9,218242,218947,0.18,0 R,0,218242,218947,5,2 C,0,218242,218947,255,189,255 P,0,218242,218947,A
Sprite,Foreground,Centre,"SB\star01.png",320,240 M,22,218242,218947,84,241,-19,254 F,3,218242,218947,1,0 S,9,218242,218947,0.16,0 R,0,218242,218947,5,1 C,0,218242,218947,255,189,255 P,0,218242,218947,A
Sprite,Foreground,Centre,"SB\star02.png",320,240 M,22,218242,218947,84,241,95,349 F,3,218242,218947,1,0 S,9,218242,218947,0.19,0 R,0,218242,218947,0 C,0,218242,218947,255,189,255 P,0,218242,218947,A
Sprite,Foreground,Centre,"SB\star02.png",320,240 M,22,218242,218947,84,241,229,279 F,3,218242,218947,1,0 S,9,218242,218947,0.09,0 R,0,218242,218947,1,0 C,0,218242,218947,255,189,255 P,0,218242,218947,A
Sprite,Foreground,Centre,"SB\ring.png",244,206 F,2,218737,219142,1,0 S,7,218737,219142,0.3,0.8 C,0,218737,219142,255,189,255 P,0,218737,219142,A
Sprite,Foreground,Centre,"SB\star01.png",320,240 M,22,218737,219442,244,206,323,248 F,3,218737,219442,1,0 S,9,218737,219442,0.27,0 R,0,218737,219442,0 C,0,218737,219442,255,189,255 P,0,218737,219442,A
Sprite,Foreground,Centre,"SB\star02.png",320,240 M,22,218737,219442,244,206,170,212 F,3,218737,219442,1,0 S,9,218737,219442,0.22,0 R,0,218737,219442,1,0 C,0,218737,219442,255,189,255 P,0,218737,219442,A
Sprite,Foreground,Centre,"SB\star02.png",320,240 M,22,218737,219442,244,206,96,158 F,3,218737,219442,1,0 S,9,218737,219442,0.31,0 R,0,218737,219442,0,2 C,0,218737,219442,255,189,255 P,0,218737,219442,A
Sprite,Foreground,Centre,"SB\star01.png",320,240 M,22,218737,219442,244,206,336,193 F,3,218737,219442,1,0 S,9,218737,219442,0.25,0 R,0,218737,219442,4,0 C,0,218737,219442,255,189,255 P,0,218737,219442,A
Sprite,Foreground,Centre,"SB\star02.png",320,240 M,22,218737,219442,244,206,233,147 F,3,218737,219442,1,0 S,9,218737,219442,0.09,0 R,0,218737,219442,1,0 C,0,218737,219442,255,189,255 P,0,218737,219442,A
Sprite,Foreground,Centre,"SB\star02.png",320,240 M,22,218737,219442,244,206,375,301 F,3,218737,219442,1,0 S,9,218737,219442,0.11,0 R,0,218737,219442,1 C,0,218737,219442,255,189,255 P,0,218737,219442,A
Sprite,Foreground,Centre,"SB\star01.png",320,240 M,22,218737,219442,244,206,354,148 F,3,218737,219442,1,0 S,9,218737,219442,0.1,0 R,0,218737,219442,4,0 C,0,218737,219442,255,189,255 P,0,218737,219442,A
Sprite,Foreground,Centre,"SB\star02.png",320,240 M,22,218737,219442,244,206,109,202 F,3,218737,219442,1,0 S,9,218737,219442,0.37,0 R,0,218737,219442,3,2 C,0,218737,219442,255,189,255 P,0,218737,219442,A
Sprite,Foreground,Centre,"SB\star02.png",320,240 M,22,218737,219442,244,206,173,320 F,3,218737,219442,1,0 S,9,218737,219442,0.19,0 R,0,218737,219442,2,1 C,0,218737,219442,255,189,255 P,0,218737,219442,A
Sprite,Foreground,Centre,"SB\star02.png",320,240 M,22,218737,219442,244,206,159,212 F,3,218737,219442,1,0 S,9,218737,219442,0.3,0 R,0,218737,219442,1 C,0,218737,219442,255,189,255 P,0,218737,219442,A
Sprite,Foreground,Centre,"SB\star01.png",320,240 M,22,218737,219442,244,206,335,183 F,3,218737,219442,1,0 S,9,218737,219442,0.16,0 R,0,218737,219442,4,2 C,0,218737,219442,255,189,255 P,0,218737,219442,A
Sprite,Foreground,Centre,"SB\star02.png",320,240 M,22,218737,219442,244,206,86,235 F,3,218737,219442,1,0 S,9,218737,219442,0.26,0 R,0,218737,219442,1 C,0,218737,219442,255,189,255 P,0,218737,219442,A
Sprite,Foreground,Centre,"SB\star01.png",320,240 M,22,218737,219442,244,206,177,151 F,3,218737,219442,1,0 S,9,218737,219442,0.2,0 R,0,218737,219442,2,3 C,0,218737,219442,255,189,255 P,0,218737,219442,A
Sprite,Foreground,Centre,"SB\star01.png",320,240 M,22,218737,219442,244,206,340,239 F,3,218737,219442,1,0 S,9,218737,219442,0.19,0 R,0,218737,219442,4,1 C,0,218737,219442,255,189,255 P,0,218737,219442,A
Sprite,Foreground,Centre,"SB\star02.png",320,240 M,22,218737,219442,244,206,175,262 F,3,218737,219442,1,0 S,9,218737,219442,0.1,0 R,0,218737,219442,4,1 C,0,218737,219442,255,189,255 P,0,218737,219442,A
Sprite,Foreground,Centre,"SB\star01.png",320,240 M,22,218737,219442,244,206,129,269 F,3,218737,219442,1,0 S,9,218737,219442,0.16,0 R,0,218737,219442,1,0 C,0,218737,219442,255,189,255 P,0,218737,219442,A
Sprite,Foreground,Centre,"SB\star02.png",320,240 M,22,218737,219442,244,206,194,278 F,3,218737,219442,1,0 S,9,218737,219442,0.26,0 R,0,218737,219442,4,0 C,0,218737,219442,255,189,255 P,0,218737,219442,A
Sprite,Foreground,Centre,"SB\star02.png",320,240 M,22,218737,219442,244,206,263,87 F,3,218737,219442,1,0 S,9,218737,219442,0.15,0 R,0,218737,219442,0,1 C,0,218737,219442,255,189,255 P,0,218737,219442,A
Sprite,Foreground,Centre,"SB\star02.png",320,240 M,22,218737,219442,244,206,183,110 F,3,218737,219442,1,0 S,9,218737,219442,0.28,0 R,0,218737,219442,2,0 C,0,218737,219442,255,189,255 P,0,218737,219442,A
Sprite,Foreground,Centre,"SB\star01.png",320,240 M,22,218737,219442,244,206,195,316 F,3,218737,219442,1,0 S,9,218737,219442,0.3,0 R,0,218737,219442,4,0 C,0,218737,219442,255,189,255 P,0,218737,219442,A
Sprite,Foreground,Centre,"SB\star01.png",320,240 M,22,218737,219442,244,206,99,124 F,3,218737,219442,1,0 S,9,218737,219442,0.15,0 R,0,218737,219442,5,0 C,0,218737,219442,255,189,255 P,0,218737,219442,A
Sprite,Foreground,Centre,"SB\star02.png",320,240 M,22,218737,219442,244,206,216,150 F,3,218737,219442,1,0 S,9,218737,219442,0.21,0 R,0,218737,219442,5,0 C,0,218737,219442,255,189,255 P,0,218737,219442,A
Sprite,Foreground,Centre,"SB\star02.png",320,240 M,22,218737,219442,244,206,215,262 F,3,218737,219442,1,0 S,9,218737,219442,0.08,0 R,0,218737,219442,1,0 C,0,218737,219442,255,189,255 P,0,218737,219442,A
Sprite,Foreground,Centre,"SB\star02.png",320,240 M,22,218737,219442,244,206,134,282 F,3,218737,219442,1,0 S,9,218737,219442,0.34,0 R,0,218737,219442,0,3 C,0,218737,219442,255,189,255 P,0,218737,219442,A
Sprite,Foreground,Centre,"SB\star01.png",320,240 M,22,218737,219442,244,206,106,178 F,3,218737,219442,1,0 S,9,218737,219442,0.07,0 R,0,218737,219442,2,1 C,0,218737,219442,255,189,255 P,0,218737,219442,A
Sprite,Foreground,Centre,"SB\star01.png",320,240 M,22,218737,219442,244,206,104,207 F,3,218737,219442,1,0 S,9,218737,219442,0.1,0 R,0,218737,219442,0,2 C,0,218737,219442,255,189,255 P,0,218737,219442,A
Sprite,Foreground,Centre,"SB\star01.png",320,240 M,22,218737,219442,244,206,219,337 F,3,218737,219442,1,0 S,9,218737,219442,0.22,0 R,0,218737,219442,2,1 C,0,218737,219442,255,189,255 P,0,218737,219442,A
Sprite,Foreground,Centre,"SB\star01.png",320,240 M,22,218737,219442,244,206,117,115 F,3,218737,219442,1,0 S,9,218737,219442,0.31,0 R,0,218737,219442,2,3 C,0,218737,219442,255,189,255 P,0,218737,219442,A
Sprite,Foreground,Centre,"SB\star01.png",320,240 M,22,218737,219442,244,206,162,182 F,3,218737,219442,1,0 S,9,218737,219442,0.35,0 R,0,218737,219442,1,0 C,0,218737,219442,255,189,255 P,0,218737,219442,A
Sprite,Foreground,Centre,"SB\star01.png",320,240 M,22,218737,219442,244,206,178,147 F,3,218737,219442,1,0 S,9,218737,219442,0.36,0 R,0,218737,219442,0,2 C,0,218737,219442,255,189,255 P,0,218737,219442,A
Sprite,Foreground,Centre,"SB\ring.png",340,134 F,2,219066,219471,1,0 S,7,219066,219471,0.3,0.8 C,0,219066,219471,170,255,170 P,0,219066,219471,A
Sprite,Foreground,Centre,"SB\star02.png",320,240 M,22,219066,219771,340,134,271,80 F,3,219066,219771,1,0 S,9,219066,219771,0.27,0 R,0,219066,219771,1,2 C,0,219066,219771,170,255,170 P,0,219066,219771,A
Sprite,Foreground,Centre,"SB\star01.png",320,240 M,22,219066,219771,340,134,442,6 F,3,219066,219771,1,0 S,9,219066,219771,0.08,0 R,0,219066,219771,4,2 C,0,219066,219771,170,255,170 P,0,219066,219771,A
Sprite,Foreground,Centre,"SB\star01.png",320,240 M,22,219066,219771,340,134,231,29 F,3,219066,219771,1,0 S,9,219066,219771,0.12,0 R,0,219066,219771,1 C,0,219066,219771,170,255,170 P,0,219066,219771,A
Sprite,Foreground,Centre,"SB\star02.png",320,240 M,22,219066,219771,340,134,289,186 F,3,219066,219771,1,0 S,9,219066,219771,0.16,0 R,0,219066,219771,5,2 C,0,219066,219771,170,255,170 P,0,219066,219771,A
Sprite,Foreground,Centre,"SB\star01.png",320,240 M,22,219066,219771,340,134,475,151 F,3,219066,219771,1,0 S,9,219066,219771,0.16,0 R,0,219066,219771,4,3 C,0,219066,219771,170,255,170 P,0,219066,219771,A
Sprite,Foreground,Centre,"SB\star02.png",320,240 M,22,219066,219771,340,134,495,78 F,3,219066,219771,1,0 S,9,219066,219771,0.13,0 R,0,219066,219771,1,0 C,0,219066,219771,170,255,170 P,0,219066,219771,A
Sprite,Foreground,Centre,"SB\star02.png",320,240 M,22,219066,219771,340,134,363,234 F,3,219066,219771,1,0 S,9,219066,219771,0.11,0 R,0,219066,219771,2,1 C,0,219066,219771,170,255,170 P,0,219066,219771,A
Sprite,Foreground,Centre,"SB\star01.png",320,240 M,22,219066,219771,340,134,202,100 F,3,219066,219771,1,0 S,9,219066,219771,0.21,0 R,0,219066,219771,0,1 C,0,219066,219771,170,255,170 P,0,219066,219771,A
Sprite,Foreground,Centre,"SB\star01.png",320,240 M,22,219066,219771,340,134,436,124 F,3,219066,219771,1,0 S,9,219066,219771,0.35,0 R,0,219066,219771,1 C,0,219066,219771,170,255,170 P,0,219066,219771,A
Sprite,Foreground,Centre,"SB\star01.png",320,240 M,22,219066,219771,340,134,250,261 F,3,219066,219771,1,0 S,9,219066,219771,0.16,0 R,0,219066,219771,2,1 C,0,219066,219771,170,255,170 P,0,219066,219771,A
Sprite,Foreground,Centre,"SB\star02.png",320,240 M,22,219066,219771,340,134,441,162 F,3,219066,219771,1,0 S,9,219066,219771,0.18,0 R,0,219066,219771,0,2 C,0,219066,219771,170,255,170 P,0,219066,219771,A
Sprite,Foreground,Centre,"SB\star01.png",320,240 M,22,219066,219771,340,134,270,282 F,3,219066,219771,1,0 S,9,219066,219771,0.27,0 R,0,219066,219771,6,2 C,0,219066,219771,170,255,170 P,0,219066,219771,A
Sprite,Foreground,Centre,"SB\star02.png",320,240 M,22,219066,219771,340,134,446,30 F,3,219066,219771,1,0 S,9,219066,219771,0.11,0 R,0,219066,219771,5,0 C,0,219066,219771,170,255,170 P,0,219066,219771,A
Sprite,Foreground,Centre,"SB\star01.png",320,240 M,22,219066,219771,340,134,419,158 F,3,219066,219771,1,0 S,9,219066,219771,0.24,0 R,0,219066,219771,5,0 C,0,219066,219771,170,255,170 P,0,219066,219771,A
Sprite,Foreground,Centre,"SB\star01.png",320,240 M,22,219066,219771,340,134,423,267 F,3,219066,219771,1,0 S,9,219066,219771,0.33,0 R,0,219066,219771,0 C,0,219066,219771,170,255,170 P,0,219066,219771,A
Sprite,Foreground,Centre,"SB\star02.png",320,240 M,22,219066,219771,340,134,357,2 F,3,219066,219771,1,0 S,9,219066,219771,0.1,0 R,0,219066,219771,4,2 C,0,219066,219771,170,255,170 P,0,219066,219771,A
Sprite,Foreground,Centre,"SB\star02.png",320,240 M,22,219066,219771,340,134,216,29 F,3,219066,219771,1,0 S,9,219066,219771,0.23,0 R,0,219066,219771,4,1 C,0,219066,219771,170,255,170 P,0,219066,219771,A
Sprite,Foreground,Centre,"SB\star02.png",320,240 M,22,219066,219771,340,134,477,151 F,3,219066,219771,1,0 S,9,219066,219771,0.1,0 R,0,219066,219771,2,1 C,0,219066,219771,170,255,170 P,0,219066,219771,A
Sprite,Foreground,Centre,"SB\star01.png",320,240 M,22,219066,219771,340,134,480,140 F,3,219066,219771,1,0 S,9,219066,219771,0.23,0 R,0,219066,219771,2 C,0,219066,219771,170,255,170 P,0,219066,219771,A
Sprite,Foreground,Centre,"SB\star01.png",320,240 M,22,219066,219771,340,134,399,178 F,3,219066,219771,1,0 S,9,219066,219771,0.39,0 R,0,219066,219771,5,0 C,0,219066,219771,170,255,170 P,0,219066,219771,A
Sprite,Foreground,Centre,"SB\star02.png",320,240 M,22,219066,219771,340,134,428,201 F,3,219066,219771,1,0 S,9,219066,219771,0.2,0 R,0,219066,219771,5,1 C,0,219066,219771,170,255,170 P,0,219066,219771,A
Sprite,Foreground,Centre,"SB\star01.png",320,240 M,22,219066,219771,340,134,313,13 F,3,219066,219771,1,0 S,9,219066,219771,0.32,0 R,0,219066,219771,2 C,0,219066,219771,170,255,170 P,0,219066,219771,A
Sprite,Foreground,Centre,"SB\star02.png",320,240 M,22,219066,219771,340,134,463,175 F,3,219066,219771,1,0 S,9,219066,219771,0.14,0 R,0,219066,219771,5,2 C,0,219066,219771,170,255,170 P,0,219066,219771,A
Sprite,Foreground,Centre,"SB\star01.png",320,240 M,22,219066,219771,340,134,443,189 F,3,219066,219771,1,0 S,9,219066,219771,0.28,0 R,0,219066,219771,3,2 C,0,219066,219771,170,255,170 P,0,219066,219771,A
Sprite,Foreground,Centre,"SB\star01.png",320,240 M,22,219066,219771,340,134,407,210 F,3,219066,219771,1,0 S,9,219066,219771,0.18,0 R,0,219066,219771,0 C,0,219066,219771,170,255,170 P,0,219066,219771,A
Sprite,Foreground,Centre,"SB\star02.png",320,240 M,22,219066,219771,340,134,286,98 F,3,219066,219771,1,0 S,9,219066,219771,0.39,0 R,0,219066,219771,5,1 C,0,219066,219771,170,255,170 P,0,219066,219771,A
Sprite,Foreground,Centre,"SB\star02.png",320,240 M,22,219066,219771,340,134,285,290 F,3,219066,219771,1,0 S,9,219066,219771,0.31,0 R,0,219066,219771,3,1 C,0,219066,219771,170,255,170 P,0,219066,219771,A
Sprite,Foreground,Centre,"SB\star02.png",320,240 M,22,219066,219771,340,134,308,2 F,3,219066,219771,1,0 S,9,219066,219771,0.21,0 R,0,219066,219771,4,0 C,0,219066,219771,170,255,170 P,0,219066,219771,A
Sprite,Foreground,Centre,"SB\star01.png",320,240 M,22,219066,219771,340,134,239,87 F,3,219066,219771,1,0 S,9,219066,219771,0.23,0 R,0,219066,219771,2,0 C,0,219066,219771,170,255,170 P,0,219066,219771,A
Sprite,Foreground,Centre,"SB\star02.png",320,240 M,22,219066,219771,340,134,352,207 F,3,219066,219771,1,0 S,9,219066,219771,0.27,0 R,0,219066,219771,2,1 C,0,219066,219771,170,255,170 P,0,219066,219771,A
Sprite,Foreground,Centre,"SB\ring.png",320,298 F,2,219561,219966,1,0 S,7,219561,219966,0.3,0.8 C,0,219561,219966,170,255,170 P,0,219561,219966,A
Sprite,Foreground,Centre,"SB\star02.png",320,240 M,22,219561,220266,320,298,253,179 F,3,219561,220266,1,0 S,9,219561,220266,0.24,0 R,0,219561,220266,0,1 C,0,219561,220266,170,255,170 P,0,219561,220266,A
Sprite,Foreground,Centre,"SB\star02.png",320,240 M,22,219561,220266,320,298,277,190 F,3,219561,220266,1,0 S,9,219561,220266,0.31,0 R,0,219561,220266,3,1 C,0,219561,220266,170,255,170 P,0,219561,220266,A
Sprite,Foreground,Centre,"SB\star01.png",320,240 M,22,219561,220266,320,298,372,167 F,3,219561,220266,1,0 S,9,219561,220266,0.22,0 R,0,219561,220266,0 C,0,219561,220266,170,255,170 P,0,219561,220266,A
Sprite,Foreground,Centre,"SB\star02.png",320,240 M,22,219561,220266,320,298,306,204 F,3,219561,220266,1,0 S,9,219561,220266,0.31,0 R,0,219561,220266,4,1 C,0,219561,220266,170,255,170 P,0,219561,220266,A
Sprite,Foreground,Centre,"SB\star02.png",320,240 M,22,219561,220266,320,298,405,348 F,3,219561,220266,1,0 S,9,219561,220266,0.08,0 R,0,219561,220266,4,3 C,0,219561,220266,170,255,170 P,0,219561,220266,A
Sprite,Foreground,Centre,"SB\star02.png",320,240 M,22,219561,220266,320,298,472,250 F,3,219561,220266,1,0 S,9,219561,220266,0.22,0 R,0,219561,220266,4,0 C,0,219561,220266,170,255,170 P,0,219561,220266,A
Sprite,Foreground,Centre,"SB\star02.png",320,240 M,22,219561,220266,320,298,161,301 F,3,219561,220266,1,0 S,9,219561,220266,0.13,0 R,0,219561,220266,1 C,0,219561,220266,170,255,170 P,0,219561,220266,A
Sprite,Foreground,Centre,"SB\star02.png",320,240 M,22,219561,220266,320,298,343,418 F,3,219561,220266,1,0 S,9,219561,220266,0.15,0 R,0,219561,220266,0,1 C,0,219561,220266,170,255,170 P,0,219561,220266,A
Sprite,Foreground,Centre,"SB\star02.png",320,240 M,22,219561,220266,320,298,243,312 F,3,219561,220266,1,0 S,9,219561,220266,0.39,0 R,0,219561,220266,3,2 C,0,219561,220266,170,255,170 P,0,219561,220266,A
Sprite,Foreground,Centre,"SB\star01.png",320,240 M,22,219561,220266,320,298,205,320 F,3,219561,220266,1,0 S,9,219561,220266,0.09,0 R,0,219561,220266,2,1 C,0,219561,220266,170,255,170 P,0,219561,220266,A
Sprite,Foreground,Centre,"SB\star01.png",320,240 M,22,219561,220266,320,298,200,205 F,3,219561,220266,1,0 S,9,219561,220266,0.35,0 R,0,219561,220266,2,1 C,0,219561,220266,170,255,170 P,0,219561,220266,A
Sprite,Foreground,Centre,"SB\star02.png",320,240 M,22,219561,220266,320,298,387,170 F,3,219561,220266,1,0 S,9,219561,220266,0.2,0 R,0,219561,220266,5,1 C,0,219561,220266,170,255,170 P,0,219561,220266,A
Sprite,Foreground,Centre,"SB\star02.png",320,240 M,22,219561,220266,320,298,384,279 F,3,219561,220266,1,0 S,9,219561,220266,0.24,0 R,0,219561,220266,4,1 C,0,219561,220266,170,255,170 P,0,219561,220266,A
Sprite,Foreground,Centre,"SB\star02.png",320,240 M,22,219561,220266,320,298,404,304 F,3,219561,220266,1,0 S,9,219561,220266,0.18,0 R,0,219561,220266,0,2 C,0,219561,220266,170,255,170 P,0,219561,220266,A
Sprite,Foreground,Centre,"SB\star02.png",320,240 M,22,219561,220266,320,298,265,262 F,3,219561,220266,1,0 S,9,219561,220266,0.15,0 R,0,219561,220266,5,3 C,0,219561,220266,170,255,170 P,0,219561,220266,A
Sprite,Foreground,Centre,"SB\star01.png",320,240 M,22,219561,220266,320,298,262,384 F,3,219561,220266,1,0 S,9,219561,220266,0.08,0 R,0,219561,220266,1 C,0,219561,220266,170,255,170 P,0,219561,220266,A
Sprite,Foreground,Centre,"SB\star02.png",320,240 M,22,219561,220266,320,298,160,325 F,3,219561,220266,1,0 S,9,219561,220266,0.29,0 R,0,219561,220266,0 C,0,219561,220266,170,255,170 P,0,219561,220266,A
Sprite,Foreground,Centre,"SB\star01.png",320,240 M,22,219561,220266,320,298,366,393 F,3,219561,220266,1,0 S,9,219561,220266,0.13,0 R,0,219561,220266,1,0 C,0,219561,220266,170,255,170 P,0,219561,220266,A
Sprite,Foreground,Centre,"SB\star02.png",320,240 M,22,219561,220266,320,298,345,163 F,3,219561,220266,1,0 S,9,219561,220266,0.09,0 R,0,219561,220266,4,2 C,0,219561,220266,170,255,170 P,0,219561,220266,A
Sprite,Foreground,Centre,"SB\star01.png",320,240 M,22,219561,220266,320,298,213,241 F,3,219561,220266,1,0 S,9,219561,220266,0.26,0 R,0,219561,220266,5,2 C,0,219561,220266,170,255,170 P,0,219561,220266,A
Sprite,Foreground,Centre,"SB\star01.png",320,240 M,22,219561,220266,320,298,263,349 F,3,219561,220266,1,0 S,9,219561,220266,0.38,0 R,0,219561,220266,3,2 C,0,219561,220266,170,255,170 P,0,219561,220266,A
Sprite,Foreground,Centre,"SB\star02.png",320,240 M,22,219561,220266,320,298,415,164 F,3,219561,220266,1,0 S,9,219561,220266,0.19,0 R,0,219561,220266,5,2 C,0,219561,220266,170,255,170 P,0,219561,220266,A
Sprite,Foreground,Centre,"SB\star01.png",320,240 M,22,219561,220266,320,298,238,208 F,3,219561,220266,1,0 S,9,219561,220266,0.35,0 R,0,219561,220266,5,2 C,0,219561,220266,170,255,170 P,0,219561,220266,A
Sprite,Foreground,Centre,"SB\star02.png",320,240 M,22,219561,220266,320,298,330,389 F,3,219561,220266,1,0 S,9,219561,220266,0.06,0 R,0,219561,220266,5,0 C,0,219561,220266,170,255,170 P,0,219561,220266,A
Sprite,Foreground,Centre,"SB\star01.png",320,240 M,22,219561,220266,320,298,380,270 F,3,219561,220266,1,0 S,9,219561,220266,0.16,0 R,0,219561,220266,0,1 C,0,219561,220266,170,255,170 P,0,219561,220266,A
Sprite,Foreground,Centre,"SB\star01.png",320,240 M,22,219561,220266,320,298,339,170 F,3,219561,220266,1,0 S,9,219561,220266,0.35,0 R,0,219561,220266,0 C,0,219561,220266,170,255,170 P,0,219561,220266,A
Sprite,Foreground,Centre,"SB\star02.png",320,240 M,22,219561,220266,320,298,219,269 F,3,219561,220266,1,0 S,9,219561,220266,0.25,0 R,0,219561,220266,5,0 C,0,219561,220266,170,255,170 P,0,219561,220266,A
Sprite,Foreground,Centre,"SB\star01.png",320,240 M,22,219561,220266,320,298,185,289 F,3,219561,220266,1,0 S,9,219561,220266,0.38,0 R,0,219561,220266,1,2 C,0,219561,220266,170,255,170 P,0,219561,220266,A
Sprite,Foreground,Centre,"SB\star02.png",320,240 M,22,219561,220266,320,298,376,270 F,3,219561,220266,1,0 S,9,219561,220266,0.05,0 R,0,219561,220266,2 C,0,219561,220266,170,255,170 P,0,219561,220266,A
Sprite,Foreground,Centre,"SB\star01.png",320,240 M,22,219561,220266,320,298,266,426 F,3,219561,220266,1,0 S,9,219561,220266,0.28,0 R,0,219561,220266,4,1 C,0,219561,220266,170,255,170 P,0,219561,220266,A
Sprite,Foreground,Centre,"SB\ring.png",432,342 F,2,219891,220296,1,0 S,7,219891,220296,0.3,0.8 C,0,219891,220296,170,255,170 P,0,219891,220296,A
Sprite,Foreground,Centre,"SB\star01.png",320,240 M,22,219891,220596,432,342,494,384 F,3,219891,220596,1,0 S,9,219891,220596,0.06,0 R,0,219891,220596,3,2 C,0,219891,220596,170,255,170 P,0,219891,220596,A
Sprite,Foreground,Centre,"SB\star02.png",320,240 M,22,219891,220596,432,342,496,233 F,3,219891,220596,1,0 S,9,219891,220596,0.34,0 R,0,219891,220596,1,2 C,0,219891,220596,170,255,170 P,0,219891,220596,A
Sprite,Foreground,Centre,"SB\star02.png",320,240 M,22,219891,220596,432,342,400,445 F,3,219891,220596,1,0 S,9,219891,220596,0.07,0 R,0,219891,220596,0 C,0,219891,220596,170,255,170 P,0,219891,220596,A
Sprite,Foreground,Centre,"SB\star02.png",320,240 M,22,219891,220596,432,342,323,302 F,3,219891,220596,1,0 S,9,219891,220596,0.39,0 R,0,219891,220596,0 C,0,219891,220596,170,255,170 P,0,219891,220596,A
Sprite,Foreground,Centre,"SB\star01.png",320,240 M,22,219891,220596,432,342,308,261 F,3,219891,220596,1,0 S,9,219891,220596,0.12,0 R,0,219891,220596,1 C,0,219891,220596,170,255,170 P,0,219891,220596,A
Sprite,Foreground,Centre,"SB\star01.png",320,240 M,22,219891,220596,432,342,594,375 F,3,219891,220596,1,0 S,9,219891,220596,0.32,0 R,0,219891,220596,3,2 C,0,219891,220596,170,255,170 P,0,219891,220596,A
Sprite,Foreground,Centre,"SB\star01.png",320,240 M,22,219891,220596,432,342,328,419 F,3,219891,220596,1,0 S,9,219891,220596,0.13,0 R,0,219891,220596,1,2 C,0,219891,220596,170,255,170 P,0,219891,220596,A
Sprite,Foreground,Centre,"SB\star01.png",320,240 M,22,219891,220596,432,342,329,313 F,3,219891,220596,1,0 S,9,219891,220596,0.33,0 R,0,219891,220596,3,0 C,0,219891,220596,170,255,170 P,0,219891,220596,A
Sprite,Foreground,Centre,"SB\star01.png",320,240 M,22,219891,220596,432,342,292,331 F,3,219891,220596,1,0 S,9,219891,220596,0.16,0 R,0,219891,220596,2,1 C,0,219891,220596,170,255,170 P,0,219891,220596,A
Sprite,Foreground,Centre,"SB\star01.png",320,240 M,22,219891,220596,432,342,496,346 F,3,219891,220596,1,0 S,9,219891,220596,0.33,0 R,0,219891,220596,0,1 C,0,219891,220596,170,255,170 P,0,219891,220596,A
Sprite,Foreground,Centre,"SB\star01.png",320,240 M,22,219891,220596,432,342,275,315 F,3,219891,220596,1,0 S,9,219891,220596,0.08,0 R,0,219891,220596,4,3 C,0,219891,220596,170,255,170 P,0,219891,220596,A
Sprite,Foreground,Centre,"SB\star02.png",320,240 M,22,219891,220596,432,342,329,244 F,3,219891,220596,1,0 S,9,219891,220596,0.35,0 R,0,219891,220596,4,1 C,0,219891,220596,170,255,170 P,0,219891,220596,A
Sprite,Foreground,Centre,"SB\star02.png",320,240 M,22,219891,220596,432,342,401,224 F,3,219891,220596,1,0 S,9,219891,220596,0.17,0 R,0,219891,220596,0,1 C,0,219891,220596,170,255,170 P,0,219891,220596,A
Sprite,Foreground,Centre,"SB\star02.png",320,240 M,22,219891,220596,432,342,472,496 F,3,219891,220596,1,0 S,9,219891,220596,0.35,0 R,0,219891,220596,0,1 C,0,219891,220596,170,255,170 P,0,219891,220596,A
Sprite,Foreground,Centre,"SB\star01.png",320,240 M,22,219891,220596,432,342,370,268 F,3,219891,220596,1,0 S,9,219891,220596,0.25,0 R,0,219891,220596,5,0 C,0,219891,220596,170,255,170 P,0,219891,220596,A
Sprite,Foreground,Centre,"SB\star02.png",320,240 M,22,219891,220596,432,342,364,307 F,3,219891,220596,1,0 S,9,219891,220596,0.34,0 R,0,219891,220596,3,1 C,0,219891,220596,170,255,170 P,0,219891,220596,A
Sprite,Foreground,Centre,"SB\star01.png",320,240 M,22,219891,220596,432,342,353,307 F,3,219891,220596,1,0 S,9,219891,220596,0.14,0 R,0,219891,220596,3,2 C,0,219891,220596,170,255,170 P,0,219891,220596,A
Sprite,Foreground,Centre,"SB\star02.png",320,240 M,22,219891,220596,432,342,489,308 F,3,219891,220596,1,0 S,9,219891,220596,0.33,0 R,0,219891,220596,1,2 C,0,219891,220596,170,255,170 P,0,219891,220596,A
Sprite,Foreground,Centre,"SB\star02.png",320,240 M,22,219891,220596,432,342,556,373 F,3,219891,220596,1,0 S,9,219891,220596,0.14,0 R,0,219891,220596,6,0 C,0,219891,220596,170,255,170 P,0,219891,220596,A
Sprite,Foreground,Centre,"SB\star01.png",320,240 M,22,219891,220596,432,342,549,386 F,3,219891,220596,1,0 S,9,219891,220596,0.08,0 R,0,219891,220596,2,1 C,0,219891,220596,170,255,170 P,0,219891,220596,A
Sprite,Foreground,Centre,"SB\star02.png",320,240 M,22,219891,220596,432,342,498,393 F,3,219891,220596,1,0 S,9,219891,220596,0.06,0 R,0,219891,220596,0,2 C,0,219891,220596,170,255,170 P,0,219891,220596,A
Sprite,Foreground,Centre,"SB\star02.png",320,240 M,22,219891,220596,432,342,443,471 F,3,219891,220596,1,0 S,9,219891,220596,0.3,0 R,0,219891,220596,3,2 C,0,219891,220596,170,255,170 P,0,219891,220596,A
Sprite,Foreground,Centre,"SB\star01.png",320,240 M,22,219891,220596,432,342,373,271 F,3,219891,220596,1,0 S,9,219891,220596,0.17,0 R,0,219891,220596,4,1 C,0,219891,220596,170,255,170 P,0,219891,220596,A
Sprite,Foreground,Centre,"SB\star01.png",320,240 M,22,219891,220596,432,342,357,279 F,3,219891,220596,1,0 S,9,219891,220596,0.2,0 R,0,219891,220596,4,1 C,0,219891,220596,170,255,170 P,0,219891,220596,A
Sprite,Foreground,Centre,"SB\star01.png",320,240 M,22,219891,220596,432,342,485,268 F,3,219891,220596,1,0 S,9,219891,220596,0.08,0 R,0,219891,220596,0,1 C,0,219891,220596,170,255,170 P,0,219891,220596,A
Sprite,Foreground,Centre,"SB\star02.png",320,240 M,22,219891,220596,432,342,329,425 F,3,219891,220596,1,0 S,9,219891,220596,0.26,0 R,0,219891,220596,2,0 C,0,219891,220596,170,255,170 P,0,219891,220596,A
Sprite,Foreground,Centre,"SB\star02.png",320,240 M,22,219891,220596,432,342,430,233 F,3,219891,220596,1,0 S,9,219891,220596,0.1,0 R,0,219891,220596,0,2 C,0,219891,220596,170,255,170 P,0,219891,220596,A
Sprite,Foreground,Centre,"SB\star02.png",320,240 M,22,219891,220596,432,342,309,358 F,3,219891,220596,1,0 S,9,219891,220596,0.08,0 R,0,219891,220596,0,2 C,0,219891,220596,170,255,170 P,0,219891,220596,A
Sprite,Foreground,Centre,"SB\star02.png",320,240 M,22,219891,220596,432,342,464,404 F,3,219891,220596,1,0 S,9,219891,220596,0.1,0 R,0,219891,220596,5,1 C,0,219891,220596,170,255,170 P,0,219891,220596,A
Sprite,Foreground,Centre,"SB\star02.png",320,240 M,22,219891,220596,432,342,349,360 F,3,219891,220596,1,0 S,9,219891,220596,0.32,0 R,0,219891,220596,0,2 C,0,219891,220596,170,255,170 P,0,219891,220596,A
Sprite,Foreground,Centre,"SB\ring.png",508,250 F,2,220220,220625,1,0 S,7,220220,220625,0.3,0.8 C,0,220220,220625,170,255,170 P,0,220220,220625,A
Sprite,Foreground,Centre,"SB\star01.png",320,240 M,22,220220,220925,508,250,448,275 F,3,220220,220925,1,0 S,9,220220,220925,0.09,0 R,0,220220,220925,1 C,0,220220,220925,170,255,170 P,0,220220,220925,A
Sprite,Foreground,Centre,"SB\star01.png",320,240 M,22,220220,220925,508,250,589,176 F,3,220220,220925,1,0 S,9,220220,220925,0.21,0 R,0,220220,220925,0,1 C,0,220220,220925,170,255,170 P,0,220220,220925,A
Sprite,Foreground,Centre,"SB\star01.png",320,240 M,22,220220,220925,508,250,455,190 F,3,220220,220925,1,0 S,9,220220,220925,0.28,0 R,0,220220,220925,3,2 C,0,220220,220925,170,255,170 P,0,220220,220925,A
Sprite,Foreground,Centre,"SB\star02.png",320,240 M,22,220220,220925,508,250,405,214 F,3,220220,220925,1,0 S,9,220220,220925,0.28,0 R,0,220220,220925,3,2 C,0,220220,220925,170,255,170 P,0,220220,220925,A
Sprite,Foreground,Centre,"SB\star02.png",320,240 M,22,220220,220925,508,250,427,320 F,3,220220,220925,1,0 S,9,220220,220925,0.22,0 R,0,220220,220925,6,1 C,0,220220,220925,170,255,170 P,0,220220,220925,A
Sprite,Foreground,Centre,"SB\star01.png",320,240 M,22,220220,220925,508,250,646,173 F,3,220220,220925,1,0 S,9,220220,220925,0.4,0 R,0,220220,220925,4,1 C,0,220220,220925,170,255,170 P,0,220220,220925,A
Sprite,Foreground,Centre,"SB\star01.png",320,240 M,22,220220,220925,508,250,381,300 F,3,220220,220925,1,0 S,9,220220,220925,0.2,0 R,0,220220,220925,4,1 C,0,220220,220925,170,255,170 P,0,220220,220925,A
Sprite,Foreground,Centre,"SB\star01.png",320,240 M,22,220220,220925,508,250,637,356 F,3,220220,220925,1,0 S,9,220220,220925,0.26,0 R,0,220220,220925,0,1 C,0,220220,220925,170,255,170 P,0,220220,220925,A
Sprite,Foreground,Centre,"SB\star02.png",320,240 M,22,220220,220925,508,250,411,220 F,3,220220,220925,1,0 S,9,220220,220925,0.24,0 R,0,220220,220925,4,0 C,0,220220,220925,170,255,170 P,0,220220,220925,A
Sprite,Foreground,Centre,"SB\star02.png",320,240 M,22,220220,220925,508,250,458,314 F,3,220220,220925,1,0 S,9,220220,220925,0.13,0 R,0,220220,220925,3,1 C,0,220220,220925,170,255,170 P,0,220220,220925,A
Sprite,Foreground,Centre,"SB\star01.png",320,240 M,22,220220,220925,508,250,446,264 F,3,220220,220925,1,0 S,9,220220,220925,0.28,0 R,0,220220,220925,5,2 C,0,220220,220925,170,255,170 P,0,220220,220925,A
Sprite,Foreground,Centre,"SB\star01.png",320,240 M,22,220220,220925,508,250,398,170 F,3,220220,220925,1,0 S,9,220220,220925,0.32,0 R,0,220220,220925,0,2 C,0,220220,220925,170,255,170 P,0,220220,220925,A
Sprite,Foreground,Centre,"SB\star01.png",320,240 M,22,220220,220925,508,250,375,293 F,3,220220,220925,1,0 S,9,220220,220925,0.1,0 R,0,220220,220925,5,2 C,0,220220,220925,170,255,170 P,0,220220,220925,A
Sprite,Foreground,Centre,"SB\star02.png",320,240 M,22,220220,220925,508,250,566,134 F,3,220220,220925,1,0 S,9,220220,220925,0.31,0 R,0,220220,220925,5,1 C,0,220220,220925,170,255,170 P,0,220220,220925,A
Sprite,Foreground,Centre,"SB\star02.png",320,240 M,22,220220,220925,508,250,601,274 F,3,220220,220925,1,0 S,9,220220,220925,0.29,0 R,0,220220,220925,2,1 C,0,220220,220925,170,255,170 P,0,220220,220925,A
Sprite,Foreground,Centre,"SB\star02.png",320,240 M,22,220220,220925,508,250,523,98 F,3,220220,220925,1,0 S,9,220220,220925,0.16,0 R,0,220220,220925,0,1 C,0,220220,220925,170,255,170 P,0,220220,220925,A
Sprite,Foreground,Centre,"SB\star01.png",320,240 M,22,220220,220925,508,250,569,242 F,3,220220,220925,1,0 S,9,220220,220925,0.34,0 R,0,220220,220925,5,0 C,0,220220,220925,170,255,170 P,0,220220,220925,A
Sprite,Foreground,Centre,"SB\star02.png",320,240 M,22,220220,220925,508,250,494,150 F,3,220220,220925,1,0 S,9,220220,220925,0.18,0 R,0,220220,220925,5,0 C,0,220220,220925,170,255,170 P,0,220220,220925,A
Sprite,Foreground,Centre,"SB\star02.png",320,240 M,22,220220,220925,508,250,451,397 F,3,220220,220925,1,0 S,9,220220,220925,0.19,0 R,0,220220,220925,1,2 C,0,220220,220925,170,255,170 P,0,220220,220925,A
Sprite,Foreground,Centre,"SB\star01.png",320,240 M,22,220220,220925,508,250,588,309 F,3,220220,220925,1,0 S,9,220220,220925,0.32,0 R,0,220220,220925,3,1 C,0,220220,220925,170,255,170 P,0,220220,220925,A
Sprite,Foreground,Centre,"SB\star02.png",320,240 M,22,220220,220925,508,250,663,201 F,3,220220,220925,1,0 S,9,220220,220925,0.09,0 R,0,220220,220925,2 C,0,220220,220925,170,255,170 P,0,220220,220925,A
Sprite,Foreground,Centre,"SB\star02.png",320,240 M,22,220220,220925,508,250,433,205 F,3,220220,220925,1,0 S,9,220220,220925,0.26,0 R,0,220220,220925,1,2 C,0,220220,220925,170,255,170 P,0,220220,220925,A
Sprite,Foreground,Centre,"SB\star01.png",320,240 M,22,220220,220925,508,250,552,125 F,3,220220,220925,1,0 S,9,220220,220925,0.06,0 R,0,220220,220925,2,1 C,0,220220,220925,170,255,170 P,0,220220,220925,A
Sprite,Foreground,Centre,"SB\star02.png",320,240 M,22,220220,220925,508,250,541,316 F,3,220220,220925,1,0 S,9,220220,220925,0.38,0 R,0,220220,220925,0,2 C,0,220220,220925,170,255,170 P,0,220220,220925,A
Sprite,Foreground,Centre,"SB\star01.png",320,240 M,22,220220,220925,508,250,646,197 F,3,220220,220925,1,0 S,9,220220,220925,0.33,0 R,0,220220,220925,2,1 C,0,220220,220925,170,255,170 P,0,220220,220925,A
Sprite,Foreground,Centre,"SB\star02.png",320,240 M,22,220220,220925,508,250,626,254 F,3,220220,220925,1,0 S,9,220220,220925,0.36,0 R,0,220220,220925,0 C,0,220220,220925,170,255,170 P,0,220220,220925,A
Sprite,Foreground,Centre,"SB\star01.png",320,240 M,22,220220,220925,508,250,429,387 F,3,220220,220925,1,0 S,9,220220,220925,0.31,0 R,0,220220,220925,1,0 C,0,220220,220925,170,255,170 P,0,220220,220925,A
Sprite,Foreground,Centre,"SB\star02.png",320,240 M,22,220220,220925,508,250,407,120 F,3,220220,220925,1,0 S,9,220220,220925,0.2,0 R,0,220220,220925,0,2 C,0,220220,220925,170,255,170 P,0,220220,220925,A
Sprite,Foreground,Centre,"SB\star01.png",320,240 M,22,220220,220925,508,250,429,153 F,3,220220,220925,1,0 S,9,220220,220925,0.27,0 R,0,220220,220925,2,1 C,0,220220,220925,170,255,170 P,0,220220,220925,A
Sprite,Foreground,Centre,"SB\star02.png",320,240 M,22,220220,220925,508,250,590,339 F,3,220220,220925,1,0 S,9,220220,220925,0.38,0 R,0,220220,220925,4,2 C,0,220220,220925,170,255,170 P,0,220220,220925,A
Sprite,Foreground,Centre,"SB\star02.png",320,240 M,22,275770,276770,320,122,329,71 F,3,275770,276770,1,0 S,9,275770,276770,0.27,0 R,0,275770,276770,3,0 C,0,275770,276770,255,255,62 P,0,275770,276770,A
Sprite,Foreground,Centre,"SB\star02.png",320,240 M,22,275770,276770,320,122,299,21 F,3,275770,276770,1,0 S,9,275770,276770,0.05,0 R,0,275770,276770,3,1 C,0,275770,276770,255,255,62 P,0,275770,276770,A
Sprite,Foreground,Centre,"SB\star02.png",320,240 M,22,275770,276770,320,122,365,163 F,3,275770,276770,1,0 S,9,275770,276770,0.15,0 R,0,275770,276770,5,2 C,0,275770,276770,255,255,62 P,0,275770,276770,A
Sprite,Foreground,Centre,"SB\star01.png",320,240 M,22,275770,276770,320,122,392,101 F,3,275770,276770,1,0 S,9,275770,276770,0.29,0 R,0,275770,276770,1,0 C,0,275770,276770,255,255,62 P,0,275770,276770,A
Sprite,Foreground,Centre,"SB\star01.png",320,240 M,22,275770,276770,320,122,258,117 F,3,275770,276770,1,0 S,9,275770,276770,0.04,0 R,0,275770,276770,5,1 C,0,275770,276770,255,255,62 P,0,275770,276770,A
Sprite,Foreground,Centre,"SB\star01.png",320,240 M,22,275770,276770,320,122,335,185 F,3,275770,276770,1,0 S,9,275770,276770,0.17,0 R,0,275770,276770,2,0 C,0,275770,276770,255,255,62 P,0,275770,276770,A
Sprite,Foreground,Centre,"SB\star01.png",320,240 M,22,275770,276770,320,122,410,61 F,3,275770,276770,1,0 S,9,275770,276770,0.29,0 R,0,275770,276770,2 C,0,275770,276770,255,255,62 P,0,275770,276770,A
Sprite,Foreground,Centre,"SB\star02.png",320,240 M,22,275770,276770,320,122,411,146 F,3,275770,276770,1,0 S,9,275770,276770,0.19,0 R,0,275770,276770,1,0 C,0,275770,276770,255,255,62 P,0,275770,276770,A
Sprite,Foreground,Centre,"SB\star02.png",320,240 M,22,275770,276770,320,122,276,66 F,3,275770,276770,1,0 S,9,275770,276770,0.11,0 R,0,275770,276770,4,0 C,0,275770,276770,255,255,62 P,0,275770,276770,A
Sprite,Foreground,Centre,"SB\star02.png",320,240 M,22,275770,276770,320,122,221,146 F,3,275770,276770,1,0 S,9,275770,276770,0.16,0 R,0,275770,276770,3,1 C,0,275770,276770,255,255,62 P,0,275770,276770,A
Sprite,Foreground,Centre,"SB\star02.png",320,240 M,22,275770,276770,320,122,341,173 F,3,275770,276770,1,0 S,9,275770,276770,0.2,0 R,0,275770,276770,0,1 C,0,275770,276770,255,255,62 P,0,275770,276770,A
Sprite,Foreground,Centre,"SB\star01.png",320,240 M,22,275770,276770,320,122,340,61 F,3,275770,276770,1,0 S,9,275770,276770,0.12,0 R,0,275770,276770,1,3 C,0,275770,276770,255,255,62 P,0,275770,276770,A
Sprite,Foreground,Centre,"SB\star01.png",320,240 M,22,275770,276770,320,122,363,55 F,3,275770,276770,1,0 S,9,275770,276770,0.21,0 R,0,275770,276770,1,2 C,0,275770,276770,255,255,62 P,0,275770,276770,A
Sprite,Foreground,Centre,"SB\star02.png",320,240 M,22,275770,276770,320,122,374,109 F,3,275770,276770,1,0 S,9,275770,276770,0.05,0 R,0,275770,276770,1,2 C,0,275770,276770,255,255,62 P,0,275770,276770,A
Sprite,Foreground,Centre,"SB\star01.png",320,240 M,22,275770,276770,320,122,318,58 F,3,275770,276770,1,0 S,9,275770,276770,0.05,0 R,0,275770,276770,1,2 C,0,275770,276770,255,255,62 P,0,275770,276770,A
Sprite,Foreground,Centre,"SB\star02.png",320,240 M,22,275770,276770,320,122,310,58 F,3,275770,276770,1,0 S,9,275770,276770,0.2,0 R,0,275770,276770,5,3 C,0,275770,276770,255,255,62 P,0,275770,276770,A
Sprite,Foreground,Centre,"SB\star02.png",320,240 M,22,275770,276770,320,122,241,52 F,3,275770,276770,1,0 S,9,275770,276770,0.09,0 R,0,275770,276770,2,1 C,0,275770,276770,255,255,62 P,0,275770,276770,A
Sprite,Foreground,Centre,"SB\star02.png",320,240 M,22,275770,276770,320,122,327,197 F,3,275770,276770,1,0 S,9,275770,276770,0.22,0 R,0,275770,276770,1 C,0,275770,276770,255,255,62 P,0,275770,276770,A
Sprite,Foreground,Centre,"SB\star02.png",320,240 M,22,275770,276770,320,122,361,25 F,3,275770,276770,1,0 S,9,275770,276770,0.13,0 R,0,275770,276770,0 C,0,275770,276770,255,255,62 P,0,275770,276770,A
Sprite,Foreground,Centre,"SB\star01.png",320,240 M,22,275770,276770,320,122,399,97 F,3,275770,276770,1,0 S,9,275770,276770,0.23,0 R,0,275770,276770,3,1 C,0,275770,276770,255,255,62 P,0,275770,276770,A
Sprite,Foreground,Centre,"SB\star01.png",320,240 M,22,275770,276770,320,122,253,159 F,3,275770,276770,1,0 S,9,275770,276770,0.13,0 R,0,275770,276770,2,1 C,0,275770,276770,255,255,62 P,0,275770,276770,A
Sprite,Foreground,Centre,"SB\star01.png",320,240 M,22,275770,276770,320,122,273,49 F,3,275770,276770,1,0 S,9,275770,276770,0.03,0 R,0,275770,276770,1 C,0,275770,276770,255,255,62 P,0,275770,276770,A
Sprite,Foreground,Centre,"SB\star02.png",320,240 M,22,275770,276770,320,122,272,77 F,3,275770,276770,1,0 S,9,275770,276770,0.27,0 R,0,275770,276770,5,1 C,0,275770,276770,255,255,62 P,0,275770,276770,A
Sprite,Foreground,Centre,"SB\star01.png",320,240 M,22,275770,276770,320,122,399,97 F,3,275770,276770,1,0 S,9,275770,276770,0.12,0 R,0,275770,276770,4,1 C,0,275770,276770,255,255,62 P,0,275770,276770,A
Sprite,Foreground,Centre,"SB\star02.png",320,240 M,22,275770,276770,320,122,267,80 F,3,275770,276770,1,0 S,9,275770,276770,0.27,0 R,0,275770,276770,4,2 C,0,275770,276770,255,255,62 P,0,275770,276770,A
Sprite,Foreground,Centre,"SB\star01.png",320,240 M,22,275770,276770,320,122,362,154 F,3,275770,276770,1,0 S,9,275770,276770,0.12,0 R,0,275770,276770,1,0 C,0,275770,276770,255,255,62 P,0,275770,276770,A
Sprite,Foreground,Centre,"SB\star01.png",320,240 M,22,275770,276770,320,122,249,102 F,3,275770,276770,1,0 S,9,275770,276770,0.29,0 R,0,275770,276770,4,0 C,0,275770,276770,255,255,62 P,0,275770,276770,A
Sprite,Foreground,Centre,"SB\star01.png",320,240 M,22,275770,276770,320,122,316,48 F,3,275770,276770,1,0 S,9,275770,276770,0.22,0 R,0,275770,276770,4,1 C,0,275770,276770,255,255,62 P,0,275770,276770,A
Sprite,Foreground,Centre,"SB\star02.png",320,240 M,22,275770,276770,320,122,269,76 F,3,275770,276770,1,0 S,9,275770,276770,0.16,0 R,0,275770,276770,3,2 C,0,275770,276770,255,255,62 P,0,275770,276770,A
Sprite,Foreground,Centre,"SB\star02.png",320,240 M,22,275770,276770,320,122,338,18 F,3,275770,276770,1,0 S,9,275770,276770,0.12,0 R,0,275770,276770,0,2 C,0,275770,276770,255,255,62 P,0,275770,276770,A
Sprite,Foreground,Centre,"SB\star01.png",320,240 M,22,277088,278088,320,122,255,131 F,3,277088,278088,1,0 S,9,277088,278088,0.1,0 R,0,277088,278088,5,1 C,0,277088,278088,255,255,62 P,0,277088,278088,A
Sprite,Foreground,Centre,"SB\star02.png",320,240 M,22,277088,278088,320,122,325,20 F,3,277088,278088,1,0 S,9,277088,278088,0.3,0 R,0,277088,278088,5,0 C,0,277088,278088,255,255,62 P,0,277088,278088,A
Sprite,Foreground,Centre,"SB\star02.png",320,240 M,22,277088,278088,320,122,228,164 F,3,277088,278088,1,0 S,9,277088,278088,0.08,0 R,0,277088,278088,0,2 C,0,277088,278088,255,255,62 P,0,277088,278088,A
Sprite,Foreground,Centre,"SB\star02.png",320,240 M,22,277088,278088,320,122,343,26 F,3,277088,278088,1,0 S,9,277088,278088,0.16,0 R,0,277088,278088,4,1 C,0,277088,278088,255,255,62 P,0,277088,278088,A
Sprite,Foreground,Centre,"SB\star01.png",320,240 M,22,277088,278088,320,122,404,112 F,3,277088,278088,1,0 S,9,277088,278088,0.29,0 R,0,277088,278088,1,0 C,0,277088,278088,255,255,62 P,0,277088,278088,A
Sprite,Foreground,Centre,"SB\star02.png",320,240 M,22,277088,278088,320,122,383,184 F,3,277088,278088,1,0 S,9,277088,278088,0.06,0 R,0,277088,278088,2,1 C,0,277088,278088,255,255,62 P,0,277088,278088,A
Sprite,Foreground,Centre,"SB\star01.png",320,240 M,22,277088,278088,320,122,259,98 F,3,277088,278088,1,0 S,9,277088,278088,0.26,0 R,0,277088,278088,0,2 C,0,277088,278088,255,255,62 P,0,277088,278088,A
Sprite,Foreground,Centre,"SB\star02.png",320,240 M,22,277088,278088,320,122,411,128 F,3,277088,278088,1,0 S,9,277088,278088,0.06,0 R,0,277088,278088,5,2 C,0,277088,278088,255,255,62 P,0,277088,278088,A
Sprite,Foreground,Centre,"SB\star01.png",320,240 M,22,277088,278088,320,122,347,203 F,3,277088,278088,1,0 S,9,277088,278088,0.06,0 R,0,277088,278088,4,0 C,0,277088,278088,255,255,62 P,0,277088,278088,A
Sprite,Foreground,Centre,"SB\star02.png",320,240 M,22,277088,278088,320,122,213,143 F,3,277088,278088,1,0 S,9,277088,278088,0.04,0 R,0,277088,278088,5,1 C,0,277088,278088,255,255,62 P,0,277088,278088,A
Sprite,Foreground,Centre,"SB\star01.png",320,240 M,22,277088,278088,320,122,247,165 F,3,277088,278088,1,0 S,9,277088,278088,0.08,0 R,0,277088,278088,4,2 C,0,277088,278088,255,255,62 P,0,277088,278088,A
Sprite,Foreground,Centre,"SB\star02.png",320,240 M,22,277088,278088,320,122,287,33 F,3,277088,278088,1,0 S,9,277088,278088,0.23,0 R,0,277088,278088,0,2 C,0,277088,278088,255,255,62 P,0,277088,278088,A
Sprite,Foreground,Centre,"SB\star01.png",320,240 M,22,277088,278088,320,122,227,74 F,3,277088,278088,1,0 S,9,277088,278088,0.09,0 R,0,277088,278088,1 C,0,277088,278088,255,255,62 P,0,277088,278088,A
Sprite,Foreground,Centre,"SB\star01.png",320,240 M,22,277088,278088,320,122,331,61 F,3,277088,278088,1,0 S,9,277088,278088,0.18,0 R,0,277088,278088,1,0 C,0,277088,278088,255,255,62 P,0,277088,278088,A
Sprite,Foreground,Centre,"SB\star02.png",320,240 M,22,277088,278088,320,122,346,78 F,3,277088,278088,1,0 S,9,277088,278088,0.05,0 R,0,277088,278088,1,2 C,0,277088,278088,255,255,62 P,0,277088,278088,A
Sprite,Foreground,Centre,"SB\star01.png",320,240 M,22,277088,278088,320,122,388,150 F,3,277088,278088,1,0 S,9,277088,278088,0.2,0 R,0,277088,278088,3,2 C,0,277088,278088,255,255,62 P,0,277088,278088,A
Sprite,Foreground,Centre,"SB\star02.png",320,240 M,22,277088,278088,320,122,362,159 F,3,277088,278088,1,0 S,9,277088,278088,0.23,0 R,0,277088,278088,4,0 C,0,277088,278088,255,255,62 P,0,277088,278088,A
Sprite,Foreground,Centre,"SB\star01.png",320,240 M,22,277088,278088,320,122,402,63 F,3,277088,278088,1,0 S,9,277088,278088,0.08,0 R,0,277088,278088,4,1 C,0,277088,278088,255,255,62 P,0,277088,278088,A
Sprite,Foreground,Centre,"SB\star01.png",320,240 M,22,277088,278088,320,122,297,198 F,3,277088,278088,1,0 S,9,277088,278088,0.14,0 R,0,277088,278088,4,2 C,0,277088,278088,255,255,62 P,0,277088,278088,A
Sprite,Foreground,Centre,"SB\star01.png",320,240 M,22,277088,278088,320,122,354,208 F,3,277088,278088,1,0 S,9,277088,278088,0.09,0 R,0,277088,278088,2 C,0,277088,278088,255,255,62 P,0,277088,278088,A
Sprite,Foreground,Centre,"SB\star01.png",320,240 M,22,277088,278088,320,122,411,100 F,3,277088,278088,1,0 S,9,277088,278088,0.07,0 R,0,277088,278088,3,2 C,0,277088,278088,255,255,62 P,0,277088,278088,A
Sprite,Foreground,Centre,"SB\star02.png",320,240 M,22,277088,278088,320,122,273,169 F,3,277088,278088,1,0 S,9,277088,278088,0.29,0 R,0,277088,278088,1,0 C,0,277088,278088,255,255,62 P,0,277088,278088,A
Sprite,Foreground,Centre,"SB\star02.png",320,240 M,22,277088,278088,320,122,282,47 F,3,277088,278088,1,0 S,9,277088,278088,0.05,0 R,0,277088,278088,0,1 C,0,277088,278088,255,255,62 P,0,277088,278088,A
Sprite,Foreground,Centre,"SB\star01.png",320,240 M,22,277088,278088,320,122,248,193 F,3,277088,278088,1,0 S,9,277088,278088,0.15,0 R,0,277088,278088,4,2 C,0,277088,278088,255,255,62 P,0,277088,278088,A
Sprite,Foreground,Centre,"SB\star01.png",320,240 M,22,277088,278088,320,122,227,135 F,3,277088,278088,1,0 S,9,277088,278088,0.23,0 R,0,277088,278088,1,0 C,0,277088,278088,255,255,62 P,0,277088,278088,A
Sprite,Foreground,Centre,"SB\star01.png",320,240 M,22,277088,278088,320,122,330,175 F,3,277088,278088,1,0 S,9,277088,278088,0.24,0 R,0,277088,278088,0,1 C,0,277088,278088,255,255,62 P,0,277088,278088,A
Sprite,Foreground,Centre,"SB\star01.png",320,240 M,22,277088,278088,320,122,221,74 F,3,277088,278088,1,0 S,9,277088,278088,0.12,0 R,0,277088,278088,0,1 C,0,277088,278088,255,255,62 P,0,277088,278088,A
Sprite,Foreground,Centre,"SB\star01.png",320,240 M,22,277088,278088,320,122,293,224 F,3,277088,278088,1,0 S,9,277088,278088,0.04,0 R,0,277088,278088,4,1 C,0,277088,278088,255,255,62 P,0,277088,278088,A
Sprite,Foreground,Centre,"SB\star01.png",320,240 M,22,277088,278088,320,122,399,81 F,3,277088,278088,1,0 S,9,277088,278088,0.06,0 R,0,277088,278088,5,3 C,0,277088,278088,255,255,62 P,0,277088,278088,A
Sprite,Foreground,Centre,"SB\star02.png",320,240 M,22,277088,278088,320,122,238,177 F,3,277088,278088,1,0 S,9,277088,278088,0.21,0 R,0,277088,278088,5,2 C,0,277088,278088,255,255,62 P,0,277088,278088,A
Sprite,Foreground,Centre,"SB\star02.png",320,240 M,22,277583,278583,318,298,363,231 F,3,277583,278583,1,0 S,9,277583,278583,0.13,0 R,0,277583,278583,6,0 C,0,277583,278583,255,255,62 P,0,277583,278583,A
Sprite,Foreground,Centre,"SB\star02.png",320,240 M,22,277583,278583,318,298,408,317 F,3,277583,278583,1,0 S,9,277583,278583,0.22,0 R,0,277583,278583,0,1 C,0,277583,278583,255,255,62 P,0,277583,278583,A
Sprite,Foreground,Centre,"SB\star02.png",320,240 M,22,277583,278583,318,298,349,223 F,3,277583,278583,1,0 S,9,277583,278583,0.28,0 R,0,277583,278583,0,2 C,0,277583,278583,255,255,62 P,0,277583,278583,A
Sprite,Foreground,Centre,"SB\star01.png",320,240 M,22,277583,278583,318,298,264,341 F,3,277583,278583,1,0 S,9,277583,278583,0.04,0 R,0,277583,278583,3,1 C,0,277583,278583,255,255,62 P,0,277583,278583,A
Sprite,Foreground,Centre,"SB\star01.png",320,240 M,22,277583,278583,318,298,272,203 F,3,277583,278583,1,0 S,9,277583,278583,0.05,0 R,0,277583,278583,2,1 C,0,277583,278583,255,255,62 P,0,277583,278583,A
Sprite,Foreground,Centre,"SB\star01.png",320,240 M,22,277583,278583,318,298,328,347 F,3,277583,278583,1,0 S,9,277583,278583,0.23,0 R,0,277583,278583,3,2 C,0,277583,278583,255,255,62 P,0,277583,278583,A
Sprite,Foreground,Centre,"SB\star02.png",320,240 M,22,277583,278583,318,298,410,325 F,3,277583,278583,1,0 S,9,277583,278583,0.29,0 R,0,277583,278583,2,1 C,0,277583,278583,255,255,62 P,0,277583,278583,A
Sprite,Foreground,Centre,"SB\star01.png",320,240 M,22,277583,278583,318,298,262,312 F,3,277583,278583,1,0 S,9,277583,278583,0.21,0 R,0,277583,278583,3,1 C,0,277583,278583,255,255,62 P,0,277583,278583,A
Sprite,Foreground,Centre,"SB\star01.png",320,240 M,22,277583,278583,318,298,234,318 F,3,277583,278583,1,0 S,9,277583,278583,0.08,0 R,0,277583,278583,5,2 C,0,277583,278583,255,255,62 P,0,277583,278583,A
Sprite,Foreground,Centre,"SB\star01.png",320,240 M,22,277583,278583,318,298,243,255 F,3,277583,278583,1,0 S,9,277583,278583,0.25,0 R,0,277583,278583,2 C,0,277583,278583,255,255,62 P,0,277583,278583,A
Sprite,Foreground,Centre,"SB\star02.png",320,240 M,22,277583,278583,318,298,375,292 F,3,277583,278583,1,0 S,9,277583,278583,0.26,0 R,0,277583,278583,5,1 C,0,277583,278583,255,255,62 P,0,277583,278583,A
Sprite,Foreground,Centre,"SB\star02.png",320,240 M,22,277583,278583,318,298,241,275 F,3,277583,278583,1,0 S,9,277583,278583,0.07,0 R,0,277583,278583,1,2 C,0,277583,278583,255,255,62 P,0,277583,278583,A
Sprite,Foreground,Centre,"SB\star01.png",320,240 M,22,277583,278583,318,298,397,238 F,3,277583,278583,1,0 S,9,277583,278583,0.26,0 R,0,277583,278583,1,2 C,0,277583,278583,255,255,62 P,0,277583,278583,A
Sprite,Foreground,Centre,"SB\star02.png",320,240 M,22,277583,278583,318,298,366,228 F,3,277583,278583,1,0 S,9,277583,278583,0.06,0 R,0,277583,278583,1,2 C,0,277583,278583,255,255,62 P,0,277583,278583,A
Sprite,Foreground,Centre,"SB\star02.png",320,240 M,22,277583,278583,318,298,228,306 F,3,277583,278583,1,0 S,9,277583,278583,0.24,0 R,0,277583,278583,5,2 C,0,277583,278583,255,255,62 P,0,277583,278583,A
Sprite,Foreground,Centre,"SB\star02.png",320,240 M,22,277583,278583,318,298,377,232 F,3,277583,278583,1,0 S,9,277583,278583,0.18,0 R,0,277583,278583,3,1 C,0,277583,278583,255,255,62 P,0,277583,278583,A
Sprite,Foreground,Centre,"SB\star02.png",320,240 M,22,277583,278583,318,298,318,200 F,3,277583,278583,1,0 S,9,277583,278583,0.13,0 R,0,277583,278583,1,2 C,0,277583,278583,255,255,62 P,0,277583,278583,A
Sprite,Foreground,Centre,"SB\star02.png",320,240 M,22,277583,278583,318,298,365,385 F,3,277583,278583,1,0 S,9,277583,278583,0.16,0 R,0,277583,278583,4,1 C,0,277583,278583,255,255,62 P,0,277583,278583,A
Sprite,Foreground,Centre,"SB\star01.png",320,240 M,22,277583,278583,318,298,252,237 F,3,277583,278583,1,0 S,9,277583,278583,0.28,0 R,0,277583,278583,3,0 C,0,277583,278583,255,255,62 P,0,277583,278583,A
Sprite,Foreground,Centre,"SB\star02.png",320,240 M,22,277583,278583,318,298,252,289 F,3,277583,278583,1,0 S,9,277583,278583,0.28,0 R,0,277583,278583,4,1 C,0,277583,278583,255,255,62 P,0,277583,278583,A
Sprite,Foreground,Centre,"SB\star01.png",320,240 M,22,277583,278583,318,298,340,346 F,3,277583,278583,1,0 S,9,277583,278583,0.1,0 R,0,277583,278583,1,0 C,0,277583,278583,255,255,62 P,0,277583,278583,A
Sprite,Foreground,Centre,"SB\star01.png",320,240 M,22,277583,278583,318,298,423,327 F,3,277583,278583,1,0 S,9,277583,278583,0.05,0 R,0,277583,278583,3,1 C,0,277583,278583,255,255,62 P,0,277583,278583,A
Sprite,Foreground,Centre,"SB\star01.png",320,240 M,22,277583,278583,318,298,396,334 F,3,277583,278583,1,0 S,9,277583,278583,0.06,0 R,0,277583,278583,4,2 C,0,277583,278583,255,255,62 P,0,277583,278583,A
Sprite,Foreground,Centre,"SB\star02.png",320,240 M,22,277583,278583,318,298,284,348 F,3,277583,278583,1,0 S,9,277583,278583,0.14,0 R,0,277583,278583,5,2 C,0,277583,278583,255,255,62 P,0,277583,278583,A
Sprite,Foreground,Centre,"SB\star01.png",320,240 M,22,277583,278583,318,298,263,365 F,3,277583,278583,1,0 S,9,277583,278583,0.15,0 R,0,277583,278583,1 C,0,277583,278583,255,255,62 P,0,277583,278583,A
Sprite,Foreground,Centre,"SB\star01.png",320,240 M,22,277583,278583,318,298,363,334 F,3,277583,278583,1,0 S,9,277583,278583,0.09,0 R,0,277583,278583,6,0 C,0,277583,278583,255,255,62 P,0,277583,278583,A
Sprite,Foreground,Centre,"SB\star02.png",320,240 M,22,277583,278583,318,298,268,227 F,3,277583,278583,1,0 S,9,277583,278583,0.16,0 R,0,277583,278583,0,1 C,0,277583,278583,255,255,62 P,0,277583,278583,A
Sprite,Foreground,Centre,"SB\star02.png",320,240 M,22,277583,278583,318,298,295,377 F,3,277583,278583,1,0 S,9,277583,278583,0.18,0 R,0,277583,278583,1,0 C,0,277583,278583,255,255,62 P,0,277583,278583,A
Sprite,Foreground,Centre,"SB\star02.png",320,240 M,22,277583,278583,318,298,274,240 F,3,277583,278583,1,0 S,9,277583,278583,0.09,0 R,0,277583,278583,5,2 C,0,277583,278583,255,255,62 P,0,277583,278583,A
Sprite,Foreground,Centre,"SB\star02.png",320,240 M,22,277583,278583,318,298,275,244 F,3,277583,278583,1,0 S,9,277583,278583,0.14,0 R,0,277583,278583,5,1 C,0,277583,278583,255,255,62 P,0,277583,278583,A
Sprite,Foreground,Centre,"SB\star02.png",320,240 M,22,277913,278913,318,298,351,359 F,3,277913,278913,1,0 S,9,277913,278913,0.17,0 R,0,277913,278913,1 C,0,277913,278913,255,255,62 P,0,277913,278913,A
Sprite,Foreground,Centre,"SB\star01.png",320,240 M,22,277913,278913,318,298,362,325 F,3,277913,278913,1,0 S,9,277913,278913,0.23,0 R,0,277913,278913,4,2 C,0,277913,278913,255,255,62 P,0,277913,278913,A
Sprite,Foreground,Centre,"SB\star02.png",320,240 M,22,277913,278913,318,298,297,352 F,3,277913,278913,1,0 S,9,277913,278913,0.27,0 R,0,277913,278913,0,1 C,0,277913,278913,255,255,62 P,0,277913,278913,A
Sprite,Foreground,Centre,"SB\star01.png",320,240 M,22,277913,278913,318,298,247,224 F,3,277913,278913,1,0 S,9,277913,278913,0.29,0 R,0,277913,278913,2 C,0,277913,278913,255,255,62 P,0,277913,278913,A
Sprite,Foreground,Centre,"SB\star02.png",320,240 M,22,277913,278913,318,298,268,283 F,3,277913,278913,1,0 S,9,277913,278913,0.29,0 R,0,277913,278913,3,2 C,0,277913,278913,255,255,62 P,0,277913,278913,A
Sprite,Foreground,Centre,"SB\star02.png",320,240 M,22,277913,278913,318,298,413,304 F,3,277913,278913,1,0 S,9,277913,278913,0.25,0 R,0,277913,278913,0,2 C,0,277913,278913,255,255,62 P,0,277913,278913,A
Sprite,Foreground,Centre,"SB\star02.png",320,240 M,22,277913,278913,318,298,296,250 F,3,277913,278913,1,0 S,9,277913,278913,0.23,0 R,0,277913,278913,4,1 C,0,277913,278913,255,255,62 P,0,277913,278913,A
Sprite,Foreground,Centre,"SB\star01.png",320,240 M,22,277913,278913,318,298,269,381 F,3,277913,278913,1,0 S,9,277913,278913,0.2,0 R,0,277913,278913,3,1 C,0,277913,278913,255,255,62 P,0,277913,278913,A
Sprite,Foreground,Centre,"SB\star01.png",320,240 M,22,277913,278913,318,298,264,357 F,3,277913,278913,1,0 S,9,277913,278913,0.08,0 R,0,277913,278913,4,0 C,0,277913,278913,255,255,62 P,0,277913,278913,A
Sprite,Foreground,Centre,"SB\star02.png",320,240 M,22,277913,278913,318,298,298,229 F,3,277913,278913,1,0 S,9,277913,278913,0.28,0 R,0,277913,278913,0,2 C,0,277913,278913,255,255,62 P,0,277913,278913,A
Sprite,Foreground,Centre,"SB\star01.png",320,240 M,22,277913,278913,318,298,273,377 F,3,277913,278913,1,0 S,9,277913,278913,0.21,0 R,0,277913,278913,4,0 C,0,277913,278913,255,255,62 P,0,277913,278913,A
Sprite,Foreground,Centre,"SB\star02.png",320,240 M,22,277913,278913,318,298,357,239 F,3,277913,278913,1,0 S,9,277913,278913,0.03,0 R,0,277913,278913,5,1 C,0,277913,278913,255,255,62 P,0,277913,278913,A
Sprite,Foreground,Centre,"SB\star02.png",320,240 M,22,277913,278913,318,298,350,339 F,3,277913,278913,1,0 S,9,277913,278913,0.18,0 R,0,277913,278913,2,0 C,0,277913,278913,255,255,62 P,0,277913,278913,A
Sprite,Foreground,Centre,"SB\star01.png",320,240 M,22,277913,278913,318,298,403,308 F,3,277913,278913,1,0 S,9,277913,278913,0.09,0 R,0,277913,278913,4,0 C,0,277913,278913,255,255,62 P,0,277913,278913,A
Sprite,Foreground,Centre,"SB\star02.png",320,240 M,22,277913,278913,318,298,230,269 F,3,277913,278913,1,0 S,9,277913,278913,0.26,0 R,0,277913,278913,5,1 C,0,277913,278913,255,255,62 P,0,277913,278913,A
Sprite,Foreground,Centre,"SB\star01.png",320,240 M,22,277913,278913,318,298,300,382 F,3,277913,278913,1,0 S,9,277913,278913,0.05,0 R,0,277913,278913,4,0 C,0,277913,278913,255,255,62 P,0,277913,278913,A
Sprite,Foreground,Centre,"SB\star01.png",320,240 M,22,277913,278913,318,298,301,358 F,3,277913,278913,1,0 S,9,277913,278913,0.12,0 R,0,277913,278913,0,3 C,0,277913,278913,255,255,62 P,0,277913,278913,A
Sprite,Foreground,Centre,"SB\star02.png",320,240 M,22,277913,278913,318,298,251,375 F,3,277913,278913,1,0 S,9,277913,278913,0.28,0 R,0,277913,278913,5,1 C,0,277913,278913,255,255,62 P,0,277913,278913,A
Sprite,Foreground,Centre,"SB\star02.png",320,240 M,22,277913,278913,318,298,360,333 F,3,277913,278913,1,0 S,9,277913,278913,0.22,0 R,0,277913,278913,5,1 C,0,277913,278913,255,255,62 P,0,277913,278913,A
Sprite,Foreground,Centre,"SB\star02.png",320,240 M,22,277913,278913,318,298,229,250 F,3,277913,278913,1,0 S,9,277913,278913,0.25,0 R,0,277913,278913,2,1 C,0,277913,278913,255,255,62 P,0,277913,278913,A
Sprite,Foreground,Centre,"SB\star02.png",320,240 M,22,277913,278913,318,298,321,377 F,3,277913,278913,1,0 S,9,277913,278913,0.07,0 R,0,277913,278913,0,3 C,0,277913,278913,255,255,62 P,0,277913,278913,A
Sprite,Foreground,Centre,"SB\star01.png",320,240 M,22,277913,278913,318,298,226,257 F,3,277913,278913,1,0 S,9,277913,278913,0.07,0 R,0,277913,278913,4,2 C,0,277913,278913,255,255,62 P,0,277913,278913,A
Sprite,Foreground,Centre,"SB\star02.png",320,240 M,22,277913,278913,318,298,264,373 F,3,277913,278913,1,0 S,9,277913,278913,0.1,0 R,0,277913,278913,1,0 C,0,277913,278913,255,255,62 P,0,277913,278913,A
Sprite,Foreground,Centre,"SB\star01.png",320,240 M,22,277913,278913,318,298,287,394 F,3,277913,278913,1,0 S,9,277913,278913,0.2,0 R,0,277913,278913,5,1 C,0,277913,278913,255,255,62 P,0,277913,278913,A
Sprite,Foreground,Centre,"SB\star01.png",320,240 M,22,277913,278913,318,298,254,339 F,3,277913,278913,1,0 S,9,277913,278913,0.1,0 R,0,277913,278913,1 C,0,277913,278913,255,255,62 P,0,277913,278913,A
Sprite,Foreground,Centre,"SB\star02.png",320,240 M,22,277913,278913,318,298,389,248 F,3,277913,278913,1,0 S,9,277913,278913,0.12,0 R,0,277913,278913,1,3 C,0,277913,278913,255,255,62 P,0,277913,278913,A
Sprite,Foreground,Centre,"SB\star02.png",320,240 M,22,277913,278913,318,298,341,352 F,3,277913,278913,1,0 S,9,277913,278913,0.2,0 R,0,277913,278913,1,2 C,0,277913,278913,255,255,62 P,0,277913,278913,A
Sprite,Foreground,Centre,"SB\star02.png",320,240 M,22,277913,278913,318,298,231,363 F,3,277913,278913,1,0 S,9,277913,278913,0.25,0 R,0,277913,278913,1,2 C,0,277913,278913,255,255,62 P,0,277913,278913,A
Sprite,Foreground,Centre,"SB\star01.png",320,240 M,22,277913,278913,318,298,222,270 F,3,277913,278913,1,0 S,9,277913,278913,0.09,0 R,0,277913,278913,5,2 C,0,277913,278913,255,255,62 P,0,277913,278913,A
Sprite,Foreground,Centre,"SB\star01.png",320,240 M,22,277913,278913,318,298,209,311 F,3,277913,278913,1,0 S,9,277913,278913,0.28,0 R,0,277913,278913,1,2 C,0,277913,278913,255,255,62 P,0,277913,278913,A
Sprite,Foreground,Centre,"SB\star01.png",320,240 M,22,278407,279407,496,302,495,227 F,3,278407,279407,1,0 S,9,278407,279407,0.12,0 R,0,278407,279407,1 C,0,278407,279407,128,255,255 P,0,278407,279407,A
Sprite,Foreground,Centre,"SB\star02.png",320,240 M,22,278407,279407,496,302,486,352 F,3,278407,279407,1,0 S,9,278407,279407,0.1,0 R,0,278407,279407,4,0 C,0,278407,279407,128,255,255 P,0,278407,279407,A
Sprite,Foreground,Centre,"SB\star01.png",320,240 M,22,278407,279407,496,302,604,303 F,3,278407,279407,1,0 S,9,278407,279407,0.21,0 R,0,278407,279407,3,2 C,0,278407,279407,128,255,255 P,0,278407,279407,A
Sprite,Foreground,Centre,"SB\star02.png",320,240 M,22,278407,279407,496,302,549,225 F,3,278407,279407,1,0 S,9,278407,279407,0.25,0 R,0,278407,279407,5,1 C,0,278407,279407,128,255,255 P,0,278407,279407,A
Sprite,Foreground,Centre,"SB\star02.png",320,240 M,22,278407,279407,496,302,403,312 F,3,278407,279407,1,0 S,9,278407,279407,0.26,0 R,0,278407,279407,6,3 C,0,278407,279407,128,255,255 P,0,278407,279407,A
Sprite,Foreground,Centre,"SB\star02.png",320,240 M,22,278407,279407,496,302,445,381 F,3,278407,279407,1,0 S,9,278407,279407,0.3,0 R,0,278407,279407,3,0 C,0,278407,279407,128,255,255 P,0,278407,279407,A
Sprite,Foreground,Centre,"SB\star01.png",320,240 M,22,278407,279407,496,302,528,221 F,3,278407,279407,1,0 S,9,278407,279407,0.26,0 R,0,278407,279407,1 C,0,278407,279407,128,255,255 P,0,278407,279407,A
Sprite,Foreground,Centre,"SB\star01.png",320,240 M,22,278407,279407,496,302,446,339 F,3,278407,279407,1,0 S,9,278407,279407,0.26,0 R,0,278407,279407,3,0 C,0,278407,279407,128,255,255 P,0,278407,279407,A
Sprite,Foreground,Centre,"SB\star02.png",320,240 M,22,278407,279407,496,302,456,260 F,3,278407,279407,1,0 S,9,278407,279407,0.22,0 R,0,278407,279407,5,1 C,0,278407,279407,128,255,255 P,0,278407,279407,A
Sprite,Foreground,Centre,"SB\star02.png",320,240 M,22,278407,279407,496,302,509,366 F,3,278407,279407,1,0 S,9,278407,279407,0.12,0 R,0,278407,279407,0,1 C,0,278407,279407,128,255,255 P,0,278407,279407,A
Sprite,Foreground,Centre,"SB\star01.png",320,240 M,22,278407,279407,496,302,552,298 F,3,278407,279407,1,0 S,9,278407,279407,0.18,0 R,0,278407,279407,3,0 C,0,278407,279407,128,255,255 P,0,278407,279407,A
Sprite,Foreground,Centre,"SB\star01.png",320,240 M,22,278407,279407,496,302,526,342 F,3,278407,279407,1,0 S,9,278407,279407,0.1,0 R,0,278407,279407,2 C,0,278407,279407,128,255,255 P,0,278407,279407,A
Sprite,Foreground,Centre,"SB\star02.png",320,240 M,22,278407,279407,496,302,508,245 F,3,278407,279407,1,0 S,9,278407,279407,0.24,0 R,0,278407,279407,5,1 C,0,278407,279407,128,255,255 P,0,278407,279407,A
Sprite,Foreground,Centre,"SB\star02.png",320,240 M,22,278407,279407,496,302,592,285 F,3,278407,279407,1,0 S,9,278407,279407,0.06,0 R,0,278407,279407,2 C,0,278407,279407,128,255,255 P,0,278407,279407,A
Sprite,Foreground,Centre,"SB\star01.png",320,240 M,22,278407,279407,496,302,463,208 F,3,278407,279407,1,0 S,9,278407,279407,0.27,0 R,0,278407,279407,4,2 C,0,278407,279407,128,255,255 P,0,278407,279407,A
Sprite,Foreground,Centre,"SB\star01.png",320,240 M,22,278407,279407,496,302,565,281 F,3,278407,279407,1,0 S,9,278407,279407,0.08,0 R,0,278407,279407,2,0 C,0,278407,279407,128,255,255 P,0,278407,279407,A
Sprite,Foreground,Centre,"SB\star01.png",320,240 M,22,278407,279407,496,302,464,397 F,3,278407,279407,1,0 S,9,278407,279407,0.07,0 R,0,278407,279407,3,1 C,0,278407,279407,128,255,255 P,0,278407,279407,A
Sprite,Foreground,Centre,"SB\star01.png",320,240 M,22,278407,279407,496,302,460,235 F,3,278407,279407,1,0 S,9,278407,279407,0.21,0 R,0,278407,279407,1,0 C,0,278407,279407,128,255,255 P,0,278407,279407,A
Sprite,Foreground,Centre,"SB\star02.png",320,240 M,22,278407,279407,496,302,441,220 F,3,278407,279407,1,0 S,9,278407,279407,0.29,0 R,0,278407,279407,0 C,0,278407,279407,128,255,255 P,0,278407,279407,A
Sprite,Foreground,Centre,"SB\star02.png",320,240 M,22,278407,279407,496,302,519,369 F,3,278407,279407,1,0 S,9,278407,279407,0.21,0 R,0,278407,279407,5,2 C,0,278407,279407,128,255,255 P,0,278407,279407,A
Sprite,Foreground,Centre,"SB\star01.png",320,240 M,22,278407,279407,496,302,458,347 F,3,278407,279407,1,0 S,9,278407,279407,0.27,0 R,0,278407,279407,0 C,0,278407,279407,128,255,255 P,0,278407,279407,A
Sprite,Foreground,Centre,"SB\star01.png",320,240 M,22,278407,279407,496,302,531,235 F,3,278407,279407,1,0 S,9,278407,279407,0.06,0 R,0,278407,279407,3,2 C,0,278407,279407,128,255,255 P,0,278407,279407,A
Sprite,Foreground,Centre,"SB\star02.png",320,240 M,22,278407,279407,496,302,502,238 F,3,278407,279407,1,0 S,9,278407,279407,0.18,0 R,0,278407,279407,2,1 C,0,278407,279407,128,255,255 P,0,278407,279407,A
Sprite,Foreground,Centre,"SB\star01.png",320,240 M,22,278407,279407,496,302,572,271 F,3,278407,279407,1,0 S,9,278407,279407,0.28,0 R,0,278407,279407,4,2 C,0,278407,279407,128,255,255 P,0,278407,279407,A
Sprite,Foreground,Centre,"SB\star02.png",320,240 M,22,278407,279407,496,302,568,247 F,3,278407,279407,1,0 S,9,278407,279407,0.18,0 R,0,278407,279407,1 C,0,278407,279407,128,255,255 P,0,278407,279407,A
Sprite,Foreground,Centre,"SB\star02.png",320,240 M,22,278407,279407,496,302,551,341 F,3,278407,279407,1,0 S,9,278407,279407,0.12,0 R,0,278407,279407,3,0 C,0,278407,279407,128,255,255 P,0,278407,279407,A
Sprite,Foreground,Centre,"SB\star01.png",320,240 M,22,278407,279407,496,302,516,389 F,3,278407,279407,1,0 S,9,278407,279407,0.21,0 R,0,278407,279407,2 C,0,278407,279407,128,255,255 P,0,278407,279407,A
Sprite,Foreground,Centre,"SB\star02.png",320,240 M,22,278407,279407,496,302,461,400 F,3,278407,279407,1,0 S,9,278407,279407,0.29,0 R,0,278407,279407,1 C,0,278407,279407,128,255,255 P,0,278407,279407,A
Sprite,Foreground,Centre,"SB\star01.png",320,240 M,22,278407,279407,496,302,457,256 F,3,278407,279407,1,0 S,9,278407,279407,0.22,0 R,0,278407,279407,4,0 C,0,278407,279407,128,255,255 P,0,278407,279407,A
Sprite,Foreground,Centre,"SB\star01.png",320,240 M,22,278407,279407,496,302,444,247 F,3,278407,279407,1,0 S,9,278407,279407,0.3,0 R,0,278407,279407,3,1 C,0,278407,279407,128,255,255 P,0,278407,279407,A
Sprite,Foreground,Centre,"SB\star01.png",320,240 M,22,279726,280726,496,302,495,227 F,3,279726,280726,1,0 S,9,279726,280726,0.12,0 R,0,279726,280726,1 C,0,279726,280726,128,255,255 P,0,279726,280726,A
Sprite,Foreground,Centre,"SB\star02.png",320,240 M,22,279726,280726,496,302,486,352 F,3,279726,280726,1,0 S,9,279726,280726,0.1,0 R,0,279726,280726,4,0 C,0,279726,280726,128,255,255 P,0,279726,280726,A
Sprite,Foreground,Centre,"SB\star01.png",320,240 M,22,279726,280726,496,302,604,303 F,3,279726,280726,1,0 S,9,279726,280726,0.21,0 R,0,279726,280726,3,2 C,0,279726,280726,128,255,255 P,0,279726,280726,A
Sprite,Foreground,Centre,"SB\star02.png",320,240 M,22,279726,280726,496,302,549,225 F,3,279726,280726,1,0 S,9,279726,280726,0.25,0 R,0,279726,280726,5,1 C,0,279726,280726,128,255,255 P,0,279726,280726,A
Sprite,Foreground,Centre,"SB\star02.png",320,240 M,22,279726,280726,496,302,403,312 F,3,279726,280726,1,0 S,9,279726,280726,0.26,0 R,0,279726,280726,6,3 C,0,279726,280726,128,255,255 P,0,279726,280726,A
Sprite,Foreground,Centre,"SB\star02.png",320,240 M,22,279726,280726,496,302,445,381 F,3,279726,280726,1,0 S,9,279726,280726,0.3,0 R,0,279726,280726,3,0 C,0,279726,280726,128,255,255 P,0,279726,280726,A
Sprite,Foreground,Centre,"SB\star01.png",320,240 M,22,279726,280726,496,302,528,221 F,3,279726,280726,1,0 S,9,279726,280726,0.26,0 R,0,279726,280726,1 C,0,279726,280726,128,255,255 P,0,279726,280726,A
Sprite,Foreground,Centre,"SB\star01.png",320,240 M,22,279726,280726,496,302,446,339 F,3,279726,280726,1,0 S,9,279726,280726,0.26,0 R,0,279726,280726,3,0 C,0,279726,280726,128,255,255 P,0,279726,280726,A
Sprite,Foreground,Centre,"SB\star02.png",320,240 M,22,279726,280726,496,302,456,260 F,3,279726,280726,1,0 S,9,279726,280726,0.22,0 R,0,279726,280726,5,1 C,0,279726,280726,128,255,255 P,0,279726,280726,A
Sprite,Foreground,Centre,"SB\star02.png",320,240 M,22,279726,280726,496,302,509,366 F,3,279726,280726,1,0 S,9,279726,280726,0.12,0 R,0,279726,280726,0,1 C,0,279726,280726,128,255,255 P,0,279726,280726,A
Sprite,Foreground,Centre,"SB\star01.png",320,240 M,22,279726,280726,496,302,552,298 F,3,279726,280726,1,0 S,9,279726,280726,0.18,0 R,0,279726,280726,3,0 C,0,279726,280726,128,255,255 P,0,279726,280726,A
Sprite,Foreground,Centre,"SB\star01.png",320,240 M,22,279726,280726,496,302,526,342 F,3,279726,280726,1,0 S,9,279726,280726,0.1,0 R,0,279726,280726,2 C,0,279726,280726,128,255,255 P,0,279726,280726,A
Sprite,Foreground,Centre,"SB\star02.png",320,240 M,22,279726,280726,496,302,508,245 F,3,279726,280726,1,0 S,9,279726,280726,0.24,0 R,0,279726,280726,5,1 C,0,279726,280726,128,255,255 P,0,279726,280726,A
Sprite,Foreground,Centre,"SB\star02.png",320,240 M,22,279726,280726,496,302,592,285 F,3,279726,280726,1,0 S,9,279726,280726,0.06,0 R,0,279726,280726,2 C,0,279726,280726,128,255,255 P,0,279726,280726,A
Sprite,Foreground,Centre,"SB\star01.png",320,240 M,22,279726,280726,496,302,463,208 F,3,279726,280726,1,0 S,9,279726,280726,0.27,0 R,0,279726,280726,4,2 C,0,279726,280726,128,255,255 P,0,279726,280726,A
Sprite,Foreground,Centre,"SB\star01.png",320,240 M,22,279726,280726,496,302,565,281 F,3,279726,280726,1,0 S,9,279726,280726,0.08,0 R,0,279726,280726,2,0 C,0,279726,280726,128,255,255 P,0,279726,280726,A
Sprite,Foreground,Centre,"SB\star01.png",320,240 M,22,279726,280726,496,302,464,397 F,3,279726,280726,1,0 S,9,279726,280726,0.07,0 R,0,279726,280726,3,1 C,0,279726,280726,128,255,255 P,0,279726,280726,A
Sprite,Foreground,Centre,"SB\star01.png",320,240 M,22,279726,280726,496,302,460,235 F,3,279726,280726,1,0 S,9,279726,280726,0.21,0 R,0,279726,280726,1,0 C,0,279726,280726,128,255,255 P,0,279726,280726,A
Sprite,Foreground,Centre,"SB\star02.png",320,240 M,22,279726,280726,496,302,441,220 F,3,279726,280726,1,0 S,9,279726,280726,0.29,0 R,0,279726,280726,0 C,0,279726,280726,128,255,255 P,0,279726,280726,A
Sprite,Foreground,Centre,"SB\star02.png",320,240 M,22,279726,280726,496,302,519,369 F,3,279726,280726,1,0 S,9,279726,280726,0.21,0 R,0,279726,280726,5,2 C,0,279726,280726,128,255,255 P,0,279726,280726,A
Sprite,Foreground,Centre,"SB\star01.png",320,240 M,22,279726,280726,496,302,458,347 F,3,279726,280726,1,0 S,9,279726,280726,0.27,0 R,0,279726,280726,0 C,0,279726,280726,128,255,255 P,0,279726,280726,A
Sprite,Foreground,Centre,"SB\star01.png",320,240 M,22,279726,280726,496,302,531,235 F,3,279726,280726,1,0 S,9,279726,280726,0.06,0 R,0,279726,280726,3,2 C,0,279726,280726,128,255,255 P,0,279726,280726,A
Sprite,Foreground,Centre,"SB\star02.png",320,240 M,22,279726,280726,496,302,502,238 F,3,279726,280726,1,0 S,9,279726,280726,0.18,0 R,0,279726,280726,2,1 C,0,279726,280726,128,255,255 P,0,279726,280726,A
Sprite,Foreground,Centre,"SB\star01.png",320,240 M,22,279726,280726,496,302,572,271 F,3,279726,280726,1,0 S,9,279726,280726,0.28,0 R,0,279726,280726,4,2 C,0,279726,280726,128,255,255 P,0,279726,280726,A
Sprite,Foreground,Centre,"SB\star02.png",320,240 M,22,279726,280726,496,302,568,247 F,3,279726,280726,1,0 S,9,279726,280726,0.18,0 R,0,279726,280726,1 C,0,279726,280726,128,255,255 P,0,279726,280726,A
Sprite,Foreground,Centre,"SB\star02.png",320,240 M,22,279726,280726,496,302,551,341 F,3,279726,280726,1,0 S,9,279726,280726,0.12,0 R,0,279726,280726,3,0 C,0,279726,280726,128,255,255 P,0,279726,280726,A
Sprite,Foreground,Centre,"SB\star01.png",320,240 M,22,279726,280726,496,302,516,389 F,3,279726,280726,1,0 S,9,279726,280726,0.21,0 R,0,279726,280726,2 C,0,279726,280726,128,255,255 P,0,279726,280726,A
Sprite,Foreground,Centre,"SB\star02.png",320,240 M,22,279726,280726,496,302,461,400 F,3,279726,280726,1,0 S,9,279726,280726,0.29,0 R,0,279726,280726,1 C,0,279726,280726,128,255,255 P,0,279726,280726,A
Sprite,Foreground,Centre,"SB\star01.png",320,240 M,22,279726,280726,496,302,457,256 F,3,279726,280726,1,0 S,9,279726,280726,0.22,0 R,0,279726,280726,4,0 C,0,279726,280726,128,255,255 P,0,279726,280726,A
Sprite,Foreground,Centre,"SB\star01.png",320,240 M,22,279726,280726,496,302,444,247 F,3,279726,280726,1,0 S,9,279726,280726,0.3,0 R,0,279726,280726,3,1 C,0,279726,280726,128,255,255 P,0,279726,280726,A
Sprite,Foreground,Centre,"SB\star02.png",320,240 M,22,280220,281220,320,298,364,372 F,3,280220,281220,1,0 S,9,280220,281220,0.22,0 R,0,280220,281220,2,1 C,0,280220,281220,128,255,255 P,0,280220,281220,A
Sprite,Foreground,Centre,"SB\star01.png",320,240 M,22,280220,281220,320,298,357,252 F,3,280220,281220,1,0 S,9,280220,281220,0.29,0 R,0,280220,281220,0,2 C,0,280220,281220,128,255,255 P,0,280220,281220,A
Sprite,Foreground,Centre,"SB\star01.png",320,240 M,22,280220,281220,320,298,266,336 F,3,280220,281220,1,0 S,9,280220,281220,0.26,0 R,0,280220,281220,2 C,0,280220,281220,128,255,255 P,0,280220,281220,A
Sprite,Foreground,Centre,"SB\star02.png",320,240 M,22,280220,281220,320,298,411,278 F,3,280220,281220,1,0 S,9,280220,281220,0.1,0 R,0,280220,281220,0 C,0,280220,281220,128,255,255 P,0,280220,281220,A
Sprite,Foreground,Centre,"SB\star02.png",320,240 M,22,280220,281220,320,298,275,273 F,3,280220,281220,1,0 S,9,280220,281220,0.04,0 R,0,280220,281220,1,2 C,0,280220,281220,128,255,255 P,0,280220,281220,A
Sprite,Foreground,Centre,"SB\star01.png",320,240 M,22,280220,281220,320,298,290,347 F,3,280220,281220,1,0 S,9,280220,281220,0.21,0 R,0,280220,281220,0 C,0,280220,281220,128,255,255 P,0,280220,281220,A
Sprite,Foreground,Centre,"SB\star02.png",320,240 M,22,280220,281220,320,298,380,326 F,3,280220,281220,1,0 S,9,280220,281220,0.3,0 R,0,280220,281220,1 C,0,280220,281220,128,255,255 P,0,280220,281220,A
Sprite,Foreground,Centre,"SB\star02.png",320,240 M,22,280220,281220,320,298,297,343 F,3,280220,281220,1,0 S,9,280220,281220,0.3,0 R,0,280220,281220,3,1 C,0,280220,281220,128,255,255 P,0,280220,281220,A
Sprite,Foreground,Centre,"SB\star02.png",320,240 M,22,280220,281220,320,298,314,206 F,3,280220,281220,1,0 S,9,280220,281220,0.15,0 R,0,280220,281220,4,0 C,0,280220,281220,128,255,255 P,0,280220,281220,A
Sprite,Foreground,Centre,"SB\star02.png",320,240 M,22,280220,281220,320,298,301,197 F,3,280220,281220,1,0 S,9,280220,281220,0.09,0 R,0,280220,281220,4,0 C,0,280220,281220,128,255,255 P,0,280220,281220,A
Sprite,Foreground,Centre,"SB\star02.png",320,240 M,22,280220,281220,320,298,300,206 F,3,280220,281220,1,0 S,9,280220,281220,0.03,0 R,0,280220,281220,3,1 C,0,280220,281220,128,255,255 P,0,280220,281220,A
Sprite,Foreground,Centre,"SB\star01.png",320,240 M,22,280220,281220,320,298,315,353 F,3,280220,281220,1,0 S,9,280220,281220,0.11,0 R,0,280220,281220,1,0 C,0,280220,281220,128,255,255 P,0,280220,281220,A
Sprite,Foreground,Centre,"SB\star01.png",320,240 M,22,280220,281220,320,298,282,242 F,3,280220,281220,1,0 S,9,280220,281220,0.12,0 R,0,280220,281220,4,0 C,0,280220,281220,128,255,255 P,0,280220,281220,A
Sprite,Foreground,Centre,"SB\star01.png",320,240 M,22,280220,281220,320,298,298,357 F,3,280220,281220,1,0 S,9,280220,281220,0.12,0 R,0,280220,281220,4,1 C,0,280220,281220,128,255,255 P,0,280220,281220,A
Sprite,Foreground,Centre,"SB\star02.png",320,240 M,22,280220,281220,320,298,391,229 F,3,280220,281220,1,0 S,9,280220,281220,0.21,0 R,0,280220,281220,1,2 C,0,280220,281220,128,255,255 P,0,280220,281220,A
Sprite,Foreground,Centre,"SB\star02.png",320,240 M,22,280220,281220,320,298,341,234 F,3,280220,281220,1,0 S,9,280220,281220,0.22,0 R,0,280220,281220,0 C,0,280220,281220,128,255,255 P,0,280220,281220,A
Sprite,Foreground,Centre,"SB\star01.png",320,240 M,22,280220,281220,320,298,356,259 F,3,280220,281220,1,0 S,9,280220,281220,0.04,0 R,0,280220,281220,2,1 C,0,280220,281220,128,255,255 P,0,280220,281220,A
Sprite,Foreground,Centre,"SB\star01.png",320,240 M,22,280220,281220,320,298,268,284 F,3,280220,281220,1,0 S,9,280220,281220,0.27,0 R,0,280220,281220,2,1 C,0,280220,281220,128,255,255 P,0,280220,281220,A
Sprite,Foreground,Centre,"SB\star02.png",320,240 M,22,280220,281220,320,298,252,354 F,3,280220,281220,1,0 S,9,280220,281220,0.23,0 R,0,280220,281220,3,0 C,0,280220,281220,128,255,255 P,0,280220,281220,A
Sprite,Foreground,Centre,"SB\star02.png",320,240 M,22,280220,281220,320,298,381,351 F,3,280220,281220,1,0 S,9,280220,281220,0.21,0 R,0,280220,281220,6,1 C,0,280220,281220,128,255,255 P,0,280220,281220,A
Sprite,Foreground,Centre,"SB\star02.png",320,240 M,22,280220,281220,320,298,262,263 F,3,280220,281220,1,0 S,9,280220,281220,0.28,0 R,0,280220,281220,5,0 C,0,280220,281220,128,255,255 P,0,280220,281220,A
Sprite,Foreground,Centre,"SB\star01.png",320,240 M,22,280220,281220,320,298,353,371 F,3,280220,281220,1,0 S,9,280220,281220,0.17,0 R,0,280220,281220,1 C,0,280220,281220,128,255,255 P,0,280220,281220,A
Sprite,Foreground,Centre,"SB\star02.png",320,240 M,22,280220,281220,320,298,317,407 F,3,280220,281220,1,0 S,9,280220,281220,0.29,0 R,0,280220,281220,4,2 C,0,280220,281220,128,255,255 P,0,280220,281220,A
Sprite,Foreground,Centre,"SB\star02.png",320,240 M,22,280220,281220,320,298,328,366 F,3,280220,281220,1,0 S,9,280220,281220,0.24,0 R,0,280220,281220,4,0 C,0,280220,281220,128,255,255 P,0,280220,281220,A
Sprite,Foreground,Centre,"SB\star02.png",320,240 M,22,280220,281220,320,298,391,274 F,3,280220,281220,1,0 S,9,280220,281220,0.06,0 R,0,280220,281220,5,1 C,0,280220,281220,128,255,255 P,0,280220,281220,A
Sprite,Foreground,Centre,"SB\star02.png",320,240 M,22,280220,281220,320,298,296,392 F,3,280220,281220,1,0 S,9,280220,281220,0.09,0 R,0,280220,281220,1,2 C,0,280220,281220,128,255,255 P,0,280220,281220,A
Sprite,Foreground,Centre,"SB\star02.png",320,240 M,22,280220,281220,320,298,416,288 F,3,280220,281220,1,0 S,9,280220,281220,0.03,0 R,0,280220,281220,2 C,0,280220,281220,128,255,255 P,0,280220,281220,A
Sprite,Foreground,Centre,"SB\star02.png",320,240 M,22,280220,281220,320,298,341,195 F,3,280220,281220,1,0 S,9,280220,281220,0.22,0 R,0,280220,281220,6,1 C,0,280220,281220,128,255,255 P,0,280220,281220,A
Sprite,Foreground,Centre,"SB\star01.png",320,240 M,22,280220,281220,320,298,282,241 F,3,280220,281220,1,0 S,9,280220,281220,0.09,0 R,0,280220,281220,5,2 C,0,280220,281220,128,255,255 P,0,280220,281220,A
Sprite,Foreground,Centre,"SB\star02.png",320,240 M,22,280220,281220,320,298,235,239 F,3,280220,281220,1,0 S,9,280220,281220,0.22,0 R,0,280220,281220,0,2 C,0,280220,281220,128,255,255 P,0,280220,281220,A
Sprite,Foreground,Centre,"SB\star02.png",320,240 M,22,280550,281550,212,246,142,298 F,3,280550,281550,1,0 S,9,280550,281550,0.06,0 R,0,280550,281550,5,1 C,0,280550,281550,128,255,255 P,0,280550,281550,A
Sprite,Foreground,Centre,"SB\star01.png",320,240 M,22,280550,281550,212,246,309,246 F,3,280550,281550,1,0 S,9,280550,281550,0.07,0 R,0,280550,281550,5,0 C,0,280550,281550,128,255,255 P,0,280550,281550,A
Sprite,Foreground,Centre,"SB\star02.png",320,240 M,22,280550,281550,212,246,263,297 F,3,280550,281550,1,0 S,9,280550,281550,0.14,0 R,0,280550,281550,5,1 C,0,280550,281550,128,255,255 P,0,280550,281550,A
Sprite,Foreground,Centre,"SB\star02.png",320,240 M,22,280550,281550,212,246,245,144 F,3,280550,281550,1,0 S,9,280550,281550,0.1,0 R,0,280550,281550,0,1 C,0,280550,281550,128,255,255 P,0,280550,281550,A
Sprite,Foreground,Centre,"SB\star01.png",320,240 M,22,280550,281550,212,246,302,266 F,3,280550,281550,1,0 S,9,280550,281550,0.09,0 R,0,280550,281550,4,1 C,0,280550,281550,128,255,255 P,0,280550,281550,A
Sprite,Foreground,Centre,"SB\star02.png",320,240 M,22,280550,281550,212,246,275,332 F,3,280550,281550,1,0 S,9,280550,281550,0.25,0 R,0,280550,281550,0,1 C,0,280550,281550,128,255,255 P,0,280550,281550,A
Sprite,Foreground,Centre,"SB\star02.png",320,240 M,22,280550,281550,212,246,174,199 F,3,280550,281550,1,0 S,9,280550,281550,0.05,0 R,0,280550,281550,3,0 C,0,280550,281550,128,255,255 P,0,280550,281550,A
Sprite,Foreground,Centre,"SB\star01.png",320,240 M,22,280550,281550,212,246,141,245 F,3,280550,281550,1,0 S,9,280550,281550,0.3,0 R,0,280550,281550,4,1 C,0,280550,281550,128,255,255 P,0,280550,281550,A
Sprite,Foreground,Centre,"SB\star01.png",320,240 M,22,280550,281550,212,246,149,168 F,3,280550,281550,1,0 S,9,280550,281550,0.28,0 R,0,280550,281550,3,2 C,0,280550,281550,128,255,255 P,0,280550,281550,A
Sprite,Foreground,Centre,"SB\star01.png",320,240 M,22,280550,281550,212,246,136,191 F,3,280550,281550,1,0 S,9,280550,281550,0.08,0 R,0,280550,281550,1 C,0,280550,281550,128,255,255 P,0,280550,281550,A
Sprite,Foreground,Centre,"SB\star02.png",320,240 M,22,280550,281550,212,246,127,296 F,3,280550,281550,1,0 S,9,280550,281550,0.23,0 R,0,280550,281550,2,1 C,0,280550,281550,128,255,255 P,0,280550,281550,A
Sprite,Foreground,Centre,"SB\star01.png",320,240 M,22,280550,281550,212,246,141,297 F,3,280550,281550,1,0 S,9,280550,281550,0.26,0 R,0,280550,281550,0,1 C,0,280550,281550,128,255,255 P,0,280550,281550,A
Sprite,Foreground,Centre,"SB\star02.png",320,240 M,22,280550,281550,212,246,255,181 F,3,280550,281550,1,0 S,9,280550,281550,0.28,0 R,0,280550,281550,5,1 C,0,280550,281550,128,255,255 P,0,280550,281550,A
Sprite,Foreground,Centre,"SB\star02.png",320,240 M,22,280550,281550,212,246,160,247 F,3,280550,281550,1,0 S,9,280550,281550,0.25,0 R,0,280550,281550,5,2 C,0,280550,281550,128,255,255 P,0,280550,281550,A
Sprite,Foreground,Centre,"SB\star01.png",320,240 M,22,280550,281550,212,246,111,259 F,3,280550,281550,1,0 S,9,280550,281550,0.05,0 R,0,280550,281550,4,0 C,0,280550,281550,128,255,255 P,0,280550,281550,A
Sprite,Foreground,Centre,"SB\star01.png",320,240 M,22,280550,281550,212,246,239,316 F,3,280550,281550,1,0 S,9,280550,281550,0.24,0 R,0,280550,281550,4,2 C,0,280550,281550,128,255,255 P,0,280550,281550,A
Sprite,Foreground,Centre,"SB\star02.png",320,240 M,22,280550,281550,212,246,255,186 F,3,280550,281550,1,0 S,9,280550,281550,0.04,0 R,0,280550,281550,1,2 C,0,280550,281550,128,255,255 P,0,280550,281550,A
Sprite,Foreground,Centre,"SB\star01.png",320,240 M,22,280550,281550,212,246,154,315 F,3,280550,281550,1,0 S,9,280550,281550,0.2,0 R,0,280550,281550,5,1 C,0,280550,281550,128,255,255 P,0,280550,281550,A
Sprite,Foreground,Centre,"SB\star02.png",320,240 M,22,280550,281550,212,246,145,205 F,3,280550,281550,1,0 S,9,280550,281550,0.18,0 R,0,280550,281550,0 C,0,280550,281550,128,255,255 P,0,280550,281550,A
Sprite,Foreground,Centre,"SB\star02.png",320,240 M,22,280550,281550,212,246,286,317 F,3,280550,281550,1,0 S,9,280550,281550,0.12,0 R,0,280550,281550,2,1 C,0,280550,281550,128,255,255 P,0,280550,281550,A
Sprite,Foreground,Centre,"SB\star02.png",320,240 M,22,280550,281550,212,246,222,313 F,3,280550,281550,1,0 S,9,280550,281550,0.26,0 R,0,280550,281550,5,0 C,0,280550,281550,128,255,255 P,0,280550,281550,A
Sprite,Foreground,Centre,"SB\star01.png",320,240 M,22,280550,281550,212,246,304,227 F,3,280550,281550,1,0 S,9,280550,281550,0.08,0 R,0,280550,281550,0,2 C,0,280550,281550,128,255,255 P,0,280550,281550,A
Sprite,Foreground,Centre,"SB\star02.png",320,240 M,22,280550,281550,212,246,270,283 F,3,280550,281550,1,0 S,9,280550,281550,0.16,0 R,0,280550,281550,5,3 C,0,280550,281550,128,255,255 P,0,280550,281550,A
Sprite,Foreground,Centre,"SB\star01.png",320,240 M,22,280550,281550,212,246,238,316 F,3,280550,281550,1,0 S,9,280550,281550,0.16,0 R,0,280550,281550,4,1 C,0,280550,281550,128,255,255 P,0,280550,281550,A
Sprite,Foreground,Centre,"SB\star02.png",320,240 M,22,280550,281550,212,246,214,324 F,3,280550,281550,1,0 S,9,280550,281550,0.1,0 R,0,280550,281550,5,0 C,0,280550,281550,128,255,255 P,0,280550,281550,A
Sprite,Foreground,Centre,"SB\star01.png",320,240 M,22,280550,281550,212,246,211,331 F,3,280550,281550,1,0 S,9,280550,281550,0.06,0 R,0,280550,281550,2,1 C,0,280550,281550,128,255,255 P,0,280550,281550,A
Sprite,Foreground,Centre,"SB\star02.png",320,240 M,22,280550,281550,212,246,152,265 F,3,280550,281550,1,0 S,9,280550,281550,0.11,0 R,0,280550,281550,3,1 C,0,280550,281550,128,255,255 P,0,280550,281550,A
Sprite,Foreground,Centre,"SB\star01.png",320,240 M,22,280550,281550,212,246,248,294 F,3,280550,281550,1,0 S,9,280550,281550,0.12,0 R,0,280550,281550,3 C,0,280550,281550,128,255,255 P,0,280550,281550,A
Sprite,Foreground,Centre,"SB\star01.png",320,240 M,22,280550,281550,212,246,299,268 F,3,280550,281550,1,0 S,9,280550,281550,0.08,0 R,0,280550,281550,2 C,0,280550,281550,128,255,255 P,0,280550,281550,A
Sprite,Foreground,Centre,"SB\star01.png",320,240 M,22,280550,281550,212,246,279,207 F,3,280550,281550,1,0 S,9,280550,281550,0.21,0 R,0,280550,281550,1 C,0,280550,281550,128,255,255 P,0,280550,281550,A
Sprite,Foreground,Centre,"SB\star02.png",320,240 M,22,280880,281880,244,130,271,86 F,3,280880,281880,1,0 S,9,280880,281880,0.17,0 R,0,280880,281880,1 C,0,280880,281880,128,255,255 P,0,280880,281880,A
Sprite,Foreground,Centre,"SB\star01.png",320,240 M,22,280880,281880,244,130,330,148 F,3,280880,281880,1,0 S,9,280880,281880,0.29,0 R,0,280880,281880,0 C,0,280880,281880,128,255,255 P,0,280880,281880,A
Sprite,Foreground,Centre,"SB\star01.png",320,240 M,22,280880,281880,244,130,247,45 F,3,280880,281880,1,0 S,9,280880,281880,0.1,0 R,0,280880,281880,5,0 C,0,280880,281880,128,255,255 P,0,280880,281880,A
Sprite,Foreground,Centre,"SB\star01.png",320,240 M,22,280880,281880,244,130,169,115 F,3,280880,281880,1,0 S,9,280880,281880,0.26,0 R,0,280880,281880,5,2 C,0,280880,281880,128,255,255 P,0,280880,281880,A
Sprite,Foreground,Centre,"SB\star01.png",320,240 M,22,280880,281880,244,130,299,49 F,3,280880,281880,1,0 S,9,280880,281880,0.15,0 R,0,280880,281880,2,0 C,0,280880,281880,128,255,255 P,0,280880,281880,A
Sprite,Foreground,Centre,"SB\star02.png",320,240 M,22,280880,281880,244,130,202,50 F,3,280880,281880,1,0 S,9,280880,281880,0.22,0 R,0,280880,281880,2,1 C,0,280880,281880,128,255,255 P,0,280880,281880,A
Sprite,Foreground,Centre,"SB\star01.png",320,240 M,22,280880,281880,244,130,213,207 F,3,280880,281880,1,0 S,9,280880,281880,0.13,0 R,0,280880,281880,1,0 C,0,280880,281880,128,255,255 P,0,280880,281880,A
Sprite,Foreground,Centre,"SB\star01.png",320,240 M,22,280880,281880,244,130,324,162 F,3,280880,281880,1,0 S,9,280880,281880,0.13,0 R,0,280880,281880,2 C,0,280880,281880,128,255,255 P,0,280880,281880,A
Sprite,Foreground,Centre,"SB\star02.png",320,240 M,22,280880,281880,244,130,192,49 F,3,280880,281880,1,0 S,9,280880,281880,0.18,0 R,0,280880,281880,2,1 C,0,280880,281880,128,255,255 P,0,280880,281880,A
Sprite,Foreground,Centre,"SB\star01.png",320,240 M,22,280880,281880,244,130,200,162 F,3,280880,281880,1,0 S,9,280880,281880,0.13,0 R,0,280880,281880,4,1 C,0,280880,281880,128,255,255 P,0,280880,281880,A
Sprite,Foreground,Centre,"SB\star02.png",320,240 M,22,280880,281880,244,130,299,143 F,3,280880,281880,1,0 S,9,280880,281880,0.18,0 R,0,280880,281880,3,1 C,0,280880,281880,128,255,255 P,0,280880,281880,A
Sprite,Foreground,Centre,"SB\star01.png",320,240 M,22,280880,281880,244,130,259,214 F,3,280880,281880,1,0 S,9,280880,281880,0.14,0 R,0,280880,281880,4,1 C,0,280880,281880,128,255,255 P,0,280880,281880,A
Sprite,Foreground,Centre,"SB\star01.png",320,240 M,22,280880,281880,244,130,312,113 F,3,280880,281880,1,0 S,9,280880,281880,0.2,0 R,0,280880,281880,5,0 C,0,280880,281880,128,255,255 P,0,280880,281880,A
Sprite,Foreground,Centre,"SB\star02.png",320,240 M,22,280880,281880,244,130,196,156 F,3,280880,281880,1,0 S,9,280880,281880,0.08,0 R,0,280880,281880,2,1 C,0,280880,281880,128,255,255 P,0,280880,281880,A
Sprite,Foreground,Centre,"SB\star01.png",320,240 M,22,280880,281880,244,130,290,39 F,3,280880,281880,1,0 S,9,280880,281880,0.16,0 R,0,280880,281880,5,3 C,0,280880,281880,128,255,255 P,0,280880,281880,A
Sprite,Foreground,Centre,"SB\star02.png",320,240 M,22,280880,281880,244,130,212,171 F,3,280880,281880,1,0 S,9,280880,281880,0.16,0 R,0,280880,281880,0 C,0,280880,281880,128,255,255 P,0,280880,281880,A
Sprite,Foreground,Centre,"SB\star02.png",320,240 M,22,280880,281880,244,130,248,41 F,3,280880,281880,1,0 S,9,280880,281880,0.2,0 R,0,280880,281880,0,1 C,0,280880,281880,128,255,255 P,0,280880,281880,A
Sprite,Foreground,Centre,"SB\star01.png",320,240 M,22,280880,281880,244,130,152,174 F,3,280880,281880,1,0 S,9,280880,281880,0.18,0 R,0,280880,281880,4,2 C,0,280880,281880,128,255,255 P,0,280880,281880,A
Sprite,Foreground,Centre,"SB\star02.png",320,240 M,22,280880,281880,244,130,297,96 F,3,280880,281880,1,0 S,9,280880,281880,0.21,0 R,0,280880,281880,4,0 C,0,280880,281880,128,255,255 P,0,280880,281880,A
Sprite,Foreground,Centre,"SB\star02.png",320,240 M,22,280880,281880,244,130,284,47 F,3,280880,281880,1,0 S,9,280880,281880,0.24,0 R,0,280880,281880,2 C,0,280880,281880,128,255,255 P,0,280880,281880,A
Sprite,Foreground,Centre,"SB\star01.png",320,240 M,22,280880,281880,244,130,176,179 F,3,280880,281880,1,0 S,9,280880,281880,0.16,0 R,0,280880,281880,2 C,0,280880,281880,128,255,255 P,0,280880,281880,A
Sprite,Foreground,Centre,"SB\star02.png",320,240 M,22,280880,281880,244,130,292,91 F,3,280880,281880,1,0 S,9,280880,281880,0.21,0 R,0,280880,281880,1 C,0,280880,281880,128,255,255 P,0,280880,281880,A
Sprite,Foreground,Centre,"SB\star01.png",320,240 M,22,280880,281880,244,130,276,42 F,3,280880,281880,1,0 S,9,280880,281880,0.11,0 R,0,280880,281880,0 C,0,280880,281880,128,255,255 P,0,280880,281880,A
Sprite,Foreground,Centre,"SB\star02.png",320,240 M,22,280880,281880,244,130,288,68 F,3,280880,281880,1,0 S,9,280880,281880,0.21,0 R,0,280880,281880,0,2 C,0,280880,281880,128,255,255 P,0,280880,281880,A
Sprite,Foreground,Centre,"SB\star02.png",320,240 M,22,280880,281880,244,130,282,176 F,3,280880,281880,1,0 S,9,280880,281880,0.03,0 R,0,280880,281880,4,0 C,0,280880,281880,128,255,255 P,0,280880,281880,A
Sprite,Foreground,Centre,"SB\star01.png",320,240 M,22,280880,281880,244,130,204,52 F,3,280880,281880,1,0 S,9,280880,281880,0.25,0 R,0,280880,281880,1,2 C,0,280880,281880,128,255,255 P,0,280880,281880,A
Sprite,Foreground,Centre,"SB\star02.png",320,240 M,22,280880,281880,244,130,310,139 F,3,280880,281880,1,0 S,9,280880,281880,0.25,0 R,0,280880,281880,0,2 C,0,280880,281880,128,255,255 P,0,280880,281880,A
Sprite,Foreground,Centre,"SB\star02.png",320,240 M,22,280880,281880,244,130,289,94 F,3,280880,281880,1,0 S,9,280880,281880,0.12,0 R,0,280880,281880,4,1 C,0,280880,281880,128,255,255 P,0,280880,281880,A
Sprite,Foreground,Centre,"SB\star01.png",320,240 M,22,280880,281880,244,130,269,75 F,3,280880,281880,1,0 S,9,280880,281880,0.09,0 R,0,280880,281880,5,0 C,0,280880,281880,128,255,255 P,0,280880,281880,A
Sprite,Foreground,Centre,"SB\star01.png",320,240 M,22,280880,281880,244,130,248,191 F,3,280880,281880,1,0 S,9,280880,281880,0.1,0 R,0,280880,281880,4,0 C,0,280880,281880,128,255,255 P,0,280880,281880,A
//Storyboard Sound Samples

[TimingPoints]
826,329.67032967033,4,2,1,45,1,0
6100,-100,4,2,1,60,0,0
16650,-100,4,2,1,50,0,0
24562,-100,4,2,1,60,0,0
48298,-100,4,2,1,55,0,0
54891,-100,4,2,1,30,0,0
55221,-100,4,2,1,40,0,0
55551,-100,4,2,1,50,0,0
55880,-100,4,2,1,60,0,0
56210,-100,4,2,1,65,0,0
59836,344.827586206897,4,2,1,65,1,0
60180,329.67032967033,4,2,1,65,1,0
62785,329.67032967033,4,2,1,65,1,0
63114,349.854227405248,4,2,1,65,1,0
63463,329.67032967033,4,2,1,65,1,0
64122,329.67032967033,4,2,1,70,1,1
64122,-100,4,2,1,70,0,1
90496,-100,4,2,1,70,0,1
93133,-100,4,2,1,70,0,1
94452,-100,4,2,1,70,0,1
95770,-100,4,2,1,60,0,0
107639,-100,4,2,1,50,0,0
115550,342.857142857143,4,2,1,40,1,0
115551,-100,4,2,1,40,0,0
116064,331.491712707182,4,2,1,40,1,0
116395,324.324324324324,4,2,1,40,1,0
116881,326.530612244898,4,2,1,60,1,0
117370,-100,4,2,1,60,0,0
118187,329.67032967033,4,2,1,60,1,0
128736,-100,4,2,1,55,0,0
135329,-100,4,2,1,30,0,0
135659,-100,4,2,1,40,0,0
135989,-100,4,2,1,50,0,0
136318,-100,4,2,1,60,0,0
136648,-100,4,2,1,65,0,0
144560,-100,4,2,1,70,0,1
174890,-100,4,2,1,60,0,0
191208,285.714285714286,4,2,1,60,1,0
191350,329.67032967033,4,2,1,60,1,0
191679,354.505169867061,4,2,1,60,1,0
192033,329.67032967033,4,2,1,60,1,0
197980,329.67032967033,4,2,1,60,1,0
208529,-100,4,2,1,60,0,0
213144,324.324324324324,4,2,1,60,1,0
213144,-100,4,2,1,60,0,0
213792,329.67032967033,4,2,1,50,1,0
215110,-100,4,2,1,55,0,0
215770,-100,4,2,1,60,0,0
216429,-100,4,2,1,65,0,0
224341,-100,4,2,1,70,0,1
250715,-100,4,2,1,55,0,1
251374,-100,4,2,1,60,0,1
252033,-100,4,2,1,65,0,1
252693,-100,4,2,1,70,0,1
253352,-100,4,2,1,60,0,0
275440,345.821325648415,4,2,1,60,1,0
275785,329.67032967033,4,2,1,60,1,0
275785,-100,4,2,1,60,0,0
276938,300,4,2,1,60,1,0
277088,329.67032967033,4,2,1,60,1,0
278241,398.671096345515,4,2,1,60,1,0
278440,329.67032967033,4,2,1,60,1,0
279593,264.31718061674,4,2,1,60,1,0
279725,329.67032967033,4,2,1,60,1,0
279726,-100,4,2,1,60,0,0

[Colours]
Combo1 : 255,189,255
Combo2 : 170,255,170
Combo3 : 255,255,62
Combo4 : 128,255,255
Combo5 : 87,133,255

[HitObjects]
256,192,826,5,4,0:0:0:0:
97,224,5771,5,8,0:0:0:0:
119,106,6100,6,0,P|205:30|317:60,1,240,4|2,0:0|0:0,0:0:0:0:
336,178,7089,1,8,0:0:0:0:
252,264,7419,2,0,P|236:206|231:144,1,120,2|8,0:0|0:0,0:0:0:0:
130,211,8078,2,0,P|115:269|111:329,1,120,2|8,0:0|0:0,0:0:0:0:
224,372,8738,6,0,P|282:356|341:353,1,120,2|8,0:0|0:0,0:0:0:0:
460,352,9397,2,0,P|456:292|440:234,1,120,2|8,0:0|0:0,0:0:0:0:
496,128,10056,2,0,P|451:87|399:58,1,120,2|8,0:0|0:0,0:0:0:0:
280,36,10716,2,0,B|296:108|296:108|282:152,1,120,2|8,0:0|0:0,0:0:0:0:
172,202,11375,6,0,L|183:267,1,60,4|2,0:0|0:0,0:0:0:0:
270,342,11869,1,2,0:0:0:0:
386,313,12199,1,2,0:0:0:0:
442,208,12529,2,0,P|452:150|435:93,2,120,4|2|4,0:0|0:0|0:0,0:0:0:0:
340,156,13518,1,8,0:0:0:0:
176,81,14012,6,0,L|118:125,1,60,4|2,0:0|0:0,0:0:0:0:
33,192,14507,1,4,0:0:0:0:
140,244,14836,1,2,0:0:0:0:
204,344,15166,2,0,P|148:352|85:349,2,120,4|2|4,0:0|0:0|0:0,0:0:0:0:
323,330,16155,1,4,0:0:0:0:
245,168,16650,6,0,P|195:175|123:172,1,120,4|2,0:0|0:0,0:0:0:0:
126,52,17309,2,0,P|176:45|248:48,1,120,2|2,0:0|0:0,0:0:0:0:
362,74,17968,2,0,P|411:106|440:158,2,120,2|2|2,0:0|0:0|0:0,0:0:0:0:
325,188,18957,1,2,0:0:0:0:
208,216,19287,6,0,P|148:215|89:201,1,120,2|2,0:0|0:0,0:0:0:0:
3,284,19946,1,2,0:0:0:0:
95,360,20276,1,2,0:0:0:0:
211,329,20606,2,0,P|299:313|387:328,2,180,2|2|2,0:0|0:0|0:0,0:0:0:0:
93,351,21924,6,0,P|82:291|61:235,1,120,2|2,0:0|0:0,0:0:0:0:
176,200,22584,2,0,P|188:141|210:85,1,120,2|2,0:0|0:0,0:0:0:0:
317,32,23243,1,2,0:0:0:0:
376,137,23573,2,0,P|435:130|495:133,2,120,2|2|2,0:0|0:0|0:0,0:0:0:0:
294,224,24562,6,0,P|234:217|174:200,1,120,4|8,0:0|0:0,0:0:0:0:
121,176,25056,2,0,P|44:216|25:301,1,180,4|8,0:0|0:0,0:0:0:0:
139,338,25880,2,0,L|127:279,2,60,2|8|8,0:0|0:3|0:0,0:0:0:0:
194,361,26375,2,0,P|275:325|364:332,1,180,2|8,0:0|0:3,0:0:0:0:
429,231,27199,5,4,0:0:0:0:
359,132,27529,2,0,B|319:112|319:112|244:118,1,120,8|2,0:0|0:0,0:0:0:0:
184,128,28023,1,2,0:0:0:0:
84,60,28353,2,0,B|48:103|48:103|72:160|64:232,1,180,8|8,0:0|0:0,0:0:0:0:
104,336,29177,6,0,P|161:352|219:340,2,120,2|8|2,0:0|0:0|0:0,0:0:0:0:
167,236,30166,2,0,P|255:226|321:283,1,180,8|2,0:0|0:0,0:0:0:0:
420,352,30990,2,0,P|433:293|456:238,1,120,8|2,0:0|0:0,0:0:0:0:
480,184,31485,1,8,0:0:0:0:
412,84,31815,2,0,B|376:52|376:52|304:56,1,120,2|8,0:0|0:0,0:0:0:0:
185,44,32474,5,2,0:0:0:0:
185,44,32804,2,0,B|193:111|151:164|151:164|178:207,1,180,8|2,0:0|0:0,0:0:0:0:
180,328,33628,2,0,P|228:293|286:279,1,120,8|2,0:0|0:0,0:0:0:0:
344,288,34122,2,0,P|402:280|448:243,2,120,8|2|8,0:0|0:0|0:0,0:0:0:0:
356,168,35111,6,0,P|356:109|340:51,1,120,4|8,0:0|0:0,0:0:0:0:
284,28,35606,2,0,P|202:66|113:64,1,180,4|8,0:0|0:3,0:0:0:0:
32,152,36430,2,0,L|-24:132,2,60,4|8|8,0:0|0:0|0:0,0:0:0:0:
92,152,36924,2,0,P|116:237|109:327,1,180,4|8,0:0|0:0,0:0:0:0:
216,272,37749,6,0,P|272:260|348:256,1,120,4|8,0:0|0:0,0:0:0:0:
372,368,38408,2,0,P|431:364|490:351,1,120,2|8,0:0|0:0,0:0:0:0:
468,232,39067,2,0,P|475:142|451:56,2,180,2|2|8,0:0|0:0|0:0,0:0:0:0:
380,152,40386,6,0,P|321:140|261:137,1,120,2|8,0:0|0:0,0:0:0:0:
204,32,41045,2,0,P|161:74|125:122,1,120,2|8,0:0|0:0,0:0:0:0:
144,240,41705,2,0,P|92:170|6:176,2,180,2|2|8,0:0|0:0|0:0,0:0:0:0:
168,356,43023,6,0,P|227:346|286:340,1,120,4|8,0:0|0:0,0:0:0:0:
348,340,43518,2,0,P|358:281|340:224,1,120,0|2,0:0|0:0,0:0:0:0:
308,172,44012,1,8,0:0:0:0:
220,89,44342,2,0,B|151:109|93:82|93:82|41:107,2,180,2|8|0,0:0|0:0|0:0,0:0:0:0:
328,40,45661,6,0,P|370:82|391:137,1,120,2|8,0:0|0:0,0:0:0:0:
376,196,46156,2,0,P|363:254|358:313,1,120,0|2,0:0|0:0,0:0:0:0:
252,260,46815,2,0,P|262:200|280:143,2,120,0|2|2,0:0|0:0|0:0,0:0:0:0:
248,320,47639,1,8,0:0:0:0:
140,368,47968,1,8,0:3:0:0:
33,311,48298,5,6,0:0:0:0:
135,162,48793,1,2,0:0:0:0:
303,223,49287,1,2,0:0:0:0:
468,150,49782,1,8,0:0:0:0:
462,329,50276,2,0,L|343:309,1,120,8|0,0:0|0:0,0:0:0:0:
382,195,50935,5,6,0:0:0:0:
213,130,51430,1,2,0:0:0:0:
192,308,51924,1,2,0:0:0:0:
24,248,52419,1,8,0:0:0:0:
88,80,52913,2,0,L|202:3,1,120,8|4,0:0|0:0,0:0:0:0:
276,96,53573,5,4,0:0:0:0:
276,96,54891,1,0,0:0:0:0:
359,182,55221,2,0,P|418:186|476:172,2,120,8|8|8,0:0|0:0|0:0,0:0:0:0:
272,268,56210,5,12,0:0:0:0:
480,148,56869,1,12,0:0:0:0:
356,356,57529,1,12,0:0:0:0:
244,144,58188,1,2,0:0:0:0:
296,252,58518,1,8,0:0:0:0:
184,292,58847,6,0,P|126:273|-8:252,2,180,12|2|8,0:0|0:0|0:0,0:0:0:0:
216,176,60180,2,0,P|274:157|408:136,2,180,4|2|0,0:0|0:0|0:0,0:0:0:0:
96,160,61498,6,0,P|130:209|140:267,1,120,4|8,0:0|0:0,0:0:0:0:
124,324,61993,1,2,0:0:0:0:
236,368,62322,1,2,0:0:0:0:
350,332,62652,1,4,0:0:0:0:
256,188,63793,1,8,0:0:0:0:
256,188,64122,6,0,P|251:122|260:68,1,120,4|8,0:0|0:0,0:0:0:0:
300,24,64617,1,0,0:0:0:0:
360,40,64782,2,0,P|410:83|442:133,1,120,0|8,0:0|0:0,0:0:0:0:
444,248,65441,1,2,0:0:0:0:
348,320,65771,2,0,P|288:311|229:316,2,120,8|2|8,0:0|0:0|0:0,0:0:0:0:
444,248,66760,6,0,P|390:225|331:213,1,120,2|8,0:0|0:0,0:0:0:0:
272,216,67254,1,0,0:0:0:0:
213,229,67419,2,0,P|192:172|163:120,1,120,2|8,0:0|0:0,0:0:0:0:
44,144,68078,1,2,0:0:0:0:
88,32,68408,2,0,P|146:20|205:14,2,120,8|2|8,0:0|0:0|0:0,0:0:0:0:
162,119,69397,6,0,P|222:123|306:111,1,120,4|8,0:0|0:0,0:0:0:0:
340,104,69891,2,0,P|360:160|369:220,1,120,0|2,0:0|0:0,0:0:0:0:
368,280,70386,1,0,0:0:0:0:
252,244,70716,2,0,P|192:229|132:225,2,120,2|8|2,0:0|0:0|0:0,0:0:0:0:
180,340,71705,1,8,0:0:0:0:
60,324,72034,6,0,P|35:269|4:217,1,120,2|8,0:0|0:0,0:0:0:0:
76,119,72694,2,0,P|120:79|154:30,1,120,2|8,0:0|0:0,0:0:0:0:
268,64,73353,2,0,P|327:68|387:65,2,120,2|8|2,0:0|0:0|0:0,0:0:0:0:
192,156,74342,1,8,0:0:0:0:
300,208,74672,6,0,P|320:264|322:324,1,120,4|8,0:0|0:0,0:0:0:0:
268,352,75166,1,0,0:0:0:0:
212,328,75331,2,0,P|155:308|95:306,1,120,2|8,0:0|0:0,0:0:0:0:
28,208,75990,1,2,0:0:0:0:
92,108,76320,2,0,P|126:156|144:213,2,120,8|2|8,0:0|0:0|0:0,0:0:0:0:
196,48,77309,6,0,P|253:63|313:64,1,120,2|8,0:0|0:0,0:0:0:0:
372,52,77804,1,0,0:0:0:0:
416,92,77968,2,0,P|446:143|457:202,1,120,2|8,0:0|0:0,0:0:0:0:
384,296,78628,1,2,0:0:0:0:
268,268,78957,2,0,L|140:252,2,120,8|2|8,0:0|0:0|0:0,0:0:0:0:
176,345,79946,6,0,L|31:326,1,120,4|8,0:0|0:0,0:0:0:0:
13,287,80441,2,0,P|33:230|60:177,1,120,0|2,0:0|0:0,0:0:0:0:
108,141,80935,1,8,0:0:0:0:
224,176,81265,2,0,P|283:170|342:157,2,120,2|8|2,0:0|0:0|0:0,0:0:0:0:
260,60,82254,1,8,0:0:0:0:
140,68,82584,6,0,P|80:62|21:51,2,120,2|8|2,0:0|0:0|0:0,0:0:0:0:
260,60,83573,1,8,0:0:0:0:
380,76,83902,2,0,P|414:124|427:182,1,120,2|8,0:0|0:0,0:0:0:0:
408,300,84562,2,0,L|465:315,2,60,2|8|2,0:0|0:0|0:0,0:0:0:0:
348,308,85056,1,8,0:0:0:0:
288,316,85221,6,0,L|180:244,1,120,4|8,0:0|0:0,0:0:0:0:
112,156,85880,2,0,L|231:144,1,120,2|8,0:0|0:0,0:0:0:0:
352,136,86540,2,0,P|371:192|373:252,2,120,2|8|2,0:0|0:0|0:0,0:0:0:0:
252,68,87529,1,8,0:0:0:0:
132,84,87858,6,0,P|72:83|15:64,2,120,4|8|2,0:0|0:0|0:0,0:0:0:0:
212,176,88847,1,8,0:0:0:0:
188,292,89177,2,0,L|173:350,2,60,8|4|8,0:0|0:3|0:0,0:0:0:0:
244,268,89672,1,4,0:0:0:0:
364,264,90001,1,2,0:0:0:0:
323,90,90496,6,0,L|272:56,1,60,8|8,0:0|0:0,0:0:0:0:
163,104,90990,2,0,P|105:90|46:82,2,120,8|4|2,0:3|0:3|0:0,0:0:0:0:
192,156,91815,2,0,L|270:150,1,60,8|8,0:0|0:0,0:0:0:0:
302,42,92309,2,0,P|360:28|420:25,1,120,8|2,0:3|0:0,0:0:0:0:
480,28,92804,1,4,0:0:0:0:
436,140,93133,6,0,P|399:186|383:244,1,120,4|8,0:0|0:0,0:0:0:0:
376,304,93628,1,8,0:0:0:0:
324,332,93793,2,0,L|267:313,1,60,8|8,0:0|0:0,0:0:0:0:
216,348,94122,2,0,L|165:315,2,60,8|8|4,0:0|0:0|0:0,0:0:0:0:
300,60,95276,2,0,L|286:118,1,60,2|8,0:0|0:0,0:0:0:0:
260,235,95770,5,4,0:0:0:0:
43,66,107639,6,0,L|57:124,1,60,8|8,0:0|0:0,0:0:0:0:
74,182,107969,1,2,0:0:0:0:
184,134,108298,1,2,0:0:0:0:
261,225,108628,1,2,0:0:0:0:
296,176,108793,2,0,P|353:158|412:152,1,120,8|8,0:0|0:0,0:0:0:0:
432,208,109287,2,0,P|414:265|408:324,2,120,8|8|0,0:0|0:0|0:0,0:0:0:0:
500,108,110276,6,0,L|460:40,1,60,8|8,0:0|0:0,0:0:0:0:
412,44,110606,1,2,0:0:0:0:
304,92,110935,1,2,0:0:0:0:
188,60,111265,1,2,0:0:0:0:
144,100,111430,2,0,L|131:219,1,120,8|8,0:0|0:0,0:0:0:0:
125,279,111924,1,2,0:0:0:0:
225,213,112254,2,0,L|344:201,1,120,8|2,0:3|0:0,0:0:0:0:
328,320,112913,6,0,L|264:312,1,60,8|8,0:0|0:0,0:0:0:0:
208,304,113243,1,2,0:0:0:0:
96,340,113573,1,2,0:0:0:0:
32,240,113902,1,2,0:0:0:0:
32,179,114067,2,0,P|57:125|93:78,1,120,8|8,0:0|0:0,0:0:0:0:
152,96,114562,2,0,P|211:95|271:88,2,120,8|8|2,0:0|0:0|0:0,0:0:0:0:
137,215,115551,6,0,P|227:215|327:202,1,180
370,32,116557,1,0,0:0:0:0:
456,116,116881,2,0,P|470:174|478:233,1,120,4|8,0:0|0:0,0:0:0:0:
463,292,117370,2,0,P|404:278|344:275,1,120,4|2,0:0|0:0,0:0:0:0:
285,278,117860,1,8,0:0:0:0:
268,159,118188,6,0,P|252:102|228:47,1,120,4|8,0:0|0:0,0:0:0:0:
108,48,118847,2,0,P|93:105|87:165,1,120,2|8,0:0|0:0,0:0:0:0:
68,284,119506,2,0,P|156:308|248:288,2,180,2|2|8,0:0|0:0|0:0,0:0:0:0:
160,208,120825,6,0,P|215:188|275:183,1,120,2|8,0:0|0:0,0:0:0:0:
332,292,121483,2,0,B|380:280|380:280|428:228,1,120,2|8,0:0|0:0,0:0:0:0:
456,112,122144,2,0,P|379:63|292:44,2,180,2|2|8,0:0|0:0|0:0,0:0:0:0:
352,172,123461,6,0,P|338:230|332:289,1,120,4|8,0:0|0:0,0:0:0:0:
324,348,123956,2,0,P|270:325|211:313,1,120,0|2,0:0|0:0,0:0:0:0:
152,328,124450,1,8,0:0:0:0:
64,248,124780,2,0,P|91:164|169:124,2,180,2|2|8,0:0|0:0|0:0,0:0:0:0:
184,244,126099,6,0,B|224:232|224:232|308:244,1,120,2|8,0:0|0:0,0:0:0:0:
360,256,126593,2,0,P|366:196|382:138,1,120,0|2,0:0|0:0,0:0:0:0:
404,84,127088,1,8,0:0:0:0:
284,60,127417,2,0,P|229:84|180:117,2,120,12|8|8,0:0|0:0|0:0,0:0:0:0:
400,28,128406,1,8,0:0:0:0:
480,116,128736,5,6,0:0:0:0:
404,280,129230,1,2,0:0:0:0:
251,178,129725,1,2,0:0:0:0:
160,336,130219,1,8,0:0:0:0:
79,183,130714,2,0,P|75:124|84:64,1,120,8|12,0:0|0:3,0:0:0:0:
200,36,131373,5,6,0:0:0:0:
372,88,131868,1,2,0:0:0:0:
240,212,132362,1,2,0:0:0:0:
408,280,132857,1,8,0:0:0:0:
248,364,133351,2,0,P|189:352|129:348,1,120,8|8,0:0|0:3,0:0:0:0:
32,276,134011,5,4,0:0:0:0:
256,188,135329,1,0,0:0:0:0:
256,188,135659,2,0,P|315:195|374:189,2,120,8|8|8,0:0|0:0|0:0,0:0:0:0:
140,152,136648,5,6,0:0:0:0:
344,284,137307,1,6,0:0:0:0:
356,44,137967,1,4,0:0:0:0:
344,284,138626,1,2,0:0:0:0:
412,184,138956,1,8,0:0:0:0:
292,176,139285,6,0,P|234:157|100:136,2,180,12|2|8,0:0|0:0|0:0,0:0:0:0:
252,288,140604,2,0,P|310:269|444:248,2,180,12|2|8,0:0|0:0|0:0,0:0:0:0:
140,340,141923,6,0,P|124:283|122:223,1,120,8|8,0:0|0:0,0:0:0:0:
136,164,142417,1,2,0:0:0:0:
216,76,142747,1,2,0:0:0:0:
256,188,143077,1,4,0:0:0:0:
256,188,144230,1,8,0:0:0:0:
256,188,144560,6,0,P|212:137|165:103,1,120,4|8,0:0|0:0,0:0:0:0:
108,104,145055,1,0,0:0:0:0:
72,152,145219,2,0,P|64:211|69:271,1,120,2|8,0:0|0:0,0:0:0:0:
152,356,145879,1,2,0:0:0:0:
236,272,146209,2,0,P|289:232|345:213,2,120,8|2|8,0:0|0:0|0:0,0:0:0:0:
336,336,147198,6,0,L|452:306,1,120,2|8,0:0|0:0,0:0:0:0:
488,256,147693,1,0,0:0:0:0:
504,200,147857,2,0,P|488:142|442:106,1,120,2|8,0:0|0:0,0:0:0:0:
324,120,148516,1,2,0:0:0:0:
216,68,148846,2,0,P|157:55|97:47,2,120,8|2|8,0:0|0:0|0:0,0:0:0:0:
212,188,149835,6,0,P|152:194|92:190,1,120,4|8,0:0|0:0,0:0:0:0:
32,192,150330,2,0,P|25:251|29:311,1,120,0|2,0:0|0:0,0:0:0:0:
48,368,150825,1,8,0:0:0:0:
167,366,151154,2,0,L|295:346,2,120,2|8|2,0:0|0:0|0:0,0:0:0:0:
161,247,152143,1,8,0:0:0:0:
248,165,152473,6,0,P|245:105|237:45,1,120,2|8,0:0|0:0,0:0:0:0:
120,20,153132,2,0,P|111:79|108:139,1,120,2|8,0:0|0:0,0:0:0:0:
161,247,153792,2,0,P|102:240|42:239,2,120,2|8|0,0:0|0:0|0:0,0:0:0:0:
276,281,154781,1,8,0:0:0:0:
293,162,155110,6,0,P|305:104|326:48,1,120,4|8,0:0|0:0,0:0:0:0:
380,20,155605,1,0,0:0:0:0:
428,56,155769,2,0,P|436:116|437:176,1,120,2|8,0:0|0:0,0:0:0:0:
408,292,156428,1,2,0:0:0:0:
301,343,156759,2,0,P|290:284|308:228,2,120,8|2|8,0:0|0:0|0:0,0:0:0:0:
196,288,157747,6,0,P|139:269|76:272,1,120,2|8,0:0|0:0,0:0:0:0:
20,280,158242,1,0,0:0:0:0:
0,224,158407,2,0,P|-1:164|16:107,1,120,2|8,0:0|0:0,0:0:0:0:
112,32,159066,1,2,0:0:0:0:
212,96,159396,2,0,P|270:84|329:78,2,120,8|2|8,0:0|0:0|0:0,0:0:0:0:
284,192,160385,6,0,P|290:251|286:311,1,120,4|8,0:0|0:0,0:0:0:0:
264,368,160879,2,0,P|205:352|145:348,1,120,0|2,0:0|0:0,0:0:0:0:
84,348,161374,1,8,0:0:0:0:
36,235,161704,2,0,P|60:181|108:148,2,120,2|8|2,0:0|0:0|0:0,0:0:0:0:
156,260,162693,1,8,0:0:0:0:
252,188,163022,6,0,P|246:128|235:69,2,120,2|8|2,0:0|0:0|0:0,0:0:0:0:
244,308,164011,1,8,0:0:0:0:
360,332,164341,2,0,P|419:328|477:313,1,120,2|8,0:0|0:0,0:0:0:0:
420,208,165000,2,0,L|360:195,2,60,2|8|2,0:0|0:0|0:0,0:0:0:0:
480,216,165494,1,8,0:3:0:0:
508,164,165660,6,0,L|476:48,1,120,4|8,0:0|0:0,0:0:0:0:
376,112,166319,2,0,L|297:20,1,120,2|8,0:0|0:0,0:0:0:0:
216,108,166978,2,0,P|157:121|96:128,2,120,2|8|2,0:0|0:0|0:0,0:0:0:0:
312,180,167967,1,8,0:0:0:0:
216,252,168297,6,0,P|206:311|203:371,2,120,4|8|2,0:0|0:0|0:0,0:0:0:0:
328,296,169285,1,8,0:0:0:0:
312,176,169616,2,0,L|336:48,1,120,2|8,0:0|0:0,0:0:0:0:
388,36,170110,1,4,0:0:0:0:
488,100,170439,1,2,0:0:0:0:
412,263,170934,6,0,L|419:203,1,60,8|8,0:0|0:0,0:0:0:0:
316,142,171429,2,0,L|303:262,2,120,8|8|2,0:3|0:3|0:0,0:0:0:0:
256,143,172253,2,0,L|192:119,1,60,8|8,0:0|0:0,0:0:0:0:
102,191,172748,2,0,L|215:232,2,120,12|8|2,0:0|0:0|0:0,0:0:0:0:
44,176,173572,6,0,P|18:229|14:289,1,120,4|8,0:0|0:0,0:0:0:0:
36,344,174066,1,8,0:0:0:0:
96,352,174231,2,0,L|148:323,1,60,8|8,0:0|0:0,0:0:0:0:
204,344,174561,2,0,L|268:317,2,60,8|8|4,0:0|0:0|0:0,0:0:0:0:
28,100,175715,2,0,L|8:43,2,60,8|4|2,0:3|0:3|0:0,0:0:0:0:
47,155,176209,6,0,P|132:127|221:115,2,180,4|0|2,0:0|0:0|0:0,0:0:0:0:
96,264,177528,1,2,0:0:0:0:
148,295,177693,2,0,P|206:282|266:279,1,120
323,298,178187,2,0,P|331:238|344:180,1,120,2|2,0:0|0:0,0:0:0:0:
404,76,178846,6,0,P|318:48|229:32,2,180,4|0|2,0:0|0:0|0:0,0:0:0:0:
298,132,180165,1,2,0:0:0:0:
241,155,180330,2,0,P|222:211|213:271,1,120
175,317,180825,2,0,P|164:259|142:203,1,120,2|2,0:0|0:0,0:0:0:0:
83,98,181484,6,0,P|123:54|248:23,2,180,4|2|0,0:0|0:0|0:0,0:0:0:0:
32,208,182803,2,0,P|91:273|108:360,1,180,4|8,0:0|0:3,0:0:0:0:
160,331,183462,2,0,P|211:302|270:288,1,120,8|2,0:3|0:0,0:0:0:0:
356,204,184121,6,0,L|389:319,2,120,4|2|2,0:0|0:0|0:0,0:0:0:0:
372,84,185110,1,2,0:0:0:0:
316,60,185275,2,0,L|200:16,1,120,4|8,0:0|0:0,0:0:0:0:
149,43,185770,2,0,L|155:110,1,60,8|8,0:0|0:0,0:0:0:0:
138,160,186099,2,0,L|171:208,2,60,2|8|12,0:0|0:3|0:0,0:0:0:0:
32,104,186759,6,0,L|51:293,2,180,4|2|0,0:0|0:0|0:0,0:0:0:0:
172,209,188242,2,0,L|212:276,1,60,8|2,0:0|0:0,0:0:0:0:
292,344,188737,2,0,P|348:359|405:343,1,120,8|8,0:0|0:3,0:0:0:0:
348,236,189396,6,0,P|340:146|362:59,2,180,4|2|0,0:0|0:0|0:0,0:0:0:0:
200,132,190879,2,0,L|141:118,1,60,4|2,0:0|0:0,0:0:0:0:
172,236,191350,2,0,P|160:294|156:354,1,120,8|8,0:0|0:0,0:0:0:0:
59,284,192033,6,0,P|77:195|109:111,2,180,12|12|6,0:0|0:0|0:0,0:0:0:0:
172,236,193351,1,2,0:0:0:0:
224,204,193516,2,0,P|283:195|343:198,1,120,12|0,0:0|0:0,0:0:0:0:
400,212,194011,2,0,P|403:152|394:92,1,120,2|2,0:0|0:0,0:0:0:0:
284,44,194670,6,0,L|166:20,1,120,4|2,0:0|0:0,0:0:0:0:
114,49,195164,1,8,0:0:0:0:
77,96,195329,2,0,L|15:60,2,60,8|8|8,0:0|0:0|0:0,0:0:0:0:
75,156,195824,1,4,0:0:0:0:
389,30,208529,6,0,L|370:104,1,60,10|10,0:0|0:0,0:0:0:0:
75,121,209518,2,0,L|96:177,1,60,10|10,0:0|0:0,0:0:0:0:
361,317,210507,2,0,L|418:299,2,60,4|8|8,0:0|0:3|0:3,0:0:0:0:
302,331,211001,1,4,0:3:0:0:
245,350,211166,6,0,L|186:336,1,60,10|10,0:0|0:0,0:0:0:0:
64,61,212155,2,0,L|120:39,1,60,10|10,0:0|0:0,0:0:0:0:
277,125,212815,1,12,0:0:0:0:
277,125,213144,2,0,P|358:157|376:241,1,180,2|4,0:0|0:3,0:0:0:0:
356,296,213792,6,0,P|298:280|239:271,1,120,4|2,0:0|0:0,0:0:0:0:
156,356,214451,2,0,P|118:310|76:267,1,120,0|2,0:0|0:0,0:0:0:0:
160,180,215110,2,0,P|153:121|152:61,1,120,0|2,2:0|0:0,0:0:0:0:
200,24,215605,1,8,0:0:0:0:
256,40,215770,2,0,L|336:24,2,60,8|2|12,0:0|0:0|0:0,0:0:0:0:
332,132,216429,6,0,P|351:188|364:247,1,120,12|2,0:0|0:0,0:0:0:0:
368,308,216924,2,0,P|311:288|252:275,1,120,12|2,0:0|0:0,0:0:0:0:
204,307,217418,1,8,0:0:0:0:
92,352,217748,2,0,P|75:294|47:241,1,120,12|2,0:0|0:0,0:0:0:0:
20,187,218242,2,0,P|63:148|121:135,1,120,12|2,0:0|0:0,0:0:0:0:
180,152,218737,1,8,0:0:0:0:
276,80,219066,6,0,P|295:136|291:195,1,120,4|8,0:0|0:0,0:0:0:0:
256,244,219561,1,2,0:0:0:0:
368,288,219891,1,2,0:0:0:0:
444,196,220220,1,4,0:0:0:0:
375,63,222033,6,0,P|322:36|263:29,1,120,4|8,0:0|0:0,0:0:0:0:
203,35,222528,1,4,0:3:0:0:
189,154,222858,2,0,P|197:213|195:273,1,120,4|8,0:0|0:0,0:0:0:0:
193,333,223352,2,0,P|250:315|309:306,2,120,8|2|8,0:0|0:0|0:0,0:0:0:0:
72,348,224341,6,0,P|64:289|63:229,1,120,4|8,0:0|0:0,0:0:0:0:
75,169,224836,1,0,0:0:0:0:
108,119,225000,2,0,P|167:90|226:86,1,120,2|8,0:0|0:0,0:0:0:0:
328,139,225660,1,2,0:0:0:0:
252,232,225989,2,0,P|247:291|247:351,2,120,8|2|8,0:0|0:0|0:0,0:0:0:0:
356,292,226978,6,0,P|416:296|500:284,1,120,4|8,0:0|0:0,0:0:0:0:
504,236,227473,2,0,P|508:176|501:116,1,120,0|2,0:0|0:0,0:0:0:0:
468,68,227968,1,0,0:0:0:0:
348,60,228297,2,0,P|301:97|261:142,2,120,2|8|2,0:0|0:0|0:0,0:0:0:0:
392,172,229286,1,8,0:0:0:0:
356,292,229616,6,0,P|299:275|240:266,1,120,4|8,0:0|0:0,0:0:0:0:
148,344,230275,2,0,P|100:307|61:261,1,120,2|8,0:0|0:0,0:0:0:0:
72,140,230935,2,0,P|123:109|181:93,2,120,4|8|8,0:0|0:0|0:0,0:0:0:0:
168,216,231924,1,8,0:0:0:0:
288,232,232253,6,0,P|346:229|404:212,1,120,4|8,0:0|0:0,0:0:0:0:
450,175,232748,1,0,0:0:0:0:
467,118,232913,2,0,P|440:65|399:21,1,120,2|8,0:0|0:0,0:0:0:0:
284,56,233572,1,2,0:0:0:0:
193,134,233902,2,0,P|165:187|153:245,2,120,8|2|8,0:0|0:0|0:0,0:0:0:0:
268,228,234891,6,0,P|290:283|296:343,1,120,2|8,0:0|0:0,0:0:0:0:
244,372,235385,1,0,0:0:0:0:
188,356,235550,2,0,P|123:339|65:338,1,120,2|8,0:0|0:0,0:0:0:0:
4,240,236209,1,2,0:0:0:0:
76,144,236539,2,0,L|34:31,2,120,8|2|8,0:0|0:0|0:0,0:0:0:0:
168,63,237528,6,0,P|223:41|283:35,1,120,4|8,0:0|0:0,0:0:0:0:
344,48,238022,2,0,P|384:91|396:149,1,120,0|2,0:0|0:0,0:0:0:0:
380,208,238517,1,8,0:0:0:0:
279,144,238847,2,0,P|263:201|273:260,2,120,2|8|2,0:0|0:0|0:0,0:0:0:0:
344,48,239836,1,8,0:0:0:0:
224,48,240165,6,0,P|165:33|108:15,2,120,2|8|0,0:0|0:0|0:0,0:0:0:0:
136,128,241154,1,8,0:0:0:0:
76,232,241484,2,0,P|60:289|56:349,1,120,2|8,0:0|0:0,0:0:0:0:
173,307,242143,2,0,L|201:239,2,60,2|8|2,0:0|0:0|0:0,0:0:0:0:
192,364,242638,1,4,0:3:0:0:
252,352,242803,6,0,P|310:340|370:332,1,120,4|8,0:0|0:0,0:0:0:0:
340,216,243462,2,0,L|316:140,2,60,2|2|8,0:0|0:0|0:0,0:0:0:0:
456,252,244121,2,0,L|466:132,1,120,2|8,0:0|0:0,0:0:0:0:
384,44,244781,2,0,P|324:36|264:41,1,120,2|8,0:0|0:0,0:0:0:0:
172,116,245440,6,0,B|52:56,2,120,4|8|2,0:0|0:0|0:0,0:0:0:0:
276,176,246429,1,8,0:3:0:0:
172,236,246759,2,0,L|116:272,2,60,4|4|8,0:0|0:3|0:0,0:0:0:0:
224,204,247253,1,10,0:0:0:0:
212,323,247583,1,4,0:0:0:0:
317,177,248077,6,0,L|310:117,1,60,8|8,0:0|0:0,0:0:0:0:
430,122,248572,2,0,L|444:241,2,120,8|8|0,0:3|0:3|0:0,0:0:0:0:
450,65,249396,2,0,L|386:28,1,60,4|8,0:0|0:0,0:0:0:0:
310,117,249891,2,0,L|204:59,2,120,12|8|4,0:0|0:3|0:3,0:0:0:0:
354,157,250715,6,0,P|366:215|368:275,1,120,4|8,0:0|0:0,0:0:0:0:
272,348,251374,2,0,P|221:316|165:294,1,120,8|8,0:0|0:0,0:0:0:0:
48,324,252033,2,0,P|60:265|62:205,1,120,8|8,0:0|0:0,0:0:0:0:
64,144,252528,1,8,0:0:0:0:
104,100,252693,2,0,L|147:58,1,60,8|8,0:0|0:0,0:0:0:0:
197,91,253022,2,0,L|255:77,2,60,8|8|0,0:0|0:0|0:0,0:0:0:0:
256,196,254341,1,8,0:0:0:0:
256,196,254671,6,0,L|376:184,1,120,4|8,0:0|0:0,0:0:0:0:
436,180,255165,1,0,0:0:0:0:
451,123,255330,2,0,P|431:67|391:23,1,120,2|8,0:0|0:0,0:0:0:0:
276,48,255989,1,2,0:0:0:0:
167,96,256319,2,0,P|108:103|48:104,2,120,8|0|8,0:0|0:0|0:0,0:0:0:0:
147,216,257308,6,0,P|128:272|126:332,1,120,2|8,0:0|0:0,0:0:0:0:
180,360,257803,1,0,0:0:0:0:
236,336,257968,2,0,P|292:316|352:314,1,120,2|8,0:0|0:0,0:0:0:0:
463,268,258627,2,0,P|476:181|424:108,2,180,8|2|8,0:0|0:0|0:0,0:0:0:0:
360,208,259946,6,0,B|312:192|312:192|244:206,1,120,4|8,0:0|0:0,0:0:0:0:
180,308,260605,2,0,B|124:328|61:313,1,120,2|8,0:0|0:0,0:0:0:0:
28,200,261264,2,0,L|1:145,2,60,2|2|8,0:0|0:0|0:0,0:0:0:0:
98,102,261924,2,0,L|126:45,2,60,0|2|8,0:0|0:0|0:0,0:0:0:0:
144,212,262583,6,0,P|201:195|261:191,1,120,2|8,0:0|0:0,0:0:0:0:
314,299,263242,2,0,L|373:267,1,60,2|2,0:0|0:0,0:0:0:0:
424,296,263572,2,0,L|463:251,2,60,8|0|2,0:0|0:0|0:0,0:0:0:0:
396,179,264231,2,0,P|399:120|411:61,2,120,8|8|8,0:0|0:0|0:0,0:0:0:0:
308,100,265220,6,0,P|253:77|194:63,1,120,2|8,0:0|0:0,0:0:0:0:
132,64,265715,1,0,0:0:0:0:
88,104,265880,2,0,P|81:163|84:223,1,120,2|8,0:0|0:0,0:0:0:0:
152,324,266539,1,2,0:0:0:0:
256,268,266869,2,0,B|300:252|300:252|372:263,2,120,8|0|8,0:0|0:0|0:0,0:0:0:0:
236,148,267858,6,0,L|346:100,1,120,2|8,0:0|0:0,0:0:0:0:
400,76,268352,1,0,0:0:0:0:
456,96,268517,2,0,P|472:153|473:213,1,120,2|8,0:0|0:0,0:0:0:0:
428,324,269176,2,0,P|344:304|236:304,2,180,8|2|8,0:0|0:0|0:0,0:0:0:0:
375,216,270495,6,0,P|316:208|256:209,1,120,4|8,0:0|0:0,0:0:0:0:
196,224,270989,1,0,0:0:0:0:
136,236,271154,2,0,P|119:178|127:119,1,120,2|8,0:0|0:0,0:0:0:0:
184,12,271814,2,0,P|226:53|250:108,1,120,2|8,0:0|0:0,0:0:0:0:
368,84,272473,2,0,L|444:68,2,60,2|2|8,0:0|0:0|0:0,0:0:0:0:
328,196,273132,6,0,P|387:188|447:187,1,120,4|8,0:0|0:0,0:0:0:0:
504,212,273627,1,0,0:0:0:0:
499,272,273792,2,0,P|474:325|422:351,1,120,2|8,0:0|0:0,0:0:0:0:
304,336,274451,2,0,L|180:308,1,120,12|8,0:0|0:0,0:0:0:0:
128,292,274946,1,8,0:0:0:0:
124,232,275110,2,0,L|168:180,1,60,8|8,0:0|0:0,0:0:0:0:
152,128,275440,2,0,L|216:92,1,60,8|8,0:0|0:0,0:0:0:0:
256,68,275785,5,0,0:0:0:0:
256,68,277088,2,0,P|240:125|242:185,1,120,12|8,0:0|0:0,0:0:0:0:
254,244,277583,1,2,0:0:0:0:
254,244,277913,1,6,0:0:0:0:
430,248,278440,5,0,0:0:0:0:
430,248,279726,2,0,P|372:231|312:231,1,120,6|8,0:0|0:0,0:0:0:0:
254,244,280220,1,2,0:0:0:0:
148,192,280550,1,8,0:0:0:0:
180,76,280878,1,4,0:0:0:0:
