osu file format v14

[General]
AudioFilename: MELODY FLAG.mp3
AudioLeadIn: 0
PreviewTime: 63114
Countdown: 0
SampleSet: Soft
StackLeniency: 0.7
Mode: 0
LetterboxInBreaks: 0
EpilepsyWarning: 1
WidescreenStoryboard: 1

[Editor]
DistanceSpacing: 1.1
BeatDivisor: 4
GridSize: 4
TimelineZoom: 1

[Metadata]
Title:MELODY FLAG
TitleUnicode:MELODY FLAG
Artist:Inori Minase
ArtistUnicode:水瀬いのり
Creator:Chirony
Version:Easy
Source:水瀬いのり MELODY FLAG
Tags:中野領太 ryota nakano
BeatmapID:1294191
BeatmapSetID:613403

[Difficulty]
HPDrainRate:2
CircleSize:2.9
OverallDifficulty:2
ApproachRate:3
SliderMultiplier:0.799999999999999
SliderTickRate:1

[Events]
//Background and Video events
0,0,"BG.jpg",0,0
//Break Periods
2,1026,4331
2,95970,106199
2,197968,207089
//Storyboard Layer 0 (Background)
//Storyboard Layer 1 (Fail)
//Storyboard Layer 2 (Pass)
//Storyboard Layer 3 (Foreground)
Sprite,Foreground,Centre,"SB\ring.png",331,93 F,2,214451,214856,1,0 S,7,214451,214856,0.3,0.8 C,0,214451,214856,87,133,255 P,0,214451,214856,A
Sprite,Foreground,Centre,"SB\ring.png",412,134 F,2,216099,216504,1,0 S,7,216099,216504,0.3,0.8 C,0,216099,216504,87,133,255 P,0,216099,216504,A
Sprite,Foreground,Centre,"SB\ring.png",472,198 F,2,216429,216834,1,0 S,7,216429,216834,0.3,0.8 C,0,216429,216834,255,189,255 P,0,216429,216834,A
Sprite,Foreground,Centre,"SB\star02.png",320,240 M,22,216429,217134,472,198,417,163 F,3,216429,217134,1,0 S,9,216429,217134,0.21,0 R,0,216429,217134,1,2 C,0,216429,217134,255,189,255 P,0,216429,217134,A
Sprite,Foreground,Centre,"SB\star01.png",320,240 M,22,216429,217134,472,198,344,286 F,3,216429,217134,1,0 S,9,216429,217134,0.38,0 R,0,216429,217134,1,0 C,0,216429,217134,255,189,255 P,0,216429,217134,A
Sprite,Foreground,Centre,"SB\star01.png",320,240 M,22,216429,217134,472,198,454,272 F,3,216429,217134,1,0 S,9,216429,217134,0.34,0 R,0,216429,217134,3,0 C,0,216429,217134,255,189,255 P,0,216429,217134,A
Sprite,Foreground,Centre,"SB\star01.png",320,240 M,22,216429,217134,472,198,542,126 F,3,216429,217134,1,0 S,9,216429,217134,0.24,0 R,0,216429,217134,1 C,0,216429,217134,255,189,255 P,0,216429,217134,A
Sprite,Foreground,Centre,"SB\star02.png",320,240 M,22,216429,217134,472,198,396,86 F,3,216429,217134,1,0 S,9,216429,217134,0.19,0 R,0,216429,217134,0 C,0,216429,217134,255,189,255 P,0,216429,217134,A
Sprite,Foreground,Centre,"SB\star02.png",320,240 M,22,216429,217134,472,198,457,362 F,3,216429,217134,1,0 S,9,216429,217134,0.12,0 R,0,216429,217134,1,3 C,0,216429,217134,255,189,255 P,0,216429,217134,A
Sprite,Foreground,Centre,"SB\star01.png",320,240 M,22,216429,217134,472,198,355,205 F,3,216429,217134,1,0 S,9,216429,217134,0.11,0 R,0,216429,217134,2,0 C,0,216429,217134,255,189,255 P,0,216429,217134,A
Sprite,Foreground,Centre,"SB\star02.png",320,240 M,22,216429,217134,472,198,600,186 F,3,216429,217134,1,0 S,9,216429,217134,0.28,0 R,0,216429,217134,1,2 C,0,216429,217134,255,189,255 P,0,216429,217134,A
Sprite,Foreground,Centre,"SB\star01.png",320,240 M,22,216429,217134,472,198,545,167 F,3,216429,217134,1,0 S,9,216429,217134,0.28,0 R,0,216429,217134,2,1 C,0,216429,217134,255,189,255 P,0,216429,217134,A
Sprite,Foreground,Centre,"SB\star02.png",320,240 M,22,216429,217134,472,198,511,292 F,3,216429,217134,1,0 S,9,216429,217134,0.11,0 R,0,216429,217134,0,1 C,0,216429,217134,255,189,255 P,0,216429,217134,A
Sprite,Foreground,Centre,"SB\star02.png",320,240 M,22,216429,217134,472,198,493,31 F,3,216429,217134,1,0 S,9,216429,217134,0.19,0 R,0,216429,217134,0,2 C,0,216429,217134,255,189,255 P,0,216429,217134,A
Sprite,Foreground,Centre,"SB\star01.png",320,240 M,22,216429,217134,472,198,452,69 F,3,216429,217134,1,0 S,9,216429,217134,0.24,0 R,0,216429,217134,2,0 C,0,216429,217134,255,189,255 P,0,216429,217134,A
Sprite,Foreground,Centre,"SB\star02.png",320,240 M,22,216429,217134,472,198,509,259 F,3,216429,217134,1,0 S,9,216429,217134,0.39,0 R,0,216429,217134,5,0 C,0,216429,217134,255,189,255 P,0,216429,217134,A
Sprite,Foreground,Centre,"SB\star02.png",320,240 M,22,216429,217134,472,198,317,232 F,3,216429,217134,1,0 S,9,216429,217134,0.19,0 R,0,216429,217134,5,1 C,0,216429,217134,255,189,255 P,0,216429,217134,A
Sprite,Foreground,Centre,"SB\star01.png",320,240 M,22,216429,217134,472,198,626,211 F,3,216429,217134,1,0 S,9,216429,217134,0.38,0 R,0,216429,217134,0,2 C,0,216429,217134,255,189,255 P,0,216429,217134,A
Sprite,Foreground,Centre,"SB\star02.png",320,240 M,22,216429,217134,472,198,552,77 F,3,216429,217134,1,0 S,9,216429,217134,0.19,0 R,0,216429,217134,4,2 C,0,216429,217134,255,189,255 P,0,216429,217134,A
Sprite,Foreground,Centre,"SB\star01.png",320,240 M,22,216429,217134,472,198,433,101 F,3,216429,217134,1,0 S,9,216429,217134,0.37,0 R,0,216429,217134,4,0 C,0,216429,217134,255,189,255 P,0,216429,217134,A
Sprite,Foreground,Centre,"SB\star01.png",320,240 M,22,216429,217134,472,198,541,168 F,3,216429,217134,1,0 S,9,216429,217134,0.33,0 R,0,216429,217134,1,2 C,0,216429,217134,255,189,255 P,0,216429,217134,A
Sprite,Foreground,Centre,"SB\star01.png",320,240 M,22,216429,217134,472,198,571,233 F,3,216429,217134,1,0 S,9,216429,217134,0.1,0 R,0,216429,217134,3 C,0,216429,217134,255,189,255 P,0,216429,217134,A
Sprite,Foreground,Centre,"SB\star02.png",320,240 M,22,216429,217134,472,198,457,137 F,3,216429,217134,1,0 S,9,216429,217134,0.17,0 R,0,216429,217134,1 C,0,216429,217134,255,189,255 P,0,216429,217134,A
Sprite,Foreground,Centre,"SB\star02.png",320,240 M,22,216429,217134,472,198,412,174 F,3,216429,217134,1,0 S,9,216429,217134,0.25,0 R,0,216429,217134,1,3 C,0,216429,217134,255,189,255 P,0,216429,217134,A
Sprite,Foreground,Centre,"SB\star01.png",320,240 M,22,216429,217134,472,198,399,317 F,3,216429,217134,1,0 S,9,216429,217134,0.32,0 R,0,216429,217134,5,0 C,0,216429,217134,255,189,255 P,0,216429,217134,A
Sprite,Foreground,Centre,"SB\star02.png",320,240 M,22,216429,217134,472,198,480,290 F,3,216429,217134,1,0 S,9,216429,217134,0.23,0 R,0,216429,217134,1,0 C,0,216429,217134,255,189,255 P,0,216429,217134,A
Sprite,Foreground,Centre,"SB\star02.png",320,240 M,22,216429,217134,472,198,454,115 F,3,216429,217134,1,0 S,9,216429,217134,0.17,0 R,0,216429,217134,5,2 C,0,216429,217134,255,189,255 P,0,216429,217134,A
Sprite,Foreground,Centre,"SB\star01.png",320,240 M,22,216429,217134,472,198,334,281 F,3,216429,217134,1,0 S,9,216429,217134,0.06,0 R,0,216429,217134,5,2 C,0,216429,217134,255,189,255 P,0,216429,217134,A
Sprite,Foreground,Centre,"SB\star02.png",320,240 M,22,216429,217134,472,198,357,185 F,3,216429,217134,1,0 S,9,216429,217134,0.27,0 R,0,216429,217134,3 C,0,216429,217134,255,189,255 P,0,216429,217134,A
Sprite,Foreground,Centre,"SB\star02.png",320,240 M,22,216429,217134,472,198,389,126 F,3,216429,217134,1,0 S,9,216429,217134,0.2,0 R,0,216429,217134,5,0 C,0,216429,217134,255,189,255 P,0,216429,217134,A
Sprite,Foreground,Centre,"SB\star02.png",320,240 M,22,216429,217134,472,198,601,143 F,3,216429,217134,1,0 S,9,216429,217134,0.39,0 R,0,216429,217134,3,0 C,0,216429,217134,255,189,255 P,0,216429,217134,A
Sprite,Foreground,Centre,"SB\star01.png",320,240 M,22,216429,217134,472,198,555,168 F,3,216429,217134,1,0 S,9,216429,217134,0.12,0 R,0,216429,217134,4,0 C,0,216429,217134,255,189,255 P,0,216429,217134,A
Sprite,Foreground,Centre,"SB\star01.png",320,240 M,22,216429,217134,472,198,454,125 F,3,216429,217134,1,0 S,9,216429,217134,0.16,0 R,0,216429,217134,2,0 C,0,216429,217134,255,189,255 P,0,216429,217134,A
Sprite,Foreground,Centre,"SB\ring.png",384,206 F,2,217748,218153,1,0 S,7,217748,218153,0.3,0.8 C,0,217748,218153,255,189,255 P,0,217748,218153,A
Sprite,Foreground,Centre,"SB\star02.png",320,240 M,22,217748,218453,384,206,412,107 F,3,217748,218453,1,0 S,9,217748,218453,0.11,0 R,0,217748,218453,0,3 C,0,217748,218453,255,189,255 P,0,217748,218453,A
Sprite,Foreground,Centre,"SB\star02.png",320,240 M,22,217748,218453,384,206,551,211 F,3,217748,218453,1,0 S,9,217748,218453,0.27,0 R,0,217748,218453,0 C,0,217748,218453,255,189,255 P,0,217748,218453,A
Sprite,Foreground,Centre,"SB\star02.png",320,240 M,22,217748,218453,384,206,463,207 F,3,217748,218453,1,0 S,9,217748,218453,0.21,0 R,0,217748,218453,1 C,0,217748,218453,255,189,255 P,0,217748,218453,A
Sprite,Foreground,Centre,"SB\star02.png",320,240 M,22,217748,218453,384,206,294,62 F,3,217748,218453,1,0 S,9,217748,218453,0.08,0 R,0,217748,218453,2,0 C,0,217748,218453,255,189,255 P,0,217748,218453,A
Sprite,Foreground,Centre,"SB\star02.png",320,240 M,22,217748,218453,384,206,291,108 F,3,217748,218453,1,0 S,9,217748,218453,0.26,0 R,0,217748,218453,5,2 C,0,217748,218453,255,189,255 P,0,217748,218453,A
Sprite,Foreground,Centre,"SB\star01.png",320,240 M,22,217748,218453,384,206,468,65 F,3,217748,218453,1,0 S,9,217748,218453,0.19,0 R,0,217748,218453,5,1 C,0,217748,218453,255,189,255 P,0,217748,218453,A
Sprite,Foreground,Centre,"SB\star02.png",320,240 M,22,217748,218453,384,206,371,290 F,3,217748,218453,1,0 S,9,217748,218453,0.31,0 R,0,217748,218453,5,2 C,0,217748,218453,255,189,255 P,0,217748,218453,A
Sprite,Foreground,Centre,"SB\star02.png",320,240 M,22,217748,218453,384,206,478,82 F,3,217748,218453,1,0 S,9,217748,218453,0.32,0 R,0,217748,218453,0 C,0,217748,218453,255,189,255 P,0,217748,218453,A
Sprite,Foreground,Centre,"SB\star01.png",320,240 M,22,217748,218453,384,206,409,77 F,3,217748,218453,1,0 S,9,217748,218453,0.1,0 R,0,217748,218453,5,2 C,0,217748,218453,255,189,255 P,0,217748,218453,A
Sprite,Foreground,Centre,"SB\star02.png",320,240 M,22,217748,218453,384,206,441,266 F,3,217748,218453,1,0 S,9,217748,218453,0.08,0 R,0,217748,218453,1 C,0,217748,218453,255,189,255 P,0,217748,218453,A
Sprite,Foreground,Centre,"SB\star02.png",320,240 M,22,217748,218453,384,206,435,244 F,3,217748,218453,1,0 S,9,217748,218453,0.08,0 R,0,217748,218453,3,0 C,0,217748,218453,255,189,255 P,0,217748,218453,A
Sprite,Foreground,Centre,"SB\star02.png",320,240 M,22,217748,218453,384,206,371,325 F,3,217748,218453,1,0 S,9,217748,218453,0.31,0 R,0,217748,218453,3,0 C,0,217748,218453,255,189,255 P,0,217748,218453,A
Sprite,Foreground,Centre,"SB\star02.png",320,240 M,22,217748,218453,384,206,445,90 F,3,217748,218453,1,0 S,9,217748,218453,0.2,0 R,0,217748,218453,3,2 C,0,217748,218453,255,189,255 P,0,217748,218453,A
Sprite,Foreground,Centre,"SB\star02.png",320,240 M,22,217748,218453,384,206,304,133 F,3,217748,218453,1,0 S,9,217748,218453,0.32,0 R,0,217748,218453,0,2 C,0,217748,218453,255,189,255 P,0,217748,218453,A
Sprite,Foreground,Centre,"SB\star02.png",320,240 M,22,217748,218453,384,206,517,213 F,3,217748,218453,1,0 S,9,217748,218453,0.12,0 R,0,217748,218453,5,2 C,0,217748,218453,255,189,255 P,0,217748,218453,A
Sprite,Foreground,Centre,"SB\star02.png",320,240 M,22,217748,218453,384,206,270,291 F,3,217748,218453,1,0 S,9,217748,218453,0.2,0 R,0,217748,218453,5,0 C,0,217748,218453,255,189,255 P,0,217748,218453,A
Sprite,Foreground,Centre,"SB\star01.png",320,240 M,22,217748,218453,384,206,358,317 F,3,217748,218453,1,0 S,9,217748,218453,0.26,0 R,0,217748,218453,5,2 C,0,217748,218453,255,189,255 P,0,217748,218453,A
Sprite,Foreground,Centre,"SB\star02.png",320,240 M,22,217748,218453,384,206,332,116 F,3,217748,218453,1,0 S,9,217748,218453,0.16,0 R,0,217748,218453,3,2 C,0,217748,218453,255,189,255 P,0,217748,218453,A
Sprite,Foreground,Centre,"SB\star02.png",320,240 M,22,217748,218453,384,206,501,225 F,3,217748,218453,1,0 S,9,217748,218453,0.35,0 R,0,217748,218453,3,2 C,0,217748,218453,255,189,255 P,0,217748,218453,A
Sprite,Foreground,Centre,"SB\star02.png",320,240 M,22,217748,218453,384,206,354,114 F,3,217748,218453,1,0 S,9,217748,218453,0.17,0 R,0,217748,218453,1,2 C,0,217748,218453,255,189,255 P,0,217748,218453,A
Sprite,Foreground,Centre,"SB\star02.png",320,240 M,22,217748,218453,384,206,395,330 F,3,217748,218453,1,0 S,9,217748,218453,0.11,0 R,0,217748,218453,2,0 C,0,217748,218453,255,189,255 P,0,217748,218453,A
Sprite,Foreground,Centre,"SB\star01.png",320,240 M,22,217748,218453,384,206,315,92 F,3,217748,218453,1,0 S,9,217748,218453,0.38,0 R,0,217748,218453,1,3 C,0,217748,218453,255,189,255 P,0,217748,218453,A
Sprite,Foreground,Centre,"SB\star02.png",320,240 M,22,217748,218453,384,206,474,269 F,3,217748,218453,1,0 S,9,217748,218453,0.25,0 R,0,217748,218453,4,1 C,0,217748,218453,255,189,255 P,0,217748,218453,A
Sprite,Foreground,Centre,"SB\star02.png",320,240 M,22,217748,218453,384,206,434,44 F,3,217748,218453,1,0 S,9,217748,218453,0.14,0 R,0,217748,218453,3,1 C,0,217748,218453,255,189,255 P,0,217748,218453,A
Sprite,Foreground,Centre,"SB\star02.png",320,240 M,22,217748,218453,384,206,376,85 F,3,217748,218453,1,0 S,9,217748,218453,0.21,0 R,0,217748,218453,1,2 C,0,217748,218453,255,189,255 P,0,217748,218453,A
Sprite,Foreground,Centre,"SB\star02.png",320,240 M,22,217748,218453,384,206,374,293 F,3,217748,218453,1,0 S,9,217748,218453,0.22,0 R,0,217748,218453,0,2 C,0,217748,218453,255,189,255 P,0,217748,218453,A
Sprite,Foreground,Centre,"SB\star02.png",320,240 M,22,217748,218453,384,206,298,200 F,3,217748,218453,1,0 S,9,217748,218453,0.33,0 R,0,217748,218453,2,0 C,0,217748,218453,255,189,255 P,0,217748,218453,A
Sprite,Foreground,Centre,"SB\star02.png",320,240 M,22,217748,218453,384,206,514,146 F,3,217748,218453,1,0 S,9,217748,218453,0.21,0 R,0,217748,218453,3,0 C,0,217748,218453,255,189,255 P,0,217748,218453,A
Sprite,Foreground,Centre,"SB\star02.png",320,240 M,22,217748,218453,384,206,366,87 F,3,217748,218453,1,0 S,9,217748,218453,0.28,0 R,0,217748,218453,6,1 C,0,217748,218453,255,189,255 P,0,217748,218453,A
Sprite,Foreground,Centre,"SB\star01.png",320,240 M,22,217748,218453,384,206,284,86 F,3,217748,218453,1,0 S,9,217748,218453,0.05,0 R,0,217748,218453,5,3 C,0,217748,218453,255,189,255 P,0,217748,218453,A
Sprite,Foreground,Centre,"SB\ring.png",424,126 F,2,219066,219471,1,0 S,7,219066,219471,0.3,0.8 C,0,219066,219471,170,255,170 P,0,219066,219471,A
Sprite,Foreground,Centre,"SB\star01.png",320,240 M,22,219066,219771,424,126,493,171 F,3,219066,219771,1,0 S,9,219066,219771,0.18,0 R,0,219066,219771,1,0 C,0,219066,219771,170,255,170 P,0,219066,219771,A
Sprite,Foreground,Centre,"SB\star02.png",320,240 M,22,219066,219771,424,126,559,27 F,3,219066,219771,1,0 S,9,219066,219771,0.09,0 R,0,219066,219771,1 C,0,219066,219771,170,255,170 P,0,219066,219771,A
Sprite,Foreground,Centre,"SB\star01.png",320,240 M,22,219066,219771,424,126,511,84 F,3,219066,219771,1,0 S,9,219066,219771,0.33,0 R,0,219066,219771,4,1 C,0,219066,219771,170,255,170 P,0,219066,219771,A
Sprite,Foreground,Centre,"SB\star02.png",320,240 M,22,219066,219771,424,126,486,93 F,3,219066,219771,1,0 S,9,219066,219771,0.31,0 R,0,219066,219771,3,0 C,0,219066,219771,170,255,170 P,0,219066,219771,A
Sprite,Foreground,Centre,"SB\star02.png",320,240 M,22,219066,219771,424,126,429,215 F,3,219066,219771,1,0 S,9,219066,219771,0.13,0 R,0,219066,219771,3,0 C,0,219066,219771,170,255,170 P,0,219066,219771,A
Sprite,Foreground,Centre,"SB\star02.png",320,240 M,22,219066,219771,424,126,579,62 F,3,219066,219771,1,0 S,9,219066,219771,0.28,0 R,0,219066,219771,0,1 C,0,219066,219771,170,255,170 P,0,219066,219771,A
Sprite,Foreground,Centre,"SB\star01.png",320,240 M,22,219066,219771,424,126,343,54 F,3,219066,219771,1,0 S,9,219066,219771,0.4,0 R,0,219066,219771,0 C,0,219066,219771,170,255,170 P,0,219066,219771,A
Sprite,Foreground,Centre,"SB\star02.png",320,240 M,22,219066,219771,424,126,509,55 F,3,219066,219771,1,0 S,9,219066,219771,0.08,0 R,0,219066,219771,1,0 C,0,219066,219771,170,255,170 P,0,219066,219771,A
Sprite,Foreground,Centre,"SB\star02.png",320,240 M,22,219066,219771,424,126,360,96 F,3,219066,219771,1,0 S,9,219066,219771,0.23,0 R,0,219066,219771,0,2 C,0,219066,219771,170,255,170 P,0,219066,219771,A
Sprite,Foreground,Centre,"SB\star01.png",320,240 M,22,219066,219771,424,126,499,12 F,3,219066,219771,1,0 S,9,219066,219771,0.07,0 R,0,219066,219771,3,1 C,0,219066,219771,170,255,170 P,0,219066,219771,A
Sprite,Foreground,Centre,"SB\star01.png",320,240 M,22,219066,219771,424,126,397,60 F,3,219066,219771,1,0 S,9,219066,219771,0.18,0 R,0,219066,219771,3,1 C,0,219066,219771,170,255,170 P,0,219066,219771,A
Sprite,Foreground,Centre,"SB\star01.png",320,240 M,22,219066,219771,424,126,486,116 F,3,219066,219771,1,0 S,9,219066,219771,0.17,0 R,0,219066,219771,4,2 C,0,219066,219771,170,255,170 P,0,219066,219771,A
Sprite,Foreground,Centre,"SB\star02.png",320,240 M,22,219066,219771,424,126,536,225 F,3,219066,219771,1,0 S,9,219066,219771,0.11,0 R,0,219066,219771,1,2 C,0,219066,219771,170,255,170 P,0,219066,219771,A
Sprite,Foreground,Centre,"SB\star01.png",320,240 M,22,219066,219771,424,126,355,157 F,3,219066,219771,1,0 S,9,219066,219771,0.34,0 R,0,219066,219771,3,2 C,0,219066,219771,170,255,170 P,0,219066,219771,A
Sprite,Foreground,Centre,"SB\star02.png",320,240 M,22,219066,219771,424,126,369,216 F,3,219066,219771,1,0 S,9,219066,219771,0.4,0 R,0,219066,219771,3,1 C,0,219066,219771,170,255,170 P,0,219066,219771,A
Sprite,Foreground,Centre,"SB\star01.png",320,240 M,22,219066,219771,424,126,286,123 F,3,219066,219771,1,0 S,9,219066,219771,0.07,0 R,0,219066,219771,2,1 C,0,219066,219771,170,255,170 P,0,219066,219771,A
Sprite,Foreground,Centre,"SB\star01.png",320,240 M,22,219066,219771,424,126,323,150 F,3,219066,219771,1,0 S,9,219066,219771,0.05,0 R,0,219066,219771,4,2 C,0,219066,219771,170,255,170 P,0,219066,219771,A
Sprite,Foreground,Centre,"SB\star02.png",320,240 M,22,219066,219771,424,126,322,218 F,3,219066,219771,1,0 S,9,219066,219771,0.16,0 R,0,219066,219771,2 C,0,219066,219771,170,255,170 P,0,219066,219771,A
Sprite,Foreground,Centre,"SB\star01.png",320,240 M,22,219066,219771,424,126,540,162 F,3,219066,219771,1,0 S,9,219066,219771,0.39,0 R,0,219066,219771,1,0 C,0,219066,219771,170,255,170 P,0,219066,219771,A
Sprite,Foreground,Centre,"SB\star02.png",320,240 M,22,219066,219771,424,126,501,106 F,3,219066,219771,1,0 S,9,219066,219771,0.18,0 R,0,219066,219771,5,1 C,0,219066,219771,170,255,170 P,0,219066,219771,A
Sprite,Foreground,Centre,"SB\star02.png",320,240 M,22,219066,219771,424,126,485,143 F,3,219066,219771,1,0 S,9,219066,219771,0.36,0 R,0,219066,219771,1 C,0,219066,219771,170,255,170 P,0,219066,219771,A
Sprite,Foreground,Centre,"SB\star02.png",320,240 M,22,219066,219771,424,126,483,-2 F,3,219066,219771,1,0 S,9,219066,219771,0.16,0 R,0,219066,219771,1,2 C,0,219066,219771,170,255,170 P,0,219066,219771,A
Sprite,Foreground,Centre,"SB\star01.png",320,240 M,22,219066,219771,424,126,331,175 F,3,219066,219771,1,0 S,9,219066,219771,0.09,0 R,0,219066,219771,3,0 C,0,219066,219771,170,255,170 P,0,219066,219771,A
Sprite,Foreground,Centre,"SB\star01.png",320,240 M,22,219066,219771,424,126,514,108 F,3,219066,219771,1,0 S,9,219066,219771,0.14,0 R,0,219066,219771,3,2 C,0,219066,219771,170,255,170 P,0,219066,219771,A
Sprite,Foreground,Centre,"SB\star02.png",320,240 M,22,219066,219771,424,126,539,92 F,3,219066,219771,1,0 S,9,219066,219771,0.34,0 R,0,219066,219771,5,1 C,0,219066,219771,170,255,170 P,0,219066,219771,A
Sprite,Foreground,Centre,"SB\star02.png",320,240 M,22,219066,219771,424,126,552,217 F,3,219066,219771,1,0 S,9,219066,219771,0.38,0 R,0,219066,219771,4,2 C,0,219066,219771,170,255,170 P,0,219066,219771,A
Sprite,Foreground,Centre,"SB\star01.png",320,240 M,22,219066,219771,424,126,335,42 F,3,219066,219771,1,0 S,9,219066,219771,0.14,0 R,0,219066,219771,5,0 C,0,219066,219771,170,255,170 P,0,219066,219771,A
Sprite,Foreground,Centre,"SB\star01.png",320,240 M,22,219066,219771,424,126,432,32 F,3,219066,219771,1,0 S,9,219066,219771,0.25,0 R,0,219066,219771,3,2 C,0,219066,219771,170,255,170 P,0,219066,219771,A
Sprite,Foreground,Centre,"SB\star01.png",320,240 M,22,219066,219771,424,126,505,34 F,3,219066,219771,1,0 S,9,219066,219771,0.06,0 R,0,219066,219771,0 C,0,219066,219771,170,255,170 P,0,219066,219771,A
Sprite,Foreground,Centre,"SB\star01.png",320,240 M,22,219066,219771,424,126,429,199 F,3,219066,219771,1,0 S,9,219066,219771,0.38,0 R,0,219066,219771,0 C,0,219066,219771,170,255,170 P,0,219066,219771,A
Sprite,Foreground,Centre,"SB\ring.png",172,138 F,2,220220,220625,1,0 S,7,220220,220625,0.3,0.8 C,0,220220,220625,170,255,170 P,0,220220,220625,A
Sprite,Foreground,Centre,"SB\star02.png",320,240 M,22,220220,220925,172,138,165,227 F,3,220220,220925,1,0 S,9,220220,220925,0.16,0 R,0,220220,220925,6,1 C,0,220220,220925,170,255,170 P,0,220220,220925,A
Sprite,Foreground,Centre,"SB\star02.png",320,240 M,22,220220,220925,172,138,169,212 F,3,220220,220925,1,0 S,9,220220,220925,0.07,0 R,0,220220,220925,5,0 C,0,220220,220925,170,255,170 P,0,220220,220925,A
Sprite,Foreground,Centre,"SB\star01.png",320,240 M,22,220220,220925,172,138,107,93 F,3,220220,220925,1,0 S,9,220220,220925,0.22,0 R,0,220220,220925,1 C,0,220220,220925,170,255,170 P,0,220220,220925,A
Sprite,Foreground,Centre,"SB\star02.png",320,240 M,22,220220,220925,172,138,154,-9 F,3,220220,220925,1,0 S,9,220220,220925,0.34,0 R,0,220220,220925,2 C,0,220220,220925,170,255,170 P,0,220220,220925,A
Sprite,Foreground,Centre,"SB\star01.png",320,240 M,22,220220,220925,172,138,253,95 F,3,220220,220925,1,0 S,9,220220,220925,0.23,0 R,0,220220,220925,4,0 C,0,220220,220925,170,255,170 P,0,220220,220925,A
Sprite,Foreground,Centre,"SB\star02.png",320,240 M,22,220220,220925,172,138,293,101 F,3,220220,220925,1,0 S,9,220220,220925,0.25,0 R,0,220220,220925,0,2 C,0,220220,220925,170,255,170 P,0,220220,220925,A
Sprite,Foreground,Centre,"SB\star01.png",320,240 M,22,220220,220925,172,138,115,280 F,3,220220,220925,1,0 S,9,220220,220925,0.18,0 R,0,220220,220925,4,2 C,0,220220,220925,170,255,170 P,0,220220,220925,A
Sprite,Foreground,Centre,"SB\star01.png",320,240 M,22,220220,220925,172,138,242,180 F,3,220220,220925,1,0 S,9,220220,220925,0.11,0 R,0,220220,220925,4,2 C,0,220220,220925,170,255,170 P,0,220220,220925,A
Sprite,Foreground,Centre,"SB\star01.png",320,240 M,22,220220,220925,172,138,47,247 F,3,220220,220925,1,0 S,9,220220,220925,0.38,0 R,0,220220,220925,1 C,0,220220,220925,170,255,170 P,0,220220,220925,A
Sprite,Foreground,Centre,"SB\star01.png",320,240 M,22,220220,220925,172,138,192,68 F,3,220220,220925,1,0 S,9,220220,220925,0.12,0 R,0,220220,220925,3,2 C,0,220220,220925,170,255,170 P,0,220220,220925,A
Sprite,Foreground,Centre,"SB\star01.png",320,240 M,22,220220,220925,172,138,72,58 F,3,220220,220925,1,0 S,9,220220,220925,0.3,0 R,0,220220,220925,5,2 C,0,220220,220925,170,255,170 P,0,220220,220925,A
Sprite,Foreground,Centre,"SB\star02.png",320,240 M,22,220220,220925,172,138,324,195 F,3,220220,220925,1,0 S,9,220220,220925,0.26,0 R,0,220220,220925,1,2 C,0,220220,220925,170,255,170 P,0,220220,220925,A
Sprite,Foreground,Centre,"SB\star02.png",320,240 M,22,220220,220925,172,138,96,73 F,3,220220,220925,1,0 S,9,220220,220925,0.13,0 R,0,220220,220925,1 C,0,220220,220925,170,255,170 P,0,220220,220925,A
Sprite,Foreground,Centre,"SB\star01.png",320,240 M,22,220220,220925,172,138,240,165 F,3,220220,220925,1,0 S,9,220220,220925,0.32,0 R,0,220220,220925,1,0 C,0,220220,220925,170,255,170 P,0,220220,220925,A
Sprite,Foreground,Centre,"SB\star01.png",320,240 M,22,220220,220925,172,138,116,183 F,3,220220,220925,1,0 S,9,220220,220925,0.36,0 R,0,220220,220925,5,0 C,0,220220,220925,170,255,170 P,0,220220,220925,A
Sprite,Foreground,Centre,"SB\star01.png",320,240 M,22,220220,220925,172,138,27,127 F,3,220220,220925,1,0 S,9,220220,220925,0.25,0 R,0,220220,220925,5,0 C,0,220220,220925,170,255,170 P,0,220220,220925,A
Sprite,Foreground,Centre,"SB\star01.png",320,240 M,22,220220,220925,172,138,204,-12 F,3,220220,220925,1,0 S,9,220220,220925,0.38,0 R,0,220220,220925,3,0 C,0,220220,220925,170,255,170 P,0,220220,220925,A
Sprite,Foreground,Centre,"SB\star01.png",320,240 M,22,220220,220925,172,138,144,-15 F,3,220220,220925,1,0 S,9,220220,220925,0.27,0 R,0,220220,220925,4,1 C,0,220220,220925,170,255,170 P,0,220220,220925,A
Sprite,Foreground,Centre,"SB\star01.png",320,240 M,22,220220,220925,172,138,331,96 F,3,220220,220925,1,0 S,9,220220,220925,0.22,0 R,0,220220,220925,2,0 C,0,220220,220925,170,255,170 P,0,220220,220925,A
Sprite,Foreground,Centre,"SB\star02.png",320,240 M,22,220220,220925,172,138,259,222 F,3,220220,220925,1,0 S,9,220220,220925,0.27,0 R,0,220220,220925,2 C,0,220220,220925,170,255,170 P,0,220220,220925,A
Sprite,Foreground,Centre,"SB\star01.png",320,240 M,22,220220,220925,172,138,300,131 F,3,220220,220925,1,0 S,9,220220,220925,0.1,0 R,0,220220,220925,3,0 C,0,220220,220925,170,255,170 P,0,220220,220925,A
Sprite,Foreground,Centre,"SB\star02.png",320,240 M,22,220220,220925,172,138,106,37 F,3,220220,220925,1,0 S,9,220220,220925,0.29,0 R,0,220220,220925,2,1 C,0,220220,220925,170,255,170 P,0,220220,220925,A
Sprite,Foreground,Centre,"SB\star02.png",320,240 M,22,220220,220925,172,138,94,232 F,3,220220,220925,1,0 S,9,220220,220925,0.13,0 R,0,220220,220925,3,1 C,0,220220,220925,170,255,170 P,0,220220,220925,A
Sprite,Foreground,Centre,"SB\star01.png",320,240 M,22,220220,220925,172,138,191,11 F,3,220220,220925,1,0 S,9,220220,220925,0.32,0 R,0,220220,220925,0,1 C,0,220220,220925,170,255,170 P,0,220220,220925,A
Sprite,Foreground,Centre,"SB\star02.png",320,240 M,22,220220,220925,172,138,175,63 F,3,220220,220925,1,0 S,9,220220,220925,0.23,0 R,0,220220,220925,4,1 C,0,220220,220925,170,255,170 P,0,220220,220925,A
Sprite,Foreground,Centre,"SB\star01.png",320,240 M,22,220220,220925,172,138,82,77 F,3,220220,220925,1,0 S,9,220220,220925,0.17,0 R,0,220220,220925,4,0 C,0,220220,220925,170,255,170 P,0,220220,220925,A
Sprite,Foreground,Centre,"SB\star02.png",320,240 M,22,220220,220925,172,138,123,93 F,3,220220,220925,1,0 S,9,220220,220925,0.23,0 R,0,220220,220925,4,0 C,0,220220,220925,170,255,170 P,0,220220,220925,A
Sprite,Foreground,Centre,"SB\star02.png",320,240 M,22,220220,220925,172,138,12,88 F,3,220220,220925,1,0 S,9,220220,220925,0.35,0 R,0,220220,220925,2 C,0,220220,220925,170,255,170 P,0,220220,220925,A
Sprite,Foreground,Centre,"SB\star02.png",320,240 M,22,220220,220925,172,138,107,125 F,3,220220,220925,1,0 S,9,220220,220925,0.3,0 R,0,220220,220925,0,1 C,0,220220,220925,170,255,170 P,0,220220,220925,A
Sprite,Foreground,Centre,"SB\star01.png",320,240 M,22,220220,220925,172,138,39,142 F,3,220220,220925,1,0 S,9,220220,220925,0.35,0 R,0,220220,220925,3,2 C,0,220220,220925,170,255,170 P,0,220220,220925,A
Sprite,Foreground,Centre,"SB\star01.png",320,240 M,22,275785,276785,96,178,131,104 F,3,275785,276785,1,0 S,9,275785,276785,0.18,0 R,0,275785,276785,4,1 C,0,275785,276785,255,255,62 P,0,275785,276785,A
Sprite,Foreground,Centre,"SB\star02.png",320,240 M,22,275785,276785,96,178,-2,201 F,3,275785,276785,1,0 S,9,275785,276785,0.07,0 R,0,275785,276785,6,2 C,0,275785,276785,255,255,62 P,0,275785,276785,A
Sprite,Foreground,Centre,"SB\star02.png",320,240 M,22,275785,276785,96,178,85,282 F,3,275785,276785,1,0 S,9,275785,276785,0.23,0 R,0,275785,276785,6,3 C,0,275785,276785,255,255,62 P,0,275785,276785,A
Sprite,Foreground,Centre,"SB\star01.png",320,240 M,22,275785,276785,96,178,119,251 F,3,275785,276785,1,0 S,9,275785,276785,0.09,0 R,0,275785,276785,2,0 C,0,275785,276785,255,255,62 P,0,275785,276785,A
Sprite,Foreground,Centre,"SB\star01.png",320,240 M,22,275785,276785,96,178,134,141 F,3,275785,276785,1,0 S,9,275785,276785,0.26,0 R,0,275785,276785,3,2 C,0,275785,276785,255,255,62 P,0,275785,276785,A
Sprite,Foreground,Centre,"SB\star02.png",320,240 M,22,275785,276785,96,178,88,252 F,3,275785,276785,1,0 S,9,275785,276785,0.13,0 R,0,275785,276785,3,1 C,0,275785,276785,255,255,62 P,0,275785,276785,A
Sprite,Foreground,Centre,"SB\star02.png",320,240 M,22,275785,276785,96,178,22,125 F,3,275785,276785,1,0 S,9,275785,276785,0.04,0 R,0,275785,276785,4,2 C,0,275785,276785,255,255,62 P,0,275785,276785,A
Sprite,Foreground,Centre,"SB\star01.png",320,240 M,22,275785,276785,96,178,56,218 F,3,275785,276785,1,0 S,9,275785,276785,0.11,0 R,0,275785,276785,0 C,0,275785,276785,255,255,62 P,0,275785,276785,A
Sprite,Foreground,Centre,"SB\star01.png",320,240 M,22,275785,276785,96,178,150,231 F,3,275785,276785,1,0 S,9,275785,276785,0.24,0 R,0,275785,276785,3,2 C,0,275785,276785,255,255,62 P,0,275785,276785,A
Sprite,Foreground,Centre,"SB\star01.png",320,240 M,22,275785,276785,96,178,45,131 F,3,275785,276785,1,0 S,9,275785,276785,0.2,0 R,0,275785,276785,3,0 C,0,275785,276785,255,255,62 P,0,275785,276785,A
Sprite,Foreground,Centre,"SB\star01.png",320,240 M,22,275785,276785,96,178,72,128 F,3,275785,276785,1,0 S,9,275785,276785,0.08,0 R,0,275785,276785,2,1 C,0,275785,276785,255,255,62 P,0,275785,276785,A
Sprite,Foreground,Centre,"SB\star01.png",320,240 M,22,275785,276785,96,178,114,128 F,3,275785,276785,1,0 S,9,275785,276785,0.25,0 R,0,275785,276785,0,2 C,0,275785,276785,255,255,62 P,0,275785,276785,A
Sprite,Foreground,Centre,"SB\star02.png",320,240 M,22,275785,276785,96,178,116,109 F,3,275785,276785,1,0 S,9,275785,276785,0.16,0 R,0,275785,276785,6,2 C,0,275785,276785,255,255,62 P,0,275785,276785,A
Sprite,Foreground,Centre,"SB\star01.png",320,240 M,22,275785,276785,96,178,24,192 F,3,275785,276785,1,0 S,9,275785,276785,0.14,0 R,0,275785,276785,2 C,0,275785,276785,255,255,62 P,0,275785,276785,A
Sprite,Foreground,Centre,"SB\star02.png",320,240 M,22,275785,276785,96,178,35,177 F,3,275785,276785,1,0 S,9,275785,276785,0.08,0 R,0,275785,276785,2 C,0,275785,276785,255,255,62 P,0,275785,276785,A
Sprite,Foreground,Centre,"SB\star01.png",320,240 M,22,275785,276785,96,178,111,124 F,3,275785,276785,1,0 S,9,275785,276785,0.19,0 R,0,275785,276785,3,2 C,0,275785,276785,255,255,62 P,0,275785,276785,A
Sprite,Foreground,Centre,"SB\star01.png",320,240 M,22,275785,276785,96,178,26,201 F,3,275785,276785,1,0 S,9,275785,276785,0.18,0 R,0,275785,276785,1,2 C,0,275785,276785,255,255,62 P,0,275785,276785,A
Sprite,Foreground,Centre,"SB\star01.png",320,240 M,22,275785,276785,96,178,32,195 F,3,275785,276785,1,0 S,9,275785,276785,0.03,0 R,0,275785,276785,1,0 C,0,275785,276785,255,255,62 P,0,275785,276785,A
Sprite,Foreground,Centre,"SB\star01.png",320,240 M,22,275785,276785,96,178,160,179 F,3,275785,276785,1,0 S,9,275785,276785,0.12,0 R,0,275785,276785,3,0 C,0,275785,276785,255,255,62 P,0,275785,276785,A
Sprite,Foreground,Centre,"SB\star01.png",320,240 M,22,275785,276785,96,178,-14,181 F,3,275785,276785,1,0 S,9,275785,276785,0.16,0 R,0,275785,276785,4,1 C,0,275785,276785,255,255,62 P,0,275785,276785,A
Sprite,Foreground,Centre,"SB\star02.png",320,240 M,22,275785,276785,96,178,81,127 F,3,275785,276785,1,0 S,9,275785,276785,0.08,0 R,0,275785,276785,1,0 C,0,275785,276785,255,255,62 P,0,275785,276785,A
Sprite,Foreground,Centre,"SB\star02.png",320,240 M,22,275785,276785,96,178,174,188 F,3,275785,276785,1,0 S,9,275785,276785,0.12,0 R,0,275785,276785,4,0 C,0,275785,276785,255,255,62 P,0,275785,276785,A
Sprite,Foreground,Centre,"SB\star01.png",320,240 M,22,275785,276785,96,178,128,218 F,3,275785,276785,1,0 S,9,275785,276785,0.05,0 R,0,275785,276785,1 C,0,275785,276785,255,255,62 P,0,275785,276785,A
Sprite,Foreground,Centre,"SB\star01.png",320,240 M,22,275785,276785,96,178,93,103 F,3,275785,276785,1,0 S,9,275785,276785,0.05,0 R,0,275785,276785,3,2 C,0,275785,276785,255,255,62 P,0,275785,276785,A
Sprite,Foreground,Centre,"SB\star01.png",320,240 M,22,275785,276785,96,178,62,266 F,3,275785,276785,1,0 S,9,275785,276785,0.24,0 R,0,275785,276785,2 C,0,275785,276785,255,255,62 P,0,275785,276785,A
Sprite,Foreground,Centre,"SB\star01.png",320,240 M,22,275785,276785,96,178,175,225 F,3,275785,276785,1,0 S,9,275785,276785,0.28,0 R,0,275785,276785,2,0 C,0,275785,276785,255,255,62 P,0,275785,276785,A
Sprite,Foreground,Centre,"SB\star02.png",320,240 M,22,275785,276785,96,178,40,185 F,3,275785,276785,1,0 S,9,275785,276785,0.19,0 R,0,275785,276785,5,0 C,0,275785,276785,255,255,62 P,0,275785,276785,A
Sprite,Foreground,Centre,"SB\star01.png",320,240 M,22,275785,276785,96,178,68,247 F,3,275785,276785,1,0 S,9,275785,276785,0.17,0 R,0,275785,276785,5,0 C,0,275785,276785,255,255,62 P,0,275785,276785,A
Sprite,Foreground,Centre,"SB\star02.png",320,240 M,22,275785,276785,96,178,138,135 F,3,275785,276785,1,0 S,9,275785,276785,0.18,0 R,0,275785,276785,4,0 C,0,275785,276785,255,255,62 P,0,275785,276785,A
Sprite,Foreground,Centre,"SB\star02.png",320,240 M,22,275785,276785,96,178,112,110 F,3,275785,276785,1,0 S,9,275785,276785,0.21,0 R,0,275785,276785,4,1 C,0,275785,276785,255,255,62 P,0,275785,276785,A
Sprite,Foreground,Centre,"SB\star01.png",320,240 M,22,277088,278088,431,84,345,110 F,3,277088,278088,1,0 S,9,277088,278088,0.09,0 R,0,277088,278088,0,1 C,0,277088,278088,255,255,62 P,0,277088,278088,A
Sprite,Foreground,Centre,"SB\star02.png",320,240 M,22,277088,278088,431,84,403,-11 F,3,277088,278088,1,0 S,9,277088,278088,0.19,0 R,0,277088,278088,5,2 C,0,277088,278088,255,255,62 P,0,277088,278088,A
Sprite,Foreground,Centre,"SB\star01.png",320,240 M,22,277088,278088,431,84,368,141 F,3,277088,278088,1,0 S,9,277088,278088,0.06,0 R,0,277088,278088,3,0 C,0,277088,278088,255,255,62 P,0,277088,278088,A
Sprite,Foreground,Centre,"SB\star02.png",320,240 M,22,277088,278088,431,84,340,35 F,3,277088,278088,1,0 S,9,277088,278088,0.23,0 R,0,277088,278088,2 C,0,277088,278088,255,255,62 P,0,277088,278088,A
Sprite,Foreground,Centre,"SB\star02.png",320,240 M,22,277088,278088,431,84,383,121 F,3,277088,278088,1,0 S,9,277088,278088,0.23,0 R,0,277088,278088,3,1 C,0,277088,278088,255,255,62 P,0,277088,278088,A
Sprite,Foreground,Centre,"SB\star02.png",320,240 M,22,277088,278088,431,84,397,125 F,3,277088,278088,1,0 S,9,277088,278088,0.17,0 R,0,277088,278088,3,2 C,0,277088,278088,255,255,62 P,0,277088,278088,A
Sprite,Foreground,Centre,"SB\star01.png",320,240 M,22,277088,278088,431,84,475,41 F,3,277088,278088,1,0 S,9,277088,278088,0.18,0 R,0,277088,278088,5,1 C,0,277088,278088,255,255,62 P,0,277088,278088,A
Sprite,Foreground,Centre,"SB\star02.png",320,240 M,22,277088,278088,431,84,368,49 F,3,277088,278088,1,0 S,9,277088,278088,0.05,0 R,0,277088,278088,3,1 C,0,277088,278088,255,255,62 P,0,277088,278088,A
Sprite,Foreground,Centre,"SB\star01.png",320,240 M,22,277088,278088,431,84,446,-10 F,3,277088,278088,1,0 S,9,277088,278088,0.15,0 R,0,277088,278088,2 C,0,277088,278088,255,255,62 P,0,277088,278088,A
Sprite,Foreground,Centre,"SB\star02.png",320,240 M,22,277088,278088,431,84,356,33 F,3,277088,278088,1,0 S,9,277088,278088,0.15,0 R,0,277088,278088,5,0 C,0,277088,278088,255,255,62 P,0,277088,278088,A
Sprite,Foreground,Centre,"SB\star01.png",320,240 M,22,277088,278088,431,84,534,106 F,3,277088,278088,1,0 S,9,277088,278088,0.18,0 R,0,277088,278088,0 C,0,277088,278088,255,255,62 P,0,277088,278088,A
Sprite,Foreground,Centre,"SB\star02.png",320,240 M,22,277088,278088,431,84,427,23 F,3,277088,278088,1,0 S,9,277088,278088,0.25,0 R,0,277088,278088,3,0 C,0,277088,278088,255,255,62 P,0,277088,278088,A
Sprite,Foreground,Centre,"SB\star01.png",320,240 M,22,277088,278088,431,84,449,34 F,3,277088,278088,1,0 S,9,277088,278088,0.05,0 R,0,277088,278088,1 C,0,277088,278088,255,255,62 P,0,277088,278088,A
Sprite,Foreground,Centre,"SB\star02.png",320,240 M,22,277088,278088,431,84,378,26 F,3,277088,278088,1,0 S,9,277088,278088,0.03,0 R,0,277088,278088,0 C,0,277088,278088,255,255,62 P,0,277088,278088,A
Sprite,Foreground,Centre,"SB\star02.png",320,240 M,22,277088,278088,431,84,385,166 F,3,277088,278088,1,0 S,9,277088,278088,0.18,0 R,0,277088,278088,5,2 C,0,277088,278088,255,255,62 P,0,277088,278088,A
Sprite,Foreground,Centre,"SB\star01.png",320,240 M,22,277088,278088,431,84,356,66 F,3,277088,278088,1,0 S,9,277088,278088,0.23,0 R,0,277088,278088,2,1 C,0,277088,278088,255,255,62 P,0,277088,278088,A
Sprite,Foreground,Centre,"SB\star02.png",320,240 M,22,277088,278088,431,84,353,45 F,3,277088,278088,1,0 S,9,277088,278088,0.12,0 R,0,277088,278088,3,1 C,0,277088,278088,255,255,62 P,0,277088,278088,A
Sprite,Foreground,Centre,"SB\star01.png",320,240 M,22,277088,278088,431,84,517,43 F,3,277088,278088,1,0 S,9,277088,278088,0.22,0 R,0,277088,278088,4,0 C,0,277088,278088,255,255,62 P,0,277088,278088,A
Sprite,Foreground,Centre,"SB\star02.png",320,240 M,22,277088,278088,431,84,497,53 F,3,277088,278088,1,0 S,9,277088,278088,0.14,0 R,0,277088,278088,5,2 C,0,277088,278088,255,255,62 P,0,277088,278088,A
Sprite,Foreground,Centre,"SB\star01.png",320,240 M,22,277088,278088,431,84,363,24 F,3,277088,278088,1,0 S,9,277088,278088,0.24,0 R,0,277088,278088,1,2 C,0,277088,278088,255,255,62 P,0,277088,278088,A
Sprite,Foreground,Centre,"SB\star01.png",320,240 M,22,277088,278088,431,84,511,61 F,3,277088,278088,1,0 S,9,277088,278088,0.09,0 R,0,277088,278088,0 C,0,277088,278088,255,255,62 P,0,277088,278088,A
Sprite,Foreground,Centre,"SB\star02.png",320,240 M,22,277088,278088,431,84,410,160 F,3,277088,278088,1,0 S,9,277088,278088,0.27,0 R,0,277088,278088,4,1 C,0,277088,278088,255,255,62 P,0,277088,278088,A
Sprite,Foreground,Centre,"SB\star02.png",320,240 M,22,277088,278088,431,84,489,140 F,3,277088,278088,1,0 S,9,277088,278088,0.26,0 R,0,277088,278088,5,1 C,0,277088,278088,255,255,62 P,0,277088,278088,A
Sprite,Foreground,Centre,"SB\star01.png",320,240 M,22,277088,278088,431,84,416,28 F,3,277088,278088,1,0 S,9,277088,278088,0.3,0 R,0,277088,278088,5,1 C,0,277088,278088,255,255,62 P,0,277088,278088,A
Sprite,Foreground,Centre,"SB\star01.png",320,240 M,22,277088,278088,431,84,508,138 F,3,277088,278088,1,0 S,9,277088,278088,0.29,0 R,0,277088,278088,4,0 C,0,277088,278088,255,255,62 P,0,277088,278088,A
Sprite,Foreground,Centre,"SB\star01.png",320,240 M,22,277088,278088,431,84,371,82 F,3,277088,278088,1,0 S,9,277088,278088,0.28,0 R,0,277088,278088,5,0 C,0,277088,278088,255,255,62 P,0,277088,278088,A
Sprite,Foreground,Centre,"SB\star02.png",320,240 M,22,277088,278088,431,84,347,32 F,3,277088,278088,1,0 S,9,277088,278088,0.22,0 R,0,277088,278088,0 C,0,277088,278088,255,255,62 P,0,277088,278088,A
Sprite,Foreground,Centre,"SB\star02.png",320,240 M,22,277088,278088,431,84,431,151 F,3,277088,278088,1,0 S,9,277088,278088,0.05,0 R,0,277088,278088,1,0 C,0,277088,278088,255,255,62 P,0,277088,278088,A
Sprite,Foreground,Centre,"SB\star02.png",320,240 M,22,277088,278088,431,84,515,18 F,3,277088,278088,1,0 S,9,277088,278088,0.17,0 R,0,277088,278088,5,0 C,0,277088,278088,255,255,62 P,0,277088,278088,A
Sprite,Foreground,Centre,"SB\star02.png",320,240 M,22,277088,278088,431,84,358,129 F,3,277088,278088,1,0 S,9,277088,278088,0.25,0 R,0,277088,278088,3,0 C,0,277088,278088,255,255,62 P,0,277088,278088,A
Sprite,Foreground,Centre,"SB\star02.png",320,240 M,22,277913,278913,429,290,467,352 F,3,277913,278913,1,0 S,9,277913,278913,0.18,0 R,0,277913,278913,5,2 C,0,277913,278913,255,255,62 P,0,277913,278913,A
Sprite,Foreground,Centre,"SB\star01.png",320,240 M,22,277913,278913,429,290,423,217 F,3,277913,278913,1,0 S,9,277913,278913,0.13,0 R,0,277913,278913,3,1 C,0,277913,278913,255,255,62 P,0,277913,278913,A
Sprite,Foreground,Centre,"SB\star01.png",320,240 M,22,277913,278913,429,290,407,352 F,3,277913,278913,1,0 S,9,277913,278913,0.07,0 R,0,277913,278913,2,1 C,0,277913,278913,255,255,62 P,0,277913,278913,A
Sprite,Foreground,Centre,"SB\star01.png",320,240 M,22,277913,278913,429,290,368,291 F,3,277913,278913,1,0 S,9,277913,278913,0.13,0 R,0,277913,278913,0 C,0,277913,278913,255,255,62 P,0,277913,278913,A
Sprite,Foreground,Centre,"SB\star01.png",320,240 M,22,277913,278913,429,290,363,295 F,3,277913,278913,1,0 S,9,277913,278913,0.27,0 R,0,277913,278913,5,2 C,0,277913,278913,255,255,62 P,0,277913,278913,A
Sprite,Foreground,Centre,"SB\star01.png",320,240 M,22,277913,278913,429,290,527,341 F,3,277913,278913,1,0 S,9,277913,278913,0.13,0 R,0,277913,278913,0 C,0,277913,278913,255,255,62 P,0,277913,278913,A
Sprite,Foreground,Centre,"SB\star01.png",320,240 M,22,277913,278913,429,290,406,368 F,3,277913,278913,1,0 S,9,277913,278913,0.22,0 R,0,277913,278913,4,2 C,0,277913,278913,255,255,62 P,0,277913,278913,A
Sprite,Foreground,Centre,"SB\star02.png",320,240 M,22,277913,278913,429,290,359,257 F,3,277913,278913,1,0 S,9,277913,278913,0.05,0 R,0,277913,278913,5,1 C,0,277913,278913,255,255,62 P,0,277913,278913,A
Sprite,Foreground,Centre,"SB\star01.png",320,240 M,22,277913,278913,429,290,521,321 F,3,277913,278913,1,0 S,9,277913,278913,0.3,0 R,0,277913,278913,0,2 C,0,277913,278913,255,255,62 P,0,277913,278913,A
Sprite,Foreground,Centre,"SB\star02.png",320,240 M,22,277913,278913,429,290,502,325 F,3,277913,278913,1,0 S,9,277913,278913,0.24,0 R,0,277913,278913,5,1 C,0,277913,278913,255,255,62 P,0,277913,278913,A
Sprite,Foreground,Centre,"SB\star02.png",320,240 M,22,277913,278913,429,290,400,189 F,3,277913,278913,1,0 S,9,277913,278913,0.05,0 R,0,277913,278913,1,2 C,0,277913,278913,255,255,62 P,0,277913,278913,A
Sprite,Foreground,Centre,"SB\star02.png",320,240 M,22,277913,278913,429,290,383,220 F,3,277913,278913,1,0 S,9,277913,278913,0.17,0 R,0,277913,278913,4,1 C,0,277913,278913,255,255,62 P,0,277913,278913,A
Sprite,Foreground,Centre,"SB\star01.png",320,240 M,22,277913,278913,429,290,366,211 F,3,277913,278913,1,0 S,9,277913,278913,0.22,0 R,0,277913,278913,0,2 C,0,277913,278913,255,255,62 P,0,277913,278913,A
Sprite,Foreground,Centre,"SB\star02.png",320,240 M,22,277913,278913,429,290,491,265 F,3,277913,278913,1,0 S,9,277913,278913,0.1,0 R,0,277913,278913,2 C,0,277913,278913,255,255,62 P,0,277913,278913,A
Sprite,Foreground,Centre,"SB\star02.png",320,240 M,22,277913,278913,429,290,398,196 F,3,277913,278913,1,0 S,9,277913,278913,0.22,0 R,0,277913,278913,1,0 C,0,277913,278913,255,255,62 P,0,277913,278913,A
Sprite,Foreground,Centre,"SB\star01.png",320,240 M,22,277913,278913,429,290,386,193 F,3,277913,278913,1,0 S,9,277913,278913,0.21,0 R,0,277913,278913,0,2 C,0,277913,278913,255,255,62 P,0,277913,278913,A
Sprite,Foreground,Centre,"SB\star01.png",320,240 M,22,277913,278913,429,290,348,257 F,3,277913,278913,1,0 S,9,277913,278913,0.23,0 R,0,277913,278913,4,0 C,0,277913,278913,255,255,62 P,0,277913,278913,A
Sprite,Foreground,Centre,"SB\star01.png",320,240 M,22,277913,278913,429,290,471,332 F,3,277913,278913,1,0 S,9,277913,278913,0.03,0 R,0,277913,278913,5,0 C,0,277913,278913,255,255,62 P,0,277913,278913,A
Sprite,Foreground,Centre,"SB\star01.png",320,240 M,22,277913,278913,429,290,359,293 F,3,277913,278913,1,0 S,9,277913,278913,0.19,0 R,0,277913,278913,4,3 C,0,277913,278913,255,255,62 P,0,277913,278913,A
Sprite,Foreground,Centre,"SB\star01.png",320,240 M,22,277913,278913,429,290,358,310 F,3,277913,278913,1,0 S,9,277913,278913,0.16,0 R,0,277913,278913,1,2 C,0,277913,278913,255,255,62 P,0,277913,278913,A
Sprite,Foreground,Centre,"SB\star02.png",320,240 M,22,277913,278913,429,290,379,374 F,3,277913,278913,1,0 S,9,277913,278913,0.29,0 R,0,277913,278913,1,2 C,0,277913,278913,255,255,62 P,0,277913,278913,A
Sprite,Foreground,Centre,"SB\star02.png",320,240 M,22,277913,278913,429,290,413,231 F,3,277913,278913,1,0 S,9,277913,278913,0.17,0 R,0,277913,278913,3,2 C,0,277913,278913,255,255,62 P,0,277913,278913,A
Sprite,Foreground,Centre,"SB\star01.png",320,240 M,22,277913,278913,429,290,413,236 F,3,277913,278913,1,0 S,9,277913,278913,0.06,0 R,0,277913,278913,4,3 C,0,277913,278913,255,255,62 P,0,277913,278913,A
Sprite,Foreground,Centre,"SB\star01.png",320,240 M,22,277913,278913,429,290,409,348 F,3,277913,278913,1,0 S,9,277913,278913,0.23,0 R,0,277913,278913,1,0 C,0,277913,278913,255,255,62 P,0,277913,278913,A
Sprite,Foreground,Centre,"SB\star02.png",320,240 M,22,277913,278913,429,290,339,299 F,3,277913,278913,1,0 S,9,277913,278913,0.06,0 R,0,277913,278913,4,0 C,0,277913,278913,255,255,62 P,0,277913,278913,A
Sprite,Foreground,Centre,"SB\star01.png",320,240 M,22,277913,278913,429,290,373,354 F,3,277913,278913,1,0 S,9,277913,278913,0.29,0 R,0,277913,278913,5,2 C,0,277913,278913,255,255,62 P,0,277913,278913,A
Sprite,Foreground,Centre,"SB\star01.png",320,240 M,22,277913,278913,429,290,370,331 F,3,277913,278913,1,0 S,9,277913,278913,0.2,0 R,0,277913,278913,5,2 C,0,277913,278913,255,255,62 P,0,277913,278913,A
Sprite,Foreground,Centre,"SB\star02.png",320,240 M,22,277913,278913,429,290,533,257 F,3,277913,278913,1,0 S,9,277913,278913,0.24,0 R,0,277913,278913,0 C,0,277913,278913,255,255,62 P,0,277913,278913,A
Sprite,Foreground,Centre,"SB\star02.png",320,240 M,22,277913,278913,429,290,373,210 F,3,277913,278913,1,0 S,9,277913,278913,0.16,0 R,0,277913,278913,6,3 C,0,277913,278913,255,255,62 P,0,277913,278913,A
Sprite,Foreground,Centre,"SB\star01.png",320,240 M,22,277913,278913,429,290,356,333 F,3,277913,278913,1,0 S,9,277913,278913,0.3,0 R,0,277913,278913,1,0 C,0,277913,278913,255,255,62 P,0,277913,278913,A
Sprite,Foreground,Centre,"SB\star01.png",320,240 M,22,278440,279440,354,409,414,357 F,3,278440,279440,1,0 S,9,278440,279440,0.05,0 R,0,278440,279440,0,3 C,0,278440,279440,128,255,255 P,0,278440,279440,A
Sprite,Foreground,Centre,"SB\star02.png",320,240 M,22,278440,279440,354,409,328,475 F,3,278440,279440,1,0 S,9,278440,279440,0.05,0 R,0,278440,279440,1,2 C,0,278440,279440,128,255,255 P,0,278440,279440,A
Sprite,Foreground,Centre,"SB\star01.png",320,240 M,22,278440,279440,354,409,402,502 F,3,278440,279440,1,0 S,9,278440,279440,0.24,0 R,0,278440,279440,1,2 C,0,278440,279440,128,255,255 P,0,278440,279440,A
Sprite,Foreground,Centre,"SB\star02.png",320,240 M,22,278440,279440,354,409,421,327 F,3,278440,279440,1,0 S,9,278440,279440,0.24,0 R,0,278440,279440,1,2 C,0,278440,279440,128,255,255 P,0,278440,279440,A
Sprite,Foreground,Centre,"SB\star02.png",320,240 M,22,278440,279440,354,409,290,397 F,3,278440,279440,1,0 S,9,278440,279440,0.27,0 R,0,278440,279440,1,2 C,0,278440,279440,128,255,255 P,0,278440,279440,A
Sprite,Foreground,Centre,"SB\star02.png",320,240 M,22,278440,279440,354,409,366,314 F,3,278440,279440,1,0 S,9,278440,279440,0.05,0 R,0,278440,279440,3,2 C,0,278440,279440,128,255,255 P,0,278440,279440,A
Sprite,Foreground,Centre,"SB\star02.png",320,240 M,22,278440,279440,354,409,383,459 F,3,278440,279440,1,0 S,9,278440,279440,0.11,0 R,0,278440,279440,2,0 C,0,278440,279440,128,255,255 P,0,278440,279440,A
Sprite,Foreground,Centre,"SB\star02.png",320,240 M,22,278440,279440,354,409,328,359 F,3,278440,279440,1,0 S,9,278440,279440,0.17,0 R,0,278440,279440,2 C,0,278440,279440,128,255,255 P,0,278440,279440,A
Sprite,Foreground,Centre,"SB\star01.png",320,240 M,22,278440,279440,354,409,281,337 F,3,278440,279440,1,0 S,9,278440,279440,0.15,0 R,0,278440,279440,4,1 C,0,278440,279440,128,255,255 P,0,278440,279440,A
Sprite,Foreground,Centre,"SB\star02.png",320,240 M,22,278440,279440,354,409,245,408 F,3,278440,279440,1,0 S,9,278440,279440,0.17,0 R,0,278440,279440,6,0 C,0,278440,279440,128,255,255 P,0,278440,279440,A
Sprite,Foreground,Centre,"SB\star02.png",320,240 M,22,278440,279440,354,409,276,436 F,3,278440,279440,1,0 S,9,278440,279440,0.22,0 R,0,278440,279440,0,2 C,0,278440,279440,128,255,255 P,0,278440,279440,A
Sprite,Foreground,Centre,"SB\star02.png",320,240 M,22,278440,279440,354,409,409,466 F,3,278440,279440,1,0 S,9,278440,279440,0.14,0 R,0,278440,279440,2 C,0,278440,279440,128,255,255 P,0,278440,279440,A
Sprite,Foreground,Centre,"SB\star02.png",320,240 M,22,278440,279440,354,409,333,340 F,3,278440,279440,1,0 S,9,278440,279440,0.17,0 R,0,278440,279440,5,1 C,0,278440,279440,128,255,255 P,0,278440,279440,A
Sprite,Foreground,Centre,"SB\star02.png",320,240 M,22,278440,279440,354,409,446,440 F,3,278440,279440,1,0 S,9,278440,279440,0.19,0 R,0,278440,279440,1,2 C,0,278440,279440,128,255,255 P,0,278440,279440,A
Sprite,Foreground,Centre,"SB\star02.png",320,240 M,22,278440,279440,354,409,397,353 F,3,278440,279440,1,0 S,9,278440,279440,0.05,0 R,0,278440,279440,1 C,0,278440,279440,128,255,255 P,0,278440,279440,A
Sprite,Foreground,Centre,"SB\star02.png",320,240 M,22,278440,279440,354,409,322,350 F,3,278440,279440,1,0 S,9,278440,279440,0.16,0 R,0,278440,279440,1,0 C,0,278440,279440,128,255,255 P,0,278440,279440,A
Sprite,Foreground,Centre,"SB\star01.png",320,240 M,22,278440,279440,354,409,309,470 F,3,278440,279440,1,0 S,9,278440,279440,0.28,0 R,0,278440,279440,0 C,0,278440,279440,128,255,255 P,0,278440,279440,A
Sprite,Foreground,Centre,"SB\star01.png",320,240 M,22,278440,279440,354,409,261,451 F,3,278440,279440,1,0 S,9,278440,279440,0.1,0 R,0,278440,279440,1,2 C,0,278440,279440,128,255,255 P,0,278440,279440,A
Sprite,Foreground,Centre,"SB\star01.png",320,240 M,22,278440,279440,354,409,430,424 F,3,278440,279440,1,0 S,9,278440,279440,0.05,0 R,0,278440,279440,5,0 C,0,278440,279440,128,255,255 P,0,278440,279440,A
Sprite,Foreground,Centre,"SB\star02.png",320,240 M,22,278440,279440,354,409,302,393 F,3,278440,279440,1,0 S,9,278440,279440,0.17,0 R,0,278440,279440,5,2 C,0,278440,279440,128,255,255 P,0,278440,279440,A
Sprite,Foreground,Centre,"SB\star01.png",320,240 M,22,278440,279440,354,409,327,326 F,3,278440,279440,1,0 S,9,278440,279440,0.15,0 R,0,278440,279440,1,0 C,0,278440,279440,128,255,255 P,0,278440,279440,A
Sprite,Foreground,Centre,"SB\star01.png",320,240 M,22,278440,279440,354,409,337,310 F,3,278440,279440,1,0 S,9,278440,279440,0.07,0 R,0,278440,279440,6,2 C,0,278440,279440,128,255,255 P,0,278440,279440,A
Sprite,Foreground,Centre,"SB\star01.png",320,240 M,22,278440,279440,354,409,409,322 F,3,278440,279440,1,0 S,9,278440,279440,0.25,0 R,0,278440,279440,5,1 C,0,278440,279440,128,255,255 P,0,278440,279440,A
Sprite,Foreground,Centre,"SB\star01.png",320,240 M,22,278440,279440,354,409,266,471 F,3,278440,279440,1,0 S,9,278440,279440,0.2,0 R,0,278440,279440,3,2 C,0,278440,279440,128,255,255 P,0,278440,279440,A
Sprite,Foreground,Centre,"SB\star02.png",320,240 M,22,278440,279440,354,409,383,348 F,3,278440,279440,1,0 S,9,278440,279440,0.15,0 R,0,278440,279440,1,0 C,0,278440,279440,128,255,255 P,0,278440,279440,A
Sprite,Foreground,Centre,"SB\star01.png",320,240 M,22,278440,279440,354,409,323,330 F,3,278440,279440,1,0 S,9,278440,279440,0.06,0 R,0,278440,279440,4,0 C,0,278440,279440,128,255,255 P,0,278440,279440,A
Sprite,Foreground,Centre,"SB\star01.png",320,240 M,22,278440,279440,354,409,333,473 F,3,278440,279440,1,0 S,9,278440,279440,0.05,0 R,0,278440,279440,2 C,0,278440,279440,128,255,255 P,0,278440,279440,A
Sprite,Foreground,Centre,"SB\star01.png",320,240 M,22,278440,279440,354,409,282,473 F,3,278440,279440,1,0 S,9,278440,279440,0.15,0 R,0,278440,279440,5,2 C,0,278440,279440,128,255,255 P,0,278440,279440,A
Sprite,Foreground,Centre,"SB\star02.png",320,240 M,22,278440,279440,354,409,371,338 F,3,278440,279440,1,0 S,9,278440,279440,0.23,0 R,0,278440,279440,0 C,0,278440,279440,128,255,255 P,0,278440,279440,A
Sprite,Foreground,Centre,"SB\star02.png",320,240 M,22,278440,279440,354,409,353,319 F,3,278440,279440,1,0 S,9,278440,279440,0.17,0 R,0,278440,279440,1 C,0,278440,279440,128,255,255 P,0,278440,279440,A
Sprite,Foreground,Centre,"SB\star02.png",320,240 M,22,279725,280725,92,186,194,182 F,3,279725,280725,1,0 S,9,279725,280725,0.21,0 R,0,279725,280725,5,1 C,0,279725,280725,128,255,255 P,0,279725,280725,A
Sprite,Foreground,Centre,"SB\star01.png",320,240 M,22,279725,280725,92,186,148,237 F,3,279725,280725,1,0 S,9,279725,280725,0.08,0 R,0,279725,280725,5,1 C,0,279725,280725,128,255,255 P,0,279725,280725,A
Sprite,Foreground,Centre,"SB\star01.png",320,240 M,22,279725,280725,92,186,37,171 F,3,279725,280725,1,0 S,9,279725,280725,0.18,0 R,0,279725,280725,0,1 C,0,279725,280725,128,255,255 P,0,279725,280725,A
Sprite,Foreground,Centre,"SB\star02.png",320,240 M,22,279725,280725,92,186,81,122 F,3,279725,280725,1,0 S,9,279725,280725,0.08,0 R,0,279725,280725,5,1 C,0,279725,280725,128,255,255 P,0,279725,280725,A
Sprite,Foreground,Centre,"SB\star01.png",320,240 M,22,279725,280725,92,186,32,213 F,3,279725,280725,1,0 S,9,279725,280725,0.24,0 R,0,279725,280725,0 C,0,279725,280725,128,255,255 P,0,279725,280725,A
Sprite,Foreground,Centre,"SB\star01.png",320,240 M,22,279725,280725,92,186,196,208 F,3,279725,280725,1,0 S,9,279725,280725,0.12,0 R,0,279725,280725,5,0 C,0,279725,280725,128,255,255 P,0,279725,280725,A
Sprite,Foreground,Centre,"SB\star02.png",320,240 M,22,279725,280725,92,186,85,123 F,3,279725,280725,1,0 S,9,279725,280725,0.08,0 R,0,279725,280725,0,1 C,0,279725,280725,128,255,255 P,0,279725,280725,A
Sprite,Foreground,Centre,"SB\star02.png",320,240 M,22,279725,280725,92,186,66,229 F,3,279725,280725,1,0 S,9,279725,280725,0.07,0 R,0,279725,280725,1,0 C,0,279725,280725,128,255,255 P,0,279725,280725,A
Sprite,Foreground,Centre,"SB\star01.png",320,240 M,22,279725,280725,92,186,93,80 F,3,279725,280725,1,0 S,9,279725,280725,0.28,0 R,0,279725,280725,3,2 C,0,279725,280725,128,255,255 P,0,279725,280725,A
Sprite,Foreground,Centre,"SB\star01.png",320,240 M,22,279725,280725,92,186,187,185 F,3,279725,280725,1,0 S,9,279725,280725,0.09,0 R,0,279725,280725,0,1 C,0,279725,280725,128,255,255 P,0,279725,280725,A
Sprite,Foreground,Centre,"SB\star02.png",320,240 M,22,279725,280725,92,186,140,131 F,3,279725,280725,1,0 S,9,279725,280725,0.14,0 R,0,279725,280725,5,2 C,0,279725,280725,128,255,255 P,0,279725,280725,A
Sprite,Foreground,Centre,"SB\star02.png",320,240 M,22,279725,280725,92,186,24,147 F,3,279725,280725,1,0 S,9,279725,280725,0.22,0 R,0,279725,280725,1,0 C,0,279725,280725,128,255,255 P,0,279725,280725,A
Sprite,Foreground,Centre,"SB\star02.png",320,240 M,22,279725,280725,92,186,184,148 F,3,279725,280725,1,0 S,9,279725,280725,0.26,0 R,0,279725,280725,0,1 C,0,279725,280725,128,255,255 P,0,279725,280725,A
Sprite,Foreground,Centre,"SB\star02.png",320,240 M,22,279725,280725,92,186,11,176 F,3,279725,280725,1,0 S,9,279725,280725,0.03,0 R,0,279725,280725,0,2 C,0,279725,280725,128,255,255 P,0,279725,280725,A
Sprite,Foreground,Centre,"SB\star02.png",320,240 M,22,279725,280725,92,186,26,188 F,3,279725,280725,1,0 S,9,279725,280725,0.08,0 R,0,279725,280725,4,2 C,0,279725,280725,128,255,255 P,0,279725,280725,A
Sprite,Foreground,Centre,"SB\star02.png",320,240 M,22,279725,280725,92,186,56,127 F,3,279725,280725,1,0 S,9,279725,280725,0.1,0 R,0,279725,280725,4,3 C,0,279725,280725,128,255,255 P,0,279725,280725,A
Sprite,Foreground,Centre,"SB\star02.png",320,240 M,22,279725,280725,92,186,77,105 F,3,279725,280725,1,0 S,9,279725,280725,0.12,0 R,0,279725,280725,5,2 C,0,279725,280725,128,255,255 P,0,279725,280725,A
Sprite,Foreground,Centre,"SB\star01.png",320,240 M,22,279725,280725,92,186,141,256 F,3,279725,280725,1,0 S,9,279725,280725,0.05,0 R,0,279725,280725,4,0 C,0,279725,280725,128,255,255 P,0,279725,280725,A
Sprite,Foreground,Centre,"SB\star02.png",320,240 M,22,279725,280725,92,186,144,111 F,3,279725,280725,1,0 S,9,279725,280725,0.21,0 R,0,279725,280725,1,0 C,0,279725,280725,128,255,255 P,0,279725,280725,A
Sprite,Foreground,Centre,"SB\star01.png",320,240 M,22,279725,280725,92,186,106,243 F,3,279725,280725,1,0 S,9,279725,280725,0.11,0 R,0,279725,280725,0,1 C,0,279725,280725,128,255,255 P,0,279725,280725,A
Sprite,Foreground,Centre,"SB\star01.png",320,240 M,22,279725,280725,92,186,143,143 F,3,279725,280725,1,0 S,9,279725,280725,0.09,0 R,0,279725,280725,2 C,0,279725,280725,128,255,255 P,0,279725,280725,A
Sprite,Foreground,Centre,"SB\star01.png",320,240 M,22,279725,280725,92,186,89,244 F,3,279725,280725,1,0 S,9,279725,280725,0.06,0 R,0,279725,280725,0 C,0,279725,280725,128,255,255 P,0,279725,280725,A
Sprite,Foreground,Centre,"SB\star01.png",320,240 M,22,279725,280725,92,186,15,178 F,3,279725,280725,1,0 S,9,279725,280725,0.25,0 R,0,279725,280725,2,1 C,0,279725,280725,128,255,255 P,0,279725,280725,A
Sprite,Foreground,Centre,"SB\star01.png",320,240 M,22,279725,280725,92,186,170,206 F,3,279725,280725,1,0 S,9,279725,280725,0.22,0 R,0,279725,280725,6,2 C,0,279725,280725,128,255,255 P,0,279725,280725,A
Sprite,Foreground,Centre,"SB\star02.png",320,240 M,22,279725,280725,92,186,18,251 F,3,279725,280725,1,0 S,9,279725,280725,0.18,0 R,0,279725,280725,3,2 C,0,279725,280725,128,255,255 P,0,279725,280725,A
Sprite,Foreground,Centre,"SB\star01.png",320,240 M,22,279725,280725,92,186,-6,226 F,3,279725,280725,1,0 S,9,279725,280725,0.06,0 R,0,279725,280725,2,0 C,0,279725,280725,128,255,255 P,0,279725,280725,A
Sprite,Foreground,Centre,"SB\star01.png",320,240 M,22,279725,280725,92,186,53,153 F,3,279725,280725,1,0 S,9,279725,280725,0.06,0 R,0,279725,280725,1 C,0,279725,280725,128,255,255 P,0,279725,280725,A
Sprite,Foreground,Centre,"SB\star02.png",320,240 M,22,279725,280725,92,186,148,187 F,3,279725,280725,1,0 S,9,279725,280725,0.25,0 R,0,279725,280725,4,0 C,0,279725,280725,128,255,255 P,0,279725,280725,A
Sprite,Foreground,Centre,"SB\star02.png",320,240 M,22,279725,280725,92,186,74,134 F,3,279725,280725,1,0 S,9,279725,280725,0.03,0 R,0,279725,280725,2 C,0,279725,280725,128,255,255 P,0,279725,280725,A
Sprite,Foreground,Centre,"SB\star01.png",320,240 M,22,279725,280725,92,186,65,139 F,3,279725,280725,1,0 S,9,279725,280725,0.11,0 R,0,279725,280725,5,2 C,0,279725,280725,128,255,255 P,0,279725,280725,A
Sprite,Foreground,Centre,"SB\star02.png",320,240 M,22,280549,281549,272,220,284,140 F,3,280549,281549,1,0 S,9,280549,281549,0.11,0 R,0,280549,281549,3,0 C,0,280549,281549,128,255,255 P,0,280549,281549,A
Sprite,Foreground,Centre,"SB\star01.png",320,240 M,22,280549,281549,272,220,265,157 F,3,280549,281549,1,0 S,9,280549,281549,0.09,0 R,0,280549,281549,0,1 C,0,280549,281549,128,255,255 P,0,280549,281549,A
Sprite,Foreground,Centre,"SB\star02.png",320,240 M,22,280549,281549,272,220,255,115 F,3,280549,281549,1,0 S,9,280549,281549,0.11,0 R,0,280549,281549,1,0 C,0,280549,281549,128,255,255 P,0,280549,281549,A
Sprite,Foreground,Centre,"SB\star01.png",320,240 M,22,280549,281549,272,220,295,314 F,3,280549,281549,1,0 S,9,280549,281549,0.23,0 R,0,280549,281549,3,1 C,0,280549,281549,128,255,255 P,0,280549,281549,A
Sprite,Foreground,Centre,"SB\star01.png",320,240 M,22,280549,281549,272,220,319,192 F,3,280549,281549,1,0 S,9,280549,281549,0.18,0 R,0,280549,281549,0,1 C,0,280549,281549,128,255,255 P,0,280549,281549,A
Sprite,Foreground,Centre,"SB\star02.png",320,240 M,22,280549,281549,272,220,233,252 F,3,280549,281549,1,0 S,9,280549,281549,0.12,0 R,0,280549,281549,1 C,0,280549,281549,128,255,255 P,0,280549,281549,A
Sprite,Foreground,Centre,"SB\star01.png",320,240 M,22,280549,281549,272,220,306,276 F,3,280549,281549,1,0 S,9,280549,281549,0.23,0 R,0,280549,281549,0,1 C,0,280549,281549,128,255,255 P,0,280549,281549,A
Sprite,Foreground,Centre,"SB\star01.png",320,240 M,22,280549,281549,272,220,166,203 F,3,280549,281549,1,0 S,9,280549,281549,0.23,0 R,0,280549,281549,2 C,0,280549,281549,128,255,255 P,0,280549,281549,A
Sprite,Foreground,Centre,"SB\star01.png",320,240 M,22,280549,281549,272,220,222,244 F,3,280549,281549,1,0 S,9,280549,281549,0.03,0 R,0,280549,281549,0,2 C,0,280549,281549,128,255,255 P,0,280549,281549,A
Sprite,Foreground,Centre,"SB\star01.png",320,240 M,22,280549,281549,272,220,358,233 F,3,280549,281549,1,0 S,9,280549,281549,0.04,0 R,0,280549,281549,6,2 C,0,280549,281549,128,255,255 P,0,280549,281549,A
Sprite,Foreground,Centre,"SB\star01.png",320,240 M,22,280549,281549,272,220,260,293 F,3,280549,281549,1,0 S,9,280549,281549,0.05,0 R,0,280549,281549,2,1 C,0,280549,281549,128,255,255 P,0,280549,281549,A
Sprite,Foreground,Centre,"SB\star01.png",320,240 M,22,280549,281549,272,220,350,193 F,3,280549,281549,1,0 S,9,280549,281549,0.14,0 R,0,280549,281549,3,1 C,0,280549,281549,128,255,255 P,0,280549,281549,A
Sprite,Foreground,Centre,"SB\star02.png",320,240 M,22,280549,281549,272,220,351,222 F,3,280549,281549,1,0 S,9,280549,281549,0.11,0 R,0,280549,281549,0 C,0,280549,281549,128,255,255 P,0,280549,281549,A
Sprite,Foreground,Centre,"SB\star02.png",320,240 M,22,280549,281549,272,220,183,181 F,3,280549,281549,1,0 S,9,280549,281549,0.07,0 R,0,280549,281549,5,2 C,0,280549,281549,128,255,255 P,0,280549,281549,A
Sprite,Foreground,Centre,"SB\star02.png",320,240 M,22,280549,281549,272,220,270,271 F,3,280549,281549,1,0 S,9,280549,281549,0.13,0 R,0,280549,281549,0,2 C,0,280549,281549,128,255,255 P,0,280549,281549,A
Sprite,Foreground,Centre,"SB\star02.png",320,240 M,22,280549,281549,272,220,283,295 F,3,280549,281549,1,0 S,9,280549,281549,0.27,0 R,0,280549,281549,0,1 C,0,280549,281549,128,255,255 P,0,280549,281549,A
Sprite,Foreground,Centre,"SB\star02.png",320,240 M,22,280549,281549,272,220,218,173 F,3,280549,281549,1,0 S,9,280549,281549,0.21,0 R,0,280549,281549,3,1 C,0,280549,281549,128,255,255 P,0,280549,281549,A
Sprite,Foreground,Centre,"SB\star01.png",320,240 M,22,280549,281549,272,220,333,185 F,3,280549,281549,1,0 S,9,280549,281549,0.15,0 R,0,280549,281549,1 C,0,280549,281549,128,255,255 P,0,280549,281549,A
Sprite,Foreground,Centre,"SB\star01.png",320,240 M,22,280549,281549,272,220,341,256 F,3,280549,281549,1,0 S,9,280549,281549,0.13,0 R,0,280549,281549,4,2 C,0,280549,281549,128,255,255 P,0,280549,281549,A
Sprite,Foreground,Centre,"SB\star01.png",320,240 M,22,280549,281549,272,220,210,135 F,3,280549,281549,1,0 S,9,280549,281549,0.16,0 R,0,280549,281549,0,2 C,0,280549,281549,128,255,255 P,0,280549,281549,A
Sprite,Foreground,Centre,"SB\star01.png",320,240 M,22,280549,281549,272,220,239,267 F,3,280549,281549,1,0 S,9,280549,281549,0.04,0 R,0,280549,281549,2 C,0,280549,281549,128,255,255 P,0,280549,281549,A
Sprite,Foreground,Centre,"SB\star02.png",320,240 M,22,280549,281549,272,220,269,294 F,3,280549,281549,1,0 S,9,280549,281549,0.11,0 R,0,280549,281549,1 C,0,280549,281549,128,255,255 P,0,280549,281549,A
Sprite,Foreground,Centre,"SB\star02.png",320,240 M,22,280549,281549,272,220,332,129 F,3,280549,281549,1,0 S,9,280549,281549,0.27,0 R,0,280549,281549,2,1 C,0,280549,281549,128,255,255 P,0,280549,281549,A
Sprite,Foreground,Centre,"SB\star02.png",320,240 M,22,280549,281549,272,220,344,182 F,3,280549,281549,1,0 S,9,280549,281549,0.08,0 R,0,280549,281549,1,0 C,0,280549,281549,128,255,255 P,0,280549,281549,A
Sprite,Foreground,Centre,"SB\star01.png",320,240 M,22,280549,281549,272,220,345,176 F,3,280549,281549,1,0 S,9,280549,281549,0.03,0 R,0,280549,281549,0,2 C,0,280549,281549,128,255,255 P,0,280549,281549,A
Sprite,Foreground,Centre,"SB\star02.png",320,240 M,22,280549,281549,272,220,283,137 F,3,280549,281549,1,0 S,9,280549,281549,0.26,0 R,0,280549,281549,4,2 C,0,280549,281549,128,255,255 P,0,280549,281549,A
Sprite,Foreground,Centre,"SB\star01.png",320,240 M,22,280549,281549,272,220,240,319 F,3,280549,281549,1,0 S,9,280549,281549,0.21,0 R,0,280549,281549,5,2 C,0,280549,281549,128,255,255 P,0,280549,281549,A
Sprite,Foreground,Centre,"SB\star01.png",320,240 M,22,280549,281549,272,220,277,143 F,3,280549,281549,1,0 S,9,280549,281549,0.18,0 R,0,280549,281549,0 C,0,280549,281549,128,255,255 P,0,280549,281549,A
Sprite,Foreground,Centre,"SB\star02.png",320,240 M,22,280549,281549,272,220,331,246 F,3,280549,281549,1,0 S,9,280549,281549,0.24,0 R,0,280549,281549,2 C,0,280549,281549,128,255,255 P,0,280549,281549,A
Sprite,Foreground,Centre,"SB\star01.png",320,240 M,22,280549,281549,272,220,223,149 F,3,280549,281549,1,0 S,9,280549,281549,0.18,0 R,0,280549,281549,2 C,0,280549,281549,128,255,255 P,0,280549,281549,A
Sprite,Foreground,Centre,"SB\star02.png",320,240 M,22,280878,281878,227,295,198,236 F,3,280878,281878,1,0 S,9,280878,281878,0.15,0 R,0,280878,281878,2,1 C,0,280878,281878,128,255,255 P,0,280878,281878,A
Sprite,Foreground,Centre,"SB\star01.png",320,240 M,22,280878,281878,227,295,315,278 F,3,280878,281878,1,0 S,9,280878,281878,0.06,0 R,0,280878,281878,4,0 C,0,280878,281878,128,255,255 P,0,280878,281878,A
Sprite,Foreground,Centre,"SB\star01.png",320,240 M,22,280878,281878,227,295,174,349 F,3,280878,281878,1,0 S,9,280878,281878,0.16,0 R,0,280878,281878,6,2 C,0,280878,281878,128,255,255 P,0,280878,281878,A
Sprite,Foreground,Centre,"SB\star01.png",320,240 M,22,280878,281878,227,295,236,382 F,3,280878,281878,1,0 S,9,280878,281878,0.18,0 R,0,280878,281878,3,1 C,0,280878,281878,128,255,255 P,0,280878,281878,A
Sprite,Foreground,Centre,"SB\star01.png",320,240 M,22,280878,281878,227,295,208,224 F,3,280878,281878,1,0 S,9,280878,281878,0.07,0 R,0,280878,281878,0,1 C,0,280878,281878,128,255,255 P,0,280878,281878,A
Sprite,Foreground,Centre,"SB\star02.png",320,240 M,22,280878,281878,227,295,232,242 F,3,280878,281878,1,0 S,9,280878,281878,0.13,0 R,0,280878,281878,6,2 C,0,280878,281878,128,255,255 P,0,280878,281878,A
Sprite,Foreground,Centre,"SB\star01.png",320,240 M,22,280878,281878,227,295,174,341 F,3,280878,281878,1,0 S,9,280878,281878,0.21,0 R,0,280878,281878,1,0 C,0,280878,281878,128,255,255 P,0,280878,281878,A
Sprite,Foreground,Centre,"SB\star02.png",320,240 M,22,280878,281878,227,295,171,382 F,3,280878,281878,1,0 S,9,280878,281878,0.25,0 R,0,280878,281878,5,1 C,0,280878,281878,128,255,255 P,0,280878,281878,A
Sprite,Foreground,Centre,"SB\star02.png",320,240 M,22,280878,281878,227,295,295,356 F,3,280878,281878,1,0 S,9,280878,281878,0.29,0 R,0,280878,281878,1,0 C,0,280878,281878,128,255,255 P,0,280878,281878,A
Sprite,Foreground,Centre,"SB\star01.png",320,240 M,22,280878,281878,227,295,184,234 F,3,280878,281878,1,0 S,9,280878,281878,0.07,0 R,0,280878,281878,2 C,0,280878,281878,128,255,255 P,0,280878,281878,A
Sprite,Foreground,Centre,"SB\star02.png",320,240 M,22,280878,281878,227,295,171,346 F,3,280878,281878,1,0 S,9,280878,281878,0.23,0 R,0,280878,281878,1 C,0,280878,281878,128,255,255 P,0,280878,281878,A
Sprite,Foreground,Centre,"SB\star01.png",320,240 M,22,280878,281878,227,295,220,232 F,3,280878,281878,1,0 S,9,280878,281878,0.19,0 R,0,280878,281878,5,2 C,0,280878,281878,128,255,255 P,0,280878,281878,A
Sprite,Foreground,Centre,"SB\star01.png",320,240 M,22,280878,281878,227,295,125,288 F,3,280878,281878,1,0 S,9,280878,281878,0.22,0 R,0,280878,281878,1 C,0,280878,281878,128,255,255 P,0,280878,281878,A
Sprite,Foreground,Centre,"SB\star01.png",320,240 M,22,280878,281878,227,295,278,263 F,3,280878,281878,1,0 S,9,280878,281878,0.17,0 R,0,280878,281878,5,0 C,0,280878,281878,128,255,255 P,0,280878,281878,A
Sprite,Foreground,Centre,"SB\star01.png",320,240 M,22,280878,281878,227,295,194,380 F,3,280878,281878,1,0 S,9,280878,281878,0.14,0 R,0,280878,281878,1,0 C,0,280878,281878,128,255,255 P,0,280878,281878,A
Sprite,Foreground,Centre,"SB\star02.png",320,240 M,22,280878,281878,227,295,211,211 F,3,280878,281878,1,0 S,9,280878,281878,0.29,0 R,0,280878,281878,4,2 C,0,280878,281878,128,255,255 P,0,280878,281878,A
Sprite,Foreground,Centre,"SB\star02.png",320,240 M,22,280878,281878,227,295,294,269 F,3,280878,281878,1,0 S,9,280878,281878,0.19,0 R,0,280878,281878,4,0 C,0,280878,281878,128,255,255 P,0,280878,281878,A
Sprite,Foreground,Centre,"SB\star01.png",320,240 M,22,280878,281878,227,295,176,293 F,3,280878,281878,1,0 S,9,280878,281878,0.14,0 R,0,280878,281878,0,2 C,0,280878,281878,128,255,255 P,0,280878,281878,A
Sprite,Foreground,Centre,"SB\star01.png",320,240 M,22,280878,281878,227,295,239,375 F,3,280878,281878,1,0 S,9,280878,281878,0.05,0 R,0,280878,281878,6,1 C,0,280878,281878,128,255,255 P,0,280878,281878,A
Sprite,Foreground,Centre,"SB\star02.png",320,240 M,22,280878,281878,227,295,301,288 F,3,280878,281878,1,0 S,9,280878,281878,0.18,0 R,0,280878,281878,2,0 C,0,280878,281878,128,255,255 P,0,280878,281878,A
Sprite,Foreground,Centre,"SB\star02.png",320,240 M,22,280878,281878,227,295,276,232 F,3,280878,281878,1,0 S,9,280878,281878,0.1,0 R,0,280878,281878,5,0 C,0,280878,281878,128,255,255 P,0,280878,281878,A
Sprite,Foreground,Centre,"SB\star01.png",320,240 M,22,280878,281878,227,295,301,362 F,3,280878,281878,1,0 S,9,280878,281878,0.07,0 R,0,280878,281878,4,2 C,0,280878,281878,128,255,255 P,0,280878,281878,A
Sprite,Foreground,Centre,"SB\star01.png",320,240 M,22,280878,281878,227,295,302,219 F,3,280878,281878,1,0 S,9,280878,281878,0.15,0 R,0,280878,281878,4,0 C,0,280878,281878,128,255,255 P,0,280878,281878,A
Sprite,Foreground,Centre,"SB\star01.png",320,240 M,22,280878,281878,227,295,184,339 F,3,280878,281878,1,0 S,9,280878,281878,0.17,0 R,0,280878,281878,1,0 C,0,280878,281878,128,255,255 P,0,280878,281878,A
Sprite,Foreground,Centre,"SB\star02.png",320,240 M,22,280878,281878,227,295,212,354 F,3,280878,281878,1,0 S,9,280878,281878,0.16,0 R,0,280878,281878,3,2 C,0,280878,281878,128,255,255 P,0,280878,281878,A
Sprite,Foreground,Centre,"SB\star01.png",320,240 M,22,280878,281878,227,295,188,229 F,3,280878,281878,1,0 S,9,280878,281878,0.17,0 R,0,280878,281878,4,0 C,0,280878,281878,128,255,255 P,0,280878,281878,A
Sprite,Foreground,Centre,"SB\star01.png",320,240 M,22,280878,281878,227,295,275,357 F,3,280878,281878,1,0 S,9,280878,281878,0.14,0 R,0,280878,281878,4,1 C,0,280878,281878,128,255,255 P,0,280878,281878,A
Sprite,Foreground,Centre,"SB\star02.png",320,240 M,22,280878,281878,227,295,297,349 F,3,280878,281878,1,0 S,9,280878,281878,0.16,0 R,0,280878,281878,0 C,0,280878,281878,128,255,255 P,0,280878,281878,A
Sprite,Foreground,Centre,"SB\star02.png",320,240 M,22,280878,281878,227,295,174,343 F,3,280878,281878,1,0 S,9,280878,281878,0.24,0 R,0,280878,281878,2 C,0,280878,281878,128,255,255 P,0,280878,281878,A
Sprite,Foreground,Centre,"SB\star01.png",320,240 M,22,280878,281878,227,295,173,322 F,3,280878,281878,1,0 S,9,280878,281878,0.29,0 R,0,280878,281878,0,2 C,0,280878,281878,128,255,255 P,0,280878,281878,A
Sprite,Foreground,Centre,"SB\star02.png",320,240 M,22,275785,276785,96,178,101,104 F,3,275785,276785,1,0 S,9,275785,276785,0.22,0 R,0,275785,276785,3,2 C,0,275785,276785,255,255,62 P,0,275785,276785,A
Sprite,Foreground,Centre,"SB\star01.png",320,240 M,22,275785,276785,96,178,171,100 F,3,275785,276785,1,0 S,9,275785,276785,0.19,0 R,0,275785,276785,5,0 C,0,275785,276785,255,255,62 P,0,275785,276785,A
Sprite,Foreground,Centre,"SB\star02.png",320,240 M,22,275785,276785,96,178,153,179 F,3,275785,276785,1,0 S,9,275785,276785,0.19,0 R,0,275785,276785,1 C,0,275785,276785,255,255,62 P,0,275785,276785,A
Sprite,Foreground,Centre,"SB\star02.png",320,240 M,22,275785,276785,96,178,86,80 F,3,275785,276785,1,0 S,9,275785,276785,0.13,0 R,0,275785,276785,3,1 C,0,275785,276785,255,255,62 P,0,275785,276785,A
Sprite,Foreground,Centre,"SB\star01.png",320,240 M,22,275785,276785,96,178,91,278 F,3,275785,276785,1,0 S,9,275785,276785,0.11,0 R,0,275785,276785,2,1 C,0,275785,276785,255,255,62 P,0,275785,276785,A
Sprite,Foreground,Centre,"SB\star02.png",320,240 M,22,275785,276785,96,178,27,95 F,3,275785,276785,1,0 S,9,275785,276785,0.2,0 R,0,275785,276785,4,1 C,0,275785,276785,255,255,62 P,0,275785,276785,A
Sprite,Foreground,Centre,"SB\star02.png",320,240 M,22,275785,276785,96,178,25,108 F,3,275785,276785,1,0 S,9,275785,276785,0.24,0 R,0,275785,276785,2,1 C,0,275785,276785,255,255,62 P,0,275785,276785,A
Sprite,Foreground,Centre,"SB\star02.png",320,240 M,22,275785,276785,96,178,84,127 F,3,275785,276785,1,0 S,9,275785,276785,0.07,0 R,0,275785,276785,0,2 C,0,275785,276785,255,255,62 P,0,275785,276785,A
Sprite,Foreground,Centre,"SB\star01.png",320,240 M,22,275785,276785,96,178,47,82 F,3,275785,276785,1,0 S,9,275785,276785,0.17,0 R,0,275785,276785,6,1 C,0,275785,276785,255,255,62 P,0,275785,276785,A
Sprite,Foreground,Centre,"SB\star01.png",320,240 M,22,275785,276785,96,178,201,190 F,3,275785,276785,1,0 S,9,275785,276785,0.21,0 R,0,275785,276785,0,2 C,0,275785,276785,255,255,62 P,0,275785,276785,A
Sprite,Foreground,Centre,"SB\star02.png",320,240 M,22,275785,276785,96,178,118,98 F,3,275785,276785,1,0 S,9,275785,276785,0.08,0 R,0,275785,276785,4,0 C,0,275785,276785,255,255,62 P,0,275785,276785,A
Sprite,Foreground,Centre,"SB\star02.png",320,240 M,22,275785,276785,96,178,1,150 F,3,275785,276785,1,0 S,9,275785,276785,0.2,0 R,0,275785,276785,5,1 C,0,275785,276785,255,255,62 P,0,275785,276785,A
Sprite,Foreground,Centre,"SB\star01.png",320,240 M,22,275785,276785,96,178,135,234 F,3,275785,276785,1,0 S,9,275785,276785,0.12,0 R,0,275785,276785,2,3 C,0,275785,276785,255,255,62 P,0,275785,276785,A
Sprite,Foreground,Centre,"SB\star01.png",320,240 M,22,275785,276785,96,178,91,74 F,3,275785,276785,1,0 S,9,275785,276785,0.2,0 R,0,275785,276785,2,1 C,0,275785,276785,255,255,62 P,0,275785,276785,A
Sprite,Foreground,Centre,"SB\star02.png",320,240 M,22,275785,276785,96,178,88,82 F,3,275785,276785,1,0 S,9,275785,276785,0.13,0 R,0,275785,276785,2,1 C,0,275785,276785,255,255,62 P,0,275785,276785,A
Sprite,Foreground,Centre,"SB\star01.png",320,240 M,22,275785,276785,96,178,99,260 F,3,275785,276785,1,0 S,9,275785,276785,0.17,0 R,0,275785,276785,5,2 C,0,275785,276785,255,255,62 P,0,275785,276785,A
Sprite,Foreground,Centre,"SB\star02.png",320,240 M,22,275785,276785,96,178,170,142 F,3,275785,276785,1,0 S,9,275785,276785,0.12,0 R,0,275785,276785,0,2 C,0,275785,276785,255,255,62 P,0,275785,276785,A
Sprite,Foreground,Centre,"SB\star01.png",320,240 M,22,275785,276785,96,178,31,171 F,3,275785,276785,1,0 S,9,275785,276785,0.06,0 R,0,275785,276785,3,2 C,0,275785,276785,255,255,62 P,0,275785,276785,A
Sprite,Foreground,Centre,"SB\star02.png",320,240 M,22,275785,276785,96,178,35,150 F,3,275785,276785,1,0 S,9,275785,276785,0.23,0 R,0,275785,276785,1,2 C,0,275785,276785,255,255,62 P,0,275785,276785,A
Sprite,Foreground,Centre,"SB\star02.png",320,240 M,22,275785,276785,96,178,-4,151 F,3,275785,276785,1,0 S,9,275785,276785,0.1,0 R,0,275785,276785,0,1 C,0,275785,276785,255,255,62 P,0,275785,276785,A
Sprite,Foreground,Centre,"SB\star01.png",320,240 M,22,275785,276785,96,178,167,160 F,3,275785,276785,1,0 S,9,275785,276785,0.19,0 R,0,275785,276785,1,0 C,0,275785,276785,255,255,62 P,0,275785,276785,A
Sprite,Foreground,Centre,"SB\star01.png",320,240 M,22,275785,276785,96,178,35,229 F,3,275785,276785,1,0 S,9,275785,276785,0.14,0 R,0,275785,276785,3,1 C,0,275785,276785,255,255,62 P,0,275785,276785,A
Sprite,Foreground,Centre,"SB\star01.png",320,240 M,22,275785,276785,96,178,135,132 F,3,275785,276785,1,0 S,9,275785,276785,0.25,0 R,0,275785,276785,4,0 C,0,275785,276785,255,255,62 P,0,275785,276785,A
Sprite,Foreground,Centre,"SB\star01.png",320,240 M,22,275785,276785,96,178,47,127 F,3,275785,276785,1,0 S,9,275785,276785,0.04,0 R,0,275785,276785,0,2 C,0,275785,276785,255,255,62 P,0,275785,276785,A
Sprite,Foreground,Centre,"SB\star02.png",320,240 M,22,275785,276785,96,178,112,127 F,3,275785,276785,1,0 S,9,275785,276785,0.03,0 R,0,275785,276785,3,2 C,0,275785,276785,255,255,62 P,0,275785,276785,A
Sprite,Foreground,Centre,"SB\star02.png",320,240 M,22,275785,276785,96,178,46,248 F,3,275785,276785,1,0 S,9,275785,276785,0.22,0 R,0,275785,276785,3,2 C,0,275785,276785,255,255,62 P,0,275785,276785,A
Sprite,Foreground,Centre,"SB\star01.png",320,240 M,22,275785,276785,96,178,44,99 F,3,275785,276785,1,0 S,9,275785,276785,0.3,0 R,0,275785,276785,2,0 C,0,275785,276785,255,255,62 P,0,275785,276785,A
Sprite,Foreground,Centre,"SB\star02.png",320,240 M,22,275785,276785,96,178,98,237 F,3,275785,276785,1,0 S,9,275785,276785,0.06,0 R,0,275785,276785,4,2 C,0,275785,276785,255,255,62 P,0,275785,276785,A
Sprite,Foreground,Centre,"SB\star02.png",320,240 M,22,275785,276785,96,178,158,118 F,3,275785,276785,1,0 S,9,275785,276785,0.15,0 R,0,275785,276785,4,2 C,0,275785,276785,255,255,62 P,0,275785,276785,A
Sprite,Foreground,Centre,"SB\star02.png",320,240 M,22,275785,276785,96,178,44,191 F,3,275785,276785,1,0 S,9,275785,276785,0.05,0 R,0,275785,276785,6,0 C,0,275785,276785,255,255,62 P,0,275785,276785,A
//Storyboard Sound Samples

[TimingPoints]
826,329.67032967033,4,2,1,45,1,0
5441,-100,4,2,1,65,0,0
6100,-100,4,2,1,60,0,0
16650,-100,4,2,1,50,0,0
24562,-100,4,2,1,60,0,0
48298,-100,4,2,1,55,0,0
54891,-100,4,2,1,30,0,0
55551,-100,4,2,1,50,0,0
56210,-100,4,2,1,65,0,0
59836,344.827586206897,4,2,1,65,1,0
60180,329.67032967033,4,2,1,65,1,0
62785,329.67032967033,4,2,1,65,1,0
63114,349.854227405248,4,2,1,65,1,0
63463,329.67032967033,4,2,1,65,1,0
64122,329.67032967033,4,2,1,70,1,1
64122,-100,4,2,1,70,0,1
90496,-100,4,2,1,70,0,1
93133,-100,4,2,1,70,0,1
94452,-100,4,2,1,70,0,1
95770,-100,4,2,1,60,0,0
107639,-100,4,2,1,50,0,0
115550,342.857142857143,4,2,1,40,1,0
115551,-100,4,2,1,40,0,0
116064,331.491712707182,4,2,1,40,1,0
116395,324.324324324324,4,2,1,40,1,0
116881,326.530612244898,4,2,1,60,1,0
117370,-100,4,2,1,60,0,0
118187,329.67032967033,4,2,1,60,1,0
128736,-100,4,2,1,50,0,0
135329,-100,4,2,1,30,0,0
135989,-100,4,2,1,50,0,0
136648,-100,4,2,1,65,0,0
144560,-100,4,2,1,70,0,1
174890,-100,4,2,1,60,0,0
175880,-100,4,2,1,60,0,0
191208,285.714285714286,4,2,1,60,1,0
191350,329.67032967033,4,2,1,60,1,0
191679,354.505169867061,4,2,1,60,1,0
192033,329.67032967033,4,2,1,60,1,0
197980,329.67032967033,4,2,1,60,1,0
213144,324.324324324324,4,2,1,60,1,0
213792,329.67032967033,4,2,1,50,1,0
224341,-100,4,2,1,70,0,1
253352,-100,4,2,1,60,0,0
275440,345.821325648415,4,2,1,60,1,0
275785,329.67032967033,4,2,1,60,1,0
275785,-100,4,2,1,60,0,0
276938,300,4,2,1,60,1,0
277088,329.67032967033,4,2,1,60,1,0
278241,398.671096345515,4,2,1,60,1,0
278440,329.67032967033,4,2,1,60,1,0
279593,264.31718061674,4,2,1,60,1,0
279725,329.67032967033,4,2,1,60,1,0
279725,-100,4,2,1,60,0,0

[Colours]
Combo1 : 255,189,255
Combo2 : 170,255,170
Combo3 : 255,255,62
Combo4 : 128,255,255
Combo5 : 87,133,255

[HitObjects]
256,40,826,5,4,0:0:0:0:
348,40,5771,5,4,0:0:0:0:
420,92,6100,6,0,P|441:168|424:264,2,160,4|2|2,0:0|0:0|0:0,0:0:0:0:
268,180,8078,1,2,0:0:0:0:
176,332,8738,6,0,B|120:352|64:328|64:328|20:339,2,160,2|2|2,0:0|0:0|0:0,0:0:0:0:
144,158,10716,2,0,L|125:238,1,79.9999999999999,2|8,0:0|0:0,0:0:0:0:
212,252,11375,5,4,0:0:0:0:
272,136,11869,2,0,B|348:116|348:116|428:144,2,160,2|4|4,0:0|0:0|0:0,0:0:0:0:
192,340,14012,5,4,0:0:0:0:
148,216,14507,2,0,B|128:140|128:140|156:60,2,160,4|4|4,0:0|0:0|0:0,0:0:0:0:
364,180,16650,6,0,B|412:152|412:152|488:232|440:321,1,240,4|2,0:0|0:0,0:0:0:0:
355,343,17968,2,0,P|279:322|199:323,1,160,2|2,0:0|0:0,0:0:0:0:
112,339,18957,1,2,0:0:0:0:
40,288,19287,6,0,P|51:212|115:169,1,160,2|2,0:0|0:0,0:0:0:0:
205,177,20276,1,2,0:0:0:0:
205,89,20606,2,0,P|155:56|96:51,2,120,2|0|2,0:0|0:0|0:0,0:0:0:0:
280,44,21924,6,0,B|376:33|404:117|404:117|393:159|398:198,1,240,2|2,0:0|0:0,0:0:0:0:
406,285,23243,2,0,B|350:269|350:269|306:301|256:303,1,160,2|2,0:0|0:0,0:0:0:0:
168,292,24232,1,2,0:0:0:0:
124,216,24562,6,0,L|148:92,1,120,4|2,0:0|0:0,0:0:0:0:
272,136,25551,1,8,0:0:0:0:
352,100,25880,2,0,L|464:48,2,120,2|4|8,0:0|0:0|0:3,0:0:0:0:
304,24,27199,5,6,0:0:0:0:
236,80,27529,2,0,P|163:67|96:60,1,120,8|2,0:0|0:0,0:0:0:0:
40,104,28353,2,0,P|4:195|29:290,1,200,8|2,0:0|0:0,0:0:0:0:
84,360,29507,6,0,L|164:336,1,79.9999999999999,8|2,0:0|0:0,0:0:0:0:
248,348,30166,2,0,P|255:288|266:229,1,120,8|2,0:0|0:0,0:0:0:0:
340,184,30990,2,0,P|255:142|182:203,1,200,8|2,0:0|0:0,0:0:0:0:
140,280,32144,6,0,L|66:248,1,79.9999999999999,8|2,0:0|0:0,0:0:0:0:
12,180,32804,2,0,P|18:121|29:62,1,120,8|2,0:0|0:0,0:0:0:0:
112,92,33628,2,0,B|164:76|164:76|236:104|306:77,1,200,8|2,0:0|0:0,0:0:0:0:
375,22,34782,1,8,0:0:0:0:
428,92,35111,6,0,B|448:144|408:160|418:208,1,120,4|4,0:0|0:0,0:0:0:0:
352,320,36100,1,8,0:3:0:0:
268,340,36430,2,0,P|274:281|315:238,2,120,4|4|8,0:0|0:0|0:0,0:0:0:0:
180,352,37749,6,0,B|124:312|56:328|56:328|32:280|42:221,1,240,4|8,0:0|0:0,0:0:0:0:
123,183,39067,2,0,P|86:139|28:130,2,120,2|2|8,0:0|0:0|0:0,0:0:0:0:
200,141,40386,6,0,B|265:93|335:122|335:122|371:106|371:106|419:138,1,240,2|8,0:0|0:0,0:0:0:0:
386,219,41704,2,0,P|369:292|362:352,2,120,2|2|8,0:0|0:0|0:0,0:0:0:0:
299,208,43023,6,0,P|280:285|272:365,1,160,4|2,0:0|0:0,0:0:0:0:
184,372,44012,1,8,0:0:0:0:
132,300,44342,2,0,B|86:272|86:272|50:278|20:277,2,120,2|2|8,0:0|0:0|0:0,0:0:0:0:
169,220,45661,6,0,L|25:136,2,160,2|2|2,0:0|0:0|0:0,0:0:0:0:
248,260,47309,2,0,B|296:184,1,79.9999999999999,12|8,0:0|0:0,0:0:0:0:
188,52,48298,6,0,P|244:30|303:20,2,120,6|2|2,0:0|0:0|0:0,0:0:0:0:
128,168,49782,2,0,P|187:172|247:166,1,120,8|8,0:0|0:0,0:0:0:0:
400,80,50935,6,0,P|421:136|431:195,2,120,6|2|2,0:0|0:0|0:0,0:0:0:0:
308,176,52419,2,0,P|303:235|309:295,1,120,8|8,0:0|0:0,0:0:0:0:
380,348,53243,6,0,P|390:310|398:271,1,79.9999999999999,4|2,0:0|0:0,0:0:0:0:
68,148,54891,6,0,P|83:72|153:38,2,160,2|8|6,0:0|0:0|0:0,0:0:0:0:
108,320,56869,1,6,0:0:0:0:
228,188,57529,1,6,0:0:0:0:
368,296,58188,1,2,0:0:0:0:
488,164,58847,6,0,B|476:104|476:104|420:52,2,120,4|4|8,0:0|0:0|0:0,0:0:0:0:
400,152,60180,2,0,B|355:109|355:109|280:99,2,120,4|4|8,0:0|0:0|0:0,0:0:0:0:
336,212,61498,6,0,P|315:268|304:327,1,120,4|2,0:0|0:0,0:0:0:0:
232,376,62322,2,0,P|217:338|199:303,1,79.9999999999999,2|4,0:0|0:0,0:0:0:0:
384,56,63793,1,8,0:0:0:0:
304,88,64122,6,0,B|243:46|156:48|156:48|113:71|98:107,1,240,4|8,0:0|0:0,0:0:0:0:
113,193,65441,2,0,B|113:241|133:277|133:277|113:313|111:345,1,160,2|2,0:0|0:0,0:0:0:0:
196,367,66430,1,8,0:0:0:0:
264,311,66760,6,0,P|336:283|409:310,2,160,2|2|2,0:0|0:0|0:0,0:0:0:0:
196,256,68408,2,0,L|120:224,2,79.9999999999999,8|2|8,0:0|0:0|0:0,0:0:0:0:
220,172,69397,6,0,B|108:126,2,120,2|0|8,0:0|0:0|0:0,0:0:0:0:
300,204,70716,2,0,B|346:93,2,120,2|0|8,0:0|0:0|0:0,0:0:0:0:
259,282,72034,6,0,P|147:308|63:229,1,240,2|8,0:0|0:0,0:0:0:0:
62,142,73352,1,0,0:0:0:0:
141,102,73682,2,0,P|179:90|218:82,2,79.9999999999999,8|2|8,0:0|0:0|0:0,0:0:0:0:
156,191,74672,6,0,B|226:164|307:168|307:168|338:137|374:115,1,240,4|8,0:0|0:0,0:0:0:0:
444,172,75991,2,0,B|468:224|452:272|452:272|404:312,1,160,2|2,0:0|0:0,0:0:0:0:
328,348,76980,1,8,0:0:0:0:
248,308,77308,6,0,P|171:301|121:360,2,160,2|2|2,0:0|0:0|0:0,0:0:0:0:
304,240,78957,2,0,L|308:160,2,79.9999999999999,8|2|8,0:0|0:0|0:0,0:0:0:0:
226,197,79946,6,0,B|228:145|228:145|199:83,2,120,4|0|8,0:0|0:0|0:0,0:0:0:0:
144,164,81265,2,0,B|122:117|122:117|65:78,2,120,2|0|8,0:0|0:0|0:0,0:0:0:0:
88,232,82584,6,0,B|133:269|193:238|193:238|237:256,1,160,2|2,0:0|0:0,0:0:0:0:
315,296,83573,1,8,0:0:0:0:
398,270,83902,2,0,P|431:164|334:110,1,240,2|8,0:0|0:0,0:0:0:0:
259,156,85220,5,4,0:0:0:0:
172,137,85550,2,0,L|14:110,1,160,8|8,0:0|0:0,0:0:0:0:
28,197,86539,2,0,L|46:276,2,79.9999999999999,2|8|2,0:0|0:0|0:0,0:0:0:0:
114,212,87528,1,8,0:0:0:0:
201,218,87858,6,0,B|258:223|258:223|319:214,2,120,4|0|8,0:0|0:0|0:0,0:0:0:0:
148,148,89177,2,0,B|176:80|232:56|232:56|264:72|300:77,1,200,8|8,0:3|0:0,0:0:0:0:
352,200,90495,6,0,P|334:257|327:316,2,120,8|8|4,0:0|0:3|0:3,0:0:0:0:
400,124,91815,2,0,P|450:155|494:195,2,120,8|8|4,0:0|0:3|0:0,0:0:0:0:
316,92,93133,6,0,B|216:106|198:195|198:195|164:225|164:225|190:270|177:327,1,320,4|4,0:0|0:0,0:0:0:0:
432,252,95441,6,0,P|393:247|353:244,1,79.9999999999999,8|4,0:0|0:0,0:0:0:0:
39,164,107639,6,0,B|91:184|91:184|195:144,1,160,8|2,0:0|0:0,0:0:0:0:
312,100,108793,2,0,P|338:153|350:212,1,120,8|8,0:0|0:0,0:0:0:0:
300,284,109617,6,0,B|248:264|248:264|144:304,2,160,2|8|2,0:0|0:0|0:0,0:0:0:0:
400,370,111430,2,0,B|440:326|428:262|428:262|448:238|448:238|420:193,1,200,8|2,0:0|0:0,0:0:0:0:
356,29,112913,6,0,B|302:45|302:45|257:27|199:33,1,160,8|2,0:0|0:0,0:0:0:0:
121,123,114067,2,0,B|157:143|157:143|236:135,1,120,8|2,0:0|0:0,0:0:0:0:
323,137,114891,6,0,P|380:192|392:270,1,160,2|0,0:0|0:0,0:0:0:0:
48,340,116881,2,0,P|36:282|32:222,2,120,4|4|8,0:0|0:0|0:0,0:0:0:0:
128,304,118187,6,0,B|162:278|208:280|208:280|244:308|290:294|290:294|326:237,1,240,4|8,0:0|0:0,0:0:0:0:
364,156,119505,2,0,P|338:102|286:75,2,120,2|2|8,0:0|0:0|0:0,0:0:0:0:
275,163,120824,6,0,B|188:164|136:220|136:220|120:184|91:148,1,240,2|8,0:0|0:0,0:0:0:0:
24,208,122143,2,0,P|52:260|69:318,2,120,2|2|8,0:0|0:0|0:0,0:0:0:0:
11,120,123461,6,0,P|67:66|145:51,1,160,4|2,0:0|0:0,0:0:0:0:
231,70,124451,1,8,0:0:0:0:
282,142,124781,2,0,B|250:186|250:186|254:226|246:278,2,120,2|2|8,0:0|0:0|0:0,0:0:0:0:
359,101,126099,6,0,B|379:169|407:205|407:205|398:249,2,160,2|2|8,0:0|0:0|0:0,0:0:0:0:
292,42,127747,2,0,B|246:109,1,79.9999999999999,8|8,0:0|0:0,0:0:0:0:
194,180,128406,1,8,0:0:0:0:
108,160,128736,6,0,L|8:72,2,120,6|2|2,0:0|0:0|0:0,0:0:0:0:
208,248,130219,2,0,L|243:133,1,120,8|8,0:0|0:0,0:0:0:0:
392,228,131373,6,0,B|450:244|450:244|508:233,2,120,6|2|2,0:0|0:0|0:0,0:0:0:0:
336,108,132857,2,0,L|450:142,1,120,8|8,0:0|0:0,0:0:0:0:
456,56,133681,6,0,L|379:31,1,79.9999999999999,8|4,0:0|0:0,0:0:0:0:
68,195,135329,6,0,P|43:272|39:351,2,160,2|8|6,0:0|0:0|0:0,0:0:0:0:
196,76,137307,1,6,0:0:0:0:
236,248,137967,1,6,0:0:0:0:
68,196,138627,1,2,0:0:0:0:
240,156,139286,6,0,L|380:128,2,120,4|4|8,0:0|0:0|0:0,0:0:0:0:
177,218,140605,2,0,L|298:266,2,120,4|4|8,0:0|0:0|0:0,0:0:0:0:
101,173,141924,6,0,P|117:99|141:41,1,120,4|2,0:0|0:0,0:0:0:0:
214,24,142748,2,0,P|236:68|250:108,1,79.9999999999999,2|4,0:0|0:0,0:0:0:0:
492,284,144230,1,8,0:0:0:0:
428,344,144560,6,0,B|348:350|279:320|279:320|231:339|194:338,1,240,4|8,0:0|0:0,0:0:0:0:
111,307,145879,2,0,P|103:229|145:163,1,160,2|2,0:0|0:0,0:0:0:0:
232,172,146869,1,8,0:0:0:0:
212,256,147197,6,0,P|288:272|372:260,2,160,2|2|2,0:0|0:0|0:0,0:0:0:0:
232,172,148846,2,0,L|200:96,2,79.9999999999999,8|2|8,0:0|0:0|0:0,0:0:0:0:
320,160,149835,6,0,B|272:49,2,120,2|0|8,0:0|0:0|0:0,0:0:0:0:
388,216,151155,2,0,B|417:99,2,120,2|0|8,0:0|0:0|0:0,0:0:0:0:
352,296,152473,6,0,B|272:324|208:280|208:280|168:292|168:292|124:272,1,240,2|8,0:0|0:0,0:0:0:0:
73,200,153791,2,0,L|58:69,2,120,2|2|8,0:0|0:0|0:0,0:0:0:0:
160,188,155110,6,0,B|153:129|153:129|242:78|316:155,1,240,4|8,0:0|0:0,0:0:0:0:
352,236,156428,2,0,B|396:244|396:244|432:264|432:264|499:233,1,160,2|2,0:0|0:0,0:0:0:0:
496,144,157417,1,8,0:0:0:0:
426,89,157747,6,0,P|349:65|270:53,2,160,2|2|2,0:0|0:0|0:0,0:0:0:0:
380,164,159395,2,0,P|363:200|353:239,2,79.9999999999999,8|2|8,0:0|0:0|0:0,0:0:0:0:
296,140,160384,6,0,P|274:195|263:254,2,120,4|0|8,0:0|0:0|0:0,0:0:0:0:
271,55,161703,2,0,P|215:33|156:22,2,120,2|0|8,0:0|0:0|0:0,0:0:0:0:
356,75,163023,6,0,P|433:73|486:129,1,160,2|2,0:0|0:0,0:0:0:0:
480,216,164012,1,8,0:0:0:0:
408,264,164341,2,0,B|336:256|288:228|288:228|240:240|240:240|208:222|180:217,1,240,2|2,0:0|0:0,0:0:0:0:
96,190,165659,6,0,P|32:234|21:311,1,160,4|2,0:0|0:0,0:0:0:0:
92,364,166648,1,8,0:0:0:0:
178,347,166978,2,0,L|295:324,2,120,2|8|8,0:0|0:0|0:0,0:0:0:0:
194,260,168296,6,0,B|272:243,2,79.9999999999999,4|8|2,0:0|0:0|0:0,0:0:0:0:
107,278,169285,1,8,0:0:0:0:
56,205,169615,2,8,B|33:146|51:91|51:91|94:81|127:58,1,200
260,60,170935,6,0,P|319:60|379:51,2,120,8|8|2,0:0|0:3|0:0,0:0:0:0:
276,148,172252,2,0,B|296:192|296:192|272:292,1,120,8|12,0:0|0:0,0:0:0:0:
252,344,173077,1,8,0:0:0:0:
156,252,173571,6,0,B|181:158|277:151|277:151|322:124|322:124|411:165,1,320,4|4,0:0|0:0,0:0:0:0:
68,247,176208,6,0,B|92:180|60:124|60:124|72:64|129:43,2,240,4|2|2,0:0|0:0|0:0,0:0:0:0:
36,328,178516,1,2,0:0:0:0:
124,340,178846,6,0,B|176:312|176:312|208:328|208:328|256:288|346:299,2,240,4|2|2,0:0|0:0|0:0,0:0:0:0:
96,256,181154,1,2,0:0:0:0:
120,171,181483,6,0,B|168:68|168:68|224:76|292:57,1,240,4|2,0:0|0:0,0:0:0:0:
376,32,182802,2,0,B|440:68|462:130|462:130|444:156|444:156|460:196|453:229,1,240,2|2,0:0|0:0,0:0:0:0:
428,312,184121,6,0,B|312:272|312:272|272:284|236:287,1,200,4|0,0:0|0:0,0:0:0:0:
196,208,185274,2,0,B|272:204|340:172|340:172|387:190,1,200,4|2,0:0|0:0,0:0:0:0:
452,132,186428,1,8,0:0:0:0:
372,96,186758,6,0,L|259:53,2,120,12|12|12,0:0|0:0|0:0,0:0:0:0:
488,156,188242,1,8,0:0:0:0:
444,280,188737,1,8,0:0:0:0:
272,248,189396,6,0,P|238:300|222:362,2,120,12|12|12,0:0|0:0|0:0,0:0:0:0:
360,148,190879,1,8,0:0:0:0:
236,126,191350,1,8,0:0:0:0:
120,268,192033,6,0,B|76:280|76:280|10:245,2,120,12|12|8,0:0|0:0|0:3,0:0:0:0:
91,139,193516,2,0,P|113:86|152:32,1,120,12|2,0:0|0:0,0:0:0:0:
236,22,194340,1,2,0:0:0:0:
320,48,194670,6,0,B|371:107|371:107|363:143|363:143|403:163|419:207|419:207|403:239|406:282,1,280,4|4,0:0|0:0,0:0:0:0:
156,124,208529,5,10,0:0:0:0:
356,300,209518,1,10,0:0:0:0:
404,40,210507,6,0,B|400:93|379:146|379:146|408:187,1,160,4|10,0:0|0:0,0:0:0:0:
160,280,212155,1,10,0:0:0:0:
109,111,212815,1,4,0:0:0:0:
160,181,213144,6,0,P|232:212|312:210,1,160,2|4,0:0|0:0,0:0:0:0:
267,39,214451,2,0,P|189:44|124:90,2,160,8|8|8,0:0|0:0|0:0,0:0:0:0:
340,88,216099,1,4,0:0:0:0:
408,144,216429,6,0,L|367:257,2,120,12|12|8,0:0|0:0|0:0,0:0:0:0:
320,152,217748,2,0,L|223:223,2,120,12|12|8,0:0|0:0|0:0,0:0:0:0:
359,73,219066,6,0,B|289:44|227:82|227:82|179:34,1,200,4|2,0:0|0:0,0:0:0:0:
108,84,220220,1,4,0:0:0:0:
256,344,222033,6,0,P|255:284|244:226,1,120,4|8,0:0|0:3,0:0:0:0:
216,142,222858,2,0,P|292:82|388:99,1,200,4|2,0:0|0:0,0:0:0:0:
456,154,224011,1,8,0:0:0:0:
391,212,224341,6,0,P|375:288|404:362,2,160,4|2|2,0:0|0:0|0:0,0:0:0:0:
456,154,225989,2,0,B|468:120|468:120|470:75,2,79.9999999999999,8|2|8,0:0|0:0|0:0,0:0:0:0:
387,98,226978,6,0,P|338:65|282:44,2,120,2|0|8,0:0|0:0|0:0,0:0:0:0:
312,144,228297,2,0,P|252:145|194:159,2,120,2|0|8,0:0|0:0|0:0,0:0:0:0:
360,217,229615,6,0,B|320:281|302:359|302:359|276:329|238:303,1,240,2|8,0:0|0:0,0:0:0:0:
160,260,230934,2,0,P|124:308|103:364,2,120,2|2|2,0:0|0:0|0:0,0:0:0:0:
216,192,232253,6,0,B|208:148|192:116|192:116|233:53|328:41,1,240,4|8,0:0|0:0,0:0:0:0:
409,74,233572,2,0,P|446:143|447:223,1,160,2|2,0:0|0:0,0:0:0:0:
415,305,234561,1,8,0:0:0:0:
331,280,234891,6,0,B|284:272|284:272|241:307|177:298,2,160,2|2|2,0:0|0:0|0:0,0:0:0:0:
321,192,236539,2,0,L|297:115,2,79.9999999999999,8|2|8,0:0|0:0|0:0,0:0:0:0:
233,201,237528,6,0,B|195:175|195:175|120:176,2,120,4|0|8,0:0|0:0|0:0,0:0:0:0:
168,261,238847,2,0,B|97:285|97:285|71:322,2,120,2|0|8,0:0|0:0|0:0,0:0:0:0:
251,286,240165,6,0,P|328:304|405:287,1,160,2|2,0:0|0:0,0:0:0:0:
465,222,241154,1,8,0:0:0:0:
458,134,241483,2,0,B|429:113|415:77|415:77|339:103|323:35|253:63,1,240,2|2,0:0|0:0,0:0:0:0:
174,100,242802,1,4,0:0:0:0:
146,183,243132,6,0,P|132:263|136:343,1,160,8|8,0:0|0:0,0:0:0:0:
220,366,244121,2,0,L|338:345,2,120,2|0|8,0:0|0:0|0:0,0:0:0:0:
235,279,245440,6,0,L|313:265,2,79.9999999999999,4|8|2,0:0|0:0|0:0,0:0:0:0:
249,192,246429,1,8,0:3:0:0:
303,123,246759,2,0,P|283:66|243:23,1,120,4|2,0:0|0:0,0:0:0:0:
155,22,247582,1,2,0:0:0:0:
65,119,248077,6,0,B|41:162|41:162|51:232,2,120,8|8|2,0:0|0:3|0:0,0:0:0:0:
128,179,249396,2,0,L|144:297,1,120,4|12,0:0|0:0,0:0:0:0:
353,366,250714,6,0,P|364:288|391:212,1,160,4|8,0:0|0:0,0:0:0:0:
432,133,251704,1,8,0:0:0:0:
394,54,252033,2,0,B|325:2|256:37|256:37|249:83|249:83|185:94|149:153,1,320,8|4,0:0|0:0,0:0:0:0:
308,364,254341,1,8,0:0:0:0:
269,284,254671,6,0,P|192:268|113:283,1,160,4|2,0:0|0:0,0:0:0:0:
28,307,255660,1,8,0:0:0:0:
51,222,255989,2,0,P|34:164|2:113,2,120,2|2|8,0:0|0:0|0:0,0:0:0:0:
131,186,257308,6,0,P|182:126|259:110,1,160,2|2,0:0|0:0,0:0:0:0:
343,136,258297,1,8,0:0:0:0:
395,206,258627,2,0,B|415:265|415:265|404:321,2,120,2|2|8,0:0|0:0|0:0,0:0:0:0:
313,239,259946,6,0,B|251:252|201:238|201:238|165:264|165:264|109:202,1,240,4|8,0:0|0:0,0:0:0:0:
52,136,261264,2,0,P|92:91|143:60,2,120,2|2|8,0:0|0:0|0:0,0:0:0:0:
23,219,262583,6,0,B|14:289|38:346|38:346|114:299|135:365|225:321,1,320,2|2,0:0|0:0,0:0:0:0:
308,342,264231,2,0,P|328:266|303:192,1,160,8|8,0:0|0:0,0:0:0:0:
253,117,265220,6,0,P|314:67|392:55,1,160,4|2,0:0|0:0,0:0:0:0:
472,92,266209,1,8,0:0:0:0:
462,179,266538,2,0,L|445:311,2,120,2|2|8,0:0|0:0|0:0,0:0:0:0:
376,201,267857,6,0,P|297:185|218:178,1,160,2|2,0:0|0:0,0:0:0:0:
134,206,268846,1,8,0:0:0:0:
170,286,269176,2,0,L|302:266,2,120,2|2|8,0:0|0:0|0:0,0:0:0:0:
85,310,270495,6,0,B|103:214|15:164|62:78,1,240,4|8,0:0|0:0,0:0:0:0:
142,40,271813,2,0,B|202:44|248:73|248:73|294:64,1,160,2|2,0:0|0:0,0:0:0:0:
378,37,272802,1,8,0:0:0:0:
443,96,273132,6,0,P|448:208|345:255,1,240,4|8,0:0|0:0,0:0:0:0:
259,235,274451,2,0,B|216:214|216:214|188:222|188:222|124:196|27:215,1,240,4|8,0:0|0:0,0:0:0:0:
32,124,275785,5,0,0:0:0:0:
367,30,277088,2,0,P|380:88|382:148,1,120,12|2,0:0|0:0,0:0:0:0:
365,236,277913,1,2,0:0:0:0:
290,355,278440,5,0,0:0:0:0:
28,132,279725,2,0,P|84:110|144:104,1,120,6|2,0:0|0:0,0:0:0:0:
208,166,280549,1,8,0:0:0:0:
163,241,280878,1,4,0:0:0:0:
