osu file format v14

[General]
AudioFilename: audio.mp3
AudioLeadIn: 0
PreviewTime: 72904
Countdown: 0
SampleSet: Soft
StackLeniency: 0.7
Mode: 0
LetterboxInBreaks: 0
WidescreenStoryboard: 1

[Editor]
DistanceSpacing: 1
BeatDivisor: 4
GridSize: 16
TimelineZoom: 1.9

[Metadata]
Title:Lucky Clover
TitleUnicode:Lucky Clover
Artist:Inori Minase
ArtistUnicode:水瀬いのり
Creator:Sekai
Version:pnky's Expert
Source:
Tags:いのりん inorin innocent flower 1st first album Vocals j-pop jpop japanese pop female vocalist sekaii sekai-nyan pnky litoluna otudou -karUpA- grazuko asukow
BeatmapID:3658342
BeatmapSetID:1785922

[Difficulty]
HPDrainRate:6
CircleSize:4
OverallDifficulty:8.5
ApproachRate:9.2
SliderMultiplier:1.6
SliderTickRate:1

[Events]
//Background and Video events
0,0,"L.jpg",0,0
//Break Periods
2,44121,52042
2,120054,124368
//Storyboard Layer 0 (Background)
//Storyboard Layer 1 (Fail)
//Storyboard Layer 2 (Pass)
//Storyboard Layer 3 (Foreground)
//Storyboard Layer 4 (Overlay)
//Storyboard Sound Samples

[TimingPoints]
532,338.983050847458,4,2,1,60,1,0
532,-125,4,2,1,60,0,0
5955,-100,4,2,1,60,0,0
22226,-111.111111111111,4,2,1,60,0,0
43921,-125,4,2,1,60,0,0
54769,-100,4,2,1,60,0,0
74091,-90.9090909090909,4,2,1,60,0,1
103582,-100,4,2,1,60,0,0
119176,-125,4,2,1,60,0,0
119854,-125,4,2,1,60,0,0
125277,-100,4,2,1,60,0,0
141548,-111.111111111111,4,2,1,60,0,0
152396,-100,4,2,1,60,0,0
171379,-90.9090909090909,4,2,1,60,0,1
201209,-100,4,2,1,60,0,0
222904,-100,4,2,1,60,0,0
226803,-90.9090909090909,4,2,1,60,0,0
227142,-100,4,2,1,60,0,0
228667,-90.9090909090909,4,2,1,60,0,1
256464,-111.111111111111,4,2,1,60,0,1
256803,-90.9090909090909,4,2,1,60,0,1
258159,-100,4,2,1,60,0,0
274430,-370.37037037037,4,2,1,60,0,0
279599,-370.37037037037,4,2,1,5,0,0
285786,-370.37037037037,4,2,1,5,0,0

[Colours]
Combo1 : 254,185,56
Combo2 : 83,199,255
Combo3 : 185,64,251
Combo4 : 248,114,224

[HitObjects]
101,65,532,6,0,L|38:56,2,64,2|2|2,0:0|0:0|0:0,0:0:0:0:
173,116,1040,1,2,0:0:0:0:
173,116,1209,2,0,L|318:88,1,128,2|2,0:0|0:0,0:0:0:0:
298,91,1718,1,0,0:0:0:0:
455,220,1887,5,2,0:0:0:0:
455,220,2057,1,2,0:0:0:0:
373,204,2226,1,2,0:0:0:0:
427,140,2396,1,2,0:0:0:0:
295,228,2565,2,0,L|156:210,1,128,2|2,0:0|0:0,0:0:0:0:
168,211,3074,1,0,0:0:0:0:
77,318,3243,6,0,P|71:285|65:254,2,64,2|2|2,0:0|0:0|0:0,0:0:0:0:
154,361,3752,1,2,0:0:0:0:
154,361,3921,2,0,B|223:369|203:309|280:320,1,128,2|2,0:0|0:0,0:0:0:0:
269,318,4430,1,0,0:0:0:0:
364,384,4599,6,0,P|366:348|373:305,1,64,2|2,0:0|0:0,0:0:0:0:
420,253,4938,2,0,P|416:232|413:202,3,32,10|8|8|8,3:0|3:0|0:3|0:3,0:0:0:0:
435,185,5277,1,10,0:0:0:0:
274,322,5447,1,10,0:0:0:0:
104,106,5786,5,8,0:0:0:0:
104,106,5870,1,8,0:0:0:0:
104,106,5955,1,6,1:2:0:0:
264,131,6125,1,2,0:0:0:0:
94,242,6294,1,10,0:0:0:0:
174,0,6464,2,0,L|190:78,1,80,2|0,0:0|1:2,0:0:0:0:
180,214,6803,1,2,1:2:0:0:
269,45,6972,1,10,0:0:0:0:
23,188,7142,6,0,P|102:198|180:214,1,160,2|2,0:0|0:0,0:0:0:0:
264,131,7650,1,10,0:0:0:0:
183,313,7820,2,0,P|262:271|266:181,1,160,2|2,1:2|1:2,0:0:0:0:
274,207,8243,1,2,0:0:0:0:
274,207,8328,2,0,L|316:199,1,40,10|2,0:0|0:0,0:0:0:0:
418,293,8498,2,0,L|376:285,1,40,2|2,1:2|0:0,0:0:0:0:
314,356,8667,5,6,1:2:0:0:
482,222,8837,1,10,0:0:0:0:
264,131,9006,1,10,0:0:0:0:
378,285,9176,2,0,P|384:201|395:120,1,160,6|2,1:2|1:2,0:0:0:0:
394,125,9599,1,2,0:0:0:0:
394,125,9684,1,8,0:0:0:0:
198,182,9854,6,0,B|121:185|143:111|54:123,1,160,6|2,1:2|1:2,0:0:0:0:
57,122,10362,1,10,0:0:0:0:
125,290,10532,2,0,P|127:270|131:250,2,40,10|8|0,0:0|0:0|1:2,0:0:0:0:
68,198,10870,1,10,0:0:0:0:
282,124,11040,2,0,P|279:104|275:84,1,40,10|0,0:0|0:0,0:0:0:0:
199,36,11209,1,4,3:0:0:0:
199,36,11294,1,4,3:0:0:0:
199,36,11379,5,6,1:2:0:0:
198,182,11548,1,2,0:0:0:0:
366,66,11718,1,10,0:0:0:0:
383,289,11887,2,0,P|346:277|294:272,1,80,2|0,0:0|1:2,0:0:0:0:
174,320,12226,1,2,1:2:0:0:
198,182,12396,1,10,0:0:0:0:
47,384,12565,6,0,P|33:305|14:217,1,160,2|2,0:0|0:0,0:0:0:0:
174,320,13074,1,10,0:0:0:0:
210,100,13243,2,0,P|136:121|116:195,1,160,2|2,1:2|1:2,0:0:0:0:
115,194,13667,1,2,0:0:0:0:
115,194,13752,2,0,L|166:185,1,40,10|2,0:0|0:0,0:0:0:0:
284,266,13921,2,0,L|233:256,1,40,2|2,0:0|0:0,0:0:0:0:
174,320,14091,5,6,1:2:0:0:
394,212,14260,1,2,1:2:0:0:
209,99,14430,1,10,0:0:0:0:
319,344,14599,2,0,P|398:324|506:304,1,160,6|10,1:2|3:3,0:0:0:0:
475,308,15023,1,2,0:0:0:0:
475,308,15108,1,10,0:0:0:0:
401,124,15277,6,0,P|328:149|310:241,1,160,6|0,1:2|1:2,0:0:0:0:
304,222,15701,1,0,1:2:0:0:
304,222,15786,1,8,0:0:0:0:
411,384,15955,2,0,P|405:365|400:346,2,40,4|4|0,3:0|3:0|1:2,0:0:0:0:
224,297,16294,2,0,P|218:316|212:335,1,40,8|8,2:0|2:0,0:0:0:0:
115,378,16464,1,0,1:2:0:0:
85,376,16548,1,0,1:2:0:0:
58,363,16633,1,0,1:0:0:0:
38,341,16718,1,0,1:2:0:0:
28,313,16803,5,6,1:2:0:0:
199,190,16972,1,2,0:0:0:0:
94,158,17142,1,8,0:0:0:0:
212,335,17311,1,2,0:0:0:0:
316,143,17481,2,0,P|308:183|303:226,1,80,2|0,1:2|1:2,0:0:0:0:
199,190,17820,5,10,0:0:0:0:
407,252,17989,2,0,P|451:243|488:240,1,80,2|0,0:0|1:2,0:0:0:0:
316,143,18328,1,2,1:2:0:0:
204,351,18498,2,0,P|199:311|191:272,1,80,10|8,0:0|3:0,0:0:0:0:
94,158,18837,1,2,1:2:0:0:
94,158,19006,1,0,1:2:0:0:
329,65,19176,2,0,P|269:76|238:134,1,120,10|0,0:0|0:0,0:0:0:0:
227,167,19515,5,6,1:2:0:0:
459,94,19684,1,2,0:0:0:0:
329,65,19854,1,8,0:0:0:0:
279,249,20023,1,2,0:0:0:0:
279,249,20108,1,8,3:0:0:0:
279,249,20193,2,0,P|270:295|270:328,1,80,2|0,1:2|1:2,0:0:0:0:
98,182,20532,5,10,0:0:0:0:
192,363,20701,2,0,P|145:349|100:341,1,80,2|2,0:0|1:2,0:0:0:0:
74,339,20955,1,0,1:0:0:0:
64,321,21040,1,2,1:2:0:0:
60,302,21125,1,0,1:0:0:0:
63,282,21209,1,10,0:0:0:0:
279,249,21379,1,0,1:2:0:0:
279,249,21464,1,0,1:2:0:0:
279,249,21548,6,0,L|223:242,1,40,10|0,0:0|1:2,0:0:0:0:
98,182,21718,2,0,L|154:175,1,40,8|8,0:0|0:0,0:0:0:0:
251,82,21887,2,0,L|244:138,1,40,2|8,1:2|0:0,0:0:0:0:
163,297,22057,2,0,L|156:241,1,40,8|8,0:0|0:0,0:0:0:0:
317,174,22226,6,1,P|348:198|351:296,1,143.999995605469,6|10,1:2|0:0,0:0:0:0:
276,335,22735,1,2,0:0:0:0:
276,335,23074,1,2,1:2:0:0:
461,351,23243,2,0,P|425:353|392:367,1,71.9999978027344,8|2,0:0|0:0,0:0:0:0:
204,373,23582,2,0,P|192:323|253:255,2,143.999995605469,0|8|2,1:2|0:0|0:0,0:0:0:0:
142,239,24430,1,0,1:2:0:0:
42,323,24599,2,1,P|79:322|118:313,1,71.9999978027344,10|2,0:0|0:0,0:0:0:0:
73,95,24938,6,0,P|62:166|57:247,2,143.999995605469,2|10|2,1:2|0:0|0:0,0:0:0:0:
142,239,25786,1,0,1:2:0:0:
207,129,25955,2,0,P|213:168|215:214,1,71.9999978027344,8|0,0:0|0:0,0:0:0:0:
76,98,26294,5,2,1:2:0:0:
76,98,26464,1,0,0:0:0:0:
235,20,26633,2,0,P|199:17|164:13,1,71.9999978027344,10|0,0:0|0:0,0:0:0:0:
320,3,26972,1,2,1:2:0:0:
207,129,27142,1,6,1:2:0:0:
207,129,27226,1,0,0:0:0:0:
207,129,27311,1,8,0:0:0:0:
333,191,27481,1,10,3:0:0:0:
350,187,27565,1,8,3:0:0:0:
367,184,27650,6,1,B|397:236|397:236|380:325,1,143.999995605469,4|8,1:2|0:0,0:0:0:0:
381,318,28159,1,2,0:0:0:0:
506,384,28328,2,0,L|494:308,1,71.9999978027344,2|2,0:0|1:2,0:0:0:0:
318,195,28667,2,1,L|305:266,1,71.9999978027344,8|2,0:0|0:0,0:0:0:0:
395,99,29006,2,1,P|469:103|504:169,2,143.999995605469,2|10|0,1:2|0:0|0:0,0:0:0:0:
318,195,29854,1,2,1:2:0:0:
203,74,30023,2,0,P|241:87|282:87,1,71.9999978027344,8|2,0:0|0:0,0:0:0:0:
71,0,30362,6,0,P|81:66|89:168,1,143.999995605469,0|10,1:2|0:0,0:0:0:0:
87,142,30870,1,0,1:2:0:0:
0,279,31040,1,8,0:0:0:0:
194,206,31209,2,0,P|190:181|185:149,1,35.9999989013672,6|4,3:0|3:0,0:0:0:0:
105,267,31379,1,2,1:2:0:0:
122,298,31464,1,4,3:0:0:0:
151,319,31548,1,6,3:0:0:0:
186,326,31633,1,8,0:0:0:0:
221,319,31718,5,10,0:0:0:0:
87,142,31887,1,6,1:2:0:0:
221,319,32226,1,6,1:2:0:0:
321,88,32565,2,0,P|379:84|420:173,1,143.999995605469,6|8,1:2|3:0,0:0:0:0:
483,219,32989,1,8,3:0:0:0:
483,219,33074,6,1,B|412:235|426:165|348:179,1,143.999995605469,6|10,1:2|0:0,0:0:0:0:
281,226,33582,1,2,0:0:0:0:
281,226,33921,1,2,1:2:0:0:
140,285,34091,2,0,P|175:272|213:274,1,71.9999978027344,8|2,0:0|0:0,0:0:0:0:
73,384,34430,6,1,P|61:306|37:237,2,143.999995605469,2|8|2,1:2|0:0|0:0,0:0:0:0:
140,285,35277,1,0,1:2:0:0:
17,170,35447,2,1,P|52:165|84:179,1,71.9999978027344,10|2,0:0|0:0,0:0:0:0:
242,261,35786,2,1,B|202:265|202:265|183:280|183:280|140:285,1,107.999996704102,4|0,1:2|0:0,0:0:0:0:
297,324,36125,2,0,P|318:296|322:261,1,71.9999978027344,10|2,0:0|0:0,0:0:0:0:
166,137,36464,1,6,1:2:0:0:
388,208,36633,1,0,1:2:0:0:
242,261,36803,1,8,0:0:0:0:
296,46,36972,6,1,P|285:116|280:196,1,143.999995605469,6|0,1:2|1:2,0:0:0:0:
424,80,37481,1,8,0:0:0:0:
168,12,37650,1,0,1:2:0:0:
280,188,37820,2,0,P|272:144|259:102,1,71.9999978027344,10|4,0:0|3:0,0:0:0:0:
296,46,38074,1,4,3:0:0:0:
296,46,38159,1,2,1:2:0:0:
159,243,38328,1,8,3:0:0:0:
159,243,38413,1,8,3:0:0:0:
159,243,38498,6,1,P|88:235|12:230,1,143.999995605469,6|2,1:2|0:0,0:0:0:0:
15,230,39006,1,2,1:2:0:0:
91,316,39176,1,8,0:0:0:0:
91,316,39345,1,0,0:0:0:0:
147,172,39515,2,0,P|151:208|164:260,1,71.9999978027344,2|6,1:2|3:0,0:0:0:0:
158,242,39769,1,4,3:0:0:0:
158,242,39854,5,0,1:2:0:0:
285,122,40023,2,0,P|344:123|379:208,1,143.999995605469,8|0,0:0|0:0,0:0:0:0:
317,224,40532,1,14,0:0:0:0:
452,336,40701,1,4,3:0:0:0:
452,336,40786,1,4,3:0:0:0:
452,336,40870,2,0,L|508:324,1,35.9999989013672,2|8,1:2|0:0,0:0:0:0:
358,384,41040,1,10,0:0:0:0:
340,381,41125,1,8,0:0:0:0:
322,379,41209,6,0,B|275:375|254:336|254:336|236:368|194:372,1,143.999995605469,4|10,1:2|0:0,0:0:0:0:
67,261,41718,1,0,0:0:0:0:
285,122,41887,1,8,0:0:0:0:
187,292,42057,1,2,0:0:0:0:
187,292,42142,1,8,0:0:0:0:
187,292,42226,1,8,0:0:0:0:
38,75,42396,5,6,1:2:0:0:
222,178,42735,2,1,P|303:166|383:162,1,143.999995605469,6|8,1:2|3:0,0:0:0:0:
364,162,43159,1,8,3:0:0:0:
364,162,43243,1,0,1:2:0:0:
440,84,43413,1,8,3:0:0:0:
389,275,43582,1,4,3:0:0:0:
456,74,43921,5,4,1:2:0:0:
127,263,52735,5,4,3:3:0:0:
220,210,52904,1,10,3:0:0:0:
76,171,53074,1,8,3:0:0:0:
178,355,53243,6,1,P|247:341|327:329,1,128,6|0,1:2|1:2,0:0:0:0:
427,228,53752,1,0,1:2:0:0:
382,354,53921,1,0,1:2:0:0:
322,164,54091,1,8,0:0:0:0:
457,318,54260,1,8,0:0:0:0:
248,384,54430,1,8,0:0:0:0:
449,225,54599,1,8,0:0:0:0:
449,225,54684,1,8,0:0:0:0:
449,225,54769,6,0,P|451:147|461:52,2,160,6|8|2,1:2|0:0|1:2,0:0:0:0:
369,89,55616,1,0,1:2:0:0:
220,210,55786,2,0,P|259:201|305:195,1,80,8|2,0:0|0:0,0:0:0:0:
91,137,56125,5,2,1:2:0:0:
152,271,56294,1,2,0:0:0:0:
257,100,56464,2,1,P|217:91|171:85,1,80,8|0,0:0|0:0,0:0:0:0:
0,263,56803,2,0,P|37:245|72:225,1,80,2|2,0:0|1:2,0:0:0:0:
178,85,57142,1,10,0:0:0:0:
65,145,57311,1,2,0:0:0:0:
188,356,57481,6,1,P|194:276|202:190,1,160,2|10,1:2|0:0,0:0:0:0:
279,307,57989,1,2,0:0:0:0:
415,174,58159,2,1,P|422:214|427:261,1,80,0|2,1:2|1:2,0:0:0:0:
296,185,58498,1,8,0:0:0:0:
500,171,58667,6,0,P|465:102|389:90,1,160,2|0,1:2|1:2,0:0:0:0:
200,195,59176,1,8,0:0:0:0:
301,54,59345,1,0,0:0:0:0:
120,200,59515,2,0,L|221:193,1,80,4|8,1:2|0:0,0:0:0:0:
270,240,59769,1,8,0:0:0:0:
277,270,59853,1,8,0:0:0:0:
271,301,59938,1,8,0:0:0:0:
251,326,60023,1,8,3:0:0:0:
222,339,60107,1,8,3:0:0:0:
190,338,60193,6,0,L|110:332,1,80,6|2,1:2|0:0,0:0:0:0:
30,203,60532,2,1,P|45:148|144:118,1,160,10|0,0:0|1:2,0:0:0:0:
199,194,61040,1,0,1:2:0:0:
135,30,61209,1,8,0:0:0:0:
314,109,61379,2,1,P|272:106|228:99,1,80,2|0,1:2|0:0,0:0:0:0:
135,30,61718,5,2,1:2:0:0:
199,194,61887,2,0,P|241:191|285:184,1,80,8|2,0:0|1:2,0:0:0:0:
278,185,62142,1,0,0:0:0:0:
278,185,62226,1,0,0:0:0:0:
134,115,62396,1,2,1:2:0:0:
176,352,62565,2,0,P|179:292|187:222,1,120,14|2,0:0|0:0,0:0:0:0:
199,194,62904,5,6,1:2:0:0:
88,280,63074,1,2,0:0:0:0:
269,356,63243,2,1,P|308:352|348:346,1,80,10|0,0:0|0:0,0:0:0:0:
487,221,63582,1,0,1:2:0:0:
430,377,63752,1,2,1:2:0:0:
307,273,63921,1,8,0:0:0:0:
412,125,64091,6,0,P|410:167|407:210,1,80,2|0,1:2|0:0,0:0:0:0:
348,346,64430,1,0,1:2:0:0:
235,193,64599,2,0,P|263:172|309:166,1,80,12|2,0:0|0:0,0:0:0:0:
407,204,64938,1,2,1:2:0:0:
209,285,65108,2,1,P|187:279|167:256,1,40,8|8,0:0|0:0,0:0:0:0:
78,208,65277,1,10,1:2:0:0:
79,178,65361,1,8,3:0:0:0:
80,148,65446,1,8,3:0:0:0:
82,118,65531,1,8,3:0:0:0:
84,88,65616,6,1,B|161:-10|267:73|206:155|150:123,1,240,6|0,1:2|1:2,0:0:0:0:
156,125,66294,1,8,0:0:0:0:
8,256,66633,5,2,1:2:0:0:
235,193,66803,2,0,P|227:271|221:360,2,160,10|8|0,0:0|3:0|1:2,0:0:0:0:
388,325,67650,1,8,0:0:0:0:
260,274,67820,1,2,1:2:0:0:
428,177,67989,1,10,3:0:0:0:
258,285,68159,1,2,0:0:0:0:
150,112,68328,6,1,B|208:69|257:127|248:143|244:149|236:169|290:218|346:176,1,240,6|0,1:2|1:2,0:0:0:0:
342,180,69006,1,8,0:0:0:0:
154,268,69345,6,0,P|118:251|70:245,2,80,0|8|0,1:2|3:0|0:0,0:0:0:0:
16,354,69854,2,0,P|52:336|91:330,2,80,8|0|0,3:0|0:0|1:2,0:0:0:0:
182,352,70362,1,8,0:0:0:0:
78,244,70532,1,8,0:0:0:0:
78,244,70616,1,8,0:0:0:0:
78,244,70701,2,1,L|84:182,1,40,10|8,3:0|3:0,0:0:0:0:
125,88,70870,1,10,3:0:0:0:
144,92,70955,1,0,1:2:0:0:
163,96,71040,6,0,B|225:88|225:88|249:66|249:66|322:55,1,160,14|2,0:0|1:2,0:0:0:0:
374,116,71548,1,2,1:2:0:0:
186,12,71718,1,8,0:2:0:0:
377,127,71887,1,10,0:2:0:0:
92,192,72057,1,10,0:2:0:0:
313,56,72226,1,14,0:2:0:0:
315,44,72565,5,8,0:2:0:0:
187,305,72735,1,12,0:0:0:0:
402,250,73074,6,1,B|376:251|357:271|357:271|325:268|312:235|313:228|314:220|299:189|301:181|302:175|284:132|176:140|200:268|285:247,1,320,2|2,0:0|1:2,0:0:0:0:
422,333,73921,1,0,1:2:0:0:
422,333,74006,1,0,1:0:0:0:
422,333,74091,2,1,P|431:267|451:140,1,176.000005371094,14|2,0:0|0:0,0:0:0:0:
265,248,74599,1,0,1:2:0:0:
347,30,74769,2,0,P|356:79|362:127,1,88.000002685547,10|0,0:0|0:0,0:0:0:0:
175,270,75108,6,0,P|194:187|288:160,2,176.000005371094,2|8|2,1:2|0:0|0:0,0:0:0:0:
243,341,75955,1,0,1:2:0:0:
88,284,76125,2,0,P|135:276|178:269,1,88.000002685547,10|0,0:0|1:2,0:0:0:0:
272,156,76379,1,0,0:0:0:0:
272,156,76464,6,1,P|185:141|98:127,1,176.000005371094,6|10,1:2|0:0,0:0:0:0:
194,17,76972,1,2,0:0:0:0:
44,192,77142,2,1,P|19:156|18:112,1,88.000002685547,2|0,1:2|1:2,0:0:0:0:
175,270,77481,2,0,P|165:312|158:356,1,88.000002685547,10|0,0:0|0:0,0:0:0:0:
272,156,77820,5,2,1:2:0:0:
128,207,77989,1,0,1:2:0:0:
344,290,78159,2,0,P|391:282|434:275,1,88.000002685547,8|2,0:0|0:0,0:0:0:0:
321,79,78498,2,0,P|268:65|187:159,1,176.000005371094,2|10,1:2|0:0,0:0:0:0:
256,242,79006,1,8,0:0:0:0:
256,242,79091,1,8,0:0:0:0:
256,242,79176,6,1,P|264:193|275:142,1,88.000002685547,6|0,1:2|0:0,0:0:0:0:
87,41,79515,2,1,P|95:84|102:127,1,88.000002685547,10|0,0:0|0:0,0:0:0:0:
119,214,79854,1,2,1:2:0:0:
271,155,80023,1,0,1:2:0:0:
92,298,80193,2,0,P|43:289|-2:284,1,88.000002685547,10|0,0:0|0:0,0:0:0:0:
102,127,80532,5,2,1:2:0:0:
185,278,80701,1,0,0:0:0:0:
287,68,80870,2,0,P|277:117|270:159,1,88.000002685547,8|2,0:0|1:2,0:0:0:0:
327,223,81125,1,2,1:2:0:0:
327,223,81209,1,0,1:2:0:0:
185,152,81379,1,2,1:2:0:0:
437,100,81548,1,10,0:0:0:0:
260,319,81718,1,2,0:0:0:0:
85,66,81887,6,0,P|97:149|108:246,1,176.000005371094,4|10,1:2|0:0,0:0:0:0:
107,240,82396,1,2,0:0:0:0:
270,154,82565,1,0,1:2:0:0:
85,66,82735,1,2,1:2:0:0:
212,232,82904,1,8,0:0:0:0:
356,27,83074,6,1,B|264:17|293:95|189:81,1,176.000005371094,6|8,1:2|3:3,0:0:0:0:
196,81,83498,1,0,0:0:0:0:
196,81,83582,1,8,0:0:0:0:
404,101,83752,1,2,0:0:0:0:
282,286,83921,5,2,1:2:0:0:
279,253,84005,1,0,0:0:0:0:
276,220,84090,1,4,3:0:0:0:
273,187,84175,1,4,3:0:0:0:
270,154,84260,2,1,L|318:161,1,44.0000013427735,10|10,0:0|0:0,0:0:0:0:
456,198,84430,2,0,L|408:205,1,44.0000013427735,8|8,3:0|3:0,0:0:0:0:
230,358,84599,6,1,P|166:296|83:323,2,176.000005371094,6|10|2,1:2|0:0|1:2,0:0:0:0:
138,206,85447,1,0,1:2:0:0:
15,384,85616,2,0,P|11:334|7:295,1,88.000002685547,10|0,0:0|0:0,0:0:0:0:
214,125,85955,6,1,B|123:109|150:196|48:178,1,176.000005371094,2|8,1:2|0:0,0:0:0:0:
56,180,86464,1,2,0:0:0:0:
193,12,86633,1,2,1:2:0:0:
71,94,86803,1,0,1:2:0:0:
258,220,86972,2,1,P|304:213|353:208,1,88.000002685547,10|0,0:0|0:0,0:0:0:0:
507,381,87311,6,0,P|422:368|332:358,1,176.000005371094,6|8,1:2|0:0,0:0:0:0:
430,207,87820,1,2,0:0:0:0:
232,384,87989,2,0,P|225:337|215:289,1,88.000002685547,2|0,1:2|1:2,0:0:0:0:
1,292,88328,2,0,P|33:323|77:324,1,88.000002685547,8|0,0:0|0:0,0:0:0:0:
247,133,88667,5,4,1:2:0:0:
104,252,88837,1,0,1:2:0:0:
345,208,89006,1,8,0:0:0:0:
147,16,89176,2,1,P|157:87|169:194,1,176.000005371094,4|0,1:2|1:2,0:0:0:0:
74,163,89684,2,1,P|52:159|25:155,1,44.0000013427735,8|0,0:0|1:0,0:0:0:0:
281,35,89854,1,8,0:0:0:0:
281,35,89938,1,8,0:0:0:0:
281,35,90023,6,0,P|348:43|425:48,1,132.00000402832,6|0,1:2|0:0,0:0:0:0:
452,29,90362,1,10,0:0:0:0:
247,133,90532,1,2,1:2:0:0:
439,226,90701,1,8,0:0:0:0:
344,83,90870,1,2,0:0:0:0:
275,312,91040,1,8,0:0:0:0:
58,180,91209,6,0,P|147:165|238:152,1,176.000005371094,2|2,1:2|0:0,0:0:0:0:
342,248,91718,1,8,0:0:0:0:
140,129,91887,1,2,1:2:0:0:
260,292,92057,1,8,0:0:0:0:
335,65,92226,1,0,1:2:0:0:
335,65,92311,1,0,1:2:0:0:
335,65,92396,2,0,P|327:109|321:153,1,88.000002685547,8|0,0:0|1:2,0:0:0:0:
237,7,92735,5,14,0:0:0:0:
419,99,92904,1,2,0:0:0:0:
228,180,93074,1,10,0:0:0:0:
347,52,93243,1,2,1:2:0:0:
429,293,93413,2,0,P|422:248|416:205,1,88.000002685547,8|2,0:0|0:0,0:0:0:0:
322,362,93752,1,8,0:0:0:0:
139,183,93921,6,0,P|90:196|63:319,1,176.000005371094,2|2,1:2|0:0,0:0:0:0:
165,378,94430,1,8,0:0:0:0:
7,238,94599,1,2,1:2:0:0:
260,292,94769,1,8,0:0:0:0:
52,348,94938,1,8,0:0:0:0:
52,348,95023,1,8,0:0:0:0:
52,348,95108,2,1,L|56:294,1,44.0000013427735,8|8,3:0|3:0,0:0:0:0:
139,183,95277,2,0,L|142:226,1,44.0000013427735,8|8,3:0|3:0,0:0:0:0:
5,89,95447,6,0,P|40:47|123:54,1,132.00000402832,14|0,0:0|0:0,0:0:0:0:
141,80,95786,1,10,0:0:0:0:
20,223,95955,1,0,1:2:0:0:
227,130,96125,1,8,0:0:0:0:
5,89,96294,1,0,1:2:0:0:
147,257,96464,1,8,0:0:0:0:
223,33,96633,1,0,1:2:0:0:
240,295,96803,5,8,0:0:0:0:
141,80,96972,1,0,1:2:0:0:
138,344,97142,2,0,P|143:301|147:240,1,88.000002685547,8|0,0:0|1:2,0:0:0:0:
223,33,97481,1,10,0:0:0:0:
381,176,97650,1,8,3:0:0:0:
381,176,97735,1,8,3:0:0:0:
381,176,97820,2,0,L|328:168,1,44.0000013427735,8|8,0:0|0:0,0:0:0:0:
240,295,97989,2,0,L|293:287,1,44.0000013427735,8|8,0:0|0:0,0:0:0:0:
472,215,98159,6,1,P|480:149|397:76,1,176.000005371094,6|0,1:2|0:0,0:0:0:0:
337,169,98667,1,0,1:2:0:0:
240,34,98837,1,8,0:0:0:0:
392,77,99006,1,0,0:0:0:0:
230,180,99176,1,0,1:2:0:0:
298,96,99345,1,0,0:0:0:0:
336,278,99515,5,0,1:2:0:0:
209,184,99684,1,8,0:0:0:0:
306,361,99854,2,1,P|313:314|317:257,1,88.000002685547,0|0,0:0|0:0,0:0:0:0:
153,170,100193,2,1,L|200:174,1,44.0000013427735,8|0,0:0|0:0,0:0:0:0:
353,195,100362,2,0,L|306:199,1,44.0000013427735
190,310,100532,1,10,3:0:0:0:
168,307,100616,1,8,3:0:0:0:
146,305,100701,1,4,3:0:0:0:
124,302,100786,1,4,3:0:0:0:
102,300,100870,6,1,B|91:263|55:253|55:253|90:204|62:142,1,176.000005371094,6|8,1:2|0:0,0:0:0:0:
210,134,101379,2,0,B|121:144|153:60|49:68,1,176.000005371094,6|2,1:2|1:2,0:0:0:0:
56,67,101803,1,0,0:0:0:0:
56,67,101887,1,14,0:0:0:0:
136,0,102226,5,0,1:2:0:0:
228,118,102396,1,8,0:0:0:0:
66,151,102565,1,0,1:2:0:0:
238,17,102735,1,8,0:0:0:0:
305,293,102904,6,0,P|312:233|327:146,1,132.00000402832,8|8,0:0|0:0,0:0:0:0:
385,109,103243,1,8,0:0:0:0:
417,109,103327,1,8,0:0:0:0:
446,125,103412,1,8,0:0:0:0:
463,152,103497,1,8,0:0:0:0:
464,185,103581,5,6,1:2:0:0:
311,152,103752,1,2,0:0:0:0:
447,288,103921,1,10,0:0:0:0:
226,306,104091,2,1,P|267:297|310:292,1,80,2|0,0:0|1:2,0:0:0:0:
142,384,104430,1,2,1:2:0:0:
173,207,104599,1,10,0:0:0:0:
24,384,104769,6,1,P|17:299|8:217,1,160,2|2,0:0|0:0,0:0:0:0:
145,297,105277,1,10,0:0:0:0:
233,112,105447,2,0,P|154:134|134:207,1,160,2|2,1:2|1:2,0:0:0:0:
133,202,105870,1,2,0:0:0:0:
133,202,105955,2,1,L|184:208,1,40,10|2,0:0|0:0,0:0:0:0:
279,270,106125,2,1,L|240:275,1,40,2|2,0:0|0:0,0:0:0:0:
145,297,106294,5,6,1:2:0:0:
328,178,106464,1,10,0:0:0:0:
125,111,106633,1,10,0:0:0:0:
239,275,106803,2,1,P|247:187|256:108,1,160,6|2,1:2|1:2,0:0:0:0:
255,115,107226,1,2,0:0:0:0:
255,115,107311,1,8,0:0:0:0:
491,182,107481,6,1,P|484:228|385:262,1,160,6|2,1:2|1:2,0:0:0:0:
387,263,107989,1,10,0:0:0:0:
260,375,108159,2,1,L|299:369,2,40,10|8|0,0:0|0:0|1:2,0:0:0:0:
385,353,108498,1,10,0:0:0:0:
221,252,108667,2,0,L|181:246,1,40,10|8,0:0|0:0,0:0:0:0:
91,306,108837,1,4,3:0:0:0:
91,306,108921,1,4,3:0:0:0:
91,306,109006,6,0,P|98:347|105:388,1,80,10|2,0:2|0:0,0:0:0:0:
104,384,109260,1,0,1:2:0:0:
104,384,109345,1,14,0:0:0:0:
225,263,109515,1,2,0:0:0:0:
13,258,109684,2,0,P|39:228|77:219,1,80,0|2,1:2|1:2,0:0:0:0:
229,274,110023,1,10,0:0:0:0:
165,42,110193,6,0,P|160:115|154:228,1,160,2|2,0:0|0:0,0:0:0:0:
233,285,110701,1,10,0:0:0:0:
437,259,110870,2,0,P|369:197|297:223,1,160,2|2,1:2|1:2,0:0:0:0:
309,211,111294,1,2,0:0:0:0:
309,211,111379,2,0,P|316:242|320:270,1,40,10|2,0:0|0:0,0:0:0:0:
230,337,111548,2,0,P|233:317|237:297,1,40,2|2,0:0|0:0,0:0:0:0:
306,120,111718,5,6,1:2:0:0:
77,219,111887,1,2,1:2:0:0:
239,350,112057,1,10,0:0:0:0:
131,132,112226,2,0,P|121:216|111:323,1,160,6|10,1:2|3:3,0:0:0:0:
113,291,112650,1,10,3:3:0:0:
113,291,112735,1,10,0:0:0:0:
36,105,112904,6,1,P|79:46|177:42,1,160,6|0,1:2|1:2,0:0:0:0:
227,105,113413,1,8,0:0:0:0:
77,219,113582,2,0,P|51:215|25:209,2,40,4|4|0,3:0|3:0|1:2,0:0:0:0:
201,357,113921,2,1,P|220:354|240:350,1,40,8|8,2:0|2:0,0:0:0:0:
313,272,114091,1,8,1:2:0:0:
313,272,114175,1,0,1:0:0:0:
313,272,114260,2,1,P|341:277|363:281,1,40,0|0,1:0|1:2,0:0:0:0:
422,356,114430,5,10,1:2:0:0:
211,219,114599,1,10,0:2:0:0:
213,238,114684,1,2,0:0:0:0:
215,257,114769,1,2,0:0:0:0:
302,154,114938,5,10,1:2:0:0:
117,379,115108,1,10,0:2:0:0:
117,379,115193,1,2,0:0:0:0:
117,379,115278,1,2,0:0:0:0:
313,272,115447,5,10,1:2:0:0:
139,135,115616,1,10,0:2:0:0:
139,135,115701,1,2,0:0:0:0:
139,135,115786,1,2,0:0:0:0:
215,257,115955,5,10,0:0:0:0:
368,0,116125,1,10,0:0:0:0:
284,45,116294,2,0,L|293:96,2,40,8|8|8,3:0|3:0|3:0,0:0:0:0:
370,135,116633,1,4,3:0:0:0:
203,1,116803,1,4,3:0:0:0:
499,160,117142,5,10,1:2:0:0:
305,312,117311,1,10,0:2:0:0:
309,292,117396,1,2,0:0:0:0:
313,272,117481,1,2,0:0:0:0:
485,364,117650,5,10,1:2:0:0:
381,153,117820,1,10,0:2:0:0:
381,153,117904,1,2,0:0:0:0:
381,153,117989,1,2,0:0:0:0:
305,312,118159,5,10,1:2:0:0:
499,160,118328,2,0,P|493:208|490:245,1,80,10|0,0:2|0:0,0:0:0:0:
441,71,118667,5,10,1:2:0:0:
493,355,118837,1,10,0:2:0:0:
419,306,119176,2,0,P|363:297|305:292,2,96,2|2|2,0:0|0:0|0:0,0:0:0:0:
502,360,119854,5,6,1:2:0:0:
144,101,124938,5,8,3:0:0:0:
144,101,125023,1,8,3:0:0:0:
144,101,125108,2,0,L|150:148,1,32,6|4,3:0|3:0,0:0:0:0:
214,44,125277,5,8,0:0:0:0:
52,121,125447,1,8,0:0:0:0:
129,283,125616,1,8,0:0:0:0:
291,206,125786,1,10,0:0:0:0:
291,206,126633,5,8,0:0:0:0:
129,283,126803,1,8,0:0:0:0:
52,121,126972,1,10,0:0:0:0:
214,44,127142,1,10,0:0:0:0:
214,44,127989,5,6,0:0:0:0:
214,44,129345,5,8,0:0:0:0:
129,283,129515,1,4,1:2:0:0:
214,44,129854,1,4,1:2:0:0:
0,232,130193,6,1,P|43:182|133:208,1,160,4|8,1:2|3:0,0:0:0:0:
129,283,130616,1,8,0:0:0:0:
129,283,130701,6,1,P|204:269|310:257,1,160,6|2,1:2|0:0,0:0:0:0:
210,96,131209,2,1,P|150:113|128:205,1,160,10|2,0:0|1:2,0:0:0:0:
204,232,131718,1,8,0:0:0:0:
349,199,132057,5,0,1:2:0:0:
349,199,132226,1,0,1:2:0:0:
224,102,132396,1,0,0:0:0:0:
287,258,132565,1,8,0:0:0:0:
378,120,132735,2,0,L|360:9,1,80,2|0,0:0|1:2,0:0:0:0:
268,176,133074,1,10,0:0:0:0:
400,267,133243,1,2,0:0:0:0:
229,310,133413,6,1,P|309:295|413:282,1,160,4|10,1:2|0:0,0:0:0:0:
448,342,133921,1,0,0:0:0:0:
268,176,134091,1,6,1:2:0:0:
400,267,134260,2,0,P|360:259|308:253,1,80,0|8,1:2|0:0,0:0:0:0:
73,207,134599,6,1,P|94:149|193:142,1,160,6|0,1:2|1:2,0:0:0:0:
182,135,135023,1,0,0:0:0:0:
182,135,135108,1,8,0:0:0:0:
36,45,135277,2,0,P|44:69|48:87,1,40,4|4,3:0|3:0,0:0:0:0:
79,225,135447,1,2,1:2:0:0:
0,151,135616,1,8,3:0:0:0:
122,44,135786,1,2,1:2:0:0:
262,201,135955,1,8,3:0:0:0:
262,201,136040,1,8,3:0:0:0:
262,201,136125,6,1,P|253:284|249:361,1,160,6|2,1:2|0:0,0:0:0:0:
249,360,136633,1,2,1:2:0:0:
404,222,136803,1,8,0:0:0:0:
412,340,136972,2,1,P|360:327|335:306,1,80,10|0,0:0|0:0,0:0:0:0:
173,190,137311,6,0,P|214:126|299:124,1,160,6|8,1:2|0:0,0:0:0:0:
292,120,137820,1,0,0:0:0:0:
214,39,137989,1,0,1:2:0:0:
164,204,138159,2,1,P|148:168|151:123,1,80,10|0,3:0|1:2,0:0:0:0:
262,201,138498,1,10,3:0:0:0:
74,328,138667,1,6,3:0:0:0:
72,307,138752,1,4,3:0:0:0:
70,286,138837,5,4,1:2:0:0:
164,204,139006,1,2,1:2:0:0:
5,159,139176,1,10,0:0:0:0:
159,337,139345,2,0,P|241:321|335:306,1,160,4|0,1:2|1:2,0:0:0:0:
399,375,139854,1,8,0:0:0:0:
399,375,139938,1,0,1:0:0:0:
399,375,140023,1,2,1:2:0:0:
486,212,140193,5,2,1:2:0:0:
316,308,140362,1,2,0:0:0:0:
466,299,140532,1,8,0:0:0:0:
348,149,140701,1,6,1:2:0:0:
348,149,140786,1,2,0:0:0:0:
348,149,140870,2,1,L|355:88,1,40,2|2,0:0|0:0,0:0:0:0:
237,242,141040,2,1,L|241:281,1,40,2|2,1:2|0:0,0:0:0:0:
162,160,141209,2,1,L|137:191,1,40,8|2,0:0|0:0,0:0:0:0:
205,73,141379,1,4,3:0:0:0:
205,73,141464,1,4,3:0:0:0:
205,73,141548,6,1,P|241:81|287:86,1,71.9999978027344,6|0,1:2|0:0,0:0:0:0:
141,0,141887,2,1,P|75:14|-7:23,2,143.999995605469,0|2|0,1:2|1:2|1:2,0:0:0:0:
205,73,142735,1,2,0:0:0:0:
108,162,142904,2,1,P|109:124|115:86,1,71.9999978027344,2|2,1:2|0:0,0:0:0:0:
228,215,143243,2,1,B|154:202|164:260|90:245,1,143.999995605469,0|0,1:2|1:2,0:0:0:0:
29,187,143752,1,2,0:0:0:0:
29,187,143837,1,2,0:0:0:0:
29,187,143921,1,6,1:2:0:0:
108,162,144091,1,2,0:0:0:0:
215,297,144260,6,0,P|282:277|360:262,1,143.999995605469,4|2,1:2|1:2,0:0:0:0:
406,184,144769,1,2,0:0:0:0:
440,342,144938,2,1,P|445:304|452:266,1,71.9999978027344,0|2,1:2|0:0,0:0:0:0:
451,270,145193,1,2,0:0:0:0:
451,270,145277,1,4,1:2:0:0:
349,249,145447,1,2,0:0:0:0:
402,51,145616,6,1,P|410:120|415:197,1,143.999995605469,0|0,1:2|1:2,0:0:0:0:
318,57,146125,2,0,P|320:79|322:104,1,35.9999989013672,2|2,0:0|0:0,0:0:0:0:
264,151,146294,2,1,P|188:149|152:75,1,143.999995605469,2|2,1:2|1:2,0:0:0:0:
76,43,146718,1,2,0:0:0:0:
77,53,146802,1,2,0:0:0:0:
78,64,146887,1,2,0:0:0:0:
79,75,146972,6,0,B|64:106|87:143|87:143|36:134|13:177,2,143.999995605469,6|0|2,1:2|1:2|1:2,0:0:0:0:
146,233,147989,2,1,P|111:225|63:218,1,71.9999978027344,0|2,1:2|0:0,0:0:0:0:
0,313,148328,2,1,P|35:305|83:298,1,71.9999978027344,2|2,1:2|0:0,0:0:0:0:
152,355,148667,1,0,1:2:0:0:
152,355,148837,1,0,0:0:0:0:
221,198,149006,2,1,P|280:203|311:294,1,143.999995605469,0|6,1:2|1:2,0:0:0:0:
316,272,149515,1,2,0:0:0:0:
444,384,149684,6,0,P|449:313|461:222,1,143.999995605469,2|6,1:2|1:2,0:0:0:0:
502,157,150193,1,2,0:0:0:0:
365,64,150362,1,8,0:0:0:0:
365,64,150532,1,10,0:0:0:0:
412,159,150701,1,8,3:0:0:0:
225,257,150870,6,0,P|301:244|378:237,1,143.999995605469,6|4,1:2|3:0,0:0:0:0:
286,369,151379,2,1,P|283:350|280:332,1,35.9999989013672,0|0,1:2|1:0,0:0:0:0:
224,210,151548,2,1,P|221:227|218:245,1,35.9999989013672,4|0,3:0|1:0,0:0:0:0:
142,349,151718,2,1,P|161:346|179:343,1,35.9999989013672,0|0,1:2|1:0,0:0:0:0:
361,252,151887,2,1,P|343:249|325:246,1,35.9999989013672,0|0,1:2|1:0,0:0:0:0:
151,158,152057,2,0,P|141:213|132:269,1,107.999996704102,4|0,1:2|0:0,0:0:0:0:
116,275,152396,6,0,P|69:283|32:181,2,160,6|8|2,1:2|0:0|1:2,0:0:0:0:
177,343,153243,1,0,1:2:0:0:
320,265,153413,2,1,P|276:282|258:316,1,80,8|2,0:0|1:2,0:0:0:0:
451,384,153752,6,0,P|456:313|465:219,1,160,2|8,1:2|0:0,0:0:0:0:
333,342,154260,1,0,1:2:0:0:
236,194,154430,1,0,0:0:0:0:
236,194,154599,1,2,1:2:0:0:
383,104,154769,2,1,P|376:149|371:191,1,80,10|2,0:0|0:0,0:0:0:0:
148,189,155108,6,1,P|177:127|278:120,1,160,4|10,1:2|0:0,0:0:0:0:
371,183,155616,1,2,0:0:0:0:
175,88,155786,1,0,1:2:0:0:
260,287,155955,2,1,P|255:247|248:207,1,80,6|8,1:2|0:0,0:0:0:0:
133,337,156294,6,1,B|196:344|196:344|224:370|224:370|301:379,1,160,6|8,1:2|3:0,0:0:0:0:
282,376,156718,1,8,3:0:0:0:
282,376,156803,1,8,0:0:0:0:
449,285,156972,1,0,1:0:0:0:
449,285,157057,1,0,1:0:0:0:
449,285,157142,2,0,P|432:303|420:316,1,40,0|0,1:2|1:0,0:0:0:0:
261,285,157311,2,1,P|286:288|311:292,1,40,8|8,0:0|0:0,0:0:0:0:
380,197,157481,2,1,P|355:200|330:204,1,40,8|8,3:3|3:3,0:0:0:0:
196,107,157650,1,4,3:3:0:0:
196,107,157735,1,4,3:3:0:0:
196,107,157820,5,6,1:2:0:0:
171,318,157989,2,1,P|163:279|149:225,1,80,2|10,1:2|0:0,0:0:0:0:
66,197,158328,1,0,1:2:0:0:
226,23,158498,2,1,P|157:26|104:110,1,160,2|8,1:2|0:0,0:0:0:0:
289,90,159006,6,1,P|325:71|374:72,1,80,2|0,1:2|0:0,0:0:0:0:
439,230,159345,2,1,P|442:187|454:129,1,80,2|8,1:2|0:0,0:0:0:0:
314,303,159684,2,1,P|311:260|299:202,1,80,2|0,1:2|0:0,0:0:0:0:
196,107,160023,1,2,1:2:0:0:
100,255,160193,1,8,0:0:0:0:
227,194,160362,1,10,0:0:0:0:
227,194,160447,1,8,0:0:0:0:
227,194,160532,5,2,1:2:0:0:
77,56,160701,2,1,P|85:102|91:144,1,80,2|10,1:2|0:0,0:0:0:0:
218,210,161040,1,0,1:2:0:0:
20,317,161209,2,1,P|94:297|187:280,1,160,2|8,1:2|0:0,0:0:0:0:
301,378,161718,6,1,P|261:365|219:346,1,80,2|0,1:2|0:0,0:0:0:0:
371,213,162057,2,1,P|334:229|296:241,1,80,2|8,1:2|0:0,0:0:0:0:
175,281,162396,1,0,1:2:0:0:
33,153,162565,1,14,0:0:0:0:
142,66,162735,2,0,P|138:89|135:114,1,40,8|8,0:0|0:0,0:0:0:0:
37,280,162904,1,2,1:2:0:0:
66,275,162988,1,8,0:0:0:0:
96,271,163073,1,8,3:0:0:0:
126,267,163158,1,8,3:0:0:0:
156,263,163243,6,1,B|186:267|210:285|210:285|229:207|317:192|342:273|297:288,1,240,6|0,1:2|1:2,0:0:0:0:
307,281,163921,1,8,0:0:0:0:
135,105,164260,5,2,1:2:0:0:
277,20,164430,2,1,B|310:37|341:28|341:28|360:42|360:42|395:32|433:56,1,160,10|8,0:0|3:0,0:0:0:0:
437,75,164854,1,8,3:0:0:0:
437,75,164938,2,0,P|416:117|417:158,1,80,8|0,3:0|1:2,0:0:0:0:
503,259,165277,1,8,0:0:0:0:
327,233,165447,1,2,1:2:0:0:
503,154,165616,1,10,3:0:0:0:
398,307,165786,1,2,0:0:0:0:
264,150,165955,6,1,B|203:129|165:194|177:205|182:210|190:229|155:290|83:266,1,240,6|0,1:2|1:2,0:0:0:0:
92,269,166633,1,8,0:0:0:0:
315,372,166803,1,8,0:0:0:0:
315,372,166887,1,8,0:0:0:0:
315,372,166972,1,8,0:0:0:0:
354,116,167142,6,1,P|340:169|325:242,1,120,4|0,1:2|0:0,0:0:0:0:
349,266,167481,1,0,1:2:0:0:
178,384,167650,2,1,P|172:342|163:295,1,80,8|0,0:0|1:2,0:0:0:0:
326,384,167989,1,8,0:0:0:0:
177,211,168159,1,4,3:0:0:0:
177,211,168243,1,0,1:0:0:0:
177,211,168328,2,1,P|181:190|185:167,1,40,2|2,1:2|1:2,0:0:0:0:
51,65,168498,1,2,1:2:0:0:
62,80,168582,1,2,1:2:0:0:
73,96,168667,6,0,P|150:74|246:59,1,160,12|2,0:0|1:2,0:0:0:0:
300,125,169176,1,2,1:2:0:0:
109,0,169345,1,0,1:2:0:0:
303,136,169515,1,2,1:2:0:0:
68,255,169684,1,10,0:0:0:0:
228,60,169854,1,14,0:2:0:0:
235,50,170193,5,8,0:0:0:0:
301,347,170362,1,12,0:0:0:0:
203,188,170532,2,1,P|199:217|194:246,1,40,8|8,0:0|0:0,0:0:0:0:
314,368,170701,1,2,1:2:0:0:
342,381,170785,1,8,3:0:0:0:
374,382,170870,1,8,3:0:0:0:
403,370,170955,1,8,3:0:0:0:
425,347,171039,1,6,3:0:0:0:
436,317,171124,1,4,3:0:0:0:
433,286,171209,1,8,0:0:0:0:
418,258,171294,1,8,0:0:0:0:
393,239,171379,6,1,P|308:248|214:264,2,176.000005371094,6|14|2,1:2|0:0|1:2,0:0:0:0:
300,349,172226,1,0,1:2:0:0:
188,167,172396,2,0,P|196:208|205:262,1,88.000002685547,10|0,0:0|1:2,0:0:0:0:
110,376,172735,6,1,P|58:374|5:264,2,176.000005371094,2|8|2,1:2|0:0|1:2,0:0:0:0:
195,274,173582,1,0,1:2:0:0:
386,364,173752,2,0,P|346:354|292:348,1,88.000002685547,10|2,0:0|0:0,0:0:0:0:
84,251,174091,6,0,P|160:231|263:220,1,176.000005371094,2|8,1:2|0:0,0:0:0:0:
350,270,174599,1,2,0:0:0:0:
370,75,174769,2,1,P|355:120|346:163,1,88.000002685547,2|0,1:2|0:0,0:0:0:0:
479,302,175108,2,0,P|469:259|455:217,1,88.000002685547,8|0,0:0|0:0,0:0:0:0:
256,220,175447,5,0,1:2:0:0:
386,364,175616,1,0,1:2:0:0:
123,369,175786,2,0,P|171:358|213:353,1,88.000002685547,8|0,0:0|0:0,0:0:0:0:
350,270,176125,1,2,1:2:0:0:
116,230,176294,1,0,1:2:0:0:
217,363,176464,1,10,0:0:0:0:
92,123,176633,1,8,0:0:0:0:
92,123,176718,1,8,0:0:0:0:
92,123,176803,6,0,P|83:207|77:312,1,176.000005371094,6|10,1:2|0:0,0:0:0:0:
2,173,177311,1,0,0:0:0:0:
162,69,177481,1,2,1:2:0:0:
0,0,177650,1,0,1:2:0:0:
175,156,177820,2,0,P|220:147|278:138,1,88.000002685547,10|0,0:0|1:2,0:0:0:0:
430,274,178159,5,2,1:2:0:0:
356,95,178328,1,0,0:0:0:0:
273,322,178498,2,0,P|266:277|256:226,1,88.000002685547,8|0,0:0|0:0,0:0:0:0:
421,371,178837,2,1,P|428:326|438:275,1,88.000002685547,0|2,1:2|1:2,0:0:0:0:
511,163,179176,1,10,0:0:0:0:
344,238,179345,2,0,P|341:212|336:182,1,44.0000013427735,2|2,0:0|0:0,0:0:0:0:
233,18,179515,6,1,P|315:19|352:114,1,176.000005371094,6|10,1:2|0:0,0:0:0:0:
355,94,180023,1,2,1:2:0:0:
148,258,180193,1,8,0:0:0:0:
205,102,180362,1,10,0:0:0:0:
205,102,180447,1,8,0:0:0:0:
205,102,180532,1,8,0:0:0:0:
262,324,180701,6,1,P|184:312|85:305,1,176.000005371094,6|4,1:2|1:2,0:0:0:0:
87,305,181125,1,0,1:0:0:0:
87,305,181209,1,8,0:0:0:0:
230,211,181379,1,0,1:2:0:0:
70,76,181548,2,0,P|74:103|77:133,1,44.0000013427735,10|8,0:0|0:0,0:0:0:0:
148,258,181718,2,0,P|150:236|153:214,1,44.0000013427735,8|8,0:0|0:0,0:0:0:0:
236,102,181887,2,1,P|209:106|179:109,1,44.0000013427735,2|8,1:2|0:0,0:0:0:0:
2,214,182057,2,1,P|23:216|45:219,1,44.0000013427735,8|8,0:0|0:0,0:0:0:0:
220,350,182226,6,1,B|319:359|285:283|392:293,2,176.000005371094,6|10|2,1:2|0:0|1:2,0:0:0:0:
152,214,183074,1,0,1:2:0:0:
331,92,183243,2,0,P|319:139|314:181,1,88.000002685547,10|0,0:0|0:0,0:0:0:0:
424,380,183582,6,1,P|486:351|496:241,1,176.000005371094,2|8,1:2|0:0,0:0:0:0:
502,252,184091,1,0,0:0:0:0:
405,140,184260,1,2,1:2:0:0:
297,266,184430,1,0,1:2:0:0:
153,92,184599,2,0,P|200:98|251:103,1,88.000002685547,10|0,0:0|1:2,0:0:0:0:
114,175,184854,1,0,1:2:0:0:
114,175,184938,6,1,P|77:142|102:19,1,176.000005371094,2|8,1:2|0:0,0:0:0:0:
205,197,185447,1,2,0:0:0:0:
418,34,185616,1,2,1:2:0:0:
312,22,185786,1,0,1:2:0:0:
206,10,185955,1,8,0:0:0:0:
426,50,186125,1,0,0:0:0:0:
164,104,186294,5,4,1:2:0:0:
352,202,186464,1,0,1:2:0:0:
312,22,186633,1,8,0:0:0:0:
239,307,186803,2,0,P|245:215|253:120,1,176.000005371094,4|0,1:2|1:2,0:0:0:0:
161,234,187311,2,0,P|162:207|166:177,1,44.0000013427735,8|8,0:0|0:0,0:0:0:0:
77,339,187481,1,8,0:0:0:0:
77,339,187565,1,8,0:0:0:0:
77,339,187650,6,0,P|143:330|214:324,1,132.00000402832,6|0,1:2|0:0,0:0:0:0:
237,291,187989,1,10,0:0:0:0:
41,176,188159,1,2,1:2:0:0:
277,103,188328,1,8,0:0:0:0:
161,234,188498,1,2,0:0:0:0:
93,45,188667,1,8,0:0:0:0:
298,220,188837,6,0,P|354:195|387:79,1,176.000005371094,2|2,1:2|0:0,0:0:0:0:
318,3,189345,1,8,0:0:0:0:
505,131,189515,1,2,1:2:0:0:
277,103,189684,1,8,0:0:0:0:
464,231,189854,1,0,1:2:0:0:
464,231,189938,1,0,1:2:0:0:
464,231,190023,2,0,P|414:221|372:216,1,88.000002685547,8|0,0:0|1:2,0:0:0:0:
187,283,190362,5,14,0:0:0:0:
272,115,190532,1,2,0:0:0:0:
351,323,190701,1,10,0:0:0:0:
207,182,190870,1,2,1:2:0:0:
97,384,191040,2,0,P|93:339|86:290,1,88.000002685547,8|2,0:0|0:0,0:0:0:0:
63,265,191294,1,2,0:0:0:0:
63,265,191379,1,8,0:0:0:0:
184,96,191548,6,0,P|242:99|293:205,1,176.000005371094,2|2,1:2|1:2,0:0:0:0:
187,283,192057,1,8,0:0:0:0:
312,115,192226,1,2,1:2:0:0:
122,156,192396,1,8,0:0:0:0:
295,296,192565,1,8,0:0:0:0:
295,296,192650,1,8,0:0:0:0:
295,296,192735,2,1,P|321:290|345:288,1,44.0000013427735,8|8,0:0|0:0,0:0:0:0:
425,179,192904,2,1,P|399:173|375:171,1,44.0000013427735,0|0,1:2|1:2,0:0:0:0:
462,372,193074,6,0,P|470:301|479:230,1,132.00000402832,14|0,0:0|0:0,0:0:0:0:
502,204,193413,1,10,0:0:0:0:
296,104,193582,1,0,1:2:0:0:
475,11,193752,1,8,0:0:0:0:
367,189,193921,1,0,1:2:0:0:
193,93,194091,1,8,0:0:0:0:
376,197,194260,2,0,L|369:248,1,44.0000013427735,0|0,1:2|1:0,0:0:0:0:
329,23,194430,5,12,0:0:0:0:
208,254,194599,1,0,1:2:0:0:
68,23,194769,2,0,P|114:16|163:13,1,88.000002685547,12|0,0:0|1:2,0:0:0:0:
385,205,195108,1,10,0:0:0:0:
172,176,195277,1,4,3:0:0:0:
172,176,195362,1,8,3:0:0:0:
172,176,195447,2,1,L|177:221,1,44.0000013427735,8|8,3:0|3:0,0:0:0:0:
290,345,195616,2,1,L|294:301,1,44.0000013427735,10|8,3:0|3:0,0:0:0:0:
61,384,195786,6,1,P|98:321|200:329,1,176.000005371094,6|0,1:2|0:0,0:0:0:0:
176,219,196294,1,0,1:2:0:0:
297,358,196464,2,0,P|300:313|304:270,1,88.000002685547,8|0,0:0|0:0,0:0:0:0:
388,191,196803,1,0,1:2:0:0:
303,270,196972,1,8,0:0:0:0:
332,125,197142,5,0,1:2:0:0:
393,279,197311,1,8,3:0:0:0:
176,219,197481,2,0,P|223:209|271:204,1,88.000002685547,0|0,0:0|1:2,0:0:0:0:
93,39,197820,2,1,P|100:65|104:92,1,44.0000013427735,8|8,0:0|0:0,0:0:0:0:
10,204,197989,2,0,P|13:182|19:161,1,44.0000013427735,8|8,0:0|0:0,0:0:0:0:
188,54,198159,1,2,1:2:0:0:
209,56,198243,1,8,0:0:0:0:
231,58,198328,1,8,0:0:0:0:
253,61,198413,1,8,0:0:0:0:
275,65,198498,5,6,1:2:0:0:
374,193,198667,2,1,P|327:187|298:156,1,88.000002685547,0|8,1:2|0:0,0:0:0:0:
489,25,199006,2,1,P|471:115|458:210,1,176.000005371094,6|2,1:2|1:2,0:0:0:0:
459,198,199430,1,0,1:2:0:0:
459,198,199515,1,14,0:0:0:0:
512,283,199854,5,0,1:2:0:0:
374,193,200023,1,8,0:0:0:0:
328,371,200193,1,0,1:2:0:0:
466,205,200362,1,8,0:0:0:0:
230,297,200532,2,0,P|255:293|278:292,1,44.0000013427735,2|0,1:2|1:0,0:0:0:0:
173,213,200701,2,0,P|187:192|203:175,1,44.0000013427735,2|0,1:2|1:0,0:0:0:0:
79,171,200870,1,8,1:2:0:0:
40,191,200954,1,8,0:0:0:0:
17,228,201039,1,8,0:0:0:0:
17,271,201124,1,8,0:0:0:0:
39,308,201209,6,1,P|124:298|209:290,1,160,6|8,1:2|0:0,0:0:0:0:
328,371,201718,1,2,1:2:0:0:
392,148,201887,1,8,0:0:0:0:
281,300,202057,1,2,0:0:0:0:
281,300,202142,1,2,0:0:0:0:
281,300,202226,1,8,0:0:0:0:
481,205,202396,6,0,P|396:195|311:187,1,160,6|0,1:2|1:2,0:0:0:0:
461,103,202904,1,8,0:0:0:0:
237,222,203074,2,0,L|231:177,1,40,8|8,3:0|3:0,0:0:0:0:
282,106,203243,1,0,1:2:0:0:
124,5,203413,2,1,L|118:44,1,40,2|8,0:0|0:0,0:0:0:0:
2,164,203582,1,2,1:2:0:0:
41,158,203666,1,4,3:0:0:0:
81,152,203751,1,10,3:0:0:0:
120,147,203836,1,8,3:0:0:0:
160,141,203921,6,0,B|151:206|151:206|162:234|162:234|153:303,1,160,6|8,1:2|0:0,0:0:0:0:
153,297,204430,1,2,1:2:0:0:
2,164,204599,1,8,0:0:0:0:
118,44,204769,1,2,0:0:0:0:
118,44,204854,1,8,0:0:0:0:
118,44,204938,1,8,0:0:0:0:
284,241,205108,6,0,P|202:229|117:220,1,160,6|6,1:2|1:2,0:0:0:0:
125,220,205532,1,0,1:0:0:0:
125,220,205616,1,8,0:0:0:0:
273,70,205786,2,0,L|267:116,1,40,8|8,3:0|3:0,0:0:0:0:
284,241,205955,1,0,1:2:0:0:
162,111,206125,1,2,0:0:0:0:
383,30,206294,1,2,1:2:0:0:
276,117,206464,1,6,3:0:0:0:
276,117,206548,1,4,3:0:0:0:
276,117,206633,6,0,P|340:112|417:108,1,120,6|0,1:2|0:0,0:0:0:0:
426,134,206972,1,10,0:0:0:0:
298,0,207142,1,2,0:0:0:0:
498,94,207311,1,2,1:2:0:0:
331,235,207481,1,2,1:2:0:0:
395,108,207650,1,8,0:0:0:0:
462,315,207820,1,2,1:2:0:0:
462,315,207904,1,2,1:2:0:0:
462,315,207989,5,2,1:2:0:0:
196,207,208159,1,2,1:2:0:0:
310,351,208328,2,0,L|321:264,1,80,10|2,0:0|1:2,0:0:0:0:
331,235,208582,1,2,1:2:0:0:
331,235,208667,1,2,1:2:0:0:
117,333,208837,1,2,1:2:0:0:
136,330,208921,1,2,0:0:0:0:
155,328,209006,1,10,0:0:0:0:
196,207,209176,1,2,0:0:0:0:
48,107,209345,6,1,P|52:174|120:199,1,120,2|0,1:2|0:0,0:0:0:0:
107,212,209684,2,1,P|143:194|200:194,1,80,10|2,0:0|0:0,0:0:0:0:
320,271,210023,1,2,1:2:0:0:
234,119,210193,1,2,1:2:0:0:
155,328,210362,1,10,0:0:0:0:
401,151,210532,6,1,P|315:138|233:133,1,160,6|2,1:2|1:2,0:0:0:0:
242,133,211040,1,10,0:0:0:0:
330,360,211209,2,1,P|390:324|393:228,1,160,6|2,1:2|1:2,0:0:0:0:
242,133,211718,2,0,B|246:181|246:181|238:204|238:204|242:252,1,120,10|0,0:0|0:0,0:0:0:0:
320,271,212057,5,10,0:0:0:0:
159,168,212226,1,10,0:0:0:0:
368,33,212396,1,10,0:0:0:0:
234,260,212565,1,10,0:0:0:0:
227,269,212904,2,0,P|183:264|141:261,1,80,10|0,0:0|0:0,0:0:0:0:
54,5,213243,6,0,P|113:0|158:107,1,160,14|2,0:0|0:0,0:0:0:0:
165,75,213667,1,2,0:0:0:0:
165,75,213752,1,4,3:0:0:0:
0,190,213921,1,4,3:0:0:0:
3,170,214006,1,4,3:0:0:0:
6,150,214091,1,8,3:0:0:0:
147,261,214260,1,8,3:0:0:0:
51,380,214430,2,0,L|31:289,1,80,4|0,3:0|0:0,0:0:0:0:
260,220,214769,5,6,1:2:0:0:
6,150,214938,1,10,3:0:0:0:
150,275,215108,1,10,0:0:0:0:
277,53,215277,2,0,L|282:99,1,40,10|2,0:0|0:0,0:0:0:0:
255,180,215616,2,0,L|261:234,1,40,14|2,0:0|0:0,0:0:0:0:
233,307,215786,1,2,0:0:0:0:
233,307,215955,6,0,B|303:302|303:302|330:283|330:283|405:276,1,160,14|4,0:0|3:0,0:0:0:0:
194,142,216464,1,10,0:0:0:0:
330,338,216633,1,8,1:2:0:0:
330,338,216718,1,8,0:0:0:0:
330,338,216803,2,0,L|324:392,1,40,10|8,0:0|0:0,0:0:0:0:
259,219,216972,2,1,L|254:179,1,40,8|8,3:0|3:0,0:0:0:0:
79,312,217142,1,10,3:0:0:0:
107,318,217226,1,4,3:0:0:0:
136,310,217311,1,4,3:0:0:0:
156,289,217396,1,4,3:0:0:0:
164,260,217481,6,0,P|93:215|0:243,1,160,6|0,1:2|0:0,0:0:0:0:
21,227,217989,1,0,1:2:0:0:
193,60,218159,1,10,0:0:0:0:
252,301,218328,1,10,0:0:0:0:
112,142,218498,1,10,0:0:0:0:
322,12,218667,6,0,P|316:65|307:138,1,120,6|0,1:2|0:0,0:0:0:0:
316,149,219006,1,8,0:0:0:0:
338,2,219176,1,2,1:2:0:0:
219,159,219345,2,1,P|223:186|226:210,1,40,4|4,3:0|3:0,0:0:0:0:
399,115,219515,2,1,P|418:112|438:109,1,40,0|0,1:2|1:0,0:0:0:0:
353,252,219684,2,1,P|334:249|314:246,1,40,8|8,3:0|3:0,0:0:0:0:
441,204,219854,1,2,1:2:0:0:
293,341,220023,1,0,0:0:0:0:
293,341,220108,1,0,0:0:0:0:
293,341,220193,5,10,0:0:0:0:
169,102,220362,1,10,0:0:0:0:
438,108,220701,5,10,0:0:0:0:
224,198,220870,1,10,0:0:0:0:
341,4,221209,5,10,0:0:0:0:
114,193,221379,2,1,L|18:182,1,80,10|0,0:0|0:0,0:0:0:0:
169,102,221718,5,2,0:0:0:0:
209,276,221887,2,0,P|215:240|224:194,1,80,2|0,0:0|0:0,0:0:0:0:
245,192,222142,1,0,0:0:0:0:
245,192,222226,2,0,P|271:199|298:205,1,40,2|0,0:0|0:0,0:0:0:0:
450,108,222396,1,0,0:0:0:0:
410,115,222481,1,0,0:0:0:0:
371,124,222565,2,0,L|278:101,1,80,4|0,3:0|0:0,0:0:0:0:
451,301,222904,5,10,0:0:0:0:
371,35,223074,1,10,0:0:0:0:
223,197,223413,5,10,0:0:0:0:
507,224,223582,1,10,0:0:0:0:
280,93,223921,5,10,0:0:0:0:
400,378,224091,2,0,L|412:294,1,80,10|0,0:0|0:0,0:0:0:0:
313,213,224430,6,0,P|259:221|225:314,1,160,2|2,0:0|0:0,0:0:0:0:
300,333,224938,1,4,1:2:0:0:
102,287,225108,1,10,1:2:0:0:
83,289,225193,1,8,0:0:0:0:
64,291,225277,1,8,0:2:0:0:
103,296,225361,1,8,0:2:0:0:
143,300,225446,1,8,0:2:0:0:
183,305,225531,1,8,0:2:0:0:
223,310,225615,5,6,1:2:0:0:
75,208,225786,1,0,1:2:0:0:
75,208,225870,1,0,1:2:0:0:
75,208,225955,1,10,0:0:0:0:
246,58,226125,2,0,P|234:132|220:235,1,160,6|10,1:2|0:0,0:0:0:0:
222,216,226633,1,10,0:0:0:0:
475,316,226803,6,0,B|386:321|403:251|311:263,1,176.000005371094,4|10,1:2|0:0,0:0:0:0:
223,310,227311,1,10,0:0:0:0:
309,160,227481,1,10,0:0:0:0:
110,270,227650,2,0,L|166:262,1,40,10|0,0:0|1:2,0:0:0:0:
309,160,227820,1,4,3:0:0:0:
309,160,227904,1,4,3:0:0:0:
309,160,227989,2,0,L|253:152,1,40,10|8,0:0|0:0,0:0:0:0:
127,75,228159,2,0,L|133:127,1,40,8|8,0:0|0:0,0:0:0:0:
149,264,228328,5,10,0:0:0:0:
40,22,228498,1,0,1:0:0:0:
40,22,228582,1,0,1:2:0:0:
40,22,228667,2,1,L|64:230,1,176.000005371094,14|2,0:0|1:2,0:0:0:0:
127,75,229176,1,0,0:0:0:0:
149,264,229345,2,0,L|161:174,1,88.000002685547,10|0,0:0|0:0,0:0:0:0:
0,384,229684,6,0,B|72:379|72:379|102:355|102:355|188:351,1,176.000005371094,2|8,1:2|0:0,0:0:0:0:
60,196,230193,1,0,0:0:0:0:
251,380,230362,2,0,L|239:290,1,88.000002685547,2|0,1:2|0:0,0:0:0:0:
425,126,230701,2,0,P|413:173|364:198,1,88.000002685547,10|4,0:0|3:0,0:0:0:0:
378,56,230955,1,6,3:0:0:0:
378,56,231040,6,0,P|442:43|509:128,1,176.000005371094,6|8,1:2|0:0,0:0:0:0:
382,194,231548,1,2,0:0:0:0:
299,16,231718,1,2,1:2:0:0:
508,119,231887,1,0,0:0:0:0:
330,124,232057,2,1,P|286:117|234:112,1,88.000002685547,8|0,0:0|0:0,0:0:0:0:
48,208,232396,5,4,1:2:0:0:
192,36,232565,1,0,1:2:0:0:
190,191,232735,2,0,P|161:161|150:102,1,88.000002685547,8|4,0:0|3:0,0:0:0:0:
242,112,233074,1,2,1:2:0:0:
154,282,233243,1,4,3:0:0:0:
154,282,233328,1,4,3:0:0:0:
154,282,233413,2,0,L|212:270,1,44.0000013427735,2|4,1:2|3:0,0:0:0:0:
328,201,233582,2,0,L|270:189,1,44.0000013427735,4|8,3:0|3:0,0:0:0:0:
391,361,233752,6,1,P|467:336|479:241,1,176.000005371094,6|10,1:2|0:0,0:0:0:0:
413,195,234260,1,0,0:0:0:0:
267,328,234430,1,2,1:2:0:0:
483,249,234599,1,0,0:0:0:0:
321,113,234769,2,1,L|328:206,1,88.000002685547,10|0,0:0|0:0,0:0:0:0:
179,365,235108,6,0,L|185:277,1,88.000002685547,2|0,1:2|0:0,0:0:0:0:
197,101,235447,1,8,0:0:0:0:
413,195,235616,1,2,0:0:0:0:
413,195,235701,1,2,0:0:0:0:
413,195,235786,1,0,1:2:0:0:
267,328,235955,1,2,0:0:0:0:
125,215,236125,2,0,P|164:192|214:196,1,88.000002685547,10|2,0:0|0:0,0:0:0:0:
99,384,236464,5,6,1:2:0:0:
35,185,236633,1,0,0:0:0:0:
267,328,236803,1,10,0:0:0:0:
55,275,236972,1,2,1:2:0:0:
230,66,237142,1,8,0:0:0:0:
192,284,237311,1,2,0:0:0:0:
192,284,237396,1,8,0:0:0:0:
192,284,237481,1,8,0:0:0:0:
29,74,237650,6,0,B|102:77|74:137|165:136,1,132.00000402832,6|0,1:2|0:0,0:0:0:0:
160,122,237989,1,4,1:2:0:0:
337,243,238159,2,0,P|295:206|295:161,1,88.000002685547,8|8,0:0|3:0,0:0:0:0:
317,142,238413,1,8,3:0:0:0:
317,142,238498,2,1,L|366:135,1,44.0000013427735,6|0,1:2|1:2,0:0:0:0:
509,215,238667,1,8,0:0:0:0:
509,215,238752,1,8,0:0:0:0:
509,215,238837,2,0,L|503:260,1,44.0000013427735,10|8,1:2|0:0,0:0:0:0:
417,384,239006,2,0,L|411:340,1,44.0000013427735,4|4,3:0|3:0,0:0:0:0:
291,176,239176,6,0,P|209:165|112:158,2,176.000005371094,6|10|2,1:2|0:2|1:2,0:0:0:0:
130,323,240023,1,0,1:2:0:0:
37,163,240193,1,10,0:2:0:0:
186,248,240362,1,0,1:2:0:0:
271,33,240532,5,14,0:2:0:0:
458,119,240701,1,8,0:2:0:0:
465,161,240785,1,8,0:2:0:0:
443,198,240870,1,8,0:2:0:0:
401,211,240955,1,8,0:2:0:0:
359,224,241040,1,8,0:2:0:0:
337,261,241125,1,8,0:2:0:0:
345,304,241209,6,1,L|401:296,1,44.0000013427735,2|0,1:2|1:0,0:0:0:0:
275,187,241379,2,1,L|219:179,1,44.0000013427735,8|8,0:2|0:2,0:0:0:0:
235,340,241548,2,1,L|228:296,1,44.0000013427735,10|8,0:2|0:2,0:0:0:0:
345,130,241718,2,1,L|353:74,1,44.0000013427735,8|10,0:2|0:2,0:0:0:0:
478,284,241887,5,2,0:0:0:0:
125,140,242057,2,0,L|156:357,1,220.000006713867,4|0,1:2|0:0,0:0:0:0:
137,370,242565,2,0,P|76:370|43:296,1,132.00000402832,6|0,1:2|0:0,0:0:0:0:
98,231,242904,1,8,0:0:0:0:
111,28,243074,6,0,P|27:51|17:147,1,176.000005371094,4|8,1:2|3:3,0:0:0:0:
98,231,243582,1,8,0:0:0:0:
250,60,243752,1,4,3:0:0:0:
228,65,243837,1,4,3:0:0:0:
206,70,243921,1,4,3:0:0:0:
125,140,244091,1,4,1:2:0:0:
291,319,244260,1,8,0:0:0:0:
330,299,244344,1,8,0:0:0:0:
353,263,244429,1,8,3:0:0:0:
354,219,244514,1,8,3:0:0:0:
331,182,244599,6,0,P|283:193|243:201,1,88.000002685547,6|2,1:2|0:0,0:0:0:0:
417,331,244938,1,10,0:0:0:0:
493,85,245108,1,2,1:2:0:0:
354,219,245277,1,8,0:0:0:0:
507,309,245447,1,2,1:2:0:0:
376,101,245616,1,8,0:0:0:0:
155,319,245786,6,0,P|245:308|360:296,1,176.000005371094,2|2,1:2|1:2,0:0:0:0:
471,203,246294,1,8,0:0:0:0:
344,384,246464,1,2,1:2:0:0:
249,150,246633,1,8,0:0:0:0:
462,290,246803,1,0,1:2:0:0:
462,290,246887,1,0,1:0:0:0:
462,290,246972,2,0,P|465:244|472:194,1,88.000002685547,8|0,0:0|1:2,0:0:0:0:
508,70,247311,5,14,0:0:0:0:
354,219,247481,1,2,1:2:0:0:
253,9,247650,1,10,0:0:0:0:
408,109,247820,1,2,1:2:0:0:
248,252,247989,2,0,P|245:206|238:156,1,88.000002685547,8|6,0:0|1:2,0:0:0:0:
137,93,248328,1,8,0:0:0:0:
220,335,248498,6,0,B|319:351|293:281|384:290,1,176.000005371094,10|2,3:0|1:2,0:0:0:0:
248,252,249006,1,8,0:0:0:0:
86,384,249176,1,6,1:2:0:0:
14,173,249345,1,8,0:0:0:0:
167,270,249515,1,0,1:2:0:0:
167,270,249599,1,0,1:0:0:0:
167,270,249684,2,0,L|172:213,1,44.0000013427735,8|0,0:0|1:0,0:0:0:0:
1,288,249854,2,0,L|5:332,1,44.0000013427735,4|4,3:0|3:0,0:0:0:0:
86,384,250023,5,6,1:2:0:0:
9,160,250193,1,2,0:0:0:0:
220,335,250362,1,10,0:0:0:0:
1,288,250532,1,0,1:2:0:0:
240,166,250701,1,8,0:0:0:0:
2,300,250870,1,0,1:2:0:0:
164,384,251040,1,8,0:0:0:0:
263,91,251209,1,0,1:2:0:0:
263,91,251294,1,0,1:2:0:0:
263,91,251379,5,12,0:0:0:0:
83,231,251548,1,0,1:2:0:0:
240,166,251718,1,8,0:0:0:0:
44,21,251887,1,0,1:2:0:0:
167,270,252057,2,0,L|276:256,1,88.000002685547,10|8,0:0|0:0,0:0:0:0:
317,312,252311,1,8,0:0:0:0:
366,295,252395,1,0,1:2:0:0:
401,256,252480,1,8,3:0:0:0:
414,205,252565,1,4,3:0:0:0:
401,155,252649,1,4,3:0:0:0:
365,117,252735,6,0,B|302:124|302:124|272:153|272:153|191:162,1,176.000005371094,6|0,1:2|0:0,0:0:0:0:
201,160,253243,1,0,1:2:0:0:
20,282,253413,1,8,0:0:0:0:
129,115,253582,1,8,0:0:0:0:
195,265,253752,1,0,1:2:0:0:
50,202,253921,1,8,3:0:0:0:
190,173,254091,5,0,1:2:0:0:
190,173,254260,1,8,3:0:0:0:
52,123,254430,2,0,P|47:76|65:38,1,88.000002685547,0|0,0:0|1:2,0:0:0:0:
356,161,254769,2,0,L|249:152,1,88.000002685547,8|8,0:0|0:0,0:0:0:0:
183,243,255023,1,8,0:0:0:0:
183,243,255108,2,0,L|237:238,1,44.0000013427735,2|4,1:2|3:0,0:0:0:0:
344,83,255277,2,0,L|289:78,1,44.0000013427735,4|4,3:0|3:0,0:0:0:0:
383,257,255447,5,6,1:2:0:0:
499,129,255616,1,0,1:2:0:0:
268,153,255786,1,8,0:0:0:0:
419,357,255955,2,0,P|424:261|434:164,1,176.000005371094,6|2,1:2|1:2,0:0:0:0:
431,181,256379,1,0,1:2:0:0:
431,181,256464,2,0,P|391:230|346:237,1,107.999996704102,14|0,0:0|0:0,0:0:0:0:
331,224,256803,5,0,1:2:0:0:
256,160,256972,1,0,1:2:0:0:
267,299,257142,1,8,0:0:0:0:
348,127,257311,1,8,0:0:0:0:
95,218,257481,6,0,L|101:261,1,44.0000013427735,10|0,0:0|1:0,0:0:0:0:
364,317,257650,2,0,L|358:360,1,44.0000013427735,8|8,0:0|0:0,0:0:0:0:
154,62,257820,1,8,0:0:0:0:
161,116,257904,1,8,0:0:0:0:
169,170,257989,1,8,0:0:0:0:
176,225,258074,1,8,0:0:0:0:
184,279,258158,5,6,1:2:0:0:
348,127,258328,1,2,0:0:0:0:
76,24,258498,1,10,0:0:0:0:
256,160,258667,1,2,0:0:0:0:
120,339,258837,1,2,1:2:0:0:
169,170,259006,1,2,1:2:0:0:
331,224,259176,1,8,0:0:0:0:
64,274,259345,6,0,P|145:254|239:237,1,160,2|2,0:0|1:2,0:0:0:0:
294,329,259854,1,10,0:0:0:0:
429,130,260023,2,0,P|371:139|331:229,1,160,2|2,1:2|1:2,0:0:0:0:
330,223,260447,1,0,1:0:0:0:
330,223,260532,2,0,L|389:212,1,40,10|0,0:0|1:0,0:0:0:0:
485,319,260701,2,0,L|426:308,1,40,2|0,1:2|1:0,0:0:0:0:
294,329,260870,5,6,1:2:0:0:
468,223,261040,1,2,1:2:0:0:
378,384,261209,1,10,0:0:0:0:
214,118,261379,2,0,P|219:185|226:284,1,160,6|2,1:2|1:2,0:0:0:0:
225,277,261803,1,2,0:0:0:0:
225,277,261887,1,10,0:0:0:0:
8,151,262057,6,0,P|35:95|130:84,1,160,6|2,1:2|1:2,0:0:0:0:
124,81,262565,1,10,0:0:0:0:
300,200,262735,2,0,L|248:194,2,40,10|8|0,0:0|0:0|1:2,0:0:0:0:
214,118,263074,1,8,0:0:0:0:
391,15,263243,2,0,L|386:64,1,40,8|0,0:0|0:0,0:0:0:0:
380,173,263413,1,4,3:0:0:0:
380,173,263498,1,4,3:0:0:0:
380,173,263582,5,6,1:2:0:0:
271,16,263752,1,2,0:0:0:0:
490,117,263921,1,10,0:0:0:0:
366,251,264091,1,2,0:0:0:0:
391,15,264260,2,0,L|382:98,1,80,2|2,1:2|1:2,0:0:0:0:
366,251,264599,1,10,0:0:0:0:
203,108,264769,6,0,P|116:148|108:213,1,160,2|2,0:0|1:2,0:0:0:0:
201,217,265277,1,10,0:0:0:0:
0,324,265447,2,0,P|81:304|182:287,1,160,2|2,1:2|1:2,0:0:0:0:
201,217,265870,1,0,1:0:0:0:
201,217,265955,2,0,P|224:220|247:225,1,40,10|0,0:0|1:0,0:0:0:0:
316,316,266125,2,0,P|335:312|355:309,1,40,2|0,1:2|1:0,0:0:0:0:
254,384,266294,5,6,1:2:0:0:
313,169,266464,1,2,1:2:0:0:
156,290,266633,1,10,0:0:0:0:
415,381,266803,2,0,P|447:325|407:230,1,160,6|2,1:2|1:2,0:0:0:0:
418,239,267226,1,2,1:2:0:0:
418,239,267311,1,10,0:0:0:0:
331,10,267481,6,0,P|318:97|312:185,1,160,6|0,1:2|1:2,0:0:0:0:
419,116,267989,1,8,0:0:0:0:
240,223,268159,2,0,P|220:219|201:217,1,40,4|4,3:0|3:0,0:0:0:0:
153,31,268328,1,0,1:2:0:0:
105,38,268412,1,0,1:0:0:0:
67,70,268497,1,0,1:0:0:0:
51,116,268582,1,0,1:0:0:0:
62,164,268666,1,0,1:2:0:0:
82,162,268751,1,8,3:0:0:0:
102,159,268836,1,8,3:0:0:0:
122,156,268921,1,8,3:0:0:0:
142,153,269006,5,6,1:2:0:0:
362,246,269176,1,2,0:0:0:0:
253,312,269345,1,8,0:0:0:0:
346,92,269515,1,2,0:0:0:0:
346,92,269599,1,8,3:0:0:0:
346,92,269684,2,0,P|306:84|247:77,1,80,2|0,1:2|1:2,0:0:0:0:
425,34,270023,1,10,0:0:0:0:
200,216,270193,2,0,P|240:208|299:201,1,80,2|0,1:2|1:2,0:0:0:0:
457,253,270532,5,2,1:2:0:0:
346,92,270701,1,10,0:0:0:0:
345,324,270870,1,4,3:0:0:0:
345,324,270955,1,8,3:0:0:0:
345,324,271040,2,0,L|358:245,1,80,2|0,1:2|1:2,0:0:0:0:
177,162,271379,2,0,L|193:253,1,80,10|0,0:0|0:0,0:0:0:0:
23,332,271717,5,6,1:2:0:0:
177,162,271887,2,0,L|193:253,1,80,2|8,0:0|0:0,0:0:0:0:
85,167,272226,1,10,3:0:0:0:
283,218,272396,1,2,1:2:0:0:
340,0,272565,1,0,1:2:0:0:
177,162,272735,1,10,0:0:0:0:
363,265,272904,1,2,1:2:0:0:
363,265,272989,1,0,1:0:0:0:
363,265,273074,6,0,L|461:242,1,80,12|6,0:0|3:0,0:0:0:0:
473,269,273328,1,4,3:0:0:0:
473,269,273413,2,0,L|467:324,1,40,2|0,1:2|1:0,0:0:0:0:
346,384,273582,2,0,L|341:344,1,40,4|4,3:0|3:0,0:0:0:0:
243,213,273752,6,0,L|283:218,1,40,2|0,1:2|1:0,0:0:0:0:
191,351,273921,2,0,L|151:355,1,40,4|8,3:0|3:0,0:0:0:0:
78,180,274091,2,0,L|82:140,1,40,2|8,1:2|3:0,0:0:0:0:
238,269,274260,2,0,L|233:229,1,40,8|4,3:0|3:0,0:0:0:0:
173,80,274430,6,0,B|277:128|311:-104|133:-104|-86:-27|-49:202|117:232|196:276|289:250|336:106|328:77|322:74|313:70|363:-11|519:-33|800:158|466:337|430:394|342:319|291:214|281:209|271:202|106:247|135:375|135:375|181:281|266:282,1,1447.20003533203,6|0,1:2|0:0,0:0:0:0:
