osu file format v14

[General]
AudioFilename: audio.mp3
AudioLeadIn: 0
PreviewTime: 72904
Countdown: 0
SampleSet: Soft
StackLeniency: 0.7
Mode: 0
LetterboxInBreaks: 0
WidescreenStoryboard: 1

[Editor]
DistanceSpacing: 1.4
BeatDivisor: 4
GridSize: 32
TimelineZoom: 2

[Metadata]
Title:Lucky Clover
TitleUnicode:Lucky Clover
Artist:Inori Minase
ArtistUnicode:水瀬いのり
Creator:Sekai
Version:otudou's Expert
Source:
Tags:いのりん inorin innocent flower 1st first album Vocals j-pop jpop japanese pop female vocalist sekaii sekai-nyan pnky litoluna otudou -karUpA- grazuko asukow
BeatmapID:3658341
BeatmapSetID:1785922

[Difficulty]
HPDrainRate:5.5
CircleSize:4
OverallDifficulty:8
ApproachRate:9
SliderMultiplier:1.8
SliderTickRate:1

[Events]
//Background and Video events
0,0,"L.jpg",0,0
//Break Periods
2,44121,52135
2,120054,124338
//Storyboard Layer 0 (Background)
//Storyboard Layer 1 (Fail)
//Storyboard Layer 2 (Pass)
//Storyboard Layer 3 (Foreground)
//Storyboard Layer 4 (Overlay)
//Storyboard Sound Samples

[TimingPoints]
532,338.983050847458,4,2,1,60,1,0
532,-200,4,2,1,60,0,0
4769,-200,4,2,1,60,0,0
4938,-133.333333333333,4,2,1,60,0,0
5955,-100,4,2,1,60,0,0
11294,-100,4,2,1,60,0,0
11379,-100,4,2,1,60,0,0
22226,-133.333333333333,4,2,1,60,0,0
31718,-111.111111111111,4,2,1,60,0,0
33074,-117.647058823529,4,2,1,60,0,0
38498,-133.333333333333,4,2,1,60,0,0
40532,-111.111111111111,4,2,1,60,0,0
43921,-166.666666666667,4,2,1,60,0,0
52735,-111.111111111111,4,2,1,60,0,0
62820,-111.111111111111,4,2,1,60,0,0
62904,-111.111111111111,4,2,1,60,0,0
65616,-133.333333333333,4,2,1,60,0,0
70362,-111.111111111111,4,2,1,60,0,0
73074,-90.9090909090908,4,2,1,60,0,0
73413,-111.111111111111,4,2,1,60,0,0
73667,-111.111111111111,4,2,1,60,0,0
73752,-111.111111111111,4,2,1,60,0,0
74091,-95.2380952380952,4,2,1,60,0,1
98159,-117.647058823529,4,2,1,60,0,1
100870,-95.238095238095,4,2,1,60,0,1
101887,-166.666666666667,4,2,1,60,0,1
102396,-95.2380952380952,4,2,1,60,0,1
103582,-100,4,2,1,60,0,0
108921,-100,4,2,1,60,0,0
109006,-90.9090909090909,4,2,1,60,0,0
109345,-100,4,2,1,60,0,0
119176,-117.647058823529,4,2,1,60,0,0
119854,-117.647058823529,4,2,1,60,0,0
124938,-111.111111111111,4,2,1,60,0,0
127989,-200,4,2,1,60,0,0
128667,-133.333333333333,4,2,1,60,0,0
129345,-111.111111111111,4,2,1,60,0,0
130193,-133.333333333333,4,2,1,60,0,0
130701,-117.647058823529,4,2,1,60,0,0
141548,-133.333333333333,4,2,1,60,0,0
150362,-117.647058823529,4,2,1,60,0,0
152396,-111.111111111111,4,2,1,60,0,0
163243,-133.333333333333,4,2,1,60,0,0
167989,-111.111111111111,4,2,1,60,0,0
171379,-95.2380952380952,4,2,1,60,0,1
195786,-117.647058823529,4,2,1,60,0,1
198498,-95.238095238095,4,2,1,60,0,1
199515,-166.666666666667,4,2,1,60,0,1
200532,-86.9565217391304,4,2,1,60,0,1
201209,-100,4,2,1,60,0,0
201464,-100,4,2,1,60,0,0
201548,-100,4,2,1,60,0,0
204176,-100,4,2,1,60,0,0
204260,-100,4,2,1,60,0,0
211464,-100,4,2,1,60,0,0
211548,-100,4,2,1,60,0,0
217481,-117.647058823529,4,2,1,60,0,0
220193,-100,4,2,1,60,0,0
227057,-100,4,2,1,60,0,0
227142,-100,4,2,1,60,0,0
227650,-90.9090909090909,4,2,1,60,0,0
228328,-200,4,2,1,60,0,0
228667,-95.2380952380952,4,2,1,60,0,1
242057,-86.9565217391304,4,2,1,60,0,1
243582,-95.2380952380952,4,2,1,60,0,1
252735,-117.647058823529,4,2,1,60,0,1
254769,-95.2380952380952,4,2,1,60,0,1
256464,-166.666666666667,4,2,1,60,0,1
257481,-90.9090909090909,4,2,1,60,0,1
258159,-100,4,2,1,60,0,0
263498,-100,4,2,1,60,0,0
263582,-100,4,2,1,60,0,0
274430,-125,4,2,1,60,0,0
279599,-125,4,2,1,5,0,0

[Colours]
Combo1 : 254,185,56
Combo2 : 83,199,255
Combo3 : 185,64,251
Combo4 : 248,114,224

[HitObjects]
294,248,532,6,0,P|284:287|279:308,2,45,2|2|2,0:0|0:0|0:0,0:0:0:0:
294,248,1040,1,2,0:0:0:0:
329,124,1209,2,0,P|291:144|274:150,1,45,2|0,0:0|0:0,0:0:0:0:
212,205,1548,2,0,P|170:192|154:184,1,45,2|0,0:0|0:0,0:0:0:0:
70,43,1887,6,0,P|80:4|85:-17,2,45,2|2|2,0:0|0:0|0:0,0:0:0:0:
70,43,2396,1,2,0:0:0:0:
35,167,2565,2,0,P|73:147|90:141,1,45,2|0,0:0|0:0,0:0:0:0:
152,86,2904,2,0,P|193:98|209:106,1,45,2|0,0:0|0:0,0:0:0:0:
256,192,3243,12,2,4769,0:0:0:0:
181,55,4938,6,0,L|189:104,1,33.7500012874604,10|8,3:0|3:0,0:0:0:0:
267,139,5108,2,0,L|272:105,1,33.7500012874604,8|8,0:3|0:3,0:0:0:0:
161,224,5277,5,10,0:0:0:0:
378,135,5447,1,10,0:0:0:0:
268,382,5786,1,8,0:0:0:0:
268,382,5870,1,8,0:0:0:0:
268,382,5955,6,0,B|225:337|177:349|177:349|145:386|93:377,1,180,6|10,1:2|0:0,0:0:0:0:
15,255,6464,2,0,P|64:255|98:286,1,90,2|0,0:0|1:2,0:0:0:0:
286,190,6803,1,2,1:2:0:0:
180,41,6972,1,10,0:0:0:0:
233,264,7142,6,0,P|265:229|404:237,1,180,2|2,0:0|0:0,0:0:0:0:
512,88,7650,2,0,P|493:141|482:188,1,90,10|2,0:0|1:2,0:0:0:0:
425,333,7989,2,0,P|413:289|397:247,2,90,2|2|10,0:0|1:2|0:0,0:0:0:0:
323,89,8498,1,2,1:2:0:0:
323,89,8582,1,2,0:0:0:0:
323,89,8667,5,6,1:2:0:0:
261,292,8837,1,10,0:0:0:0:
408,154,9006,1,10,0:0:0:0:
169,213,9176,2,0,B|113:206|59:178|59:178|40:216|0:235,1,180,6|2,1:2|1:2,0:0:0:0:
102,29,9684,1,8,0:0:0:0:
281,190,9854,6,0,P|341:191|373:64,1,180,6|2,1:2|1:2,0:0:0:0:
190,0,10362,2,0,P|200:59|205:100,1,90,10|10,0:0|0:0,0:0:0:0:
208,120,10616,1,8,0:0:0:0:
208,120,10701,1,0,1:2:0:0:
346,7,10870,5,10,0:0:0:0:
281,190,11040,2,0,B|268:243|268:243|281:279|281:279|272:328,1,135,10|4,0:0|3:0,0:0:0:0:
269,348,11379,5,6,1:2:0:0:
406,216,11548,1,2,0:0:0:0:
406,216,11633,1,0,0:0:0:0:
406,216,11718,1,10,0:0:0:0:
430,341,11887,1,2,0:0:0:0:
281,190,12057,2,0,P|238:208|191:226,1,90,0|2,1:2|1:2,0:0:0:0:
114,138,12396,1,10,0:0:0:0:
243,361,12565,6,0,P|179:305|84:328,1,180,2|2,0:0|0:0,0:0:0:0:
24,121,13074,2,0,P|71:150|104:158,1,90,10|2,0:0|1:2,0:0:0:0:
177,273,13413,2,0,P|192:213|206:162,2,90,0|2|10,0:0|1:2|0:0,0:0:0:0:
360,140,13921,1,2,0:0:0:0:
360,140,14006,1,2,0:0:0:0:
360,140,14091,5,6,1:2:0:0:
274,333,14260,1,2,1:2:0:0:
200,160,14430,1,10,0:0:0:0:
433,284,14599,2,0,P|481:263|482:119,1,180,6|10,1:2|3:3,0:0:0:0:
403,0,15108,1,10,0:0:0:0:
363,180,15277,6,0,B|295:162|295:162|245:182|245:182|184:170,1,180,6|0,1:2|1:2,0:0:0:0:
79,85,15786,2,0,P|128:57|172:54,1,90,8|4,0:0|3:0,0:0:0:0:
193,60,16040,1,4,3:0:0:0:
193,60,16125,1,0,1:2:0:0:
22,208,16294,5,8,2:0:0:0:
22,208,16379,1,8,2:0:0:0:
22,207,16464,2,0,L|32:251,1,45,0|0,1:2|1:2,0:0:0:0:
126,335,16633,2,0,L|136:291,1,45,0|0,1:0|1:2,0:0:0:0:
298,235,16803,5,6,1:2:0:0:
242,384,16972,2,0,P|228:310|219:270,1,90,2|8,0:0|0:0,0:0:0:0:
144,165,17311,1,2,0:0:0:0:
144,165,17396,1,8,3:0:0:0:
144,165,17481,1,2,1:2:0:0:
264,84,17650,1,0,1:2:0:0:
142,261,17820,2,0,P|95:243|41:231,1,90,10|2,0:0|0:0,0:0:0:0:
21,227,18074,1,0,0:0:0:0:
21,227,18159,5,0,1:2:0:0:
179,175,18328,1,2,1:2:0:0:
68,78,18498,1,10,0:0:0:0:
68,78,18582,1,0,0:0:0:0:
68,78,18667,1,8,3:0:0:0:
142,261,18837,2,0,P|150:313|156:359,1,90,2|0,1:2|1:2,0:0:0:0:
317,201,19176,2,0,P|309:253|303:299,1,90,10|0,0:0|0:0,0:0:0:0:
261,43,19515,5,6,1:2:0:0:
389,129,19684,2,0,P|438:112|476:101,1,90,2|8,0:0|0:0,0:0:0:0:
246,143,20023,1,2,0:0:0:0:
246,143,20108,1,8,3:0:0:0:
246,143,20193,1,2,1:2:0:0:
408,221,20362,1,0,1:2:0:0:
390,10,20532,2,0,P|380:62|373:102,1,90,10|2,0:0|0:0,0:0:0:0:
369,122,20786,1,2,1:2:0:0:
369,122,20870,5,2,1:2:0:0:
495,86,21040,1,2,1:2:0:0:
335,268,21209,2,0,P|289:238|231:239,1,90,10|0,0:0|1:2,0:0:0:0:
222,256,21464,1,0,1:2:0:0:
222,256,21548,6,0,L|235:313,1,45,10|0,0:0|1:2,0:0:0:0:
81,177,21718,1,8,0:0:0:0:
89,151,21803,1,8,0:0:0:0:
104,129,21887,1,2,1:2:0:0:
125,112,21972,1,8,0:0:0:0:
150,103,22057,1,8,0:0:0:0:
177,102,22142,1,8,0:0:0:0:
203,108,22226,6,1,P|270:93|348:65,1,135.000005149842,6|10,1:2|0:0,0:0:0:0:
459,0,22735,2,0,P|438:37|419:137,1,135.000005149842,2|2,0:0|1:2,0:0:0:0:
499,232,23243,2,0,P|463:219|413:211,1,67.5000025749208,8|2,0:0|0:0,0:0:0:0:
239,335,23582,6,0,P|276:291|358:305,2,135.000005149842,0|8|2,1:2|0:0|0:0,0:0:0:0:
239,335,24430,1,0,1:2:0:0:
103,278,24599,1,10,0:0:0:0:
103,278,24769,2,0,P|107:321|111:354,1,67.5000025749208,2|2,0:0|1:2,0:0:0:0:
230,214,25108,1,2,0:0:0:0:
230,214,25277,2,0,P|172:205|96:179,1,135.000005149842,10|2,0:0|0:0,0:0:0:0:
99,180,25786,1,0,1:2:0:0:
179,90,25955,2,0,P|186:52|192:21,1,67.5000025749208,8|0,0:0|0:0,0:0:0:0:
46,120,26294,6,0,P|62:172|76:254,2,135.000005149842,2|10|2,1:2|0:0|1:2,0:0:0:0:
191,23,27142,2,0,P|185:56|179:90,1,67.5000025749208,6|8,1:2|0:0,0:0:0:0:
303,187,27481,1,10,3:0:0:0:
303,187,27565,1,8,3:0:0:0:
303,187,27650,6,1,P|359:178|391:100,1,135.000005149842,4|8,1:2|0:0,0:0:0:0:
418,269,28159,2,1,P|409:312|404:356,1,67.5000025749208,2|2,0:0|0:0,0:0:0:0:
481,181,28498,2,0,P|446:178|410:167,1,67.5000025749208,2|8,1:2|0:0,0:0:0:0:
274,48,28837,1,2,0:0:0:0:
274,48,28921,1,0,0:0:0:0:
274,48,29006,6,1,P|234:88|145:83,1,135.000005149842,2|10,1:2|0:0,0:0:0:0:
245,203,29515,2,1,P|215:243|201:343,1,135.000005149842,2|2,0:0|1:2,0:0:0:0:
126,176,30023,1,8,0:0:0:0:
47,294,30193,1,2,0:0:0:0:
47,294,30277,1,2,0:0:0:0:
47,294,30362,6,0,P|88:278|122:272,1,67.5000025749208,0|2,1:2|0:0,0:0:0:0:
201,186,30701,2,1,P|168:178|137:165,1,67.5000025749208,10|0,0:0|1:2,0:0:0:0:
208,332,31040,1,8,0:0:0:0:
335,162,31209,5,6,3:0:0:0:
343,187,31294,1,4,3:0:0:0:
359,208,31379,1,2,1:2:0:0:
381,225,31464,1,4,3:0:0:0:
406,233,31548,1,6,3:0:0:0:
433,235,31633,1,8,0:0:0:0:
459,228,31718,5,10,0:0:0:0:
243,90,31887,1,6,1:2:0:0:
243,90,32226,6,0,P|250:146|255:189,1,80.9999975280763,6|0,1:2|0:0,0:0:0:0:
74,373,32565,2,0,P|22:350|17:226,1,161.999995056153,6|8,1:2|3:0,0:0:0:0:
112,191,32989,1,8,3:0:0:0:
112,191,33074,6,1,P|94:236|88:267,1,76.5000014591217,6|0,1:2|0:0,0:0:0:0:
259,223,33413,1,10,0:0:0:0:
196,358,33582,2,1,L|181:269,1,76.5000014591217,2|0,0:0|0:0,0:0:0:0:
264,110,33921,1,2,1:2:0:0:
358,222,34091,2,0,P|405:217|437:182,1,76.5000014591217,8|2,0:0|0:0,0:0:0:0:
484,41,34430,6,1,P|466:96|445:197,1,153.000002918243,2|8,1:2|0:0,0:0:0:0:
332,50,34938,1,2,0:0:0:0:
358,222,35108,2,1,P|351:171|339:133,1,76.5000014591217,2|0,0:0|1:2,0:0:0:0:
417,304,35447,2,1,P|376:315|341:330,1,76.5000014591217,10|2,0:0|0:0,0:0:0:0:
135,205,35786,6,1,P|178:256|273:249,1,153.000002918243,4|10,1:2|0:0,0:0:0:0:
141,41,36294,1,2,0:0:0:0:
231,166,36464,2,1,P|237:117|244:69,1,76.5000014591217,6|0,1:2|1:2,0:0:0:0:
120,217,36803,1,8,0:0:0:0:
372,159,36972,6,1,B|468:197|468:197|501:171|538:159,1,153.000002918243,6|0,1:2|1:2,0:0:0:0:
332,273,37481,2,0,P|283:288|233:306,1,76.5000014591217,8|0,0:0|1:2,0:0:0:0:
413,350,37820,1,10,0:0:0:0:
255,192,37989,5,4,3:0:0:0:
258,173,38074,1,4,3:0:0:0:
262,154,38159,1,2,1:2:0:0:
266,135,38243,1,0,1:2:0:0:
270,117,38328,1,8,3:0:0:0:
274,98,38413,1,8,3:0:0:0:
278,79,38498,6,1,P|331:66|389:134,1,135.000005149842,6|2,1:2|0:0,0:0:0:0:
225,152,39006,1,2,1:2:0:0:
185,11,39176,2,0,P|140:58|76:48,1,135.000005149842,8|2,0:0|1:2,0:0:0:0:
129,203,39684,1,6,3:0:0:0:
129,203,39769,1,4,3:0:0:0:
129,203,39854,5,0,1:2:0:0:
8,131,40023,2,0,P|18:182|26:223,1,67.5000025749208,8|2,0:0|0:0,0:0:0:0:
143,325,40362,1,0,0:0:0:0:
277,159,40532,1,14,0:0:0:0:
254,314,40701,5,4,3:0:0:0:
254,314,40786,1,4,3:0:0:0:
254,314,40870,2,0,L|266:376,1,40.4999987640381,2|8,1:2|0:0,0:0:0:0:
163,219,41040,2,0,L|151:157,1,40.4999987640381,10|8,0:0|0:0,0:0:0:0:
333,252,41209,6,0,P|378:232|416:226,1,80.9999975280763,4|2,1:2|0:0,0:0:0:0:
512,130,41548,2,0,P|472:121|435:104,1,80.9999975280763,10|0,0:0|0:0,0:0:0:0:
244,181,41887,1,8,0:0:0:0:
366,52,42057,1,2,0:0:0:0:
366,52,42142,1,8,0:0:0:0:
366,52,42226,1,8,0:0:0:0:
333,252,42396,6,0,L|323:314,1,40.4999987640381,6|0,1:2|0:0,0:0:0:0:
10,93,42735,6,1,P|63:140|153:120,1,161.999995056153,6|8,1:2|3:0,0:0:0:0:
168,102,43159,1,8,3:0:0:0:
168,102,43243,5,0,1:2:0:0:
257,171,43413,1,8,3:0:0:0:
213,273,43582,1,4,3:0:0:0:
45,367,43921,5,4,1:2:0:0:
187,74,52735,5,4,3:3:0:0:
345,162,52904,1,10,3:0:0:0:
234,250,53074,1,8,3:0:0:0:
396,97,53243,6,1,P|382:162|362:267,1,161.999995056153,6|0,1:2|1:2,0:0:0:0:
252,159,53752,1,0,1:2:0:0:
312,312,53921,1,0,1:2:0:0:
472,205,54091,5,8,0:0:0:0:
254,243,54260,1,8,0:0:0:0:
396,97,54430,1,8,0:0:0:0:
391,358,54599,1,8,0:0:0:0:
391,358,54684,1,8,0:0:0:0:
391,358,54769,6,0,B|338:327|302:344|302:344|271:377|223:357,1,161.999995056153,6|8,1:2|0:0,0:0:0:0:
86,235,55277,1,2,0:0:0:0:
144,384,55447,2,0,P|150:337|163:286,1,80.9999975280763,2|0,1:2|1:2,0:0:0:0:
64,140,55786,2,0,P|72:179|77:219,1,80.9999975280763,8|2,0:0|0:0,0:0:0:0:
216,64,56125,5,2,1:2:0:0:
216,64,56294,1,2,0:0:0:0:
300,154,56464,2,1,P|257:165|212:183,1,80.9999975280763,8|0,0:0|0:0,0:0:0:0:
91,299,56803,2,0,P|84:249|73:207,1,80.9999975280763,2|2,0:0|1:2,0:0:0:0:
231,324,57142,1,10,0:0:0:0:
300,154,57311,1,2,0:0:0:0:
300,154,57396,1,2,0:0:0:0:
300,154,57481,6,1,P|329:198|444:190,1,161.999995056153,2|10,1:2|0:0,0:0:0:0:
506,94,57989,2,0,P|463:83|421:72,1,80.9999975280763,2|0,0:0|1:2,0:0:0:0:
288,163,58328,1,2,1:2:0:0:
345,7,58498,1,8,0:0:0:0:
168,80,58667,6,0,B|111:67|111:67|61:87|61:87|-15:64,1,161.999995056153,2|0,1:2|1:2,0:0:0:0:
151,180,59176,2,0,P|154:232|129:265,1,80.9999975280763,8|0,0:0|0:0,0:0:0:0:
40,196,59515,1,4,1:2:0:0:
122,338,59684,1,8,0:0:0:0:
122,338,59769,1,8,0:0:0:0:
122,338,59854,1,8,0:0:0:0:
235,154,60023,2,1,L|250:221,1,40.4999987640381,8|8,3:0|3:0,0:0:0:0:
409,276,60193,6,0,P|336:264|258:323,2,161.999995056153,6|10|0,1:2|0:0|1:2,0:0:0:0:
505,330,61040,1,0,1:2:0:0:
437,161,61209,1,8,0:0:0:0:
348,350,61379,6,1,P|289:331|177:306,1,161.999995056153,2|2,1:2|1:2,0:0:0:0:
59,292,61887,1,8,0:0:0:0:
206,199,62057,2,1,P|184:135|79:136,1,161.999995056153,2|2,1:2|1:2,0:0:0:0:
95,379,62565,2,0,P|101:329|111:255,1,121.499996292114,14|2,0:0|0:0,0:0:0:0:
118,227,62904,5,6,1:2:0:0:
30,86,63074,1,2,0:0:0:0:
206,199,63243,2,1,P|247:202|302:218,1,80.9999975280763,10|0,0:0|0:0,0:0:0:0:
430,82,63582,1,0,1:2:0:0:
349,262,63752,1,2,1:2:0:0:
283,117,63921,1,8,0:0:0:0:
445,308,64091,6,0,P|497:265|491:147,1,161.999995056153,2|0,1:2|1:2,0:0:0:0:
316,358,64599,2,0,P|255:343|216:335,1,80.9999975280763,12|2,0:0|0:0,0:0:0:0:
207,335,64854,1,10,3:0:0:0:
207,335,64938,1,2,1:2:0:0:
338,242,65108,2,1,L|324:192,1,40.4999987640381,8|8,0:0|0:0,0:0:0:0:
136,72,65277,1,10,1:2:0:0:
134,102,65362,1,8,3:0:0:0:
148,129,65447,1,8,3:0:0:0:
172,146,65532,1,8,3:0:0:0:
202,150,65616,6,1,P|263:134|339:116,1,135.000005149842,6|0,1:2|0:0,0:0:0:0:
466,31,66125,1,0,1:2:0:0:
466,31,66294,2,0,P|434:74|431:163,1,135.000005149842,8|2,0:0|1:2,0:0:0:0:
325,339,66803,6,0,P|280:302|204:302,1,135.000005149842,10|8,0:0|3:0,0:0:0:0:
176,318,67226,1,0,0:0:0:0:
176,318,67311,1,0,0:0:0:0:
212,199,67481,1,0,1:2:0:0:
74,277,67650,5,8,0:0:0:0:
36,131,67820,1,2,1:2:0:0:
83,296,67989,2,0,P|96:237|104:204,1,67.5000025749208,10|2,3:0|0:0,0:0:0:0:
240,59,68328,6,1,P|290:113|367:102,1,135.000005149842,6|0,1:2|0:0,0:0:0:0:
469,29,68837,1,0,1:2:0:0:
398,192,69006,2,1,P|388:135|373:40,1,135.000005149842,8|0,0:0|1:2,0:0:0:0:
295,306,69515,6,1,P|249:292|216:284,1,67.5000025749208,8|0,3:0|0:0,0:0:0:0:
226,182,69854,1,8,3:0:0:0:
226,182,70023,2,0,P|180:196|147:204,1,67.5000025749208,0|0,0:0|1:2,0:0:0:0:
79,276,70362,1,8,0:0:0:0:
0,121,70532,5,8,0:0:0:0:
0,121,70616,1,8,0:0:0:0:
0,121,70701,2,1,L|13:195,1,40.4999987640381,10|8,3:0|3:0,0:0:0:0:
119,75,70870,2,1,L|126:35,1,40.4999987640381,10|0,3:0|1:2,0:0:0:0:
164,229,71040,6,0,P|214:238|274:260,1,80.9999975280763,14|0,0:0|0:0,0:0:0:0:
414,184,71379,1,2,1:2:0:0:
322,314,71548,1,2,1:2:0:0:
482,253,71718,1,8,0:2:0:0:
291,172,71887,1,10,0:2:0:0:
462,54,72057,1,10,0:2:0:0:
405,297,72226,6,0,P|418:348|424:386,1,80.9999975280763,14|0,0:2|0:0,0:0:0:0:
304,70,72565,1,8,0:2:0:0:
169,260,72735,1,12,0:0:0:0:
169,260,73074,6,1,L|163:222,6,24.7500007553101,2|0|2|0|2|0|2,0:0|0:0|0:0|0:0|0:0|0:0|0:0,0:0:0:0:
246,281,73413,2,1,P|196:289|106:319,1,121.499996292114,2|2,0:0|0:0,0:0:0:0:
90,328,73752,5,2,1:2:0:0:
0,124,73921,1,0,1:2:0:0:
0,124,74006,1,0,1:0:0:0:
0,124,74091,2,1,P|48:182|166:165,1,188.999994232178,14|2,0:0|0:0,0:0:0:0:
311,113,74599,1,0,1:2:0:0:
197,11,74769,2,0,P|206:64|227:111,1,94.499997116089,10|0,0:0|0:0,0:0:0:0:
183,342,75108,6,0,P|105:319|-2:298,2,188.999994232178,2|8|2,1:2|0:0|0:0,0:0:0:0:
347,217,75955,1,0,1:2:0:0:
286,384,76125,2,0,P|275:320|264:276,1,94.499997116089,10|0,0:0|1:2,0:0:0:0:
461,60,76464,6,1,B|448:125|448:125|477:181|477:181|462:269,1,188.999994232178,6|10,1:2|0:0,0:0:0:0:
262,103,76972,1,2,0:0:0:0:
262,103,77057,1,2,0:0:0:0:
262,103,77142,2,1,P|311:117|355:125,1,94.499997116089,2|0,1:2|1:2,0:0:0:0:
263,278,77481,2,0,P|216:286|171:299,1,94.499997116089,10|0,0:0|0:0,0:0:0:0:
59,54,77820,6,0,P|49:110|37:158,1,94.499997116089,0|0,1:2|1:2,0:0:0:0:
77,305,78159,2,0,P|128:315|185:334,1,94.499997116089,8|2,0:0|0:0,0:0:0:0:
193,342,78413,1,2,0:0:0:0:
193,342,78498,1,2,1:2:0:0:
114,212,78667,1,0,1:2:0:0:
295,110,78837,1,10,0:0:0:0:
218,252,79006,1,8,0:0:0:0:
218,252,79091,1,8,0:0:0:0:
218,252,79176,6,1,P|274:262|325:274,1,94.499997116089,6|0,1:2|0:0,0:0:0:0:
491,152,79515,2,1,P|444:162|398:170,1,94.499997116089,10|0,0:0|0:0,0:0:0:0:
257,28,79854,2,0,P|289:72|293:130,1,94.499997116089,2|0,1:2|1:2,0:0:0:0:
420,270,80193,2,0,L|398:372,1,94.499997116089,10|0,0:0|0:0,0:0:0:0:
218,252,80532,5,2,1:2:0:0:
218,252,80701,1,0,0:0:0:0:
398,169,80870,2,0,P|348:186|305:198,1,94.499997116089,8|0,0:0|0:0,0:0:0:0:
140,154,81209,1,0,1:2:0:0:
140,154,81379,1,2,1:2:0:0:
291,32,81548,1,10,0:0:0:0:
214,267,81718,1,2,0:0:0:0:
214,267,81803,1,0,0:0:0:0:
214,267,81887,6,0,P|158:250|114:241,1,94.499997116089,4|0,1:2|1:2,0:0:0:0:
7,100,82226,2,0,P|53:89|98:75,1,94.499997116089,10|2,0:0|0:0,0:0:0:0:
124,63,82481,1,0,0:0:0:0:
124,63,82565,1,0,1:2:0:0:
42,226,82735,1,2,1:2:0:0:
222,129,82904,1,8,0:0:0:0:
319,338,83074,6,1,B|390:314|390:314|442:337|442:337|508:319,1,188.999994232178,6|8,1:2|3:3,0:0:0:0:
365,74,83582,2,0,P|375:132|387:179,1,94.499997116089,8|2,0:0|0:0,0:0:0:0:
394,198,83837,1,2,0:0:0:0:
394,198,83921,1,2,1:2:0:0:
252,3,84091,5,4,3:0:0:0:
217,1,84175,1,4,3:0:0:0:
187,19,84260,1,10,0:0:0:0:
173,51,84345,1,10,0:0:0:0:
179,85,84430,2,0,L|193:141,1,47.2499985580445,8|8,3:0|3:0,0:0:0:0:
21,27,84599,6,1,P|39:87|66:214,1,188.999994232178,6|10,1:2|0:0,0:0:0:0:
203,164,85108,1,0,0:0:0:0:
91,316,85277,2,0,P|42:299|-10:286,1,94.499997116089,2|0,1:2|1:2,0:0:0:0:
236,384,85616,2,0,P|285:367|337:354,1,94.499997116089,10|0,0:0|0:0,0:0:0:0:
214,78,85955,6,1,P|159:89|126:211,2,188.999994232178,2|8|2,1:2|0:0|1:2,0:0:0:0:
338,242,86803,1,0,1:2:0:0:
395,105,86972,2,1,P|379:52|374:11,1,94.499997116089,10|0,0:0|0:0,0:0:0:0:
159,35,87311,6,0,B|97:55|97:55|62:104|62:104|-7:123,1,188.999994232178,6|8,1:2|0:0,0:0:0:0:
182,232,87820,1,2,0:0:0:0:
182,232,87904,1,2,0:0:0:0:
182,232,87989,2,0,P|170:293|163:342,1,94.499997116089,2|0,1:2|1:2,0:0:0:0:
309,140,88328,2,0,P|361:163|402:173,1,94.499997116089,8|0,0:0|0:0,0:0:0:0:
289,286,88667,5,4,1:2:0:0:
95,208,88837,1,0,1:2:0:0:
232,80,89006,1,8,0:0:0:0:
113,357,89176,2,1,B|160:316|207:329|207:329|236:375|290:369,1,188.999994232178,4|0,1:2|1:2,0:0:0:0:
380,149,89684,2,1,L|368:207,1,47.2499985580445,8|0,0:0|1:0,0:0:0:0:
444,323,89854,1,8,0:0:0:0:
444,323,89938,1,8,0:0:0:0:
444,323,90023,5,6,1:2:0:0:
299,247,90193,1,2,0:0:0:0:
479,175,90362,1,10,0:0:0:0:
360,57,90532,2,0,P|368:116|384:159,1,94.499997116089,2|8,1:2|0:0,0:0:0:0:
207,301,90870,2,0,P|159:313|108:332,1,94.499997116089,2|8,0:0|0:0,0:0:0:0:
0,141,91209,6,0,P|44:156|90:168,1,94.499997116089,2|8,1:2|0:0,0:0:0:0:
241,69,91548,1,2,0:0:0:0:
173,219,91718,1,8,0:0:0:0:
110,47,91887,1,2,1:2:0:0:
110,47,91972,1,0,0:0:0:0:
110,47,92057,1,8,0:0:0:0:
256,180,92226,1,0,1:2:0:0:
88,275,92396,2,0,P|43:253|-13:244,1,94.499997116089,8|0,0:0|1:2,0:0:0:0:
200,349,92735,5,14,0:0:0:0:
331,247,92904,1,2,0:0:0:0:
139,189,93074,1,10,0:0:0:0:
281,90,93243,2,0,P|272:144|252:186,1,94.499997116089,2|8,1:2|0:0,0:0:0:0:
394,340,93582,2,0,P|439:353|488:378,1,94.499997116089,2|8,0:0|0:0,0:0:0:0:
447,127,93921,6,0,P|404:147|359:161,1,94.499997116089,2|8,1:2|0:0,0:0:0:0:
251,280,94260,2,0,P|206:264|164:242,1,94.499997116089,2|8,0:0|0:0,0:0:0:0:
115,58,94599,1,2,1:2:0:0:
115,58,94684,1,0,0:0:0:0:
115,58,94769,1,8,0:0:0:0:
275,160,94938,5,8,0:0:0:0:
275,160,95023,1,8,0:0:0:0:
275,160,95108,2,1,L|260:91,1,47.2499985580445,8|8,3:0|3:0,0:0:0:0:
374,11,95277,2,0,L|363:57,1,47.2499985580445,8|8,3:0|3:0,0:0:0:0:
484,226,95447,6,0,P|471:278|459:336,1,94.499997116089,14|2,0:0|0:0,0:0:0:0:
180,117,95786,5,10,0:0:0:0:
324,242,95955,1,0,1:2:0:0:
123,229,96125,5,8,0:0:0:0:
314,122,96294,1,0,1:2:0:0:
239,340,96464,5,8,0:0:0:0:
180,117,96633,1,0,1:2:0:0:
413,240,96803,6,0,P|461:223|513:211,1,94.499997116089,8|0,0:0|1:2,0:0:0:0:
256,44,97142,2,0,P|208:27|156:15,1,94.499997116089,8|0,0:0|1:2,0:0:0:0:
349,144,97481,1,10,0:0:0:0:
211,329,97650,5,8,3:0:0:0:
180,322,97734,1,8,3:0:0:0:
153,305,97819,1,8,0:0:0:0:
135,280,97904,1,8,0:0:0:0:
128,250,97988,1,8,0:0:0:0:
132,219,98073,1,8,0:0:0:0:
147,191,98159,6,1,L|320:225,1,153.000002918243,6|0,1:2|0:0,0:0:0:0:
367,303,98667,1,0,1:2:0:0:
461,84,98837,2,1,P|430:130|321:129,1,153.000002918243,8|0,0:0|1:2,0:0:0:0:
223,56,99345,1,2,0:0:0:0:
223,56,99430,1,2,0:0:0:0:
223,56,99515,5,0,1:2:0:0:
303,231,99684,2,0,L|130:265,1,153.000002918243,8|2,0:0|0:0,0:0:0:0:
122,268,100108,1,2,0:0:0:0:
122,268,100193,1,8,0:0:0:0:
1,139,100362,5,0,0:0:0:0:
1,139,100447,1,0,0:0:0:0:
1,139,100532,2,0,L|15:86,1,38.2500007295609,10|8,3:0|3:0,0:0:0:0:
104,1,100701,2,0,L|113:37,1,38.2500007295609,4|4,3:0|3:0,0:0:0:0:
230,195,100870,6,1,P|285:205|364:98,1,188.999994232178,6|8,1:2|0:0,0:0:0:0:
66,269,101379,2,0,P|150:279|267:319,1,188.999994232178,6|2,1:2|1:2,0:0:0:0:
329,275,101803,1,0,0:0:0:0:
345,290,101887,6,1,B|355:341|355:341|320:385,1,107.999996704102,14|0,0:0|1:2,0:0:0:0:
325,98,102396,5,8,0:0:0:0:
436,265,102565,1,0,1:2:0:0:
271,188,102735,1,8,0:0:0:0:
449,74,102904,1,8,0:0:0:0:
263,274,103074,5,0,1:0:0:0:
263,274,103159,1,8,0:0:0:0:
263,274,103243,2,1,L|208:257,1,47.2499985580445,8|8,0:0|0:0,0:0:0:0:
143,144,103413,2,0,L|198:161,1,47.2499985580445,8|8,0:0|0:0,0:0:0:0:
62,370,103582,6,0,P|15:324|32:211,1,180,6|10,1:2|0:0,0:0:0:0:
162,56,104091,2,1,P|148:106|142:165,1,90,2|0,0:0|1:2,0:0:0:0:
112,284,104430,1,2,1:2:0:0:
29,106,104599,1,10,0:0:0:0:
235,175,104769,6,1,B|303:160|303:160|359:181|359:181|430:167,1,180,2|2,0:0|0:0,0:0:0:0:
345,330,105277,2,0,P|301:292|294:233,1,90,10|2,0:0|1:2,0:0:0:0:
441,70,105616,2,0,P|427:122|416:175,2,90,2|2|10,0:0|1:2|0:0,0:0:0:0:
301,1,106125,1,2,0:0:0:0:
301,1,106209,1,2,0:0:0:0:
301,1,106294,5,6,1:2:0:0:
336,184,106464,1,10,0:0:0:0:
102,114,106633,1,10,0:0:0:0:
265,315,106803,2,1,P|240:259|237:125,1,180,6|2,1:2|1:2,0:0:0:0:
303,28,107311,1,8,0:0:0:0:
134,239,107481,6,1,P|60:254|5:142,1,180,6|2,1:2|1:2,0:0:0:0:
179,344,107989,2,0,P|233:325|267:314,1,90,10|10,0:0|0:0,0:0:0:0:
297,301,108243,1,8,0:0:0:0:
297,301,108328,1,0,1:2:0:0:
175,116,108498,5,10,0:0:0:0:
346,204,108667,2,0,P|378:171|386:83,1,135,10|4,0:0|3:0,0:0:0:0:
316,24,109006,6,0,L|324:-16,6,24.7500007553101,10|2|2|2|2|2|0,0:2|0:0|0:0|0:0|0:0|0:0|1:2,0:0:0:0:
399,85,109345,2,0,P|455:94|497:106,1,90,14|2,0:0|0:0,0:0:0:0:
437,282,109684,1,0,1:2:0:0:
270,206,109854,1,2,1:2:0:0:
405,75,110023,1,10,0:0:0:0:
296,340,110193,6,0,P|263:301|138:305,1,180,2|2,0:0|0:0,0:0:0:0:
114,88,110701,2,0,P|149:133|154:178,1,90,10|2,0:0|1:2,0:0:0:0:
15,288,111040,2,0,L|33:381,2,90,0|2|10,0:0|1:2|0:0,0:0:0:0:
102,107,111548,1,2,0:0:0:0:
102,107,111633,1,2,0:0:0:0:
102,107,111718,5,6,1:2:0:0:
182,251,111887,1,2,1:2:0:0:
253,61,112057,1,10,0:0:0:0:
383,213,112226,2,0,P|333:184|207:161,1,180,6|10,1:2|3:3,0:0:0:0:
368,91,112735,1,10,0:0:0:0:
200,269,112904,6,1,P|193:200|175:80,1,180,6|0,1:2|1:2,0:0:0:0:
414,253,113413,2,0,P|397:304|386:348,1,90,8|4,0:0|3:0,0:0:0:0:
384,369,113667,1,4,3:0:0:0:
385,369,113752,1,0,1:2:0:0:
267,170,113921,5,8,2:0:0:0:
267,170,114006,1,8,2:0:0:0:
267,170,114091,2,0,L|256:117,1,45,8|0,1:2|1:0,0:0:0:0:
370,52,114260,2,1,L|360:96,1,45,0|0,1:0|1:2,0:0:0:0:
394,248,114430,5,10,1:2:0:0:
190,199,114599,1,10,0:2:0:0:
173,205,114683,1,2,0:0:0:0:
156,211,114768,1,2,0:0:0:0:
263,90,114938,5,10,1:2:0:0:
152,304,115108,1,10,0:2:0:0:
158,320,115193,1,2,0:0:0:0:
164,337,115277,1,2,0:0:0:0:
244,287,115447,5,10,1:2:0:0:
67,172,115616,1,10,0:2:0:0:
50,165,115701,1,2,0:0:0:0:
33,159,115785,1,2,0:0:0:0:
167,61,115955,5,10,0:0:0:0:
244,287,116125,2,0,L|339:265,1,90,10|8,0:0|3:0,0:0:0:0:
361,265,116379,1,8,3:0:0:0:
361,265,116464,5,8,3:0:0:0:
450,152,116633,1,4,3:0:0:0:
376,291,116803,2,0,P|391:351|397:389,1,90,4|0,3:0|0:0,0:0:0:0:
356,67,117142,5,10,1:2:0:0:
232,254,117311,1,10,0:2:0:0:
238,270,117396,1,2,0:0:0:0:
244,287,117480,1,2,0:0:0:0:
113,248,117650,5,10,1:2:0:0:
317,147,117820,1,10,0:2:0:0:
334,154,117905,1,2,0:0:0:0:
351,160,117989,1,2,0:0:0:0:
169,346,118159,5,10,1:2:0:0:
101,111,118328,1,10,0:2:0:0:
265,27,118667,5,10,1:2:0:0:
16,194,118836,1,10,0:2:0:0:
298,384,119176,6,0,P|344:341|334:267,2,114.750002188683,2|2|2,0:0|0:0|0:0,0:0:0:0:
85,295,119854,1,6,1:2:0:0:
119,104,124938,6,0,L|132:169,1,40.4999987640381,8|8,3:0|3:0,0:0:0:0:
237,169,125108,2,0,L|224:234,1,40.4999987640381,6|4,3:0|3:0,0:0:0:0:
154,283,125277,5,8,0:0:0:0:
353,158,125447,1,8,0:0:0:0:
199,60,125616,1,8,0:0:0:0:
315,257,125786,1,10,0:0:0:0:
315,257,126633,5,8,0:0:0:0:
511,162,126803,1,8,0:0:0:0:
455,363,126972,1,10,0:0:0:0:
360,118,127142,2,0,L|356:141,1,20.2499993820191,10|0,0:0|0:0,0:0:0:0:
191,326,127989,6,0,P|141:312|51:298,1,135,6|2,0:0|0:0,0:0:0:0:
155,216,128667,2,0,P|204:192|195:61,1,202.500007724762,2|10,0:0|0:0,0:0:0:0:
167,45,129260,1,8,0:0:0:0:
167,45,129345,5,8,0:0:0:0:
308,216,129515,2,0,P|350:200|399:190,1,80.9999975280763,4|0,1:2|0:0,0:0:0:0:
512,77,129854,2,0,P|472:67|434:52,1,80.9999975280763,4|0,1:2|0:0,0:0:0:0:
198,127,130193,2,1,P|141:136|91:62,1,135.000005149842,4|8,1:2|3:0,0:0:0:0:
46,10,130616,1,8,0:0:0:0:
46,10,130701,6,1,P|56:77|63:193,1,153.000002918243,6|2,1:2|0:0,0:0:0:0:
185,295,131209,2,1,P|194:245|204:200,1,76.5000014591217,10|0,0:0|0:0,0:0:0:0:
110,338,131548,1,2,1:2:0:0:
63,180,131718,2,1,P|70:217|77:255,1,76.5000014591217,8|2,0:0|0:0,0:0:0:0:
271,341,132057,5,0,1:2:0:0:
271,341,132226,2,0,P|319:329|359:321,1,76.5000014591217,0|0,1:2|0:0,0:0:0:0:
478,250,132565,2,1,P|417:258|352:191,1,153.000002918243,8|0,0:0|1:2,0:0:0:0:
244,138,133074,2,1,P|260:193|264:230,1,76.5000014591217,10|2,0:0|0:0,0:0:0:0:
73,341,133413,6,1,P|83:286|95:201,1,114.750002188683,4|0,1:2|0:0,0:0:0:0:
101,204,133752,2,1,P|58:214|13:220,1,76.5000014591217,10|0,0:0|0:0,0:0:0:0:
254,108,134091,1,6,1:2:0:0:
180,272,134260,1,0,1:2:0:0:
110,68,134430,1,8,0:0:0:0:
308,188,134599,6,1,P|363:173|491:147,1,153.000002918243,6|0,1:2|1:2,0:0:0:0:
320,35,135108,2,0,P|266:21|225:7,1,76.5000014591217,8|4,0:0|3:0,0:0:0:0:
226,4,135362,1,4,3:0:0:0:
226,4,135447,5,2,1:2:0:0:
306,172,135616,1,8,3:0:0:0:
168,105,135786,2,0,P|154:157|140:197,1,76.5000014591217,2|8,1:2|3:0,0:0:0:0:
64,214,136040,1,8,3:0:0:0:
64,214,136125,6,1,P|120:200|195:284,1,153.000002918243,6|2,1:2|0:0,0:0:0:0:
347,276,136633,1,2,1:2:0:0:
210,384,136803,1,8,0:0:0:0:
210,384,136972,2,1,P|145:361|109:351,1,76.5000014591217,10|0,0:0|0:0,0:0:0:0:
338,190,137311,6,0,P|397:197|422:303,1,153.000002918243,6|8,1:2|0:0,0:0:0:0:
439,84,137820,1,0,0:0:0:0:
439,84,137989,1,0,1:2:0:0:
323,197,138159,2,1,P|285:183|248:174,1,76.5000014591217,10|0,3:0|1:2,0:0:0:0:
135,57,138498,2,0,P|172:47|207:34,1,76.5000014591217,10|6,3:0|3:0,0:0:0:0:
233,25,138752,1,4,3:0:0:0:
233,25,138837,5,4,1:2:0:0:
142,159,139006,1,2,1:2:0:0:
45,6,139176,1,10,0:0:0:0:
157,176,139345,2,0,P|141:234|120:335,1,153.000002918243,4|0,1:2|1:2,0:0:0:0:
21,212,139854,2,0,P|7:155|-2:131,1,76.5000014591217,8|2,0:0|1:2,0:0:0:0:
166,278,140193,6,0,P|210:264|246:255,1,76.5000014591217,2|2,1:2|0:0,0:0:0:0:
351,129,140532,1,8,0:0:0:0:
335,291,140701,5,6,1:2:0:0:
335,291,140786,1,2,0:0:0:0:
335,291,140870,2,1,L|347:338,3,38.2500007295609,2|2|2|2,0:0|0:0|1:2|0:0,0:0:0:0:
439,252,141209,2,1,L|449:215,3,38.2500007295609,8|2|4|4,0:0|0:0|3:0|3:0,0:0:0:0:
338,114,141548,6,1,P|302:132|263:142,1,67.5000025749208,6|0,1:2|0:0,0:0:0:0:
217,214,141887,2,1,P|178:201|144:180,1,67.5000025749208,0|0,1:2|0:0,0:0:0:0:
38,0,142226,2,1,P|74:18|113:28,1,67.5000025749208,2|0,1:2|0:0,0:0:0:0:
159,100,142565,2,1,P|197:87|231:66,1,67.5000025749208,0|2,1:2|0:0,0:0:0:0:
0,135,142904,6,1,P|17:196|30:284,2,135.000005149842,2|0|0,1:2|1:2|1:2,0:0:0:0:
132,264,143752,1,2,0:0:0:0:
132,264,143837,1,2,0:0:0:0:
132,264,143921,2,0,P|122:307|114:348,1,67.5000025749208,6|2,1:2|0:0,0:0:0:0:
261,371,144260,6,0,L|388:328,1,135.000005149842,4|2,1:2|1:2,0:0:0:0:
387,328,144769,1,2,0:0:0:0:
267,239,144938,2,1,P|231:208|228:113,1,135.000005149842,0|4,1:2|1:2,0:0:0:0:
222,124,145447,1,2,0:0:0:0:
359,178,145616,6,1,P|395:164|434:153,1,67.5000025749208,0|0,1:2|0:0,0:0:0:0:
367,4,145955,2,0,P|360:41|349:79,1,67.5000025749208,0|2,1:2|0:0,0:0:0:0:
512,100,146294,2,1,P|483:75|455:45,1,67.5000025749208,2|0,1:2|0:0,0:0:0:0:
354,192,146633,1,2,1:2:0:0:
342,169,146717,1,2,0:0:0:0:
323,153,146802,1,2,0:0:0:0:
299,144,146887,1,2,0:0:0:0:
274,146,146972,6,0,P|213:162|135:167,1,135.000005149842,6|0,1:2|1:2,0:0:0:0:
141,167,147481,1,0,0:0:0:0:
0,252,147650,2,1,P|65:246|116:296,1,135.000005149842,2|0,1:2|1:2,0:0:0:0:
113,290,148159,1,2,0:0:0:0:
274,146,148328,6,1,P|260:201|248:287,2,135.000005149842,2|0|0,1:2|1:2|1:2,0:0:0:0:
145,53,149176,1,2,0:0:0:0:
145,53,149260,1,2,0:0:0:0:
145,53,149345,2,0,P|157:104|160:137,1,67.5000025749208,6|2,1:2|0:0,0:0:0:0:
286,235,149684,6,0,P|325:248|352:264,1,67.5000025749208,2|0,1:2|0:0,0:0:0:0:
424,113,150023,2,0,P|413:72|408:39,1,67.5000025749208,6|2,1:2|0:0,0:0:0:0:
476,275,150362,5,8,0:0:0:0:
334,146,150532,1,10,0:0:0:0:
476,275,150701,1,8,3:0:0:0:
328,384,150870,6,0,P|283:351|177:349,1,153.000002918243,6|4,1:2|3:0,0:0:0:0:
63,217,151379,1,0,1:2:0:0:
115,376,151548,1,4,3:0:0:0:
256,175,151718,1,0,1:2:0:0:
129,279,151887,1,0,1:2:0:0:
160,92,152057,1,4,1:2:0:0:
269,315,152226,1,0,1:2:0:0:
269,315,152311,1,0,1:2:0:0:
269,315,152396,6,0,B|317:293|362:314|338:326|399:346|445:324,1,161.999995056153,6|8,1:2|0:0,0:0:0:0:
400,109,152904,1,0,0:0:0:0:
500,210,153074,2,1,P|457:222|414:241,1,80.9999975280763,2|0,1:2|1:2,0:0:0:0:
294,125,153413,2,1,P|251:116|208:94,1,80.9999975280763,8|2,0:0|1:2,0:0:0:0:
157,297,153752,5,2,1:2:0:0:
157,297,153921,1,2,0:0:0:0:
286,235,154091,2,0,P|275:283|265:337,1,80.9999975280763,8|0,0:0|1:2,0:0:0:0:
80,202,154430,2,0,P|132:190|174:165,1,80.9999975280763,0|2,0:0|1:2,0:0:0:0:
37,307,154769,1,10,0:0:0:0:
0,88,154938,1,2,0:0:0:0:
0,88,155023,1,2,0:0:0:0:
0,88,155108,6,1,B|36:53|80:67|80:67|128:105|171:78,1,161.999995056153,4|10,1:2|0:0,0:0:0:0:
304,136,155616,2,0,P|281:87|273:47,1,80.9999975280763,2|0,0:0|1:2,0:0:0:0:
232,258,155955,1,6,1:2:0:0:
397,148,156125,1,8,0:0:0:0:
316,377,156294,6,1,B|369:345|369:345|478:368,1,161.999995056153,6|8,1:2|3:0,0:0:0:0:
397,148,156803,2,0,P|382:206|368:251,1,80.9999975280763,8|0,0:0|1:0,0:0:0:0:
366,256,157057,1,0,1:0:0:0:
366,256,157142,1,0,1:2:0:0:
263,115,157311,6,1,L|209:98,1,40.4999987640381,8|8,0:0|0:0,0:0:0:0:
98,266,157481,1,8,3:3:0:0:
115,241,157565,1,8,3:3:0:0:
140,224,157650,1,4,3:3:0:0:
170,219,157735,1,4,3:3:0:0:
199,226,157819,5,6,1:2:0:0:
92,126,157989,2,1,P|102:172|111:220,1,80.9999975280763,2|10,1:2|0:0,0:0:0:0:
241,315,158328,1,0,1:2:0:0:
18,358,158498,2,1,P|58:303|156:322,1,161.999995056153,2|8,1:2|0:0,0:0:0:0:
304,208,159006,6,1,P|287:156|282:113,1,80.9999975280763,2|0,1:2|0:0,0:0:0:0:
163,7,159345,2,1,P|180:59|185:102,1,80.9999975280763,2|8,1:2|0:0,0:0:0:0:
372,135,159684,2,1,P|435:126|480:35,1,161.999995056153,2|2,1:2|1:2,0:0:0:0:
470,243,160193,2,0,P|456:294|449:344,1,80.9999975280763,8|10,0:0|0:0,0:0:0:0:
446,355,160447,1,8,0:0:0:0:
446,355,160532,5,2,1:2:0:0:
340,241,160701,2,1,P|286:221|235:208,1,80.9999975280763,2|10,1:2|0:0,0:0:0:0:
203,300,161040,1,0,1:2:0:0:
308,129,161209,2,1,P|263:184|171:188,1,161.999995056153,2|8,1:2|0:0,0:0:0:0:
0,54,161718,6,1,P|50:78|85:87,1,80.9999975280763,2|0,1:2|0:0,0:0:0:0:
164,192,162057,1,2,1:2:0:0:
206,26,162226,1,8,0:0:0:0:
80,210,162396,1,0,1:2:0:0:
222,112,162565,1,14,0:0:0:0:
246,315,162735,6,0,L|254:359,1,40.4999987640381,8|8,0:0|0:0,0:0:0:0:
496,248,162904,1,2,1:2:0:0:
480,222,162988,1,8,0:0:0:0:
454,206,163073,1,8,3:0:0:0:
424,204,163158,1,8,3:0:0:0:
396,215,163243,6,1,P|330:203|242:192,1,135.000005149842,6|0,1:2|0:0,0:0:0:0:
95,32,163752,1,0,1:2:0:0:
95,32,163921,2,1,P|137:76|131:175,1,135.000005149842,8|2,0:0|1:2,0:0:0:0:
0,231,164430,6,1,P|66:239|133:251,1,135.000005149842,10|8,1:2|0:0,0:0:0:0:
165,263,164854,1,8,3:0:0:0:
165,263,164938,1,8,3:0:0:0:
313,187,165108,1,0,1:2:0:0:
225,353,165277,5,8,0:0:0:0:
153,236,165447,1,2,1:2:0:0:
238,375,165616,2,0,P|250:312|255:290,1,67.5000025749208,10|2,3:0|0:0,0:0:0:0:
492,272,165955,6,1,P|433:257|376:330,1,135.000005149842,6|0,1:2|0:0,0:0:0:0:
457,166,166464,1,0,1:2:0:0:
372,321,166633,5,8,0:0:0:0:
242,226,166803,1,8,0:0:0:0:
457,166,166972,1,8,0:0:0:0:
289,40,167142,6,1,P|311:94|332:190,1,135.000005149842,4|0,1:2|1:2,0:0:0:0:
58,163,167650,2,1,P|99:144|129:135,1,67.5000025749208,8|0,0:0|1:2,0:0:0:0:
231,243,167989,1,8,0:0:0:0:
329,168,168159,5,4,3:0:0:0:
329,168,168243,1,0,1:0:0:0:
329,168,168328,2,1,L|341:224,1,40.4999987640381,2|2,1:2|1:2,0:0:0:0:
455,287,168498,2,1,L|463:247,1,40.4999987640381,2|2,1:2|1:2,0:0:0:0:
289,360,168667,6,0,P|251:344|190:330,1,80.9999975280763,12|0,0:0|0:0,0:0:0:0:
96,174,169006,1,2,1:2:0:0:
138,318,169176,1,2,1:2:0:0:
8,218,169345,1,0,1:2:0:0:
198,164,169515,1,2,1:2:0:0:
8,60,169684,1,10,0:0:0:0:
47,301,169854,6,1,P|57:358|61:390,1,80.9999975280763,14|0,0:2|0:0,0:0:0:0:
153,85,170193,1,8,0:0:0:0:
246,246,170362,1,12,0:0:0:0:
86,168,170532,1,8,0:0:0:0:
252,26,170701,5,2,1:2:0:0:
252,26,170786,1,8,3:0:0:0:
252,26,170870,2,0,L|240:77,1,40.4999987640381,8|8,3:0|3:0,0:0:0:0:
366,232,171040,1,6,3:0:0:0:
404,220,171124,1,4,3:0:0:0:
430,190,171209,1,8,0:0:0:0:
436,151,171294,1,8,0:0:0:0:
419,114,171379,6,1,P|366:99|320:84,1,94.499997116089,6|0,1:2|0:0,0:0:0:0:
155,273,171718,2,1,P|200:258|245:245,1,94.499997116089,14|0,0:0|0:0,0:0:0:0:
196,0,172057,1,2,1:2:0:0:
276,157,172226,1,0,1:2:0:0:
97,72,172396,2,0,P|86:131|73:181,1,94.499997116089,10|0,0:0|1:2,0:0:0:0:
174,359,172735,6,1,P|264:361|322:270,2,188.999994232178,2|8|2,1:2|0:0|1:2,0:0:0:0:
0,220,173582,1,0,1:2:0:0:
62,384,173752,2,0,P|76:328|91:287,1,94.499997116089,10|2,0:0|0:0,0:0:0:0:
253,82,174091,6,0,B|306:60|354:88|330:103|383:130|440:110,1,188.999994232178,2|8,1:2|0:0,0:0:0:0:
440,322,174599,1,2,0:0:0:0:
440,322,174684,1,2,0:0:0:0:
440,322,174769,2,1,P|428:264|417:226,1,94.499997116089,2|0,1:2|0:0,0:0:0:0:
229,317,175108,2,0,P|293:298|337:283,1,94.499997116089,8|0,0:0|0:0,0:0:0:0:
399,28,175447,6,0,P|387:88|361:114,1,94.499997116089,0|0,1:2|1:2,0:0:0:0:
161,184,175786,2,0,L|46:152,1,94.499997116089,8|0,0:0|0:0,0:0:0:0:
44,154,176040,1,0,0:0:0:0:
44,154,176125,1,2,1:2:0:0:
123,58,176294,1,0,1:2:0:0:
73,264,176464,1,10,0:0:0:0:
253,159,176633,1,8,0:0:0:0:
253,159,176718,1,8,0:0:0:0:
253,159,176803,6,0,P|266:223|281:263,1,94.499997116089,6|0,1:2|0:0,0:0:0:0:
112,384,177142,2,0,P|149:349|200:343,1,94.499997116089,10|0,0:0|0:0,0:0:0:0:
133,88,177481,2,0,P|120:152|105:192,1,94.499997116089,2|0,1:2|1:2,0:0:0:0:
278,269,177820,2,0,L|370:239,1,94.499997116089,10|0,0:0|1:2,0:0:0:0:
499,76,178159,5,2,1:2:0:0:
499,76,178328,1,0,0:0:0:0:
456,258,178498,2,0,P|468:310|479:357,1,94.499997116089,8|0,0:0|0:0,0:0:0:0:
314,146,178837,1,0,1:2:0:0:
314,146,179006,1,2,1:2:0:0:
377,327,179176,1,10,0:0:0:0:
189,196,179345,1,2,0:0:0:0:
189,196,179430,1,2,0:0:0:0:
189,196,179515,6,1,P|203:134|212:79,1,94.499997116089,6|0,1:2|0:0,0:0:0:0:
265,343,179854,2,0,P|217:353|165:377,1,94.499997116089,10|2,0:0|1:2,0:0:0:0:
149,384,180108,1,0,0:0:0:0:
149,384,180193,5,8,0:0:0:0:
46,203,180362,1,10,0:0:0:0:
46,203,180447,1,8,0:0:0:0:
46,203,180532,1,8,0:0:0:0:
289,243,180701,6,1,B|353:221|353:221|411:243|411:243|478:223,1,188.999994232178,6|4,1:2|1:2,0:0:0:0:
206,70,181209,2,0,P|256:94|301:108,1,94.499997116089,8|0,0:0|1:2,0:0:0:0:
317,119,181464,1,0,0:0:0:0:
317,119,181548,1,10,0:0:0:0:
150,247,181718,5,8,0:0:0:0:
139,213,181802,1,8,0:0:0:0:
111,191,181887,1,2,1:2:0:0:
77,187,181972,1,8,0:0:0:0:
45,202,182057,2,1,L|56:261,1,47.2499985580445,8|8,0:0|0:0,0:0:0:0:
200,384,182226,6,1,P|247:348|251:203,1,188.999994232178,6|10,1:2|0:0,0:0:0:0:
401,307,182735,1,0,0:0:0:0:
381,150,182904,2,0,P|394:91|403:53,1,94.499997116089,2|0,1:2|1:2,0:0:0:0:
179,189,183243,2,0,P|225:220|279:224,1,94.499997116089,10|0,0:0|0:0,0:0:0:0:
499,275,183582,6,1,P|394:266|316:337,2,188.999994232178,2|8|2,1:2|0:0|1:2,0:0:0:0:
266,384,184430,1,0,1:2:0:0:
249,194,184599,2,0,P|202:177|140:161,1,94.499997116089,10|0,0:0|1:2,0:0:0:0:
24,6,184938,6,1,B|5:72|5:72|27:124|27:124|10:196,1,188.999994232178,2|8,1:2|0:0,0:0:0:0:
141,318,185447,1,2,0:0:0:0:
141,318,185532,1,2,0:0:0:0:
141,318,185616,2,0,P|89:298|40:290,1,94.499997116089,2|0,1:2|1:2,0:0:0:0:
249,194,185955,2,0,P|301:174|350:166,1,94.499997116089,8|0,0:0|0:0,0:0:0:0:
290,345,186294,5,4,1:2:0:0:
157,164,186464,1,0,1:2:0:0:
377,258,186633,1,8,0:0:0:0:
306,15,186803,2,0,P|277:73|248:196,1,188.999994232178,4|0,1:2|1:2,0:0:0:0:
430,151,187311,2,0,L|367:168,1,47.2499985580445,8|8,0:0|0:0,0:0:0:0:
266,276,187481,1,8,0:0:0:0:
266,276,187565,1,8,0:0:0:0:
266,276,187650,5,6,1:2:0:0:
165,145,187820,1,2,0:0:0:0:
110,333,187989,1,10,0:0:0:0:
3,197,188159,2,0,P|61:199|100:234,1,94.499997116089,2|8,1:2|0:0,0:0:0:0:
273,125,188498,2,0,P|284:72|297:17,1,94.499997116089,2|8,0:0|0:0,0:0:0:0:
174,238,188837,6,0,P|184:284|194:330,1,94.499997116089,2|8,1:2|0:0,0:0:0:0:
427,194,189176,1,2,0:0:0:0:
355,368,189345,1,8,0:0:0:0:
275,218,189515,1,2,1:2:0:0:
275,218,189599,1,0,0:0:0:0:
275,218,189684,1,8,0:0:0:0:
449,291,189854,1,0,1:2:0:0:
365,71,190023,2,0,P|350:133|343:180,1,94.499997116089,8|0,0:0|1:2,0:0:0:0:
162,281,190362,5,14,0:0:0:0:
255,133,190532,1,2,0:0:0:0:
304,326,190701,1,10,0:0:0:0:
446,191,190870,2,0,P|393:189|346:223,1,94.499997116089,2|8,1:2|0:0,0:0:0:0:
166,108,191209,2,0,P|155:57|142:15,1,94.499997116089,2|8,0:0|0:0,0:0:0:0:
0,227,191548,6,0,P|45:253|103:265,1,94.499997116089,2|8,1:2|0:0,0:0:0:0:
216,371,191887,2,0,P|266:357|315:325,1,94.499997116089,2|8,1:2|0:0,0:0:0:0:
354,103,192226,1,2,1:2:0:0:
354,103,192311,1,0,0:0:0:0:
354,103,192396,1,8,0:0:0:0:
232,244,192565,5,8,0:0:0:0:
232,244,192650,1,8,0:0:0:0:
232,244,192735,2,1,L|288:226,1,47.2499985580445,8|8,0:0|0:0,0:0:0:0:
412,305,192904,2,1,L|367:290,1,47.2499985580445,0|0,1:2|1:2,0:0:0:0:
473,107,193074,6,0,P|456:163|445:216,1,94.499997116089,14|0,0:0|0:0,0:0:0:0:
232,141,193413,5,10,0:0:0:0:
291,318,193582,1,0,1:2:0:0:
354,103,193752,5,8,0:0:0:0:
206,239,193921,1,0,1:2:0:0:
433,204,194091,5,8,0:0:0:0:
255,52,194260,1,0,1:2:0:0:
311,326,194430,6,0,P|364:311|418:301,1,94.499997116089,12|0,0:0|1:2,0:0:0:0:
133,179,194769,2,0,P|80:194|26:204,1,94.499997116089,12|0,0:0|1:2,0:0:0:0:
180,322,195108,1,10,0:0:0:0:
289,128,195277,5,4,3:0:0:0:
282,158,195361,1,8,3:0:0:0:
265,185,195446,1,8,3:0:0:0:
240,204,195531,1,8,3:0:0:0:
210,213,195615,1,10,3:0:0:0:
179,211,195700,1,8,3:0:0:0:
150,199,195786,6,1,P|142:131|126:32,1,153.000002918243,6|0,1:2|0:0,0:0:0:0:
55,240,196294,1,0,1:2:0:0:
222,297,196464,2,0,P|147:286|99:356,1,153.000002918243,8|0,0:0|1:2,0:0:0:0:
305,375,196972,1,8,0:0:0:0:
305,375,197057,1,0,0:0:0:0:
305,375,197142,1,0,1:2:0:0:
374,173,197311,6,0,P|382:241|398:340,1,153.000002918243,8|0,3:0|1:2,0:0:0:0:
401,350,197735,1,0,1:0:0:0:
401,350,197820,1,8,0:0:0:0:
258,189,197989,5,8,0:0:0:0:
258,189,198074,1,8,0:0:0:0:
258,189,198159,2,1,L|197:171,1,38.2500007295609,2|8,1:2|0:0,0:0:0:0:
143,278,198328,2,1,L|179:267,1,38.2500007295609,8|8,0:0|0:0,0:0:0:0:
44,115,198498,6,0,P|60:173|68:215,1,94.499997116089,6|0,1:2|1:2,0:0:0:0:
126,15,198837,1,8,0:0:0:0:
258,189,199006,2,1,B|314:147|314:147|433:179,1,188.999994232178,6|2,1:2|1:2,0:0:0:0:
481,270,199430,1,0,1:2:0:0:
463,297,199515,6,0,B|410:305|410:305|363:261,1,107.999996704102,14|0,0:0|1:2,0:0:0:0:
361,64,200023,1,8,0:0:0:0:
277,269,200193,1,0,1:2:0:0:
224,91,200362,1,8,0:0:0:0:
428,177,200532,2,0,L|437:132,6,25.8750004935265,2|0|0|0|2|0|0,1:2|0:0|1:0|0:0|1:2|0:0|1:0,0:0:0:0:
370,267,200870,5,8,1:2:0:0:
375,292,200954,1,8,0:0:0:0:
381,317,201039,1,8,0:0:0:0:
386,342,201124,1,8,0:0:0:0:
392,368,201209,6,1,B|344:337|344:337|255:370,1,135,6|0,1:2|0:0,0:0:0:0:
245,382,201548,1,8,0:0:0:0:
158,179,201718,1,2,1:2:0:0:
104,356,201887,1,8,0:0:0:0:
260,244,202057,1,2,0:0:0:0:
260,244,202142,1,2,0:0:0:0:
260,244,202226,1,8,0:0:0:0:
35,203,202396,6,0,P|-1:156|14:22,1,180,6|0,1:2|1:2,0:0:0:0:
158,179,202904,2,0,P|138:238|129:276,1,90,8|8,0:0|3:0,0:0:0:0:
126,290,203159,1,8,3:0:0:0:
126,290,203243,1,0,1:2:0:0:
238,72,203413,5,2,0:0:0:0:
244,98,203497,1,8,0:0:0:0:
258,121,203582,1,2,1:2:0:0:
278,138,203667,1,4,3:0:0:0:
303,149,203751,1,10,3:0:0:0:
330,152,203836,1,8,3:0:0:0:
356,148,203921,6,0,P|409:122|500:123,1,135,6|0,1:2|0:0,0:0:0:0:
512,128,204260,1,8,0:0:0:0:
352,44,204430,1,2,1:2:0:0:
426,214,204599,1,8,0:0:0:0:
267,260,204769,1,2,0:0:0:0:
267,260,204854,1,8,0:0:0:0:
267,260,204938,1,8,0:0:0:0:
442,381,205108,6,0,P|490:345|501:206,1,180,6|6,1:2|1:2,0:0:0:0:
417,97,205616,2,0,P|368:127|324:141,1,90,8|8,0:0|3:0,0:0:0:0:
305,153,205870,1,8,3:0:0:0:
305,153,205955,1,0,1:2:0:0:
158,2,206125,5,2,0:0:0:0:
155,31,206209,1,2,0:0:0:0:
151,61,206294,1,2,1:2:0:0:
147,91,206379,1,2,0:0:0:0:
141,120,206463,1,6,3:0:0:0:
135,150,206548,1,4,3:0:0:0:
129,179,206633,6,0,P|141:232|150:282,1,90,6|0,1:2|0:0,0:0:0:0:
275,114,206972,1,10,0:0:0:0:
363,274,207142,1,2,0:0:0:0:
228,203,207311,1,2,1:2:0:0:
379,106,207481,1,2,1:2:0:0:
379,106,207565,1,0,1:2:0:0:
379,106,207650,1,8,0:0:0:0:
268,310,207820,6,0,B|202:290|202:290|150:310|150:310|85:290,1,180,2|2,1:2|1:2,0:0:0:0:
20,86,208328,1,10,0:0:0:0:
132,218,208498,2,0,P|144:142|166:40,1,180,2|2,1:2|1:2,0:0:0:0:
174,15,208921,1,2,0:0:0:0:
173,15,209006,1,10,0:0:0:0:
282,181,209176,1,2,0:0:0:0:
378,42,209345,6,1,P|365:93|357:138,1,90,2|0,1:2|0:0,0:0:0:0:
186,226,209684,2,1,P|199:277|207:322,1,90,10|2,0:0|0:0,0:0:0:0:
440,227,210023,1,2,1:2:0:0:
303,285,210193,1,2,1:2:0:0:
472,360,210362,1,10,0:0:0:0:
363,149,210532,6,1,B|303:129|303:129|257:146|257:146|189:125,1,180,6|2,1:2|1:2,0:0:0:0:
289,31,211040,1,10,0:0:0:0:
448,248,211209,2,1,P|456:186|491:77,1,135,6|0,1:2|0:0,0:0:0:0:
487,91,211548,1,2,1:2:0:0:
347,242,211718,1,10,1:2:0:0:
347,242,211803,1,0,1:2:0:0:
347,242,211887,1,0,1:2:0:0:
160,149,212057,5,10,0:0:0:0:
277,324,212226,1,10,0:0:0:0:
308,86,212396,1,10,0:0:0:0:
107,228,212565,2,0,P|57:215|11:205,1,90,10|0,0:0|0:0,0:0:0:0:
295,344,212904,2,0,P|345:331|391:321,1,90,10|0,0:0|0:0,0:0:0:0:
190,69,213243,6,0,P|201:136|215:257,1,180,14|2,0:0|0:0,0:0:0:0:
218,279,213667,1,2,0:0:0:0:
218,279,213752,1,4,3:0:0:0:
381,159,213921,1,4,3:0:0:0:
500,288,214091,5,8,3:0:0:0:
365,240,214260,1,8,3:0:0:0:
230,192,214430,1,4,3:0:0:0:
230,192,214769,5,6,1:2:0:0:
326,25,214938,1,10,3:0:0:0:
373,266,215108,1,10,0:0:0:0:
156,130,215277,2,0,P|106:143|60:153,1,90,10|0,0:0|0:0,0:0:0:0:
346,8,215616,2,0,P|396:21|442:31,1,90,14|2,0:0|0:0,0:0:0:0:
239,289,215955,6,0,P|250:222|264:101,1,180,14|4,0:0|3:0,0:0:0:0:
50,62,216464,2,0,P|87:94|139:102,1,90,10|8,0:0|1:2,0:0:0:0:
154,98,216718,1,8,0:0:0:0:
154,98,216803,1,10,0:0:0:0:
269,0,216972,1,8,3:0:0:0:
402,58,217142,1,10,3:0:0:0:
286,195,217311,1,4,3:0:0:0:
286,195,217396,1,4,3:0:0:0:
286,195,217481,6,0,B|324:160|369:175|369:175|396:210|442:208,1,153.000002918243,6|0,1:2|0:0,0:0:0:0:
421,206,217989,1,0,1:2:0:0:
365,312,218159,5,10,0:0:0:0:
508,225,218328,1,10,0:0:0:0:
347,133,218498,1,10,0:0:0:0:
248,347,218667,6,0,P|195:333|93:318,1,153.000002918243,6|8,1:2|0:0,0:0:0:0:
4,179,219176,2,0,P|53:192|101:198,1,76.5000014591217,2|4,1:2|3:0,0:0:0:0:
109,197,219430,1,4,3:0:0:0:
109,197,219515,1,0,1:2:0:0:
268,130,219684,1,8,3:0:0:0:
154,52,219854,2,0,P|171:106|183:150,1,76.5000014591217,2|0,1:2|0:0,0:0:0:0:
209,268,220193,5,10,0:0:0:0:
395,161,220362,1,10,0:0:0:0:
477,238,220701,5,10,0:0:0:0:
268,130,220870,1,10,0:0:0:0:
168,180,221209,5,10,0:0:0:0:
395,46,221378,1,10,0:0:0:0:
297,242,221718,6,0,B|275:283|275:283|283:333,1,90,2|2,0:0|0:0,0:0:0:0:
286,351,221972,1,0,0:0:0:0:
168,180,222142,1,0,0:0:0:0:
168,180,222226,2,0,B|190:221|190:221|182:271,1,90,2|2,0:0|0:0,0:0:0:0:
103,344,222481,1,0,0:0:0:0:
103,344,222565,6,0,L|86:252,1,90,6|0,3:0|0:0,0:0:0:0:
265,81,222904,5,10,0:0:0:0:
71,182,223074,1,10,0:0:0:0:
7,98,223412,5,10,0:0:0:0:
232,228,223582,1,10,0:0:0:0:
334,179,223921,5,10,0:0:0:0:
117,315,224091,1,10,0:0:0:0:
117,315,224938,6,0,L|108:263,1,45,4|0,1:2|1:0,0:0:0:0:
241,382,225108,1,10,1:2:0:0:
243,352,225192,1,8,0:0:0:0:
247,322,225277,1,8,0:2:0:0:
251,292,225362,1,8,0:2:0:0:
256,263,225446,1,8,0:2:0:0:
262,233,225531,1,8,0:2:0:0:
268,204,225616,6,0,P|320:219|364:228,1,90,6|0,1:2|1:2,0:0:0:0:
512,98,225955,1,10,0:0:0:0:
464,271,226125,2,0,P|453:323|445:373,1,90,6|0,1:2|0:0,0:0:0:0:
314,125,226464,1,10,0:0:0:0:
367,313,226633,1,10,0:0:0:0:
175,176,226803,6,0,P|165:233|149:319,1,135,4|0,1:2|0:0,0:0:0:0:
145,341,227142,1,10,0:0:0:0:
262,241,227311,1,10,0:0:0:0:
51,178,227481,1,10,0:0:0:0:
200,46,227650,2,0,L|162:35,6,24.7500007553101,10|0|0|0|4|0|4,0:0|0:0|1:2|0:0|3:0|0:0|3:0,0:0:0:0:
287,94,227989,5,10,0:0:0:0:
280,130,228073,1,8,0:0:0:0:
274,167,228158,1,8,0:0:0:0:
267,203,228243,1,8,0:0:0:0:
262,241,228328,6,0,L|273:305,1,45,10|0,0:0|1:0,0:0:0:0:
489,299,228582,1,0,1:2:0:0:
500,279,228667,2,1,P|452:218|339:254,1,188.999994232178,14|2,0:0|1:2,0:0:0:0:
303,162,229176,1,0,0:0:0:0:
405,384,229345,2,0,P|411:320|418:262,1,94.499997116089,10|0,0:0|0:0,0:0:0:0:
157,265,229684,6,0,P|195:330|317:317,2,188.999994232178,2|8|2,1:2|0:0|1:2,0:0:0:0:
0,316,230532,1,0,0:0:0:0:
30,131,230701,2,0,P|51:187|56:235,1,94.499997116089,10|4,0:0|3:0,0:0:0:0:
135,15,231040,6,0,B|181:70|181:70|325:39,1,188.999994232178,6|8,1:2|0:0,0:0:0:0:
355,228,231548,1,2,0:0:0:0:
355,228,231633,1,2,0:0:0:0:
355,228,231718,2,0,P|300:205|255:197,1,94.499997116089,2|0,1:2|0:0,0:0:0:0:
478,33,232057,2,1,P|468:87|460:138,1,94.499997116089,8|0,0:0|0:0,0:0:0:0:
463,289,232396,5,4,1:2:0:0:
356,118,232565,1,0,1:2:0:0:
279,323,232735,2,0,P|227:323|188:296,1,94.499997116089,8|4,0:0|3:0,0:0:0:0:
19,166,233074,1,2,1:2:0:0:
58,369,233243,5,4,3:0:0:0:
87,350,233327,1,4,3:0:0:0:
107,321,233412,1,2,1:2:0:0:
114,286,233497,1,4,3:0:0:0:
107,252,233582,2,0,L|92:198,1,47.2499985580445,4|8,3:0|3:0,0:0:0:0:
253,76,233752,6,1,P|237:135|230:180,1,94.499997116089,6|0,1:2|0:0,0:0:0:0:
29,47,234091,2,0,P|74:45|115:80,1,94.499997116089,10|0,0:0|0:0,0:0:0:0:
228,293,234430,2,0,P|289:271|337:259,1,94.499997116089,2|0,1:2|0:0,0:0:0:0:
503,150,234769,2,1,P|457:137|413:120,1,94.499997116089,10|0,0:0|0:0,0:0:0:0:
448,336,235108,5,2,1:2:0:0:
448,336,235277,1,0,0:0:0:0:
300,170,235447,2,0,P|310:226|318:267,1,94.499997116089,8|2,0:0|0:0,0:0:0:0:
341,46,235786,1,0,1:2:0:0:
341,46,235955,1,2,0:0:0:0:
442,217,236125,1,10,0:0:0:0:
235,95,236294,1,2,0:0:0:0:
235,95,236379,1,0,0:0:0:0:
235,95,236464,6,0,P|180:114|137:123,1,94.499997116089,6|0,1:2|0:0,0:0:0:0:
23,54,236803,1,10,0:0:0:0:
98,213,236972,1,2,1:2:0:0:
240,79,237142,1,8,0:0:0:0:
175,286,237311,1,2,0:0:0:0:
175,286,237396,1,8,0:0:0:0:
175,286,237481,1,8,0:0:0:0:
399,151,237650,6,0,B|342:134|293:166|317:179|266:211|215:197,1,188.999994232178,6|4,1:2|1:2,0:0:0:0:
50,81,238159,2,0,P|98:93|149:110,1,94.499997116089,8|8,0:0|3:0,0:0:0:0:
162,123,238413,1,8,3:0:0:0:
162,123,238498,1,6,1:2:0:0:
101,331,238667,5,8,0:0:0:0:
135,338,238751,1,8,0:0:0:0:
168,327,238836,1,10,1:2:0:0:
191,301,238921,1,8,0:0:0:0:
197,266,239006,2,0,L|187:216,1,47.2499985580445,4|4,3:0|3:0,0:0:0:0:
299,384,239176,6,0,P|308:308|332:180,1,188.999994232178,6|10,1:2|0:2,0:0:0:0:
422,319,239684,1,0,0:0:0:0:
436,107,239854,2,0,P|447:167|459:205,1,94.499997116089,2|0,1:2|1:2,0:0:0:0:
277,289,240193,2,0,P|231:271|179:260,1,94.499997116089,10|0,0:2|1:2,0:0:0:0:
144,68,240532,5,14,0:2:0:0:
273,192,240701,1,8,0:2:0:0:
306,183,240785,1,8,0:2:0:0:
331,158,240870,1,8,0:2:0:0:
339,124,240955,1,8,0:2:0:0:
327,91,241040,2,0,L|310:33,1,47.2499985580445,8|8,0:2|0:2,0:0:0:0:
440,140,241209,6,1,L|426:185,1,47.2499985580445,2|0,1:2|1:0,0:0:0:0:
295,254,241379,2,1,L|281:208,1,47.2499985580445,8|8,0:2|0:2,0:0:0:0:
473,315,241548,1,10,0:2:0:0:
434,288,241632,1,8,0:2:0:0:
388,289,241717,1,8,0:2:0:0:
351,317,241802,1,10,0:2:0:0:
338,362,241886,1,2,0:0:0:0:
184,199,242057,6,0,B|120:201|91:250|117:265|84:316|17:311,1,207.000003948212,4|2,1:2|0:0,0:0:0:0:
286,65,242565,2,0,B|339:124|339:124|311:266,1,207.000003948212,6|8,1:2|0:0,0:0:0:0:
54,155,243074,2,0,P|26:110|118:122,1,207.000003948212,4|8,1:2|3:3,0:0:0:0:
212,384,243582,6,0,P|220:333|232:280,1,94.499997116089,8|4,0:0|3:0,0:0:0:0:
236,269,243837,1,4,3:0:0:0:
236,269,243921,1,4,3:0:0:0:
87,372,244091,1,4,1:2:0:0:
29,185,244260,1,8,0:0:0:0:
64,170,244344,1,8,0:0:0:0:
102,175,244429,1,8,3:0:0:0:
132,198,244514,1,8,3:0:0:0:
146,234,244598,5,6,1:2:0:0:
353,174,244769,1,2,0:0:0:0:
204,63,244938,1,10,0:0:0:0:
255,247,245108,2,0,P|262:188|270:141,1,94.499997116089,2|8,1:2|0:0,0:0:0:0:
476,250,245447,2,0,P|421:250|380:293,1,94.499997116089,2|8,1:2|0:0,0:0:0:0:
190,350,245786,6,0,P|260:370|296:391,1,94.499997116089,2|12,1:2|0:0,0:0:0:0:
270,138,246125,1,2,1:2:0:0:
322,310,246294,1,8,0:0:0:0:
135,188,246464,1,2,1:2:0:0:
135,188,246548,1,0,1:2:0:0:
135,188,246633,1,8,0:0:0:0:
308,224,246803,1,0,1:2:0:0:
154,21,246972,2,0,P|168:72|177:119,1,94.499997116089,8|0,0:0|1:2,0:0:0:0:
26,201,247311,5,14,0:0:0:0:
224,267,247482,1,2,1:2:0:0:
73,372,247651,1,10,0:0:0:0:
120,181,247821,2,0,P|127:235|135:289,1,94.499997116089,2|8,1:2|0:0,0:0:0:0:
345,129,248159,2,0,P|294:129|264:163,1,94.499997116089,6|8,1:2|0:0,0:0:0:0:
326,238,248498,5,10,3:0:0:0:
206,90,248667,1,8,0:0:0:0:
335,269,248837,2,0,P|385:252|428:241,1,94.499997116089,2|8,1:2|0:0,0:0:0:0:
512,81,249176,2,0,P|466:68|421:53,1,94.499997116089,6|8,1:2|0:0,0:0:0:0:
195,187,249515,5,0,1:2:0:0:
195,187,249599,1,0,1:0:0:0:
195,187,249684,2,0,L|211:250,1,47.2499985580445,8|0,0:0|1:0,0:0:0:0:
308,145,249854,2,0,L|324:82,1,47.2499985580445,4|4,3:0|3:0,0:0:0:0:
156,327,250023,6,0,P|110:309|52:298,1,94.499997116089,6|2,1:2|0:0,0:0:0:0:
96,119,250362,5,10,0:0:0:0:
228,260,250532,1,0,1:2:0:0:
255,41,250701,5,8,0:0:0:0:
153,193,250870,1,0,1:2:0:0:
345,123,251040,5,8,0:0:0:0:
131,10,251209,1,0,1:2:0:0:
335,218,251379,6,0,P|394:200|436:193,1,94.499997116089,12|0,0:0|1:2,0:0:0:0:
177,85,251718,2,0,P|118:103|76:110,1,94.499997116089,8|0,0:0|1:2,0:0:0:0:
324,23,252057,1,10,0:0:0:0:
215,211,252226,5,8,0:0:0:0:
205,240,252310,1,8,0:0:0:0:
208,272,252395,1,0,1:2:0:0:
222,300,252480,1,8,3:0:0:0:
246,320,252564,1,4,3:0:0:0:
275,331,252649,1,4,3:0:0:0:
306,330,252735,6,0,P|359:312|465:293,1,153.000002918243,6|0,1:2|0:0,0:0:0:0:
344,194,253243,1,0,1:2:0:0:
498,54,253413,1,8,0:0:0:0:
444,211,253582,2,0,P|431:153|428:111,1,76.5000014591217,8|0,0:0|1:2,0:0:0:0:
268,54,253921,6,0,P|222:73|191:82,1,76.5000014591217,8|0,3:0|1:2,0:0:0:0:
147,186,254260,1,8,3:0:0:0:
147,186,254430,2,0,P|101:167|70:158,1,76.5000014591217,0|0,0:0|1:2,0:0:0:0:
20,46,254769,1,8,0:0:0:0:
67,257,254938,5,8,0:0:0:0:
67,257,255023,1,8,0:0:0:0:
67,257,255108,2,0,L|52:323,1,47.2499985580445,2|4,1:2|3:0,0:0:0:0:
154,174,255277,2,0,L|139:108,1,47.2499985580445,4|4,3:0|3:0,0:0:0:0:
261,305,255447,6,0,P|307:287|355:276,1,94.499997116089,6|0,1:2|1:2,0:0:0:0:
356,84,255786,1,8,0:0:0:0:
438,331,255955,2,0,P|479:300|489:150,1,188.999994232178,6|2,1:2|1:2,0:0:0:0:
372,67,256379,1,0,1:2:0:0:
356,84,256464,6,0,B|343:139|343:139|376:183,1,107.999996704102,14|0,0:0|1:2,0:0:0:0:
191,320,256972,1,0,1:2:0:0:
240,111,257142,1,8,0:0:0:0:
326,279,257311,1,8,0:0:0:0:
115,173,257481,2,0,L|109:136,6,24.7500007553101,10|0|0|0|8|0|8,0:0|0:0|1:0|0:0|0:0|0:0|0:0,0:0:0:0:
199,224,257820,5,8,0:0:0:0:
222,217,257904,1,8,0:0:0:0:
246,211,257989,1,8,0:0:0:0:
270,205,258074,1,8,0:0:0:0:
294,199,258159,6,0,P|304:145|315:106,1,90,6|2,1:2|0:0,0:0:0:0:
202,69,258498,1,10,0:0:0:0:
395,175,258667,1,2,0:0:0:0:
395,175,258752,1,0,0:0:0:0:
395,175,258837,1,2,1:2:0:0:
326,279,259006,1,2,1:2:0:0:
415,89,259176,1,8,0:0:0:0:
387,359,259345,6,0,P|348:320|222:314,1,180,2|2,0:0|1:2,0:0:0:0:
134,209,259854,2,0,P|152:141|159:93,1,90,10|2,0:0|1:2,0:0:0:0:
34,297,260193,2,0,P|42:341|55:384,2,90,0|2|10,0:0|1:2|0:0,0:0:0:0:
239,197,260701,1,2,1:2:0:0:
239,197,260786,1,0,1:0:0:0:
239,197,260870,5,6,1:2:0:0:
141,344,261040,1,2,1:2:0:0:
47,142,261209,1,10,0:0:0:0:
256,318,261379,2,0,P|310:294|450:272,1,180,6|2,1:2|1:2,0:0:0:0:
375,49,261887,1,10,0:0:0:0:
220,218,262057,6,0,B|172:184|119:189|119:189|95:230|45:230,1,180,6|2,1:2|1:2,0:0:0:0:
190,0,262565,2,0,P|207:42|209:95,1,90,10|10,0:0|0:0,0:0:0:0:
206,115,262820,1,8,0:0:0:0:
206,115,262904,1,0,1:2:0:0:
42,44,263074,5,8,0:0:0:0:
95,291,263243,2,0,P|104:215|117:125,1,135,8|4,0:0|3:0,0:0:0:0:
116,128,263582,5,6,1:2:0:0:
284,196,263752,1,2,0:0:0:0:
284,196,263837,1,0,0:0:0:0:
284,196,263921,1,10,0:0:0:0:
230,20,264091,1,2,0:0:0:0:
193,241,264260,2,0,P|242:224|281:212,1,90,2|2,1:2|1:2,0:0:0:0:
412,63,264599,1,10,0:0:0:0:
339,300,264769,6,0,B|398:263|398:263|512:302,1,180,2|2,0:0|1:2,0:0:0:0:
268,384,265277,2,0,P|213:368|160:353,1,90,10|2,0:0|1:2,0:0:0:0:
86,215,265616,2,0,P|42:227|0:239,2,90,2|2|10,1:2|1:2|0:0,0:0:0:0:
204,95,266125,1,2,1:2:0:0:
204,95,266209,1,0,1:0:0:0:
204,95,266294,5,6,1:2:0:0:
138,284,266464,1,2,1:2:0:0:
304,168,266633,1,10,0:0:0:0:
374,359,266803,2,0,P|427:379|513:286,1,180,6|2,1:2|1:2,0:0:0:0:
388,82,267311,1,10,0:0:0:0:
206,210,267481,6,0,B|148:185|148:185|92:204|92:204|19:176,1,180,6|0,1:2|1:2,0:0:0:0:
241,317,267989,2,0,P|293:296|335:284,1,90,8|4,0:0|3:0,0:0:0:0:
354,281,268243,1,4,3:0:0:0:
354,281,268328,1,0,1:2:0:0:
292,48,268498,5,0,1:0:0:0:
292,48,268582,1,0,1:0:0:0:
292,48,268667,2,0,L|303:114,1,45,0|8,1:2|3:0,0:0:0:0:
403,153,268837,2,0,L|414:87,1,45,8|8,3:0|3:0,0:0:0:0:
253,203,269006,5,6,1:2:0:0:
171,47,269176,2,0,P|184:106|193:157,1,90,2|8,0:0|0:0,0:0:0:0:
102,268,269515,1,2,0:0:0:0:
102,268,269599,1,8,3:0:0:0:
102,268,269684,1,2,1:2:0:0:
233,326,269854,1,0,1:2:0:0:
114,175,270023,2,0,P|63:193|15:205,1,90,10|2,0:0|1:2,0:0:0:0:
4,210,270277,1,0,0:0:0:0:
4,210,270362,5,0,1:2:0:0:
187,253,270532,1,2,1:2:0:0:
95,80,270701,1,10,0:0:0:0:
95,80,270786,1,0,0:0:0:0:
95,80,270870,1,4,3:0:0:0:
246,162,271040,2,0,P|295:146|344:135,1,90,2|0,1:2|1:2,0:0:0:0:
427,23,271379,2,0,P|383:12|340:-1,1,90,10|0,0:0|0:0,0:0:0:0:
471,246,271718,5,6,1:2:0:0:
343,129,271887,2,0,P|355:180|364:238,1,90,2|8,0:0|0:0,0:0:0:0:
436,360,272226,1,10,3:0:0:0:
436,360,272311,1,0,0:0:0:0:
436,360,272396,1,2,1:2:0:0:
305,305,272565,1,0,1:2:0:0:
482,224,272735,2,0,P|489:179|500:135,1,90,10|2,0:0|1:2,0:0:0:0:
510,113,272989,1,0,1:0:0:0:
510,113,273074,5,12,0:0:0:0:
344,12,273243,1,6,3:0:0:0:
344,12,273328,1,4,3:0:0:0:
344,12,273413,2,0,L|326:80,1,45,2|0,1:2|1:0,0:0:0:0:
235,136,273582,2,0,L|223:92,1,45,4|4,3:0|3:0,0:0:0:0:
347,234,273752,5,2,1:2:0:0:
316,220,273836,1,0,1:0:0:0:
283,222,273921,1,4,3:0:0:0:
254,239,274006,1,8,3:0:0:0:
237,268,274091,6,0,L|185:291,1,45,2|8,1:2|3:0,0:0:0:0:
63,196,274260,2,0,L|104:214,1,45,8|4,3:0|3:0,0:0:0:0:
18,349,274430,5,6,1:2:0:0:
256,192,274515,12,2,279515,0:0:0:0:
