osu file format v14

[General]
AudioFilename: audio.mp3
AudioLeadIn: 0
PreviewTime: 72904
Countdown: 0
SampleSet: Soft
StackLeniency: 0.7
Mode: 0
LetterboxInBreaks: 0
WidescreenStoryboard: 1

[Editor]
DistanceSpacing: 0.7
BeatDivisor: 4
GridSize: 32
TimelineZoom: 2.799998

[Metadata]
Title:Lucky Clover
TitleUnicode:Lucky Clover
Artist:Inori Minase
ArtistUnicode:水瀬いのり
Creator:Sekai
Version:litoluna's Expert
Source:
Tags:いのりん inorin innocent flower 1st first album Vocals j-pop jpop japanese pop female vocalist sekaii sekai-nyan pnky litoluna otudou -karUpA- grazuko asukow
BeatmapID:3658340
BeatmapSetID:1785922

[Difficulty]
HPDrainRate:6
CircleSize:4
OverallDifficulty:8.5
ApproachRate:9.2
SliderMultiplier:1.6
SliderTickRate:1

[Events]
//Background and Video events
0,0,"L.jpg",0,0
//Break Periods
2,120054,124368
//Storyboard Layer 0 (Background)
//Storyboard Layer 1 (Fail)
//Storyboard Layer 2 (Pass)
//Storyboard Layer 3 (Foreground)
//Storyboard Layer 4 (Overlay)
//Storyboard Sound Samples

[TimingPoints]
532,338.983050847458,4,2,1,60,1,0
532,-166.666666666667,4,2,1,60,0,0
4938,-83.3333333333333,4,2,1,60,0,0
5955,-90.9090909090909,4,2,1,60,0,0
20870,-83.3333333333333,4,2,1,60,0,0
22226,-99.9999999999999,4,2,1,60,0,0
31887,-83.3333333333333,4,2,1,60,0,0
32226,-71.4285714285714,4,2,1,60,0,0
32565,-62.5,4,2,1,60,0,0
33074,-99.9999999999999,4,2,1,60,0,0
43582,-83.3333333333333,4,2,1,60,0,0
43921,-142.857142857143,4,2,1,60,0,0
53243,-111.111111111111,4,2,1,60,0,0
54769,-100,4,2,1,60,0,0
71040,-83.3333333333333,4,2,1,60,0,0
73074,-83.3333333333333,4,2,1,50,0,0
73413,-71.4285714285714,4,2,1,50,0,0
73752,-62.5,4,2,1,50,0,0
74091,-62.5,4,2,1,60,0,1
74430,-83.3333333333333,4,2,1,60,0,1
103582,-90.9090909090909,4,2,1,60,0,0
119854,-125,4,2,1,60,0,0
125277,-100,4,2,1,60,0,0
127989,-125,4,2,1,60,0,0
129345,-100,4,2,1,60,0,0
141548,-105.263157894737,4,2,1,60,0,0
152396,-100,4,2,1,60,0,0
169854,-83.3333333333333,4,2,1,60,0,0
170193,-71.4285714285714,4,2,1,60,0,0
171379,-62.5,4,2,1,60,0,1
171718,-83.3333333333333,4,2,1,60,0,1
200532,-62.5,4,2,1,60,0,1
201209,-90.9090909090909,4,2,1,60,0,0
227650,-83.3333333333333,4,2,1,60,0,0
228328,-125,4,2,1,60,0,0
228667,-62.5,4,2,1,60,0,1
229006,-76.9230769230769,4,2,1,60,0,1
242057,-66.6666666666667,4,2,1,60,0,1
242565,-76.9230769230769,4,2,1,60,0,1
258159,-90.9090909090909,4,2,1,60,0,0
274430,-125,4,2,1,60,0,0
278837,-166.666666666667,4,2,1,60,0,0
279515,-166.666666666667,4,2,1,60,0,0
279599,-166.666666666667,4,2,1,5,0,0
284938,-166.666666666667,4,2,1,5,0,0

[Colours]
Combo1 : 254,185,56
Combo2 : 83,199,255
Combo3 : 185,64,251
Combo4 : 248,114,224

[HitObjects]
68,41,532,5,2,0:0:0:0:
138,137,701,1,2,0:0:0:0:
138,19,870,1,2,0:0:0:0:
68,114,1040,1,2,0:0:0:0:
180,78,1209,2,0,P|218:99|278:87,1,95.9999970703126,2|2,0:0|0:0,0:0:0:0:
318,40,1718,1,0,0:0:0:0:
369,118,1887,6,0,P|389:100|399:67,1,47.9999985351563,2|2,0:0|0:0,0:0:0:0:
293,166,2226,2,0,P|310:181|334:189,1,47.9999985351563,2|2,0:0|0:0,0:0:0:0:
416,190,2565,2,0,P|377:211|358:269,1,95.9999970703126,2|2,0:0|0:0,0:0:0:0:
380,329,3074,1,0,0:0:0:0:
235,384,3243,5,2,0:0:0:0:
283,276,3413,1,2,0:0:0:0:
180,334,3582,1,2,0:0:0:0:
299,347,3752,1,2,0:0:0:0:
211,269,3921,2,0,P|211:225|170:179,1,95.9999970703126,2|2,0:0|0:0,0:0:0:0:
109,168,4430,1,0,0:0:0:0:
179,104,4599,6,0,P|202:108|225:118,1,47.9999985351563,2|2,0:0|0:0,0:0:0:0:
311,248,4938,6,0,P|337:244|366:238,1,47.9999985351563,10|8,3:0|3:0,0:0:0:0:
403,178,5108,2,0,P|429:182|458:188,1,47.9999985351563,8|8,0:3|0:3,0:0:0:0:
510,242,5277,1,10,0:0:0:0:
276,58,5447,1,10,0:0:0:0:
170,206,5616,6,0,L|193:225,6,23.9999992675781,2|2|2|2|8|2|8,0:0|0:0|0:0|0:0|0:0|0:0|0:0,0:0:0:0:
53,149,5955,6,0,P|94:135|140:127,1,88.000002685547,6|2,1:2|0:0,0:0:0:0:
332,118,6294,2,0,P|359:81|357:37,1,88.000002685547,10|2,0:0|0:0,0:0:0:0:
256,138,6633,5,0,1:2:0:0:
428,180,6803,1,2,1:2:0:0:
284,281,6972,2,0,P|325:266|369:257,1,88.000002685547,10|2,0:0|0:0,0:0:0:0:
197,373,7311,6,0,P|162:353|145:311,1,88.000002685547,0|2,1:2|0:0,0:0:0:0:
241,195,7650,1,10,0:0:0:0:
25,155,7820,2,0,B|131:121|131:121|96:140|84:170,1,176.000005371094,2|2,1:2|1:2,0:0:0:0:
231,24,8328,1,10,0:0:0:0:
344,148,8498,5,2,1:2:0:0:
323,141,8582,1,2,0:0:0:0:
301,133,8667,1,6,1:2:0:0:
413,107,8837,5,10,0:0:0:0:
241,195,9006,1,10,0:0:0:0:
496,295,9176,6,0,B|453:295|441:266|441:271|430:241|381:241,1,132.00000402832,6|0,1:2|0:0,0:0:0:0:
324,308,9515,6,0,P|342:324|371:327,2,44.0000013427735,2|0|8,1:2|0:0|0:0,0:0:0:0:
123,248,9854,6,0,L|283:279,1,132.00000402832,6|0,1:2|0:0,0:0:0:0:
309,227,10193,1,2,1:2:0:0:
79,313,10362,1,10,0:0:0:0:
260,360,10532,5,10,0:0:0:0:
260,360,10616,1,8,0:0:0:0:
260,360,10701,1,0,1:2:0:0:
106,175,10870,1,10,0:0:0:0:
147,360,11040,1,10,0:0:0:0:
213,114,11209,5,4,3:0:0:0:
213,114,11294,1,4,3:0:0:0:
213,114,11379,2,0,P|204:67|195:26,1,88.000002685547,6|2,1:2|0:0,0:0:0:0:
311,192,11718,2,0,P|360:184|387:137,1,88.000002685547,10|2,0:0|0:0,0:0:0:0:
129,81,12057,5,0,1:2:0:0:
284,50,12226,1,2,1:2:0:0:
134,187,12396,2,0,P|86:176|45:170,1,88.000002685547,10|2,0:0|0:0,0:0:0:0:
233,334,12735,6,0,P|265:295|261:251,1,88.000002685547,0|2,1:2|0:0,0:0:0:0:
197,135,13074,1,10,0:0:0:0:
24,297,13243,2,0,B|81:278|81:278|135:290|135:290|193:273,1,176.000005371094,2|2,1:2|1:2,0:0:0:0:
358,340,13752,1,10,0:0:0:0:
308,135,13921,5,2,0:0:0:0:
303,156,14006,1,2,0:0:0:0:
299,178,14091,1,6,1:2:0:0:
251,65,14260,5,2,1:2:0:0:
344,250,14430,1,10,0:0:0:0:
512,59,14599,6,0,B|455:67|455:67|437:82|437:82|385:89,1,132.00000402832,6|0,1:2|0:0,0:0:0:0:
327,37,14938,6,0,P|346:18|365:10,2,44.0000013427735,10|0|10,3:3|0:0|0:0,0:0:0:0:
273,262,15277,6,0,L|312:119,1,132.00000402832,6|0,1:2|0:0,0:0:0:0:
251,65,15616,5,0,1:2:0:0:
251,65,15701,1,0,1:2:0:0:
251,65,15786,2,0,L|206:77,1,44.0000013427735,8|0,0:0|1:0,0:0:0:0:
94,110,15955,5,4,3:0:0:0:
94,110,16040,1,4,3:0:0:0:
94,110,16125,2,0,L|49:122,1,44.0000013427735,0|0,1:2|1:0,0:0:0:0:
130,261,16294,5,8,2:0:0:0:
158,267,16379,1,8,2:0:0:0:
186,260,16464,1,0,1:2:0:0:
209,242,16548,1,0,1:2:0:0:
222,216,16633,1,0,1:0:0:0:
222,187,16718,1,0,1:2:0:0:
210,161,16803,6,0,L|156:151,1,44.0000013427735,6|2,1:2|1:2,0:0:0:0:
94,110,16972,2,0,L|6:133,1,88.000002685547,2|8,0:0|0:0,0:0:0:0:
183,28,17311,5,2,0:0:0:0:
183,28,17396,1,8,3:0:0:0:
183,28,17481,1,2,1:2:0:0:
96,196,17650,1,0,1:2:0:0:
265,85,17820,6,0,L|312:95,1,44.0000013427735,10|2,0:0|1:2,0:0:0:0:
386,145,17989,2,0,P|405:96|384:46,1,88.000002685547,2|0,0:0|1:2,0:0:0:0:
248,171,18328,5,2,1:2:0:0:
444,225,18498,1,10,0:0:0:0:
284,349,18667,5,8,3:0:0:0:
284,349,18752,1,8,3:0:0:0:
284,349,18837,2,0,P|324:333|368:325,1,88.000002685547,2|0,1:2|1:2,0:0:0:0:
148,310,19176,2,0,P|117:272|127:223,1,88.000002685547,10|0,0:0|0:0,0:0:0:0:
228,97,19515,6,0,L|239:146,1,44.0000013427735,6|2,1:2|1:2,0:0:0:0:
316,204,19684,2,0,P|357:180|366:138,1,88.000002685547,2|8,0:0|0:0,0:0:0:0:
132,67,20023,5,2,0:0:0:0:
132,67,20108,1,8,3:0:0:0:
132,67,20193,1,2,1:2:0:0:
311,24,20362,1,0,1:2:0:0:
168,167,20532,6,0,L|121:159,1,44.0000013427735,10|2,0:0|1:2,0:0:0:0:
46,146,20701,2,0,L|2:138,1,44.0000013427735,2|2,0:0|1:2,0:0:0:0:
85,323,20870,6,0,B|107:313|107:313|115:291,1,47.9999985351563,2|0,1:2|1:0,0:0:0:0:
122,264,21040,2,0,B|99:273|99:273|91:295,1,47.9999985351563,2|0,1:2|1:0,0:0:0:0:
267,384,21209,6,0,B|270:359|270:359|255:341,1,47.9999985351563,10|0,0:0|1:0,0:0:0:0:
234,322,21379,2,0,B|230:346|230:346|245:364,1,47.9999985351563,0|0,1:2|1:2,0:0:0:0:
368,279,21548,5,10,0:0:0:0:
380,282,21633,1,0,1:2:0:0:
392,286,21718,1,8,0:0:0:0:
404,290,21803,1,8,0:0:0:0:
442,319,21887,1,2,1:2:0:0:
482,294,21972,1,8,0:0:0:0:
494,249,22057,1,8,0:0:0:0:
471,208,22142,1,8,0:0:0:0:
427,193,22226,6,1,P|343:214|270:227,1,160,6|10,1:2|0:0,0:0:0:0:
124,343,22735,1,2,0:0:0:0:
41,290,22904,2,1,P|33:253|64:208,1,80,0|2,0:0|1:2,0:0:0:0:
26,75,23243,2,0,P|62:90|107:101,1,80,8|2,0:0|0:0,0:0:0:0:
270,226,23582,5,0,1:2:0:0:
161,275,23752,1,0,0:0:0:0:
294,214,23921,2,1,L|384:234,1,80,8|0,0:0|0:0,0:0:0:0:
268,131,24260,5,2,0:0:0:0:
323,307,24430,1,0,1:2:0:0:
161,275,24599,2,1,P|135:239|143:189,1,80,10|2,0:0|0:0,0:0:0:0:
245,56,24938,6,0,B|291:42|338:73|319:83|349:113|388:105,1,160,2|10,1:2|0:0,0:0:0:0:
500,210,25447,1,0,0:0:0:0:
425,292,25616,2,0,P|384:291|348:273,1,80,2|0,0:0|1:2,0:0:0:0:
200,382,25955,2,0,P|208:342|215:296,1,80,8|0,0:0|0:0,0:0:0:0:
310,96,26294,6,0,P|302:136|295:182,1,80,2|0,1:2|0:0,0:0:0:0:
59,205,26633,2,0,P|115:188|176:177,1,120,10|0,0:0|0:0,0:0:0:0:
237,223,26972,1,2,1:2:0:0:
154,36,27142,6,0,P|171:51|186:69,1,40,6|0,1:2|0:0,0:0:0:0:
229,126,27311,1,8,0:0:0:0:
131,311,27481,5,10,3:0:0:0:
125,320,27565,1,8,3:0:0:0:
120,329,27650,2,1,P|71:326|60:229,1,160,4|8,1:2|0:0,0:0:0:0:
247,346,28159,1,2,0:0:0:0:
339,298,28328,2,0,P|360:260|352:223,1,80,2|2,0:0|1:2,0:0:0:0:
211,203,28667,2,1,P|169:214|131:223,1,80,8|2,0:0|0:0,0:0:0:0:
22,91,29006,6,1,P|63:35|115:42,1,120,2|0,1:2|0:0,0:0:0:0:
165,94,29345,1,10,0:0:0:0:
165,94,29515,2,1,P|206:86|242:73,1,80,2|0,0:0|0:0,0:0:0:0:
133,222,29854,1,2,1:2:0:0:
288,223,30023,2,0,P|251:210|212:203,1,80,8|2,0:0|0:0,0:0:0:0:
315,356,30362,6,0,P|391:303|374:233,1,160,0|10,1:2|0:0,0:0:0:0:
193,278,30870,1,0,1:2:0:0:
325,140,31040,2,0,P|362:154|408:167,1,80,8|6,0:0|3:0,0:0:0:0:
440,175,31294,1,4,3:0:0:0:
440,175,31379,2,0,P|457:170|479:166,3,40,2|4|6|8,1:2|3:0|3:0|0:0,0:0:0:0:
397,282,31718,6,0,P|387:257|380:234,1,40,10|0,0:0|0:0,0:0:0:0:
260,236,31887,2,0,P|262:167|324:139,1,143.999995605469,6|0,1:2|0:0,0:0:0:0:
277,330,32226,2,0,B|230:344|192:315|211:306|172:274|124:285,1,167.999994873047,6|0,1:2|0:0,0:0:0:0:
0,322,32565,2,0,B|35:256|131:261|131:261|75:262|35:222,1,256,6|8,1:2|3:0,0:0:0:0:
8,143,32989,1,8,3:0:0:0:
16,135,33074,6,1,B|61:121|98:145|89:154|121:184|164:171,1,160,6|10,1:2|0:0,0:0:0:0:
335,73,33582,2,1,P|293:67|246:49,1,80,2|0,0:0|0:0,0:0:0:0:
374,187,33921,1,2,1:2:0:0:
274,238,34091,2,0,P|255:203|255:161,1,80,8|2,0:0|0:0,0:0:0:0:
431,303,34430,6,1,B|380:287|350:319|364:327|333:356|286:348,1,160,2|8,1:2|0:0,0:0:0:0:
124,238,34938,1,2,0:0:0:0:
52,324,35108,2,1,P|64:367|106:384,1,80,2|0,0:0|1:2,0:0:0:0:
184,180,35447,1,10,0:0:0:0:
30,221,35616,1,2,0:0:0:0:
219,260,35786,6,1,L|343:207,1,120,4|0,1:2|0:0,0:0:0:0:
400,243,36125,2,0,B|430:252|444:266|444:266|436:245|423:242,1,80,10|2,0:0|0:0,0:0:0:0:
254,343,36464,5,6,1:2:0:0:
184,180,36633,1,0,1:2:0:0:
136,296,36803,1,8,0:0:0:0:
329,212,36972,6,1,P|340:128|282:88,1,160,6|0,1:2|1:2,0:0:0:0:
95,29,37481,2,0,P|134:20|175:2,1,80,8|0,0:0|1:2,0:0:0:0:
97,166,37820,1,10,0:0:0:0:
219,260,37989,1,4,3:0:0:0:
221,244,38074,1,4,3:0:0:0:
224,228,38159,1,2,1:2:0:0:
54,287,38328,5,8,3:0:0:0:
55,311,38413,1,8,3:0:0:0:
58,335,38498,2,1,P|112:367|163:350,1,120,6|0,1:2|0:0,0:0:0:0:
235,335,38837,2,0,P|274:342|318:357,1,80,2|2,0:0|1:2,0:0:0:0:
367,162,39176,2,0,P|381:200|389:244,1,80,8|0,0:0|0:0,0:0:0:0:
396,383,39515,1,2,1:2:0:0:
266,240,39684,5,6,3:0:0:0:
266,240,39769,1,4,3:0:0:0:
266,240,39854,2,0,B|220:258|220:258|190:254|190:254|142:270,1,120,0|0,1:2|0:0,0:0:0:0:
80,246,40193,2,0,P|66:202|87:159,1,80,2|0,0:0|0:0,0:0:0:0:
240,28,40532,6,0,P|252:94|213:129,1,120,14|4,0:0|3:0,0:0:0:0:
148,97,40870,1,2,1:2:0:0:
137,92,40955,1,8,0:0:0:0:
126,87,41040,2,0,L|72:69,1,40,10|8,0:0|0:0,0:0:0:0:
0,207,41209,6,0,P|73:189|156:176,1,160,4|10,1:2|0:0,0:0:0:0:
364,242,41718,1,0,0:0:0:0:
248,327,41887,1,8,0:0:0:0:
312,95,42057,1,2,0:0:0:0:
312,95,42142,1,8,0:0:0:0:
312,95,42226,1,8,0:0:0:0:
422,254,42396,6,0,P|399:249|377:244,1,40,6|0,1:2|0:0,0:0:0:0:
101,323,42735,6,1,P|176:326|205:255,1,160,6|8,1:2|3:0,0:0:0:0:
201,245,43159,1,8,3:0:0:0:
192,237,43243,1,0,1:2:0:0:
181,234,43328,1,0,0:0:0:0:
171,239,43413,1,8,3:0:0:0:
167,250,43498,1,0,0:0:0:0:
168,263,43582,2,0,P|233:249|316:238,1,143.999995605469,4|0,3:0|0:0,0:0:0:0:
333,248,43921,6,0,P|396:255|397:168,1,167.999994873047,4|0,1:2|0:0,0:0:0:0:
444,49,44599,2,0,P|363:75|280:92,1,167.999994873047,2|0,0:0|0:0,0:0:0:0:
104,176,45277,2,0,B|79:158|51:163|51:163|99:145|140:168|115:187|159:223|199:212,1,223.999993164063,2|2,0:0|0:0,0:0:0:0:
387,291,46125,5,0,0:0:0:0:
423,229,46294,1,2,0:0:0:0:
397,162,46464,2,0,B|364:146|364:146|319:158|319:158|283:195|316:243,1,167.999994873047,0|2,0:0|0:0,0:0:0:0:
242,338,47142,2,0,P|187:330|169:279,1,111.999996582031
78,112,47820,5,2,0:0:0:0:
78,112,47989,2,0,B|124:83|176:89|198:130|198:103|229:162|284:164|322:142|329:90|311:53|281:45|251:60,1,335.999989746094
131,204,49345,6,0,B|137:260|88:302|88:302|120:263|164:263,1,195.999994018555,2|0,0:0|0:0,0:0:0:0:
180,265,50023,2,0,B|218:286|218:286|232:330|205:373|155:370,1,167.999994873047,2|2,0:0|0:0,0:0:0:0:
51,218,50701,1,2,0:0:0:0:
87,142,50870,2,0,B|135:113|181:138|174:148|210:173|245:162,1,167.999994873047,2|2,0:0|0:0,0:0:0:0:
465,77,51548,5,2,0:0:0:0:
388,55,51718,1,2,0:0:0:0:
313,32,51887,2,0,P|228:60|151:89,1,167.999994873047,2|2,0:0|0:0,0:0:0:0:
31,185,52565,6,0,P|57:188|87:195,1,55.9999982910157,2|4,0:0|3:3,0:0:0:0:
307,281,52904,1,10,3:0:0:0:
249,185,53074,1,8,3:0:0:0:
178,358,53243,6,1,P|124:317|149:254,1,143.999995605469,6|0,1:2|1:2,0:0:0:0:
388,200,53752,1,0,1:2:0:0:
307,281,53921,1,0,1:2:0:0:
469,119,54091,5,8,0:0:0:0:
250,50,54260,1,8,0:0:0:0:
435,20,54430,5,8,0:0:0:0:
209,146,54599,1,8,0:0:0:0:
209,146,54684,1,8,0:0:0:0:
209,146,54769,2,0,P|169:127|155:94,1,80,6|0,1:2|0:0,0:0:0:0:
26,232,55108,6,0,P|86:217|143:207,1,120,8|2,0:0|0:0,0:0:0:0:
218,230,55447,2,0,P|231:269|210:303,1,80,2|0,1:2|1:2,0:0:0:0:
81,118,55786,2,0,P|74:78|115:35,1,80,8|2,0:0|0:0,0:0:0:0:
327,153,56125,5,2,1:2:0:0:
233,79,56294,1,2,0:0:0:0:
233,79,56379,1,0,0:0:0:0:
233,79,56464,2,1,L|152:100,1,80,8|0,0:0|0:0,0:0:0:0:
1,141,56803,1,2,0:0:0:0:
234,159,56972,5,2,1:2:0:0:
93,45,57142,1,10,0:0:0:0:
161,266,57311,1,2,0:0:0:0:
234,159,57481,6,1,P|171:146|115:136,1,120,2|0,1:2|0:0,0:0:0:0:
88,134,57820,1,10,0:0:0:0:
259,269,57989,2,0,P|299:257|336:251,1,80,2|0,0:0|1:2,0:0:0:0:
496,271,58328,1,2,1:2:0:0:
335,149,58498,1,8,0:0:0:0:
456,32,58667,6,0,P|440:88|432:150,1,120,2|0,1:2|0:0,0:0:0:0:
431,178,59006,1,0,1:2:0:0:
333,13,59176,1,8,0:0:0:0:
512,124,59345,1,0,0:0:0:0:
299,167,59515,6,0,P|318:158|343:144,1,40,4|0,1:2|0:0,0:0:0:0:
456,32,59684,1,8,0:0:0:0:
456,32,59769,1,8,0:0:0:0:
456,32,59854,2,1,L|448:86,1,40,8|8,0:0|0:0,0:0:0:0:
431,178,60023,2,1,L|423:232,1,40,8|8,3:0|3:0,0:0:0:0:
407,326,60193,6,0,P|366:331|334:310,1,80,6|2,1:2|0:0,0:0:0:0:
154,274,60532,2,1,P|194:264|250:248,1,80,10|0,0:0|0:0,0:0:0:0:
129,354,60870,5,0,1:2:0:0:
176,192,61040,1,0,1:2:0:0:
307,228,61209,1,8,0:0:0:0:
97,215,61379,6,1,P|55:224|14:235,1,80,2|0,1:2|0:0,0:0:0:0:
150,67,61718,2,1,P|188:79|202:113,1,80,2|8,1:2|0:0,0:0:0:0:
206,320,62057,2,1,P|168:308|154:274,1,80,2|0,1:2|0:0,0:0:0:0:
257,171,62396,5,2,1:2:0:0:
124,138,62565,2,0,P|62:149|8:164,1,120,14|2,0:0|0:0,0:0:0:0:
1,92,62904,6,0,P|41:80|82:74,1,80,6|2,1:2|0:0,0:0:0:0:
257,171,63243,2,1,P|290:147|297:109,1,80,10|0,0:0|0:0,0:0:0:0:
202,24,63582,5,0,1:2:0:0:
396,73,63752,1,2,1:2:0:0:
202,113,63921,1,8,0:0:0:0:
414,69,64091,2,0,L|494:83,1,80,2|0,1:2|0:0,0:0:0:0:
318,223,64430,5,0,1:2:0:0:
380,0,64599,1,12,0:0:0:0:
403,159,64769,5,2,0:0:0:0:
403,159,64854,1,10,3:0:0:0:
403,159,64938,2,0,L|408:198,1,40,2|0,1:2|0:0,0:0:0:0:
433,366,65108,5,8,0:0:0:0:
424,334,65193,1,8,0:0:0:0:
402,308,65277,1,10,1:2:0:0:
372,295,65362,1,8,3:0:0:0:
339,295,65447,1,8,3:0:0:0:
310,309,65532,1,8,3:0:0:0:
289,334,65616,6,1,P|211:347|166:289,1,160,6|0,1:2|0:0,0:0:0:0:
202,113,66125,1,0,1:2:0:0:
279,87,66294,2,0,P|313:108|318:157,1,80,8|0,0:0|0:0,0:0:0:0:
161,193,66633,5,2,1:2:0:0:
161,193,66803,2,0,P|82:177|2:168,1,160,10|8,0:0|3:0,0:0:0:0:
119,325,67311,2,0,P|156:304|163:261,1,80,0|0,0:0|1:2,0:0:0:0:
16,302,67650,5,8,0:0:0:0:
139,104,67820,1,2,1:2:0:0:
238,240,67989,1,10,3:0:0:0:
60,117,68159,5,2,0:0:0:0:
60,117,68243,1,2,0:0:0:0:
60,117,68328,1,6,1:2:0:0:
139,104,68498,1,0,0:0:0:0:
217,90,68667,1,0,0:0:0:0:
91,40,68837,5,0,1:2:0:0:
139,104,69006,1,8,0:0:0:0:
190,166,69176,1,0,0:0:0:0:
167,29,69345,5,0,1:2:0:0:
139,104,69515,1,8,3:0:0:0:
111,179,69684,1,0,0:0:0:0:
217,90,69854,5,8,3:0:0:0:
139,104,70023,1,0,0:0:0:0:
60,117,70193,1,0,1:2:0:0:
190,166,70362,6,0,L|228:180,1,40,8|0,0:0|0:0,0:0:0:0:
390,233,70532,1,8,0:0:0:0:
416,213,70616,1,8,0:0:0:0:
428,183,70701,1,10,3:0:0:0:
422,151,70786,1,8,3:0:0:0:
400,126,70870,1,10,3:0:0:0:
368,118,70955,1,0,1:2:0:0:
337,128,71040,6,0,P|355:199|368:274,1,143.999995605469,14|0,0:0|0:0,0:0:0:0:
321,330,71379,2,0,P|292:340|271:349,2,47.9999985351563,2|0|2,1:2|0:0|1:2,0:0:0:0:
509,288,71718,5,8,0:2:0:0:
251,161,71887,1,10,0:2:0:0:
439,63,72057,1,10,0:2:0:0:
235,265,72226,6,0,B|193:277|166:236|171:236|143:202|101:215,1,143.999995605469,14|0,0:2|0:0,0:0:0:0:
42,253,72565,1,8,0:2:0:0:
195,8,72735,1,12,0:0:0:0:
251,161,73074,6,1,L|279:153,6,23.9999992675781,2|0|2|0|2|0|2,0:0|0:0|0:0|0:0|0:0|0:0|0:0,0:0:0:0:
333,110,73413,6,1,L|361:118,6,27.9999991455078,2|0|2|0|2|0|2,0:0|0:0|0:0|0:0|0:0|0:0|0:0,0:0:0:0:
422,163,73752,6,0,L|453:153,6,32,2|0|0|0|0|0|0,1:2|0:0|0:0|0:0|1:2|1:0|1:0,0:0:0:0:
491,115,74091,6,1,B|416:83|363:168|363:138|324:198|235:154,1,256,14|2,0:0|0:0,0:0:0:0:
78,222,74599,1,0,1:2:0:0:
189,306,74769,2,0,P|144:318|101:343,1,95.9999970703126,10|0,0:0|0:0,0:0:0:0:
52,117,75108,6,0,P|101:114|140:141,1,95.9999970703126,2|0,1:2|0:0,0:0:0:0:
283,276,75447,2,0,P|332:279|371:252,1,95.9999970703126,8|2,0:0|0:0,0:0:0:0:
267,13,75786,5,2,0:0:0:0:
207,215,75955,1,0,1:2:0:0:
408,132,76125,1,10,0:0:0:0:
217,127,76294,5,0,1:2:0:0:
217,127,76379,1,0,0:0:0:0:
217,127,76464,2,1,P|265:119|316:103,1,95.9999970703126,6|0,1:2|0:0,0:0:0:0:
171,282,76803,2,0,P|135:251|134:201,1,95.9999970703126,10|2,0:0|0:0,0:0:0:0:
282,293,77142,5,2,1:2:0:0:
109,332,77311,1,0,1:2:0:0:
304,190,77481,2,0,P|382:201|447:227,1,143.999995605469,10|0,0:0|0:0,0:0:0:0:
503,183,77820,6,0,P|509:137|473:103,1,95.9999970703126,0|0,1:2|1:2,0:0:0:0:
288,0,78159,2,0,P|297:47|309:102,1,95.9999970703126,8|2,0:0|0:0,0:0:0:0:
383,303,78498,1,2,1:2:0:0:
402,93,78667,1,0,1:2:0:0:
209,252,78837,2,0,P|231:250|255:240,1,47.9999985351563,10|0,0:0|0:0,0:0:0:0:
166,77,79006,5,8,0:0:0:0:
166,77,79091,1,8,0:0:0:0:
166,77,79176,2,1,P|95:103|103:164,1,143.999995605469,6|0,1:2|0:0,0:0:0:0:
112,173,79515,2,1,P|183:150|256:136,1,143.999995605469,10|0,0:0|0:0,0:0:0:0:
325,158,79854,5,2,1:2:0:0:
120,332,80023,1,0,1:2:0:0:
265,384,80193,2,0,P|293:348|256:259,1,143.999995605469,10|0,0:0|0:0,0:0:0:0:
194,227,80532,6,1,P|146:242|93:255,2,95.9999970703126,2|0|8,1:2|0:0|0:0,0:0:0:0:
431,272,81040,1,2,1:2:0:0:
454,280,81125,1,2,1:2:0:0:
476,288,81209,1,0,1:2:0:0:
332,334,81379,5,2,1:2:0:0:
399,96,81548,2,0,P|439:118|433:190,1,95.9999970703126,10|2,0:0|0:0,0:0:0:0:
226,162,81887,6,0,P|178:147|125:134,1,95.9999970703126,4|0,1:2|1:2,0:0:0:0:
306,55,82226,1,10,0:0:0:0:
204,308,82396,2,0,P|163:277|161:236,1,95.9999970703126,2|0,0:0|1:2,0:0:0:0:
322,132,82735,5,2,1:2:0:0:
79,220,82904,1,8,0:0:0:0:
361,317,83074,6,1,P|419:288|396:217,1,143.999995605469,6|0,1:2|0:0,0:0:0:0:
329,209,83413,2,0,P|278:220|223:229,1,95.9999970703126,8|8,3:3|0:0,0:0:0:0:
29,64,83752,5,2,0:0:0:0:
29,64,83837,1,2,0:0:0:0:
29,64,83921,2,0,L|83:52,1,47.9999985351563,2|0,1:2|0:0,0:0:0:0:
187,124,84091,5,4,3:0:0:0:
187,124,84176,1,4,3:0:0:0:
187,124,84260,2,1,L|241:112,1,47.9999985351563,10|10,0:0|0:0,0:0:0:0:
364,180,84430,5,8,3:0:0:0:
364,180,84515,1,8,3:0:0:0:
364,180,84599,2,1,B|419:167|419:167|437:147|437:147|496:135,1,143.999995605469,6|0,1:2|0:0,0:0:0:0:
512,65,84938,2,1,P|481:34|431:41,1,95.9999970703126,10|0,0:0|0:0,0:0:0:0:
289,197,85277,5,2,1:2:0:0:
448,322,85447,1,0,1:2:0:0:
259,289,85616,2,0,P|302:275|356:266,1,95.9999970703126,10|0,0:0|0:0,0:0:0:0:
215,384,85955,2,1,P|178:350|173:302,1,95.9999970703126,2|0,1:2|1:2,0:0:0:0:
223,95,86294,6,0,P|243:170|202:216,1,143.999995605469,8|2,0:0|0:0,0:0:0:0:
128,229,86633,2,0,P|82:217|34:213,1,95.9999970703126,2|0,1:2|1:2,0:0:0:0:
259,289,86972,1,10,0:0:0:0:
116,39,87142,5,0,0:0:0:0:
116,39,87226,1,2,0:0:0:0:
116,39,87311,2,0,P|101:100|170:134,1,143.999995605469,6|0,1:2|0:0,0:0:0:0:
223,95,87650,2,0,B|241:70|266:58|266:58|241:58|229:74,1,95.9999970703126,8|2,0:0|0:0,0:0:0:0:
84,297,87989,5,2,1:2:0:0:
214,379,88159,1,0,1:2:0:0:
214,379,88243,1,0,1:2:0:0:
214,379,88328,2,0,P|240:338|235:292,1,95.9999970703126,8|0,0:0|0:0,0:0:0:0:
27,147,88667,5,4,1:2:0:0:
299,213,88837,1,0,1:2:0:0:
84,297,89006,5,8,0:0:0:0:
270,89,89176,2,1,P|241:42|162:51,1,143.999995605469,4|0,1:2|0:0,0:0:0:0:
120,111,89515,5,0,1:2:0:0:
389,212,89684,1,8,0:0:0:0:
228,334,89854,5,8,0:0:0:0:
228,334,89938,1,8,0:0:0:0:
228,334,90023,2,0,P|274:316|319:304,1,95.9999970703126,6|2,1:2|0:0,0:0:0:0:
453,170,90362,2,0,P|414:139|365:139,1,95.9999970703126,10|2,0:0|1:2,0:0:0:0:
220,244,90701,5,8,0:0:0:0:
338,25,90870,1,2,0:0:0:0:
389,212,91040,5,8,0:0:0:0:
136,122,91209,1,2,1:2:0:0:
220,244,91379,6,0,P|253:207|250:161,1,95.9999970703126,8|2,0:0|0:0,0:0:0:0:
338,25,91718,2,0,P|290:41|244:51,1,95.9999970703126,8|2,0:0|1:2,0:0:0:0:
0,100,92057,5,8,0:0:0:0:
180,182,92226,1,0,1:2:0:0:
180,182,92311,1,0,1:2:0:0:
180,182,92396,1,8,0:0:0:0:
322,135,92565,1,0,1:2:0:0:
502,217,92735,6,0,P|468:258|428:258,1,95.9999970703126,14|2,0:0|0:0,0:0:0:0:
348,56,93074,2,0,P|394:74|443:83,1,95.9999970703126,10|2,0:0|1:2,0:0:0:0:
318,334,93413,5,8,0:0:0:0:
400,183,93582,1,2,0:0:0:0:
196,24,93752,5,8,0:0:0:0:
255,186,93921,1,2,1:2:0:0:
111,335,94091,6,0,P|69:300|77:255,1,95.9999970703126,8|2,0:0|0:0,0:0:0:0:
178,138,94430,2,0,P|129:127|84:112,1,95.9999970703126,8|2,0:0|1:2,0:0:0:0:
243,282,94769,1,8,0:0:0:0:
405,106,94938,5,8,0:0:0:0:
406,74,95023,1,8,0:0:0:0:
394,45,95108,1,8,3:0:0:0:
369,24,95193,1,8,3:0:0:0:
339,16,95277,1,8,3:0:0:0:
308,23,95362,1,8,3:0:0:0:
283,42,95447,6,0,P|299:84|308:134,1,95.9999970703126,14|2,0:0|0:0,0:0:0:0:
273,359,95786,2,0,P|239:328|243:282,1,95.9999970703126,10|0,0:0|1:2,0:0:0:0:
421,238,96125,5,8,0:0:0:0:
231,165,96294,1,0,1:2:0:0:
344,302,96464,5,8,0:0:0:0:
405,106,96633,1,0,1:2:0:0:
128,240,96803,5,8,0:0:0:0:
326,203,96972,1,0,1:2:0:0:
101,95,97142,5,8,0:0:0:0:
243,281,97311,1,0,1:2:0:0:
3,232,97481,5,10,0:0:0:0:
12,234,97565,1,0,0:0:0:0:
21,237,97650,1,8,3:0:0:0:
30,239,97735,1,8,3:0:0:0:
58,258,97820,5,8,0:0:0:0:
93,249,97904,1,8,0:0:0:0:
128,240,97989,1,8,0:0:0:0:
163,232,98074,1,8,0:0:0:0:
198,223,98159,6,1,B|268:248|268:248|353:231|353:231|318:215,1,191.999994140625,6|0,1:2|0:0,0:0:0:0:
170,136,98667,1,0,1:0:0:0:
304,29,98837,2,1,P|327:71|349:129,1,95.9999970703126,8|0,0:0|0:0,0:0:0:0:
309,333,99176,2,1,P|280:280|324:218,1,143.999995605469,0|0,1:2|0:0,0:0:0:0:
395,249,99515,5,0,1:2:0:0:
230,178,99684,2,0,P|182:186|134:200,1,95.9999970703126,8|0,0:0|0:0,0:0:0:0:
273,95,100023,1,0,0:0:0:0:
190,258,100193,1,8,0:0:0:0:
118,118,100362,5,8,0:0:0:0:
118,118,100447,1,8,0:0:0:0:
118,118,100532,1,10,3:0:0:0:
118,118,100616,1,8,3:0:0:0:
118,118,100701,2,0,L|168:104,1,47.9999985351563,4|4,3:0|3:0,0:0:0:0:
381,152,100870,6,1,P|294:139|273:78,1,143.999995605469,6|0,1:2|0:0,0:0:0:0:
294,23,101209,1,8,0:0:0:0:
476,225,101379,6,0,P|404:233|334:251,1,143.999995605469,6|0,1:2|0:0,0:0:0:0:
265,279,101718,1,2,1:2:0:0:
40,91,101887,6,1,B|85:84|116:115|100:119|122:153|162:148,1,143.999995605469,14|0,0:0|0:0,0:0:0:0:
240,145,102226,1,0,1:2:0:0:
180,358,102396,5,8,0:0:0:0:
115,241,102565,1,0,1:2:0:0:
231,179,102735,1,8,0:0:0:0:
294,293,102904,1,8,0:0:0:0:
13,171,103074,5,0,1:0:0:0:
36,166,103159,1,8,0:0:0:0:
60,161,103243,1,8,0:0:0:0:
83,156,103328,1,8,0:0:0:0:
107,151,103413,1,8,0:0:0:0:
130,146,103498,1,8,0:0:0:0:
155,122,103582,6,0,L|240:143,1,88.000002685547,6|2,1:2|0:0,0:0:0:0:
390,275,103921,2,0,P|354:304|314:301,1,88.000002685547,10|2,0:0|0:0,0:0:0:0:
217,64,104260,5,0,1:2:0:0:
179,211,104430,1,2,1:2:0:0:
348,165,104599,2,0,P|306:149|263:141,1,88.000002685547,10|2,0:0|0:0,0:0:0:0:
90,246,104938,6,0,P|57:211|62:173,1,88.000002685547,0|2,1:2|0:0,0:0:0:0:
144,71,105277,1,10,0:0:0:0:
181,296,105447,2,0,P|103:280|-2:265,1,176.000005371094,2|2,1:2|1:2,0:0:0:0:
132,380,105955,1,10,0:0:0:0:
298,235,106125,5,2,0:0:0:0:
304,256,106209,1,2,0:0:0:0:
310,277,106294,1,6,1:2:0:0:
350,170,106464,5,10,0:0:0:0:
254,339,106633,1,10,0:0:0:0:
426,247,106803,6,1,P|456:194|436:118,1,132.00000402832,6|0,1:2|0:0,0:0:0:0:
414,59,107142,6,0,P|426:53|464:54,2,44.0000013427735,2|0|8,1:2|0:0|0:0,0:0:0:0:
216,12,107481,6,1,L|336:65,1,132.00000402832,6|0,1:2|0:0,0:0:0:0:
371,132,107820,1,2,1:2:0:0:
180,196,107989,1,10,0:0:0:0:
378,312,108159,5,10,0:0:0:0:
378,312,108243,1,8,0:0:0:0:
378,312,108328,1,0,1:2:0:0:
229,114,108498,1,10,0:0:0:0:
186,338,108667,1,10,0:0:0:0:
427,208,108837,5,4,3:0:0:0:
427,208,108921,1,4,3:0:0:0:
427,208,109006,2,0,L|458:219,6,22.0000006713867,10|2|2|2|2|2|0,0:2|0:0|0:0|0:0|0:0|0:0|1:2,0:0:0:0:
324,169,109345,6,0,P|279:178|238:190,1,88.000002685547,14|2,0:0|0:0,0:0:0:0:
37,279,109684,1,0,1:2:0:0:
148,131,109854,1,2,1:2:0:0:
139,320,110023,2,0,P|122:278|113:234,1,88.000002685547,10|2,0:0|0:0,0:0:0:0:
180,17,110362,6,0,P|226:26|251:73,1,88.000002685547,0|2,1:2|0:0,0:0:0:0:
57,125,110701,1,10,0:0:0:0:
271,208,110870,2,0,B|327:231|356:185|356:200|378:157|433:166,1,176.000005371094,2|2,1:2|1:2,0:0:0:0:
369,311,111379,1,10,0:0:0:0:
189,183,111548,5,2,0:0:0:0:
184,204,111633,1,2,0:0:0:0:
180,226,111718,1,6,1:2:0:0:
138,122,111887,5,2,1:2:0:0:
227,295,112057,1,10,0:0:0:0:
375,113,112226,6,0,B|338:103|310:121|319:125|294:150|247:143,1,132.00000402832,6|0,1:2|0:0,0:0:0:0:
208,85,112565,6,0,P|226:71|253:68,2,44.0000013427735,10|0|10,3:3|0:0|0:0,0:0:0:0:
11,87,112904,6,1,L|154:126,1,132.00000402832,6|0,1:2|0:0,0:0:0:0:
185,184,113243,5,0,1:2:0:0:
185,184,113328,1,0,0:0:0:0:
185,184,113413,2,0,L|134:197,1,44.0000013427735,8|0,0:0|0:0,0:0:0:0:
52,218,113582,5,4,3:0:0:0:
52,218,113667,1,4,3:0:0:0:
52,218,113752,2,0,L|1:231,1,44.0000013427735,0|0,1:2|0:0,0:0:0:0:
62,346,113921,5,8,2:0:0:0:
93,363,114006,1,8,2:0:0:0:
129,368,114091,1,8,1:2:0:0:
165,360,114176,1,0,1:0:0:0:
195,339,114260,1,0,1:0:0:0:
216,309,114345,1,0,1:2:0:0:
224,273,114430,5,10,1:2:0:0:
2,155,114599,1,10,0:2:0:0:
2,155,114684,1,2,0:0:0:0:
2,155,114769,2,0,L|54:140,1,44.0000013427735,2|0,0:0|0:0,0:0:0:0:
235,89,114938,5,10,1:2:0:0:
13,32,115108,1,10,0:2:0:0:
13,32,115193,1,2,0:0:0:0:
13,32,115277,2,0,L|65:45,1,44.0000013427735,2|0,0:0|0:0,0:0:0:0:
247,91,115447,5,10,1:2:0:0:
88,269,115616,1,10,0:2:0:0:
88,269,115701,1,2,0:0:0:0:
88,269,115786,2,0,L|125:230,1,44.0000013427735,2|0,0:0|0:0,0:0:0:0:
256,95,115955,5,10,0:0:0:0:
214,365,116125,1,10,0:0:0:0:
174,277,116294,5,8,3:0:0:0:
191,267,116379,1,8,3:0:0:0:
211,266,116464,1,8,3:0:0:0:
316,278,116633,1,4,3:0:0:0:
387,356,116803,2,0,B|451:373|451:373|488:366|488:325,1,132.00000402832,4|0,3:0|0:0,0:0:0:0:
472,257,117142,5,10,1:2:0:0:
225,167,117311,1,10,0:2:0:0:
225,167,117396,1,2,0:0:0:0:
225,167,117481,2,0,L|278:158,1,44.0000013427735,2|0,0:0|0:0,0:0:0:0:
473,133,117650,5,10,1:2:0:0:
252,43,117820,1,10,0:2:0:0:
252,43,117904,1,2,0:0:0:0:
252,43,117989,2,0,L|302:61,1,44.0000013427735,2|0,0:0|0:0,0:0:0:0:
483,137,118159,5,10,1:2:0:0:
295,294,118328,1,10,0:2:0:0:
295,294,118413,1,0,0:0:0:0:
295,294,118498,2,0,L|336:259,1,44.0000013427735
491,141,118667,5,10,1:2:0:0:
168,95,118837,1,10,0:2:0:0:
102,259,119176,5,2,0:0:0:0:
232,370,119430,5,2,0:0:0:0:
357,329,119684,5,2,0:0:0:0:
372,234,119854,5,6,1:2:0:0:
121,244,124938,5,8,3:0:0:0:
144,250,125023,1,8,3:0:0:0:
167,256,125108,1,6,3:0:0:0:
190,262,125193,1,4,3:0:0:0:
213,269,125277,5,8,0:0:0:0:
303,112,125447,1,8,0:0:0:0:
336,235,125616,1,8,0:0:0:0:
179,145,125786,1,10,0:0:0:0:
199,292,126633,5,8,0:0:0:0:
316,88,126803,1,8,0:0:0:0:
359,248,126972,1,10,0:0:0:0:
155,131,127142,1,10,0:0:0:0:
176,331,127820,5,2,0:0:0:0:
176,331,127904,1,2,0:0:0:0:
176,331,127989,2,0,P|203:311|215:282,1,64,6|2,0:0|0:0,0:0:0:0:
304,263,128328,2,0,P|273:249|242:253,1,64,2|2,0:0|0:0,0:0:0:0:
133,139,128667,2,0,P|136:172|155:197,1,64,2|0,0:0|0:0,0:0:0:0:
256,155,129006,1,0,0:0:0:0:
266,158,129091,1,0,0:0:0:0:
276,160,129176,1,10,0:0:0:0:
286,163,129260,1,8,0:0:0:0:
316,172,129345,5,8,0:0:0:0:
54,247,129515,1,4,1:2:0:0:
401,304,129854,5,4,1:2:0:0:
51,138,130193,2,1,P|78:75|161:75,1,160,4|8,1:2|3:0,0:0:0:0:
217,132,130616,1,8,0:0:0:0:
217,132,130701,6,1,B|287:116|287:116|311:125|311:125|373:109,1,160,6|2,1:2|0:0,0:0:0:0:
512,276,131209,2,1,P|502:232|435:214,1,120,10|0,0:0|0:0,0:0:0:0:
412,225,131548,1,2,1:2:0:0:
281,366,131718,2,1,L|364:347,1,80,8|2,0:0|0:0,0:0:0:0:
169,200,132057,5,0,1:2:0:0:
123,344,132226,1,0,1:2:0:0:
255,267,132396,1,0,0:0:0:0:
90,244,132565,6,1,P|74:206|90:157,1,80,8|2,0:0|0:0,0:0:0:0:
272,106,132904,1,0,1:2:0:0:
197,33,133074,2,1,P|151:39|126:67,1,80,10|2,0:0|0:0,0:0:0:0:
285,188,133413,6,1,L|406:170,1,120,4|0,1:2|0:0,0:0:0:0:
475,179,133752,2,1,P|485:216|460:253,1,80,10|0,0:0|0:0,0:0:0:0:
272,106,134091,5,6,1:2:0:0:
384,261,134260,1,0,1:2:0:0:
428,41,134430,1,8,0:0:0:0:
262,190,134599,6,1,L|120:169,1,120,6|0,1:2|0:0,0:0:0:0:
75,197,134938,1,0,1:2:0:0:
119,59,135108,1,8,0:0:0:0:
167,293,135277,5,4,3:0:0:0:
167,293,135362,1,4,3:0:0:0:
167,293,135447,1,2,1:2:0:0:
208,133,135616,1,8,3:0:0:0:
80,278,135786,1,2,1:2:0:0:
279,360,135955,5,8,3:0:0:0:
279,360,136040,1,8,3:0:0:0:
279,360,136125,2,1,B|315:366|339:349|333:338|351:319|389:322,1,120,6|0,1:2|0:0,0:0:0:0:
415,330,136464,1,2,0:0:0:0:
269,232,136633,1,2,1:2:0:0:
432,167,136803,1,8,0:0:0:0:
432,167,136972,2,1,P|389:159|353:142,1,80,10|0,0:0|0:0,0:0:0:0:
125,78,137311,6,0,P|181:69|270:50,1,120,6|0,1:2|0:0,0:0:0:0:
312,37,137650,1,8,0:0:0:0:
198,221,137820,2,0,P|165:188|167:148,1,80,0|0,0:0|1:2,0:0:0:0:
303,235,138159,5,10,3:0:0:0:
94,203,138328,1,0,1:2:0:0:
200,343,138498,1,10,3:0:0:0:
249,148,138667,1,6,3:0:0:0:
249,148,138752,1,4,3:0:0:0:
249,148,138837,1,4,1:2:0:0:
107,281,139006,6,0,P|101:242|94:203,1,80,2|10,1:2|0:0,0:0:0:0:
253,39,139345,2,0,B|297:32|325:66|325:66|354:103|392:96,1,160,4|0,1:2|1:2,0:0:0:0:
463,277,139854,2,0,P|420:272|393:234,1,80,8|2,0:0|1:2,0:0:0:0:
476,53,140193,5,2,1:2:0:0:
283,193,140362,1,2,0:0:0:0:
300,190,140447,1,0,0:0:0:0:
316,188,140532,2,0,L|374:177,1,40,8|0,0:0|0:0,0:0:0:0:
305,333,140701,5,6,1:2:0:0:
275,348,140786,1,2,0:0:0:0:
243,351,140870,1,2,0:0:0:0:
211,340,140955,1,2,0:0:0:0:
187,317,141040,1,2,1:2:0:0:
174,287,141125,1,2,0:0:0:0:
175,254,141209,1,8,0:0:0:0:
175,239,141294,1,2,0:0:0:0:
167,226,141379,1,4,3:0:0:0:
153,221,141464,1,4,3:0:0:0:
139,225,141548,6,1,L|215:209,1,75.9999979705811,6|0,1:2|0:0,0:0:0:0:
305,141,141887,2,1,L|379:156,1,75.9999979705811,0|0,1:2|0:0,0:0:0:0:
325,315,142226,6,1,P|315:280|297:232,1,75.9999979705811,2|0,1:2|0:0,0:0:0:0:
245,61,142565,2,1,P|235:96|217:144,1,75.9999979705811,0|2,1:2|0:0,0:0:0:0:
39,212,142904,6,1,P|65:192|106:192,1,75.9999979705811,2|2,1:2|0:0,0:0:0:0:
190,273,143243,2,1,P|159:260|139:224,1,75.9999979705811,0|0,1:2|0:0,0:0:0:0:
150,54,143582,2,1,P|154:86|133:122,1,75.9999979705811,0|2,1:2|0:0,0:0:0:0:
207,202,143921,2,0,L|321:182,1,113.999996955872,6|0,1:2|0:0,0:0:0:0:
382,149,144260,6,0,P|410:178|411:212,1,75.9999979705811,4|0,1:2|0:0,0:0:0:0:
327,67,144599,2,0,P|362:47|395:55,1,75.9999979705811,2|2,1:2|0:0,0:0:0:0:
233,98,144938,2,1,P|223:58|239:28,1,75.9999979705811,0|2,1:2|0:0,0:0:0:0:
238,197,145277,2,0,P|197:196|150:139,1,113.999996955872,4|0,1:2|0:0,0:0:0:0:
111,82,145616,6,1,P|73:98|39:106,2,75.9999979705811,0|0|0,1:2|0:0|1:2,0:0:0:0:
317,23,146125,1,2,0:0:0:0:
317,23,146209,1,2,0:0:0:0:
317,23,146294,2,1,P|346:51|345:86,1,75.9999979705811,2|0,1:2|0:0,0:0:0:0:
238,197,146633,5,2,1:2:0:0:
238,197,146718,1,2,0:0:0:0:
238,197,146803,1,2,0:0:0:0:
238,197,146887,1,2,0:0:0:0:
238,197,146972,2,0,L|344:179,1,75.9999979705811,6|0,1:2|0:0,0:0:0:0:
401,319,147311,2,0,L|295:301,1,75.9999979705811,0|0,1:2|0:0,0:0:0:0:
147,206,147650,6,1,P|118:233|125:279,1,75.9999979705811,2|0,1:2|0:0,0:0:0:0:
181,131,147989,2,1,P|172:92|128:75,1,75.9999979705811,0|2,1:2|0:0,0:0:0:0:
189,282,148328,6,1,P|229:272|263:265,1,75.9999979705811,2|2,1:2|0:0,0:0:0:0:
403,173,148667,2,1,P|440:180|477:190,1,75.9999979705811,0|0,1:2|0:0,0:0:0:0:
371,318,149006,6,1,P|344:286|336:248,1,75.9999979705811,0|2,1:2|0:0,0:0:0:0:
386,93,149345,2,0,P|380:53|355:25,1,75.9999979705811,6|2,1:2|0:0,0:0:0:0:
221,160,149684,6,0,L|309:144,1,75.9999979705811,2|0,1:2|0:0,0:0:0:0:
118,29,150023,2,0,P|95:57|97:97,1,75.9999979705811,6|2,1:2|0:0,0:0:0:0:
224,237,150362,5,8,0:0:0:0:
57,311,150532,1,10,0:0:0:0:
122,174,150701,1,8,3:0:0:0:
231,331,150870,6,0,B|277:353|277:353|336:352|346:289,1,151.999995941162,6|4,1:2|3:0,0:0:0:0:
224,237,151379,1,0,1:2:0:0:
383,170,151548,5,4,3:0:0:0:
408,177,151633,1,0,1:0:0:0:
433,184,151718,1,0,1:2:0:0:
326,77,151887,5,0,1:2:0:0:
434,270,152057,1,4,1:2:0:0:
213,127,152226,5,2,1:2:0:0:
213,127,152311,1,2,1:2:0:0:
213,127,152396,2,0,B|179:124|153:145|167:152|141:180|108:171,1,120,6|0,1:2|0:0,0:0:0:0:
71,160,152735,2,0,P|54:130|72:88,1,80,8|0,0:0|0:0,0:0:0:0:
251,235,153074,5,2,1:2:0:0:
65,279,153243,1,0,1:2:0:0:
251,354,153413,2,1,P|211:340|171:331,1,80,8|2,0:0|1:2,0:0:0:0:
301,176,153752,6,0,P|326:213|321:264,1,80,2|2,1:2|0:0,0:0:0:0:
164,169,154091,2,0,L|195:12,1,160,8|0,0:0|0:0,0:0:0:0:
255,116,154599,5,2,1:2:0:0:
87,210,154769,1,10,0:0:0:0:
223,308,154938,2,0,P|199:313|178:321,1,40,2|0,0:0|0:0,0:0:0:0:
56,277,155108,6,1,P|13:224|27:171,1,120,4|0,1:2|0:0,0:0:0:0:
79,133,155447,1,10,0:0:0:0:
293,239,155616,6,0,P|331:229|375:220,1,80,2|0,0:0|1:2,0:0:0:0:
223,308,155955,1,6,1:2:0:0:
334,143,156125,1,8,0:0:0:0:
216,320,156294,6,1,P|211:256|198:198,1,120,6|0,1:2|0:0,0:0:0:0:
181,132,156633,1,8,3:0:0:0:
123,268,156803,1,8,0:0:0:0:
370,220,156972,5,0,1:0:0:0:
370,220,157057,1,0,1:0:0:0:
370,220,157142,2,0,P|391:224|417:231,1,40,0|0,1:2|1:0,0:0:0:0:
512,92,157311,5,8,0:0:0:0:
489,65,157396,1,8,0:0:0:0:
458,53,157481,1,8,3:3:0:0:
425,56,157565,1,8,3:3:0:0:
397,72,157650,1,4,3:3:0:0:
380,101,157735,1,4,3:3:0:0:
377,134,157820,1,6,1:2:0:0:
505,268,157989,6,1,P|465:248|419:234,1,80,2|10,1:2|0:0,0:0:0:0:
254,313,158328,1,0,1:2:0:0:
306,136,158498,6,1,P|308:179|319:226,1,80,2|0,1:2|0:0,0:0:0:0:
472,330,158837,1,8,0:0:0:0:
292,373,159006,6,1,P|328:348|363:315,1,80,2|0,1:2|0:0,0:0:0:0:
505,268,159345,2,1,P|465:248|419:234,1,80,2|8,1:2|0:0,0:0:0:0:
306,136,159684,2,1,P|308:179|319:226,1,80,2|0,1:2|0:0,0:0:0:0:
472,330,160023,5,2,1:2:0:0:
254,313,160193,1,8,0:0:0:0:
377,134,160362,1,10,0:0:0:0:
377,134,160447,1,8,0:0:0:0:
377,134,160532,1,2,1:2:0:0:
166,60,160701,5,2,1:2:0:0:
166,60,160870,2,0,P|207:52|246:42,1,80,10|0,0:0|1:2,0:0:0:0:
98,168,161209,1,2,1:2:0:0:
202,229,161379,2,0,P|231:196|236:157,1,80,0|8,0:0|0:0,0:0:0:0:
33,243,161718,6,1,P|45:285|55:331,1,80,2|0,1:2|0:0,0:0:0:0:
181,303,162057,2,1,P|169:345|159:391,1,80,2|8,1:2|0:0,0:0:0:0:
98,168,162396,1,0,1:2:0:0:
277,278,162565,5,14,0:0:0:0:
365,116,162735,1,8,0:0:0:0:
365,116,162820,1,8,0:0:0:0:
365,116,162904,1,2,1:2:0:0:
187,220,163074,5,8,3:0:0:0:
187,220,163159,1,8,3:0:0:0:
187,220,163243,2,1,P|101:205|28:192,1,160,6|0,1:2|0:0,0:0:0:0:
0,65,163752,1,0,1:2:0:0:
81,34,163921,2,1,P|119:58|126:99,1,80,8|0,0:0|0:0,0:0:0:0:
51,275,164260,5,2,1:2:0:0:
51,275,164430,2,1,P|129:289|208:302,1,160,10|8,0:0|3:0,0:0:0:0:
352,205,164938,2,0,P|309:213|267:224,1,80,8|0,3:0|1:2,0:0:0:0:
431,254,165277,1,8,0:0:0:0:
270,145,165447,1,2,1:2:0:0:
357,333,165616,1,10,3:0:0:0:
400,96,165786,5,2,0:0:0:0:
400,96,165870,1,0,0:0:0:0:
400,96,165955,1,6,1:2:0:0:
321,83,166125,1,0,0:0:0:0:
243,69,166294,1,0,0:0:0:0:
369,19,166464,5,0,1:2:0:0:
321,83,166633,1,8,0:0:0:0:
270,145,166803,1,8,0:0:0:0:
293,8,166972,5,8,0:0:0:0:
321,83,167142,1,4,1:2:0:0:
349,158,167311,1,0,0:0:0:0:
243,69,167481,5,0,1:2:0:0:
321,83,167650,1,8,0:0:0:0:
400,96,167820,1,0,1:2:0:0:
270,145,167989,6,0,L|231:160,1,40,8|0,0:0|0:0,0:0:0:0:
19,111,168159,1,4,3:0:0:0:
23,78,168243,1,0,1:0:0:0:
39,49,168328,1,2,1:2:0:0:
64,28,168413,1,2,1:2:0:0:
96,17,168498,1,2,1:2:0:0:
129,19,168582,1,2,1:2:0:0:
159,34,168667,6,0,P|151:79|145:128,1,80,12|0,0:0|0:0,0:0:0:0:
303,269,169006,1,2,1:2:0:0:
89,326,169176,1,2,1:2:0:0:
270,145,169345,5,0,1:2:0:0:
213,360,169515,1,2,1:2:0:0:
56,203,169684,1,10,0:0:0:0:
303,269,169854,6,1,B|348:279|375:254|366:245|392:221|433:227,1,143.999995605469,14|0,0:2|0:0,0:0:0:0:
493,266,170193,6,0,P|504:240|499:204,1,55.9999982910157,8|0,0:0|0:0,0:0:0:0:
358,170,170362,2,1,P|373:192|408:206,1,55.9999982910157,12|0,0:0|1:0,0:0:0:0:
512,101,170532,2,1,P|484:103|455:126,1,55.9999982910157,8|8,0:0|0:0,0:0:0:0:
303,269,170701,5,2,1:2:0:0:
268,286,170786,1,8,3:0:0:0:
229,284,170870,1,8,3:0:0:0:
195,264,170955,1,8,3:0:0:0:
173,218,171040,1,6,3:0:0:0:
174,168,171125,1,4,3:0:0:0:
141,129,171209,1,8,0:0:0:0:
92,112,171294,1,8,0:0:0:0:
43,129,171379,6,1,B|99:156|152:123|129:118|169:85|223:91,1,192,6|0,1:2|0:0,0:0:0:0:
273,142,171718,2,1,P|320:129|333:88,1,95.9999970703126,14|0,0:0|0:0,0:0:0:0:
182,299,172057,5,2,1:2:0:0:
305,244,172226,1,0,1:2:0:0:
176,179,172396,5,10,0:0:0:0:
279,384,172565,1,0,1:2:0:0:
442,194,172735,6,1,P|431:237|421:299,1,95.9999970703126,2|0,1:2|0:0,0:0:0:0:
317,86,173074,2,0,P|349:52|401:52,1,95.9999970703126,8|0,0:0|0:0,0:0:0:0:
305,244,173413,2,1,P|264:213|202:189,1,95.9999970703126,2|0,1:2|1:2,0:0:0:0:
477,103,173752,1,10,0:0:0:0:
205,44,173921,5,2,0:0:0:0:
205,44,174006,1,2,0:0:0:0:
205,44,174091,2,0,B|148:63|148:63|126:53|126:53|70:71,1,143.999995605469,2|0,1:2|0:0,0:0:0:0:
26,134,174430,2,1,P|18:172|63:205,1,95.9999970703126,8|2,0:0|0:0,0:0:0:0:
291,147,174769,5,2,1:2:0:0:
223,356,174938,1,0,0:0:0:0:
382,287,175108,2,0,P|335:272|287:252,1,95.9999970703126,8|0,0:0|0:0,0:0:0:0:
145,301,175447,5,0,1:2:0:0:
303,134,175616,1,0,1:2:0:0:
109,28,175786,2,0,P|118:74|126:124,1,95.9999970703126,8|0,0:0|0:0,0:0:0:0:
29,286,176125,5,2,1:2:0:0:
234,205,176294,1,0,1:2:0:0:
310,350,176464,2,0,P|282:342|258:336,1,47.9999985351563,10|8,0:0|0:0,0:0:0:0:
114,217,176633,5,8,0:0:0:0:
114,217,176718,1,8,0:0:0:0:
114,217,176803,2,0,P|121:147|185:129,1,143.999995605469,6|0,1:2|0:0,0:0:0:0:
206,137,177142,2,0,B|158:145|144:102|141:110|127:75|82:77,1,143.999995605469,10|0,0:0|0:0,0:0:0:0:
19,119,177481,5,2,1:2:0:0:
221,9,177650,1,0,1:2:0:0:
250,265,177820,2,0,P|290:236|286:183,1,95.9999970703126,10|0,0:0|1:2,0:0:0:0:
144,197,178159,5,2,1:2:0:0:
179,328,178328,1,0,0:0:0:0:
308,362,178498,1,8,0:0:0:0:
403,267,178667,1,0,0:0:0:0:
403,267,178752,1,0,0:0:0:0:
403,267,178837,1,0,1:2:0:0:
238,102,179006,5,2,1:2:0:0:
179,328,179176,1,10,0:0:0:0:
368,137,179345,1,2,0:0:0:0:
144,197,179515,6,1,P|78:172|85:104,1,143.999995605469,6|0,1:2|0:0,0:0:0:0:
129,54,179854,1,10,0:0:0:0:
296,183,180023,1,2,1:2:0:0:
69,290,180193,1,8,0:0:0:0:
287,36,180362,5,10,0:0:0:0:
287,36,180447,1,8,0:0:0:0:
287,36,180532,2,0,L|280:89,1,47.9999985351563,8|0,0:0|0:0,0:0:0:0:
228,343,180701,6,1,P|220:271|208:196,1,143.999995605469,6|0,1:2|0:0,0:0:0:0:
195,129,181040,1,4,1:2:0:0:
329,372,181209,1,8,0:0:0:0:
143,317,181379,1,0,1:2:0:0:
403,243,181548,5,10,0:0:0:0:
372,213,181633,1,8,0:0:0:0:
331,202,181718,1,8,0:0:0:0:
290,212,181803,1,8,0:0:0:0:
245,239,181887,1,2,1:2:0:0:
194,254,181972,1,8,0:0:0:0:
142,243,182057,1,8,0:0:0:0:
102,211,182142,1,8,0:0:0:0:
81,163,182226,6,1,B|98:109|98:109|123:90|123:90|142:32,1,143.999995605469,6|0,1:2|0:0,0:0:0:0:
215,45,182565,2,1,B|239:20|274:24|274:24|245:34|235:47,1,95.9999970703126,10|0,0:0|0:0,0:0:0:0:
0,166,182904,5,2,1:2:0:0:
205,117,183074,1,0,1:2:0:0:
86,346,183243,2,0,P|58:298|70:254,1,95.9999970703126,10|0,0:0|0:0,0:0:0:0:
324,287,183582,6,1,B|263:300|227:250|245:241|211:210|156:217,1,191.999994140625,2|8,1:2|0:0,0:0:0:0:
255,370,184091,1,0,0:0:0:0:
398,218,184260,6,1,P|425:258|418:317,1,95.9999970703126,2|0,1:2|1:2,0:0:0:0:
185,335,184599,1,10,0:0:0:0:
323,115,184769,5,0,1:2:0:0:
323,115,184854,1,0,1:2:0:0:
323,115,184938,2,1,P|306:57|230:55,1,143.999995605469,2|0,1:2|0:0,0:0:0:0:
165,86,185277,2,1,B|140:85|112:65|112:65|133:89|152:90,1,95.9999970703126,8|2,0:0|0:0,0:0:0:0:
343,253,185616,5,2,1:2:0:0:
148,355,185786,1,0,1:2:0:0:
227,128,185955,5,8,0:0:0:0:
320,348,186125,1,0,0:0:0:0:
74,216,186294,5,4,1:2:0:0:
343,142,186464,1,0,1:2:0:0:
228,341,186633,1,8,0:0:0:0:
158,46,186803,2,0,P|96:42|76:118,1,143.999995605469,4|0,1:2|0:0,0:0:0:0:
131,151,187142,5,0,1:2:0:0:
434,63,187311,1,8,0:0:0:0:
411,55,187396,1,8,0:0:0:0:
388,48,187481,1,8,0:0:0:0:
365,41,187565,1,8,0:0:0:0:
341,34,187650,6,0,P|292:47|246:54,1,95.9999970703126,6|2,1:2|0:0,0:0:0:0:
367,229,187989,2,0,P|318:215|274:198,1,95.9999970703126,10|2,0:0|1:2,0:0:0:0:
25,241,188328,5,8,0:0:0:0:
218,130,188498,1,2,0:0:0:0:
244,349,188667,1,8,0:0:0:0:
47,126,188837,6,0,P|96:117|140:104,1,95.9999970703126,2|8,1:2|0:0,0:0:0:0:
279,277,189176,2,0,P|232:263|185:254,1,95.9999970703126,2|8,0:0|0:0,0:0:0:0:
370,52,189515,6,0,L|377:104,1,47.9999985351563,2|0,1:2|0:0,0:0:0:0:
397,262,189684,1,8,0:0:0:0:
137,183,189854,5,0,1:2:0:0:
137,183,189938,1,0,0:0:0:0:
137,183,190023,2,0,L|208:168,1,47.9999985351563,8|8,0:0|0:0,0:0:0:0:
305,201,190193,2,0,L|376:186,1,47.9999985351563,0|0,1:2|0:0,0:0:0:0:
464,235,190362,6,0,P|491:194|477:152,1,95.9999970703126,14|2,0:0|0:0,0:0:0:0:
215,86,190701,1,10,0:0:0:0:
377,28,190870,2,0,L|365:123,1,95.9999970703126,2|8,1:2|0:0,0:0:0:0:
241,346,191209,6,0,P|195:341|166:305,1,95.9999970703126,2|8,0:0|0:0,0:0:0:0:
0,173,191548,2,0,P|44:160|106:148,1,95.9999970703126,2|8,1:2|0:0,0:0:0:0:
318,203,191887,5,2,1:2:0:0:
154,40,192057,1,8,0:0:0:0:
102,264,192226,1,2,1:2:0:0:
287,95,192396,6,0,P|274:121|264:148,1,47.9999985351563,8|0,0:0|0:0,0:0:0:0:
332,335,192565,1,8,0:0:0:0:
366,352,192650,1,8,0:0:0:0:
405,346,192735,1,8,0:0:0:0:
432,318,192820,1,8,0:0:0:0:
437,278,192904,1,0,1:2:0:0:
418,244,192989,1,0,1:2:0:0:
382,229,193074,6,0,P|340:251|294:265,1,95.9999970703126,14|0,0:0|0:0,0:0:0:0:
73,173,193413,2,0,P|83:124|124:106,1,95.9999970703126,10|0,0:0|1:2,0:0:0:0:
240,332,193752,5,8,0:0:0:0:
360,124,193921,1,0,1:2:0:0:
155,315,194091,5,8,0:0:0:0:
312,51,194260,1,0,1:2:0:0:
311,332,194430,5,12,0:0:0:0:
191,124,194599,1,0,1:2:0:0:
396,315,194769,5,12,0:0:0:0:
239,51,194938,1,0,1:2:0:0:
65,244,195108,5,10,0:0:0:0:
100,272,195193,1,0,1:0:0:0:
144,279,195277,1,4,3:0:0:0:
186,261,195362,1,8,3:0:0:0:
210,217,195447,1,8,3:0:0:0:
251,188,195532,1,8,3:0:0:0:
300,186,195616,1,10,3:0:0:0:
348,205,195701,1,8,3:0:0:0:
372,248,195786,6,1,P|281:224|181:202,1,191.999994140625,6|0,1:2|0:0,0:0:0:0:
25,309,196294,1,0,1:2:0:0:
72,158,196464,2,0,P|105:122|149:122,1,95.9999970703126,8|0,0:0|0:0,0:0:0:0:
286,265,196803,5,0,1:2:0:0:
333,114,196972,1,8,0:0:0:0:
432,324,197142,5,0,1:2:0:0:
286,265,197311,2,0,P|334:254|380:241,1,95.9999970703126,8|0,3:0|0:0,0:0:0:0:
168,149,197650,5,0,1:2:0:0:
168,149,197735,1,0,1:0:0:0:
168,149,197820,2,1,P|138:156|117:163,1,47.9999985351563,8|8,0:0|0:0,0:0:0:0:
98,289,197989,1,8,0:0:0:0:
123,319,198074,1,8,0:0:0:0:
161,329,198159,1,2,1:2:0:0:
198,315,198243,1,8,0:0:0:0:
220,283,198328,1,8,0:0:0:0:
220,243,198413,1,8,0:0:0:0:
197,211,198498,6,0,P|126:203|51:185,1,143.999995605469,6|0,1:2|0:0,0:0:0:0:
0,232,198837,1,8,0:0:0:0:
230,32,199006,6,1,B|269:26|298:57|285:65|313:87|359:82,1,143.999995605469,6|0,1:2|0:0,0:0:0:0:
424,52,199345,1,2,1:2:0:0:
329,335,199515,6,0,B|314:284|314:284|322:250|322:250|304:185,1,143.999995605469,14|0,0:0|0:0,0:0:0:0:
237,174,199854,1,0,1:2:0:0:
431,267,200023,5,8,0:0:0:0:
463,258,200108,1,0,1:2:0:0:
495,247,200193,1,0,1:2:0:0:
294,114,200362,5,8,0:0:0:0:
262,105,200447,1,0,0:0:0:0:
230,94,200532,2,0,L|186:116,6,32,2|0|0|0|2|0|0,1:2|0:0|1:0|0:0|1:2|0:0|1:0,0:0:0:0:
306,37,200870,5,8,1:2:0:0:
353,58,200955,1,8,0:0:0:0:
370,106,201040,1,8,0:0:0:0:
362,156,201125,1,8,0:0:0:0:
321,192,201209,6,1,L|180:156,1,132.00000402832,6|0,1:2|0:0,0:0:0:0:
125,185,201548,1,8,0:0:0:0:
217,370,201718,6,0,P|223:333|234:279,1,88.000002685547,2|8,1:2|0:0,0:0:0:0:
54,205,202057,2,0,P|23:214|-1:222,2,44.0000013427735,2|2|8,0:0|0:0|0:0,0:0:0:0:
260,134,202396,6,0,P|174:119|87:98,1,176.000005371094,6|0,1:2|1:2,0:0:0:0:
294,48,202904,1,8,0:0:0:0:
355,215,203074,5,8,3:0:0:0:
361,194,203159,1,8,3:0:0:0:
368,173,203243,1,0,1:2:0:0:
455,318,203413,5,2,0:0:0:0:
431,335,203498,1,8,0:0:0:0:
403,342,203582,1,2,1:2:0:0:
374,339,203667,1,4,3:0:0:0:
348,326,203752,1,10,3:0:0:0:
328,305,203837,1,8,3:0:0:0:
318,279,203921,6,0,P|309:211|293:132,1,132.00000402832,6|0,1:2|0:0,0:0:0:0:
248,98,204260,1,8,0:0:0:0:
459,123,204430,6,0,P|415:138|365:153,1,88.000002685547,2|8,1:2|0:0,0:0:0:0:
191,46,204769,2,0,L|169:-28,2,44.0000013427735,2|8|8,0:0|0:0|0:0,0:0:0:0:
93,254,205108,6,0,P|167:246|186:155,1,176.000005371094,6|6,1:2|1:2,0:0:0:0:
27,206,205616,1,8,0:0:0:0:
148,372,205786,5,8,3:0:0:0:
154,350,205870,1,8,3:0:0:0:
160,329,205955,1,0,1:2:0:0:
42,85,206125,6,1,L|97:97,1,44.0000013427735,2|2,0:0|0:0,0:0:0:0:
144,148,206294,2,1,L|199:160,1,44.0000013427735,2|2,1:2|0:0,0:0:0:0:
238,219,206464,2,1,L|293:231,1,44.0000013427735,6|4,3:0|3:0,0:0:0:0:
337,285,206633,6,0,P|401:289|429:230,1,132.00000402832,6|0,1:2|0:0,0:0:0:0:
385,175,206972,2,0,B|369:151|365:124|365:124|358:146|366:164,1,88.000002685547,10|2,0:0|0:0,0:0:0:0:
450,37,207311,5,2,1:2:0:0:
300,88,207481,1,2,1:2:0:0:
474,29,207650,1,8,0:0:0:0:
275,101,207820,6,0,L|143:73,1,132.00000402832,2|0,1:2|0:0,0:0:0:0:
79,103,208159,1,2,1:2:0:0:
244,18,208328,1,10,0:0:0:0:
148,237,208498,5,2,1:2:0:0:
148,237,208582,1,2,1:2:0:0:
148,237,208667,2,0,P|125:201|147:160,1,88.000002685547,2|2,1:2|1:2,0:0:0:0:
216,172,208921,1,2,0:0:0:0:
216,172,209006,2,0,L|266:198,1,44.0000013427735,10|0,0:0|1:0,0:0:0:0:
330,232,209176,2,0,L|369:252,1,44.0000013427735,2|0,0:0|1:0,0:0:0:0:
443,293,209345,6,1,P|490:266|478:196,1,132.00000402832,2|0,1:2|0:0,0:0:0:0:
444,135,209684,2,1,P|398:152|355:160,1,88.000002685547,10|2,0:0|0:0,0:0:0:0:
183,100,210023,5,2,1:2:0:0:
293,310,210193,1,2,1:2:0:0:
343,88,210362,1,10,0:0:0:0:
147,264,210532,6,1,B|107:271|72:250|89:239|57:216|26:225,1,132.00000402832,6|0,1:2|0:0,0:0:0:0:
5,156,210870,2,0,P|41:150|91:163,1,88.000002685547,2|10,1:2|0:0,0:0:0:0:
291,377,211209,6,1,P|348:354|359:288,1,132.00000402832,6|0,1:2|0:0,0:0:0:0:
327,222,211548,2,0,P|300:232|284:236,1,44.0000013427735,2|0,1:2|0:0,0:0:0:0:
176,115,211718,2,0,P|239:133|313:146,1,132.00000402832,10|0,0:0|0:0,0:0:0:0:
376,147,212057,5,10,0:0:0:0:
211,208,212226,1,10,0:0:0:0:
276,372,212396,1,10,0:0:0:0:
441,311,212565,1,10,0:0:0:0:
64,227,212904,5,10,0:0:0:0:
421,76,213243,6,0,B|370:65|333:98|346:114|310:143|264:132,1,176.000005371094,14|2,0:0|0:0,0:0:0:0:
187,93,213667,1,2,0:0:0:0:
178,81,213752,2,0,P|192:37|234:25,1,88.000002685547,4|4,3:0|3:0,0:0:0:0:
340,200,214091,5,8,3:0:0:0:
115,281,214260,1,8,3:0:0:0:
245,372,214430,2,0,P|282:318|266:251,1,132.00000402832,4|0,3:0|0:0,0:0:0:0:
199,250,214769,5,6,1:2:0:0:
364,189,214938,1,10,3:0:0:0:
299,25,215108,1,10,0:0:0:0:
134,86,215277,1,10,0:0:0:0:
465,207,215616,5,14,0:0:0:0:
81,334,215955,6,0,B|132:345|169:312|156:296|192:267|238:278,1,176.000005371094,14|4,0:0|3:0,0:0:0:0:
419,372,216464,2,0,P|452:346|452:299,1,88.000002685547,10|8,0:0|1:2,0:0:0:0:
393,246,216718,1,8,0:0:0:0:
380,238,216803,6,0,L|330:251,1,44.0000013427735,10|8,0:0|0:0,0:0:0:0:
283,335,216972,2,1,L|333:322,1,44.0000013427735,8|8,3:0|3:0,0:0:0:0:
222,216,217142,6,0,L|235:266,1,44.0000013427735,10|4,3:0|3:0,0:0:0:0:
326,164,217311,2,1,L|283:152,1,44.0000013427735,4|4,3:0|3:0,0:0:0:0:
176,89,217481,6,0,L|4:128,1,176.000005371094,6|0,1:2|0:0,0:0:0:0:
103,202,217989,1,0,1:2:0:0:
219,22,218159,5,10,0:0:0:0:
311,73,218328,1,10,0:0:0:0:
402,128,218498,1,10,0:0:0:0:
290,276,218667,6,0,P|226:224|235:186,1,132.00000402832,6|0,1:2|0:0,0:0:0:0:
305,187,219006,1,8,0:0:0:0:
134,297,219176,1,2,1:2:0:0:
374,234,219345,5,4,3:0:0:0:
393,223,219430,1,4,3:0:0:0:
413,213,219515,2,1,L|505:235,2,88.000002685547,0|8|2,1:2|3:0|1:2,0:0:0:0:
227,106,220023,1,0,0:0:0:0:
259,345,220193,6,0,L|273:297,1,44.0000013427735,10|2,0:0|0:0,0:0:0:0:
225,203,220362,2,1,L|254:328,1,88.000002685547,10|0,0:0|0:0,0:0:0:0:
412,107,220701,6,0,L|363:118,1,44.0000013427735,10|2,0:0|0:0,0:0:0:0:
306,207,220870,2,1,L|399:119,1,88.000002685547,10|0,0:0|0:0,0:0:0:0:
130,91,221209,6,0,L|164:127,1,44.0000013427735,10|2,0:0|0:0,0:0:0:0:
269,132,221379,2,1,L|146:94,1,88.000002685547,10|0,0:0|0:0,0:0:0:0:
130,91,222565,6,0,P|125:48|133:90,1,132.00000402832,4|0,3:0|0:0,0:0:0:0:
51,173,222904,6,0,L|95:161,1,44.0000013427735,10|2,0:0|0:0,0:0:0:0:
132,237,223074,2,0,L|219:254,1,88.000002685547,10|0,0:0|0:0,0:0:0:0:
374,23,223413,6,0,L|363:68,1,44.0000013427735,10|2,0:0|0:0,0:0:0:0:
279,62,223582,2,0,L|220:128,1,88.000002685547,10|0,0:0|0:0,0:0:0:0:
342,379,223921,6,0,L|309:346,1,44.0000013427735,10|2,0:0|0:0,0:0:0:0:
356,276,224091,2,0,L|328:193,1,88.000002685547,10|0,0:0|0:0,0:0:0:0:
279,62,224938,6,0,L|267:110,1,44.0000013427735,4|0,1:2|1:0,0:0:0:0:
182,224,225108,1,10,1:2:0:0:
152,221,225193,1,8,0:0:0:0:
127,207,225277,1,8,0:2:0:0:
109,184,225362,1,8,0:2:0:0:
103,156,225447,1,8,0:2:0:0:
108,127,225532,1,8,0:2:0:0:
125,103,225616,5,6,1:2:0:0:
54,284,225786,1,0,1:2:0:0:
284,198,225955,1,10,0:0:0:0:
230,384,226125,6,0,P|172:358|173:282,1,132.00000402832,6|0,1:2|0:0,0:0:0:0:
227,262,226464,1,10,0:0:0:0:
47,172,226633,1,10,0:0:0:0:
336,91,226803,1,4,1:2:0:0:
47,172,227142,6,0,L|97:195,1,44.0000013427735,10|2,0:0|0:0,0:0:0:0:
126,87,227311,2,0,L|151:134,1,44.0000013427735,10|2,0:0|0:0,0:0:0:0:
232,54,227481,2,0,L|230:103,1,44.0000013427735,10|2,0:0|0:0,0:0:0:0:
88,281,227650,6,0,L|48:297,6,23.9999992675781,10|0|0|0|4|0|4,0:0|0:0|1:2|0:0|3:0|0:0|3:0,0:0:0:0:
170,253,227989,5,10,0:0:0:0:
187,256,228074,1,8,0:0:0:0:
205,260,228159,1,8,0:0:0:0:
222,263,228243,1,8,0:0:0:0:
240,267,228328,6,0,L|305:251,1,64,10|0,0:0|1:0,0:0:0:0:
314,254,228540,2,0,L|341:258,1,16,0|0,0:0|1:2,0:0:0:0:
426,282,228667,6,1,B|354:275|356:217|343:230|341:178|280:170,1,192,14|0,0:0|0:0,0:0:0:0:
210,188,229006,2,0,P|179:144|189:98,1,103.999995239258,2|0,1:2|0:0,0:0:0:0:
408,0,229345,2,0,P|398:49|387:104,1,103.999995239258,10|0,0:0|0:0,0:0:0:0:
418,360,229684,5,2,1:2:0:0:
258,284,229854,1,0,0:0:0:0:
497,215,230023,2,0,P|472:173|414:171,1,103.999995239258,8|0,0:0|0:0,0:0:0:0:
255,369,230362,6,0,B|216:375|188:335|188:335|155:307|115:323,1,155.999992858887,2|0,1:2|0:0,0:0:0:0:
53,364,230701,1,10,0:0:0:0:
145,79,230870,5,4,3:0:0:0:
145,79,230955,1,6,3:0:0:0:
145,79,231040,2,0,P|169:150|188:232,1,155.999992858887,6|0,1:2|0:0,0:0:0:0:
235,292,231379,2,0,B|260:272|271:241|271:241|268:272|254:289,1,103.999995239258,8|2,0:0|0:0,0:0:0:0:
0,204,231718,6,0,P|49:189|101:175,1,103.999995239258,2|0,1:2|0:0,0:0:0:0:
293,62,232057,2,1,P|259:25|208:29,1,103.999995239258,8|0,0:0|0:0,0:0:0:0:
110,259,232396,5,4,1:2:0:0:
304,138,232565,1,0,1:2:0:0:
118,43,232735,1,8,0:0:0:0:
284,281,232904,5,4,3:0:0:0:
284,281,232989,1,4,3:0:0:0:
284,281,233074,2,1,L|294:208,1,51.999997619629,2|4,1:2|3:0,0:0:0:0:
441,77,233243,5,4,3:0:0:0:
440,111,233328,1,4,3:0:0:0:
424,141,233413,1,2,1:2:0:0:
397,162,233498,1,4,3:0:0:0:
363,169,233582,1,4,3:0:0:0:
330,160,233667,1,8,3:0:0:0:
304,138,233752,6,1,L|319:30,1,103.999995239258,6|0,1:2|0:0,0:0:0:0:
205,222,234091,2,0,P|150:204|119:167,1,103.999995239258,10|0,0:0|0:0,0:0:0:0:
172,22,234430,5,2,1:2:0:0:
11,238,234599,1,0,0:0:0:0:
192,102,234769,5,10,0:0:0:0:
15,153,234938,1,0,0:0:0:0:
264,306,235108,6,0,P|296:255|285:203,1,103.999995239258,2|0,1:2|0:0,0:0:0:0:
97,90,235447,1,8,0:0:0:0:
318,33,235616,2,0,P|346:40|378:50,2,51.999997619629,2|2|0,0:0|0:0|1:2,0:0:0:0:
150,246,235955,5,2,0:0:0:0:
216,0,236125,1,10,0:0:0:0:
353,149,236294,1,2,0:0:0:0:
83,186,236464,6,0,P|126:127|212:138,1,155.999992858887,6|0,1:2|0:0,0:0:0:0:
240,194,236803,2,0,B|266:217|268:252|268:252|277:218|264:202,1,103.999995239258,10|2,0:0|1:2,0:0:0:0:
24,58,237142,1,8,0:0:0:0:
184,350,237311,5,2,0:0:0:0:
184,350,237396,1,8,0:0:0:0:
184,350,237481,2,0,L|202:299,1,51.999997619629,8|0,0:0|0:0,0:0:0:0:
322,107,237650,6,0,P|242:82|205:165,1,155.999992858887,6|0,1:2|0:0,0:0:0:0:
240,194,237989,6,0,L|289:209,1,51.999997619629,4|0,1:2|0:0,0:0:0:0:
368,203,238159,2,0,L|319:188,1,51.999997619629,8|0,0:0|0:0,0:0:0:0:
39,127,238328,5,8,3:0:0:0:
39,127,238413,1,8,3:0:0:0:
39,127,238498,2,1,L|88:112,1,51.999997619629,6|0,1:2|1:2,0:0:0:0:
190,209,238667,5,8,0:0:0:0:
190,209,238752,1,8,0:0:0:0:
190,209,238837,2,0,L|239:194,1,51.999997619629,10|8,1:2|0:0,0:0:0:0:
343,290,239006,5,4,3:0:0:0:
343,290,239091,1,4,3:0:0:0:
343,290,239176,2,0,B|405:272|405:272|442:231|404:187,1,155.999992858887,6|0,1:2|0:0,0:0:0:0:
344,146,239515,2,0,P|351:98|401:84,1,103.999995239258,10|0,0:2|0:0,0:0:0:0:
490,259,239854,5,2,1:2:0:0:
263,189,240023,1,0,1:2:0:0:
503,264,240193,5,10,0:2:0:0:
306,356,240362,1,0,1:2:0:0:
454,133,240532,1,14,0:2:0:0:
218,70,240701,5,8,0:2:0:0:
234,36,240786,1,8,0:2:0:0:
265,19,240870,1,8,0:2:0:0:
302,19,240955,1,8,0:2:0:0:
334,36,241040,1,8,0:2:0:0:
351,68,241125,1,8,0:2:0:0:
350,103,241209,2,1,P|343:127|318:150,1,51.999997619629,2|0,1:2|1:0,0:0:0:0:
119,162,241379,5,8,0:2:0:0:
163,137,241464,1,8,0:2:0:0:
214,145,241548,1,10,0:2:0:0:
249,183,241633,1,8,0:2:0:0:
283,221,241718,1,8,0:2:0:0:
334,229,241803,1,10,0:2:0:0:
379,205,241887,2,0,P|400:190|413:163,1,51.999997619629,2|0,0:0|0:0,0:0:0:0:
281,88,242057,6,0,P|196:117|109:137,1,180.000006866455,4|0,1:2|0:0,0:0:0:0:
48,87,242396,2,0,P|54:58|85:31,1,60.0000022888184,2|0,0:0|0:0,0:0:0:0:
182,217,242565,5,6,1:2:0:0:
240,17,242735,1,0,0:0:0:0:
38,165,242904,1,0,0:0:0:0:
210,333,243074,6,0,P|161:318|98:308,1,103.999995239258,4|0,1:2|0:0,0:0:0:0:
360,206,243413,1,8,3:3:0:0:
306,352,243582,1,8,0:0:0:0:
389,111,243752,5,4,3:0:0:0:
364,116,243837,1,4,3:0:0:0:
339,121,243921,1,4,3:0:0:0:
494,196,244091,1,4,1:2:0:0:
283,245,244260,5,8,0:0:0:0:
248,233,244345,1,8,0:0:0:0:
213,222,244430,1,8,3:0:0:0:
179,211,244515,1,8,3:0:0:0:
144,201,244599,6,0,P|91:215|43:228,1,103.999995239258,6|2,1:2|0:0,0:0:0:0:
119,45,244938,2,0,P|176:36|212:72,1,103.999995239258,10|2,0:0|1:2,0:0:0:0:
115,307,245277,5,8,0:0:0:0:
72,124,245447,1,2,1:2:0:0:
198,350,245616,5,8,0:0:0:0:
266,120,245786,1,2,1:2:0:0:
266,120,245870,1,0,1:2:0:0:
266,120,245955,1,12,0:0:0:0:
92,212,246125,5,2,1:2:0:0:
333,276,246294,2,0,P|367:247|357:191,1,103.999995239258,8|2,0:0|1:2,0:0:0:0:
177,52,246633,5,8,0:0:0:0:
221,277,246803,1,0,1:2:0:0:
1,160,246972,2,0,P|49:144|101:132,1,103.999995239258,8|0,0:0|1:2,0:0:0:0:
438,244,247311,5,14,0:0:0:0:
287,336,247481,1,2,1:2:0:0:
199,184,247650,1,10,0:0:0:0:
349,92,247820,2,0,P|333:144|319:214,1,103.999995239258,2|8,1:2|0:0,0:0:0:0:
468,351,248159,5,6,1:2:0:0:
199,282,248328,1,8,0:0:0:0:
404,179,248498,6,0,P|459:195|472:238,1,103.999995239258,10|8,3:0|0:0,0:0:0:0:
298,384,248837,2,0,P|251:370|196:357,1,103.999995239258,2|8,1:2|0:0,0:0:0:0:
266,128,249176,5,6,1:2:0:0:
266,128,249260,1,0,0:0:0:0:
266,128,249345,2,0,P|285:174|304:227,1,103.999995239258,8|0,0:0|1:2,0:0:0:0:
76,97,249684,2,0,P|116:45|153:37,1,103.999995239258,8|4,0:0|3:0,0:0:0:0:
122,227,250023,6,0,P|67:215|13:207,1,103.999995239258,6|2,1:2|0:0,0:0:0:0:
244,39,250362,5,10,0:0:0:0:
202,179,250532,1,0,1:2:0:0:
314,379,250701,5,8,0:0:0:0:
272,240,250870,1,0,1:2:0:0:
432,102,251040,5,8,0:0:0:0:
293,144,251209,1,0,1:2:0:0:
293,144,251294,1,0,1:2:0:0:
293,144,251379,1,12,0:0:0:0:
469,234,251548,5,0,1:2:0:0:
243,323,251718,2,0,P|204:294|190:239,1,103.999995239258,8|0,0:0|1:2,0:0:0:0:
297,28,252057,1,10,0:0:0:0:
376,231,252226,5,8,0:0:0:0:
334,245,252311,1,8,0:0:0:0:
292,232,252396,1,0,1:2:0:0:
260,201,252481,1,8,3:0:0:0:
225,173,252565,1,4,3:0:0:0:
182,163,252650,1,4,3:0:0:0:
140,176,252735,6,0,B|71:197|22:179|22:179|68:196|113:218,1,207.999990478516,6|0,1:2|0:0,0:0:0:0:
278,308,253243,1,0,1:2:0:0:
171,384,253413,2,0,P|126:350|132:305,1,103.999995239258,8|8,0:0|0:0,0:0:0:0:
346,340,253752,5,0,1:2:0:0:
216,274,253921,1,8,3:0:0:0:
349,173,254091,1,0,1:2:0:0:
201,269,254260,6,0,P|144:251|76:232,1,103.999995239258,8|0,3:0|0:0,0:0:0:0:
245,155,254599,1,0,1:2:0:0:
283,378,254769,1,8,0:0:0:0:
412,216,254938,5,8,0:0:0:0:
422,181,255023,1,8,0:0:0:0:
416,144,255108,1,2,1:2:0:0:
394,114,255193,1,4,3:0:0:0:
360,101,255277,1,8,3:0:0:0:
323,105,255362,1,4,3:0:0:0:
293,126,255447,6,0,P|304:200|315:290,1,155.999992858887,6|0,1:2|0:0,0:0:0:0:
253,320,255786,1,8,0:0:0:0:
50,78,255955,6,0,B|96:71|131:101|113:111|146:142|194:128,1,155.999992858887,6|0,1:2|0:0,0:0:0:0:
237,69,256294,1,2,1:2:0:0:
422,314,256464,6,0,B|388:355|340:337|340:337|334:299|300:265,1,155.999992858887,14|0,0:0|0:0,0:0:0:0:
252,245,256803,1,0,1:2:0:0:
462,133,256972,5,0,1:2:0:0:
315,209,257142,1,8,0:0:0:0:
493,264,257311,1,8,0:0:0:0:
240,108,257481,6,0,L|212:118,6,25.9999988098145,10|0|0|0|8|0|8,0:0|0:0|1:0|0:0|0:0|0:0|0:0,0:0:0:0:
327,122,257820,5,8,0:0:0:0:
352,162,257904,1,8,0:0:0:0:
356,209,257989,1,8,0:0:0:0:
332,249,258074,1,8,0:0:0:0:
287,267,258159,6,0,P|246:254|201:243,1,88.000002685547,6|2,1:2|0:0,0:0:0:0:
42,168,258498,2,0,P|84:157|126:144,1,88.000002685547,10|2,0:0|0:0,0:0:0:0:
347,346,258837,5,2,1:2:0:0:
277,186,259006,1,2,1:2:0:0:
110,332,259176,2,0,P|76:295|74:246,1,88.000002685547,8|2,0:0|0:0,0:0:0:0:
205,83,259515,6,0,P|159:71|121:56,2,88.000002685547,0|2|10,1:2|1:2|0:0,0:0:0:0:
437,210,260023,2,0,B|377:200|354:241|354:228|336:277|278:267,1,176.000005371094,2|2,1:2|1:2,0:0:0:0:
147,176,260532,1,10,0:0:0:0:
317,49,260701,5,2,1:2:0:0:
314,79,260786,1,0,1:0:0:0:
311,109,260870,1,6,1:2:0:0:
246,1,261040,5,2,1:2:0:0:
379,168,261209,1,10,0:0:0:0:
147,176,261379,6,0,P|172:133|248:146,1,132.00000402832,6|0,1:2|0:0,0:0:0:0:
243,218,261718,6,0,P|230:228|212:252,2,44.0000013427735,2|0|10,1:2|0:0|0:0,0:0:0:0:
442,153,262057,6,0,L|313:183,1,132.00000402832,6|0,1:2|0:0,0:0:0:0:
306,256,262396,1,2,1:2:0:0:
193,48,262565,1,10,0:0:0:0:
117,197,262735,5,10,0:0:0:0:
117,197,262820,1,8,0:0:0:0:
117,197,262904,1,0,1:2:0:0:
314,97,263074,1,8,0:0:0:0:
202,336,263243,1,8,0:0:0:0:
32,181,263413,5,4,3:0:0:0:
32,181,263498,1,4,3:0:0:0:
32,181,263582,2,0,P|55:135|112:112,1,88.000002685547,6|2,1:2|0:0,0:0:0:0:
188,331,263921,2,0,P|145:322|100:316,1,88.000002685547,10|2,0:0|0:0,0:0:0:0:
322,169,264260,5,2,1:2:0:0:
162,244,264430,1,2,1:2:0:0:
314,363,264599,2,0,P|346:327|341:281,1,88.000002685547,10|2,0:0|0:0,0:0:0:0:
216,100,264938,5,0,1:2:0:0:
258,290,265108,1,2,1:2:0:0:
420,185,265277,1,10,0:0:0:0:
162,244,265447,6,0,B|105:252|62:291|62:291|70:258|93:236,1,176.000005371094,2|2,1:2|1:2,0:0:0:0:
382,270,265955,1,10,0:0:0:0:
285,92,266125,5,2,1:2:0:0:
290,121,266209,1,0,1:0:0:0:
296,151,266294,1,6,1:2:0:0:
351,37,266464,5,2,1:2:0:0:
233,215,266633,1,10,0:0:0:0:
462,263,266803,6,0,B|419:263|407:234|407:239|396:209|347:209,1,132.00000402832,6|0,1:2|0:0,0:0:0:0:
294,258,267142,6,0,P|304:268|321:298,2,44.0000013427735,2|0|10,1:2|0:0|0:0,0:0:0:0:
104,184,267481,6,0,L|239:216,1,132.00000402832,6|0,1:2|0:0,0:0:0:0:
288,165,267820,5,0,1:2:0:0:
288,165,267904,1,0,0:0:0:0:
288,165,267989,2,0,L|272:113,1,44.0000013427735,8|0,0:0|0:0,0:0:0:0:
249,42,268159,5,4,3:0:0:0:
249,42,268243,1,4,3:0:0:0:
249,42,268328,2,0,L|233:-10,1,44.0000013427735,0|0,1:2|1:0,0:0:0:0:
63,18,268498,5,0,1:0:0:0:
49,43,268582,1,0,1:0:0:0:
48,72,268667,1,0,1:2:0:0:
61,98,268752,1,8,3:0:0:0:
84,115,268837,1,8,3:0:0:0:
113,120,268921,1,8,3:0:0:0:
140,111,269006,6,0,L|181:97,1,44.0000013427735,6|0,1:2|0:0,0:0:0:0:
275,122,269176,2,0,L|371:136,1,88.000002685547,2|8,0:0|0:0,0:0:0:0:
203,246,269515,5,2,0:0:0:0:
203,246,269599,1,8,3:0:0:0:
203,246,269684,1,2,1:2:0:0:
324,56,269854,1,0,1:2:0:0:
434,215,270023,6,0,L|421:272,1,44.0000013427735,10|2,0:0|0:0,0:0:0:0:
360,332,270193,2,0,P|331:296|331:246,1,88.000002685547,2|0,1:2|1:2,0:0:0:0:
420,85,270532,5,2,1:2:0:0:
224,161,270701,1,10,0:0:0:0:
30,244,270870,1,4,3:0:0:0:
30,244,270955,1,8,3:0:0:0:
30,244,271040,2,0,P|41:198|48:153,1,88.000002685547,2|0,1:2|1:2,0:0:0:0:
127,345,271379,2,0,P|172:350|206:316,1,88.000002685547,10|0,0:0|0:0,0:0:0:0:
308,141,271718,6,0,L|244:156,1,44.0000013427735,6|0,1:2|0:0,0:0:0:0:
196,231,271887,2,0,L|99:207,1,88.000002685547,2|8,0:0|0:0,0:0:0:0:
286,48,272226,5,10,3:0:0:0:
286,48,272311,1,0,0:0:0:0:
286,48,272396,1,2,1:2:0:0:
333,253,272565,1,0,1:2:0:0:
85,133,272735,6,0,L|96:88,1,44.0000013427735,10|0,0:0|0:0,0:0:0:0:
170,16,272904,2,0,P|199:50|200:102,1,88.000002685547,2|12,1:2|0:0,0:0:0:0:
30,244,273243,5,6,3:0:0:0:
29,253,273328,1,4,3:0:0:0:
44,285,273413,1,2,1:2:0:0:
74,304,273498,1,0,1:0:0:0:
108,309,273582,1,4,3:0:0:0:
143,303,273667,1,4,3:0:0:0:
177,275,273752,1,2,1:2:0:0:
191,233,273837,1,0,1:0:0:0:
221,201,273921,1,4,3:0:0:0:
264,192,274006,1,8,3:0:0:0:
310,208,274091,1,2,1:2:0:0:
329,238,274176,1,8,3:0:0:0:
328,264,274260,1,8,3:0:0:0:
317,278,274345,1,4,3:0:0:0:
305,283,274430,6,0,P|251:268|173:253,1,128,6|2,1:2|0:0,0:0:0:0:
50,182,274938,6,0,P|79:171|123:163,1,64,2|0,0:0|0:0,0:0:0:0:
111,83,275277,2,0,P|140:94|184:102,1,64,2|0,0:0|0:0,0:0:0:0:
192,182,275616,2,1,B|225:146|274:143|274:143|307:182|362:182,1,192,2|0,0:0|0:0,0:0:0:0:
371,51,276464,6,0,P|340:59|377:55,1,128,2|2,0:0|0:0,0:0:0:0:
259,38,276972,2,0,P|252:82|298:164,1,128,2|2,0:0|0:0,0:0:0:0:
397,207,277481,2,1,B|342:155|263:188|298:212|196:258|125:180|125:180|167:211|214:188,1,384,2|0,0:0|0:0,0:0:0:0:
10,87,278837,5,2,0:0:0:0:
10,87,279006,2,0,P|51:66|107:68,1,95.9999970703126,2|2,0:0|0:0,0:0:0:0:
188,214,279515,6,1,B|172:263|172:263|113:185|113:185|27:189|27:189|81:111|81:111|49:30|49:30|140:60|140:60|209:5|209:5|208:101|208:101|283:150|283:150|206:173|206:173|237:237|301:248|334:201|335:223|350:154|413:134|461:172|461:172|395:165|372:216|372:216|388:226|397:246|397:246|363:274|369:344|436:366|499:337|493:281|475:250,1,1535.999953125,2|0,0:0|0:0,0:0:0:0:
