osu file format v14

[General]
AudioFilename: audio.mp3
AudioLeadIn: 0
PreviewTime: 72904
Countdown: 0
SampleSet: Soft
StackLeniency: 0.4
Mode: 0
LetterboxInBreaks: 0
WidescreenStoryboard: 1

[Editor]
DistanceSpacing: 1.4
BeatDivisor: 4
GridSize: 32
TimelineZoom: 1.8

[Metadata]
Title:Lucky Clover
TitleUnicode:Lucky Clover
Artist:Inori Minase
ArtistUnicode:水瀬いのり
Creator:Sekai
Version:AsuKo's Insane
Source:
Tags:いのりん inorin innocent flower 1st first album Vocals j-pop jpop japanese pop female vocalist sekaii sekai-nyan pnky litoluna otudou -karUpA- grazuko asukow
BeatmapID:3658338
BeatmapSetID:1785922

[Difficulty]
HPDrainRate:5
CircleSize:4.2
OverallDifficulty:7.5
ApproachRate:9
SliderMultiplier:1.6
SliderTickRate:1

[Events]
//Background and Video events
0,0,"L.jpg",0,0
//Break Periods
2,44121,52135
2,120054,124338
2,141748,149762
//Storyboard Layer 0 (Background)
//Storyboard Layer 1 (Fail)
//Storyboard Layer 2 (Pass)
//Storyboard Layer 3 (Foreground)
//Storyboard Layer 4 (Overlay)
//Storyboard Sound Samples

[TimingPoints]
532,338.983050847458,4,2,1,60,1,0
532,-142.857142857143,4,2,1,60,0,0
5955,-100,4,2,1,60,0,0
11294,-100,4,2,1,60,0,0
11379,-100,4,2,1,60,0,0
22226,-125,4,2,1,60,0,0
26887,-125,4,2,1,60,0,0
26972,-125,4,2,1,60,0,0
33074,-111.111111111111,4,2,1,60,0,0
36040,-111.111111111111,4,2,1,60,0,0
36125,-111.111111111111,4,2,1,60,0,0
41464,-111.111111111111,4,2,1,60,0,0
41548,-111.111111111111,4,2,1,60,0,0
43921,-142.857142857143,4,2,1,60,0,0
53243,-100,4,2,1,60,0,0
54769,-111.111111111111,4,2,1,60,0,0
55023,-111.111111111111,4,2,1,60,0,0
55108,-111.111111111111,4,2,1,60,0,0
65616,-125,4,2,1,60,0,0
68328,-142.857142857143,4,2,1,60,0,0
70532,-111.111111111111,4,2,1,60,0,0
71040,-100,4,2,1,60,0,0
73074,-166.666666666667,4,2,1,50,0,0
73752,-166.666666666667,4,2,1,60,0,0
74091,-83.3333333333333,4,2,1,60,0,0
74345,-83.3333333333333,4,2,1,60,0,0
74430,-83.3333333333333,4,2,1,60,0,0
77735,-83.3333333333333,4,2,1,60,0,0
77820,-83.3333333333333,4,2,1,60,0,0
84854,-83.3333333333333,4,2,1,60,0,0
84938,-83.3333333333333,4,2,1,60,0,0
85870,-83.3333333333333,4,2,1,60,0,0
85955,-83.3333333333333,4,2,1,60,0,0
98159,-125,4,2,1,60,0,0
100870,-90.9090909090909,4,2,1,60,0,0
103582,-100,4,2,1,60,0,0
119854,-142.857142857143,4,2,1,60,0,0
124938,-142.857142857143,4,2,1,60,0,0
129176,-142.857142857143,4,2,1,60,0,0
130701,-111.111111111111,4,2,1,60,0,0
134006,-111.111111111111,4,2,1,60,0,0
134091,-111.111111111111,4,2,1,60,0,0
141548,-125,4,2,1,60,0,0
150870,-100,4,2,1,60,0,0
152396,-111.111111111111,4,2,1,60,0,0
152650,-111.111111111111,4,2,1,60,0,0
152735,-111.111111111111,4,2,1,60,0,0
163243,-125,4,2,1,60,0,0
165955,-142.857142857143,4,2,1,60,0,0
168159,-100,4,2,1,60,0,0
171379,-83.3333333333333,4,2,1,60,0,0
171633,-83.3333333333333,4,2,1,60,0,0
171718,-83.3333333333333,4,2,1,60,0,0
175362,-83.3333333333333,4,2,1,60,0,0
175447,-83.3333333333333,4,2,1,60,0,0
182481,-83.3333333333333,4,2,1,60,0,0
182565,-83.3333333333333,4,2,1,60,0,0
183498,-83.3333333333333,4,2,1,60,0,0
183582,-83.3333333333333,4,2,1,60,0,0
195786,-125,4,2,1,60,0,0
198498,-90.9090909090909,4,2,1,60,0,0
201209,-90.9090909090909,4,2,1,60,0,0
211972,-90.9090909090909,4,2,1,60,0,0
212057,-90.9090909090909,4,2,1,60,0,0
217481,-125,4,2,1,60,0,0
228667,-83.3333333333333,4,2,1,60,0,0
228921,-83.3333333333333,4,2,1,60,0,0
229006,-83.3333333333333,4,2,1,60,0,0
232311,-83.3333333333333,4,2,1,5,0,0
232396,-83.3333333333333,4,2,1,60,0,0
239430,-83.3333333333333,4,2,1,60,0,0
239515,-83.3333333333333,4,2,1,60,0,0
252735,-125,4,2,1,60,0,0
255447,-90.9090909090909,4,2,1,60,0,0
258159,-100,4,2,1,60,0,0
263498,-100,4,2,1,60,0,0
263582,-100,4,2,1,60,0,0
274430,-222.222222222222,4,2,1,60,0,0
279599,-222.222222222222,4,2,1,5,0,0

[Colours]
Combo1 : 254,185,56
Combo2 : 83,199,255
Combo3 : 185,64,251
Combo4 : 248,114,224

[HitObjects]
512,57,532,6,0,P|515:30|503:5,2,55.9999982910157,2|2|2,0:0|0:0|0:0,0:0:0:0:
445,120,1040,1,2,0:0:0:0:
445,120,1209,2,0,P|381:108|331:99,1,111.999996582031,2|2,0:0|0:0,0:0:0:0:
191,26,1887,6,0,P|164:24|139:36,2,55.9999982910157,2|2|2,0:0|0:0|0:0,0:0:0:0:
255,94,2396,1,2,0:0:0:0:
255,94,2565,2,0,P|244:149|234:204,1,111.999996582031,2|2,0:0|0:0,0:0:0:0:
154,354,3243,6,0,P|131:357|95:361,2,55.9999982910157,2|2|2,0:0|0:0|0:0,0:0:0:0:
224,308,3752,1,2,0:0:0:0:
224,308,3921,2,0,B|285:290|278:326|333:317,1,111.999996582031,2|2,0:0|0:0,0:0:0:0:
479,371,4599,2,0,P|486:345|481:318,1,55.9999982910157,2|2,0:0|0:0,0:0:0:0:
419,226,4938,1,10,3:0:0:0:
419,226,5023,1,8,3:0:0:0:
419,226,5108,1,8,0:3:0:0:
396,86,5277,5,10,0:0:0:0:
332,317,5447,1,10,0:0:0:0:
343,328,5786,1,8,0:0:0:0:
343,328,5870,1,8,0:0:0:0:
343,328,5955,6,0,B|294:303|262:337|271:331|245:369|194:360,1,160,6|10,1:2|0:0,0:0:0:0:
92,255,6464,1,2,0:0:0:0:
205,181,6633,2,0,P|197:218|189:271,1,80,0|2,1:2|1:2,0:0:0:0:
88,355,6972,1,10,0:0:0:0:
5,197,7142,6,0,P|29:149|137:136,1,160,2|2,0:0|0:0,0:0:0:0:
220,50,7650,1,10,0:0:0:0:
321,125,7820,2,0,P|302:198|280:287,1,160,2|2,1:2|1:2,0:0:0:0:
403,369,8328,2,0,L|424:270,1,80,10|2,0:0|1:2,0:0:0:0:
460,162,8667,5,6,1:2:0:0:
507,295,8837,1,10,0:0:0:0:
380,204,9006,1,10,0:0:0:0:
512,65,9176,2,0,P|443:31|365:62,1,160,6|2,1:2|1:2,0:0:0:0:
273,13,9684,1,8,0:0:0:0:
168,168,9854,6,0,P|238:153|337:135,1,160,6|2,1:2|1:2,0:0:0:0:
442,242,10362,2,0,P|413:272|366:284,1,80,10|10,0:0|0:0,0:0:0:0:
264,220,10701,1,0,1:2:0:0:
323,374,10870,1,10,0:0:0:0:
323,374,10955,1,0,0:0:0:0:
323,374,11040,2,0,P|332:318|347:243,1,120,10|4,0:0|3:0,0:0:0:0:
362,228,11379,6,0,P|336:155|259:133,1,160,6|10,1:2|0:0,0:0:0:0:
181,133,11887,1,2,0:0:0:0:
254,288,12057,2,0,P|266:249|277:211,1,80,0|2,1:2|1:2,0:0:0:0:
220,68,12396,1,10,0:0:0:0:
61,20,12565,6,0,P|46:56|55:94,1,80,2|0,0:0|1:2,0:0:0:0:
186,207,12904,2,0,P|195:168|180:132,1,80,2|10,0:0|0:0,0:0:0:0:
0,254,13243,2,0,P|76:275|153:298,1,160,2|2,1:2|1:2,0:0:0:0:
297,352,13752,2,0,P|253:362|209:373,1,80,10|2,0:0|0:0,0:0:0:0:
186,207,14091,5,6,1:2:0:0:
139,340,14261,1,2,1:2:0:0:
266,249,14430,1,10,0:0:0:0:
105,142,14599,2,0,B|153:119|182:150|175:146|204:183|255:164,1,160,6|10,1:2|3:3,0:0:0:0:
367,143,15108,1,10,0:0:0:0:
235,5,15277,6,0,P|242:64|255:164,1,160,6|0,1:2|1:2,0:0:0:0:
352,255,15786,1,8,0:0:0:0:
266,354,15955,2,0,P|218:340|180:329,1,80,4|0,3:0|1:2,0:0:0:0:
51,320,16294,1,8,2:0:0:0:
51,320,16379,1,8,2:0:0:0:
51,320,16464,2,0,P|42:344|35:366,3,40,0|0|0|0,1:2|1:2|1:0|1:2,0:0:0:0:
117,271,16803,5,6,1:2:0:0:
0,148,16972,2,0,P|7:180|18:245,1,80,2|8,0:0|0:0,0:0:0:0:
94,89,17311,1,2,0:0:0:0:
94,89,17396,1,8,3:0:0:0:
94,89,17481,2,0,P|135:86|186:116,1,80,2|0,1:2|1:2,0:0:0:0:
263,171,17820,1,10,0:0:0:0:
164,268,17989,6,0,P|174:221|185:178,1,80,2|0,0:0|1:2,0:0:0:0:
250,74,18328,1,2,1:2:0:0:
347,184,18498,2,0,P|387:172|439:157,1,80,10|8,0:0|3:0,0:0:0:0:
512,24,18837,2,0,P|471:12|420:-3,1,80,2|0,1:2|1:2,0:0:0:0:
326,102,19176,1,10,0:0:0:0:
326,102,19515,5,6,1:2:0:0:
453,178,19684,2,0,P|459:130|443:92,1,80,2|8,0:0|0:0,0:0:0:0:
348,14,20023,1,2,0:0:0:0:
348,14,20108,1,8,3:0:0:0:
348,14,20193,2,0,P|304:25|252:37,1,80,2|0,1:2|1:2,0:0:0:0:
127,101,20532,1,10,0:0:0:0:
203,193,20701,6,0,P|241:183|280:174,1,80,2|2,0:0|1:2,0:0:0:0:
129,279,21040,1,2,1:2:0:0:
22,132,21209,2,0,P|15:86|42:49,1,80,10|0,0:0|1:2,0:0:0:0:
39,52,21464,1,0,1:2:0:0:
48,46,21548,6,0,P|86:55|125:64,1,80,10|8,0:0|0:0,0:0:0:0:
281,97,21887,1,2,1:2:0:0:
277,136,21971,1,8,0:0:0:0:
257,171,22056,1,8,0:0:0:0:
225,194,22141,1,8,0:0:0:0:
186,202,22226,6,1,P|228:194|291:261,1,128,6|10,1:2|0:0,0:0:0:0:
400,271,22735,2,0,P|386:300|370:337,1,64,2|0,0:0|0:0,0:0:0:0:
265,384,23074,2,0,P|251:354|239:325,1,64,2|8,1:2|0:0,0:0:0:0:
135,273,23413,6,1,P|106:307|14:308,1,128,2|0,0:0|0:0,0:0:0:0:
56,208,23921,1,8,0:0:0:0:
56,208,24260,2,0,P|87:200|126:191,1,64,2|0,0:0|1:2,0:0:0:0:
232,204,24599,1,10,0:0:0:0:
263,91,24769,6,0,P|230:59|150:66,1,128,2|2,0:0|0:0,0:0:0:0:
29,8,25277,2,0,P|41:60|60:148,1,128,10|2,0:0|0:0,0:0:0:0:
126,215,25786,1,0,1:2:0:0:
20,309,25955,2,0,P|45:291|77:286,1,64,8|0,0:0|0:0,0:0:0:0:
175,357,26294,6,0,P|206:349|243:338,1,64,2|0,1:2|0:0,0:0:0:0:
355,361,26633,2,0,P|374:324|426:313,1,96,10|0,0:0|0:0,0:0:0:0:
433,323,26972,1,2,1:2:0:0:
358,219,27142,2,0,P|315:232|286:243,1,64,6|8,1:2|0:0,0:0:0:0:
158,218,27481,1,10,3:0:0:0:
158,218,27565,1,8,3:0:0:0:
158,218,27650,6,1,P|120:127|146:82,1,128,4|8,1:2|0:0,0:0:0:0:
218,17,28159,1,2,0:0:0:0:
218,17,28328,1,2,0:0:0:0:
325,75,28498,2,0,P|314:109|306:144,1,64,2|8,1:2|0:0,0:0:0:0:
268,231,28837,1,2,0:0:0:0:
346,338,29006,6,1,P|392:296|397:233,1,128,2|10,1:2|0:0,0:0:0:0:
465,132,29515,2,1,P|431:141|398:150,1,64,2|0,0:0|0:0,0:0:0:0:
263,58,29854,2,0,P|296:67|330:76,1,64,2|8,1:2|0:0,0:0:0:0:
459,3,30193,1,2,0:0:0:0:
459,3,30277,1,2,0:0:0:0:
459,3,30362,6,0,P|450:37|439:75,1,64,0|2,1:2|0:0,0:0:0:0:
504,196,30701,2,1,P|472:212|425:210,1,64,10|0,0:0|1:2,0:0:0:0:
304,166,31040,1,8,0:0:0:0:
449,138,31209,1,6,3:0:0:0:
347,254,31379,1,2,1:2:0:0:
347,254,31464,1,4,3:0:0:0:
347,254,31548,2,0,L|366:297,1,32,6|8,3:0|0:0,0:0:0:0:
397,358,31718,5,10,0:0:0:0:
504,196,31887,1,6,1:2:0:0:
307,16,32226,5,6,1:2:0:0:
105,208,32565,5,6,1:2:0:0:
288,357,32904,1,8,3:0:0:0:
288,357,32989,1,8,3:0:0:0:
288,357,33074,6,1,P|223:329|143:372,1,143.999995605469,6|10,1:2|0:0,0:0:0:0:
35,366,33582,2,1,P|42:332|50:296,1,71.9999978027344,2|0,0:0|0:0,0:0:0:0:
130,199,33921,2,1,P|123:165|115:129,1,71.9999978027344,2|8,1:2|0:0,0:0:0:0:
0,66,34260,6,0,P|33:22|128:21,1,143.999995605469,2|0,0:0|0:0,0:0:0:0:
234,35,34769,2,0,P|230:71|203:102,1,71.9999978027344,8|2,0:0|0:0,0:0:0:0:
130,199,35108,2,1,P|135:226|146:280,1,71.9999978027344,2|0,0:0|1:2,0:0:0:0:
236,366,35447,1,10,0:0:0:0:
236,366,35616,1,2,0:0:0:0:
338,295,35786,6,1,P|257:262|228:278,1,107.999996704102,4|0,1:2|0:0,0:0:0:0:
235,272,36125,2,0,P|228:236|221:201,1,71.9999978027344,10|2,0:0|0:0,0:0:0:0:
293,43,36464,1,6,1:2:0:0:
144,131,36633,1,0,1:2:0:0:
163,31,36803,1,8,0:0:0:0:
291,162,36972,6,1,B|363:141|353:191|429:180,1,143.999995605469,6|0,1:2|1:2,0:0:0:0:
512,80,37481,2,0,P|501:45|490:11,1,71.9999978027344,8|0,0:0|1:2,0:0:0:0:
409,110,37820,2,0,L|431:185,1,71.9999978027344,10|4,0:0|3:0,0:0:0:0:
497,266,38159,1,2,1:2:0:0:
497,266,38243,1,0,1:2:0:0:
497,266,38328,1,8,3:0:0:0:
388,355,38498,6,1,B|356:325|319:329|319:329|300:364|238:365,1,143.999995605469,6|2,1:2|0:0,0:0:0:0:
169,295,39006,2,0,P|197:267|237:261,1,71.9999978027344,2|8,1:2|0:0,0:0:0:0:
330,194,39345,2,0,P|302:166|262:160,1,71.9999978027344,0|2,0:0|1:2,0:0:0:0:
173,117,39684,1,6,3:0:0:0:
173,117,39769,1,4,3:0:0:0:
173,117,39854,6,0,P|139:163|51:171,1,143.999995605469,0|2,1:2|0:0,0:0:0:0:
0,83,40362,1,0,0:0:0:0:
126,12,40532,6,0,P|161:18|214:28,1,71.9999978027344,14|4,0:0|3:0,0:0:0:0:
288,74,40870,1,2,1:2:0:0:
395,29,41040,1,10,0:0:0:0:
395,29,41125,1,8,0:0:0:0:
395,29,41209,6,0,P|412:87|379:134,1,107.999996704102,4|0,1:2|0:0,0:0:0:0:
382,132,41548,1,10,0:0:0:0:
281,231,41718,1,0,0:0:0:0:
387,339,41887,2,0,P|394:308|405:265,1,71.9999978027344,8|2,0:0|0:0,0:0:0:0:
402,259,42142,1,8,0:0:0:0:
398,247,42226,1,8,0:0:0:0:
302,140,42396,5,6,1:2:0:0:
511,302,42735,5,6,1:2:0:0:
294,374,43074,5,8,3:0:0:0:
294,374,43159,1,8,3:0:0:0:
294,374,43243,1,0,1:2:0:0:
227,297,43413,1,8,3:0:0:0:
276,218,43582,1,4,3:0:0:0:
448,358,43921,5,4,1:2:0:0:
0,360,52735,5,4,3:3:0:0:
73,310,52904,1,10,3:0:0:0:
147,255,53074,1,8,3:0:0:0:
46,76,53243,6,1,P|57:144|76:247,1,160,6|0,1:2|1:2,0:0:0:0:
154,351,53752,1,0,1:2:0:0:
285,235,53921,1,0,1:2:0:0:
251,384,54091,2,0,P|241:352|226:302,1,80,8|8,0:2|0:2,0:0:0:0:
142,188,54430,1,8,0:0:0:0:
257,47,54599,1,8,0:0:0:0:
257,47,54684,1,8,0:0:0:0:
257,47,54769,6,0,P|299:38|367:21,1,107.999996704102,6|0,1:2|0:0,0:0:0:0:
380,20,55108,2,0,P|409:69|397:107,1,71.9999978027344,8|2,0:0|0:0,0:0:0:0:
328,210,55447,2,0,P|334:238|347:285,1,71.9999978027344,2|0,1:2|1:2,0:0:0:0:
430,369,55786,1,8,0:0:0:0:
501,278,55955,2,0,P|466:267|434:281,1,71.9999978027344,2|2,0:0|1:2,0:0:0:0:
353,359,56294,1,2,0:0:0:0:
241,233,56464,6,1,B|191:211|158:197|158:197|107:238,1,143.999995605469,8|2,0:0|0:0,0:0:0:0:
28,319,56972,1,2,1:2:0:0:
136,381,57142,2,0,P|127:343|119:310,1,71.9999978027344,10|2,0:0|0:0,0:0:0:0:
0,186,57481,6,1,P|25:140|123:129,1,143.999995605469,2|10,1:2|0:0,0:0:0:0:
204,202,57989,2,0,P|216:171|234:128,1,71.9999978027344,2|0,0:0|1:2,0:0:0:0:
316,18,58328,2,0,P|329:51|342:84,1,71.9999978027344,2|8,1:2|0:0,0:0:0:0:
512,131,58667,6,0,P|442:137|402:194,1,143.999995605469,2|0,1:2|1:2,0:0:0:0:
335,297,59176,2,0,P|389:313|424:299,1,71.9999978027344,8|0,0:0|0:0,0:0:0:0:
498,246,59515,1,4,1:2:0:0:
400,192,59684,1,8,0:0:0:0:
400,192,59769,1,8,0:0:0:0:
400,192,59854,2,1,P|373:200|340:212,3,35.9999989013672,8|8|8|8,0:0|0:0|3:0|3:0,0:0:0:0:
348,214,60193,5,6,1:2:0:0:
348,214,60362,1,2,0:0:0:0:
230,123,60532,2,1,B|181:176|181:176|228:236,1,143.999995605469,10|0,0:0|1:2,0:0:0:0:
304,318,61040,1,0,1:2:0:0:
304,318,61209,1,8,0:0:0:0:
176,376,61379,6,1,P|152:351|102:346,1,71.9999978027344,2|0,1:2|0:0,0:0:0:0:
0,299,61718,2,1,P|8:262|19:219,1,71.9999978027344,2|8,1:2|0:0,0:0:0:0:
119,180,62057,2,1,P|111:143|100:100,1,71.9999978027344,2|0,1:2|0:0,0:0:0:0:
0,53,62396,2,0,P|40:5|139:13,1,143.999995605469,2|2,1:2|0:0,0:0:0:0:
237,20,62904,5,6,1:2:0:0:
172,113,63074,1,2,0:0:0:0:
255,239,63243,2,1,B|330:211|317:266|393:251,1,143.999995605469,10|0,0:0|1:2,0:0:0:0:
483,172,63752,1,2,1:2:0:0:
512,270,63921,1,8,0:0:0:0:
370,175,64091,6,0,P|384:96|398:23,1,143.999995605469,2|0,1:2|1:2,0:0:0:0:
508,15,64599,2,0,P|503:51|496:94,1,71.9999978027344,12|2,0:0|0:0,0:0:0:0:
510,206,64938,2,0,L|467:223,3,35.9999989013672,2|0|8|8,1:2|1:0|0:0|0:0,0:0:0:0:
404,259,65277,2,1,L|370:245,3,35.9999989013672,10|8|8|8,1:2|3:0|3:0|3:0,0:0:0:0:
297,280,65616,6,1,B|268:219|309:190|307:197|350:157|316:101,1,192,6|0,1:2|1:2,0:0:0:0:
253,37,66294,1,8,0:0:0:0:
253,37,66633,1,2,1:2:0:0:
121,16,66803,6,0,P|131:76|147:165,1,128,10|8,0:0|3:0,0:0:0:0:
208,216,67311,1,0,0:0:0:0:
208,216,67481,2,0,P|200:245|188:289,1,64,0|8,1:2|0:0,0:0:0:0:
111,349,67820,1,2,1:2:0:0:
111,349,67989,2,0,P|136:368|179:366,1,64,10|2,3:0|0:0,0:0:0:0:
276,322,68328,6,1,P|281:349|286:377,2,55.9999982910157,6|0|0,1:2|0:0|0:0,0:0:0:0:
191,277,68837,2,0,P|164:267|138:258,2,55.9999982910157,0|8|0,1:2|0:0|0:0,0:0:0:0:
285,219,69345,2,0,P|306:200|327:182,2,55.9999982910157,0|8|0,1:2|3:0|0:0,0:0:0:0:
205,153,69854,2,0,P|178:144|151:135,2,55.9999982910157,8|0|0,3:0|0:0|1:2,0:0:0:0:
292,86,70362,1,8,0:0:0:0:
222,23,70532,5,8,0:0:0:0:
222,23,70616,1,8,0:0:0:0:
222,23,70701,2,1,P|187:34|172:41,1,35.9999989013672,10|8,3:0|3:0,0:0:0:0:
123,69,70870,2,1,P|106:62|88:58,1,35.9999989013672,10|0,3:0|1:2,0:0:0:0:
17,28,71040,6,0,P|7:108|33:185,1,160,14|2,0:0|1:2,0:0:0:0:
119,303,71548,2,0,P|135:265|151:224,1,80,2|8,1:2|0:2,0:0:0:0:
273,151,71887,1,10,0:2:0:0:
229,312,72057,1,10,0:2:0:0:
191,105,72226,1,14,0:2:0:0:
191,105,72565,5,8,0:2:0:0:
427,15,72735,1,12,0:0:0:0:
505,223,73074,6,1,L|512:214,16,11.9999996337891,2|0|2|0|2|0|2|0|2|0|2|0|2|0|2|0|2,0:0|0:0|0:0|0:0|0:0|0:0|0:0|0:0|0:0|0:0|0:0|0:0|0:0|0:0|0:0|0:0|1:2,0:0:0:0:
395,302,73921,1,0,1:2:0:0:
395,302,74006,1,0,1:0:0:0:
395,302,74091,6,1,P|363:245|274:253,1,143.999995605469,14|0,0:0|0:0,0:0:0:0:
235,294,74430,2,0,P|214:251|223:205,1,95.9999970703126,2|0,0:0|1:2,0:0:0:0:
130,113,74769,2,0,P|92:125|29:142,1,95.9999970703126,10|0,0:0|0:0,0:0:0:0:
241,39,75108,6,0,B|291:60|331:12|321:15|360:-27|418:3,1,191.999994140625,2|8,1:2|0:0,0:0:0:0:
512,118,75616,1,2,0:0:0:0:
512,118,75701,1,2,0:0:0:0:
512,118,75786,2,1,P|457:104|410:92,1,95.9999970703126,2|0,0:0|1:2,0:0:0:0:
226,163,76125,2,0,P|281:149|328:137,1,95.9999970703126,10|0,0:0|1:2,0:0:0:0:
512,244,76464,6,1,B|466:196|419:207|419:207|410:257|359:271,1,191.999994140625,6|10,1:2|0:0,0:0:0:0:
232,250,76972,1,2,0:0:0:0:
119,358,77142,2,1,P|106:309|93:260,1,95.9999970703126,2|0,1:2|1:2,0:0:0:0:
0,149,77481,2,0,P|26:114|133:121,1,143.999995605469,10|0,0:0|0:0,0:0:0:0:
180,145,77820,6,0,P|171:187|159:246,1,95.9999970703126,0|0,1:2|1:2,0:0:0:0:
310,122,78159,2,0,P|300:74|290:28,1,95.9999970703126,8|2,0:0|0:0,0:0:0:0:
180,145,78498,1,2,1:2:0:0:
180,145,78667,1,0,1:2:0:0:
283,233,78837,1,10,0:0:0:0:
418,126,79006,1,8,0:0:0:0:
418,126,79091,1,8,0:0:0:0:
418,126,79176,6,1,P|459:106|519:118,1,95.9999970703126,6|0,1:2|0:0,0:0:0:0:
440,295,79515,2,1,P|393:301|350:280,1,95.9999970703126,10|0,0:0|0:0,0:0:0:0:
247,164,79854,2,0,P|263:117|278:61,1,95.9999970703126,2|0,1:2|1:2,0:0:0:0:
89,16,80193,2,0,P|101:62|117:107,1,95.9999970703126,10|0,0:0|0:0,0:0:0:0:
177,293,80532,6,1,B|119:263|80:305|90:302|50:350|0:329,2,191.999994140625,2|8|0,1:2|0:0|1:2,0:0:0:0:
306,346,81379,1,2,1:2:0:0:
148,368,81548,1,10,0:0:0:0:
266,252,81718,1,2,0:0:0:0:
140,113,81887,6,0,P|148:149|166:234,1,95.9999970703126,4|0,1:2|1:2,0:0:0:0:
231,354,82226,1,10,0:0:0:0:
363,259,82396,2,0,P|373:212|383:165,1,95.9999970703126,2|0,0:0|1:2,0:0:0:0:
429,40,82735,1,2,1:2:0:0:
512,175,82904,1,8,0:0:0:0:
308,65,83074,6,1,B|255:54|203:39|203:39|156:60|169:116,1,191.999994140625,6|8,1:2|3:3,0:0:0:0:
260,251,83582,2,0,P|304:205|304:161,1,95.9999970703126,8|2,0:0|0:0,0:0:0:0:
167,107,83921,1,2,1:2:0:0:
167,107,84006,1,0,0:0:0:0:
167,107,84091,2,1,L|109:131,1,47.9999985351563,4|4,3:0|3:0,0:0:0:0:
13,198,84260,1,10,0:0:0:0:
13,198,84345,1,10,0:0:0:0:
13,198,84430,2,0,L|71:222,1,47.9999985351563,8|8,3:0|3:0,0:0:0:0:
123,297,84599,6,1,P|186:276|278:244,1,143.999995605469,6|0,1:2|0:0,0:0:0:0:
339,241,84938,2,1,P|332:288|299:321,1,95.9999970703126,10|0,0:0|0:0,0:0:0:0:
171,204,85277,2,0,P|183:154|195:104,1,95.9999970703126,2|0,1:2|1:2,0:0:0:0:
345,75,85616,2,0,P|303:26|220:38,1,143.999995605469,10|0,0:0|0:0,0:0:0:0:
271,107,85955,6,1,P|382:80|470:60,1,191.999994140625,2|8,1:2|0:0,0:0:0:0:
512,190,86464,1,2,0:0:0:0:
512,190,86548,1,2,0:0:0:0:
512,190,86633,2,0,P|502:252|493:313,1,95.9999970703126,2|0,1:2|1:2,0:0:0:0:
351,384,86972,2,1,P|343:336|336:289,1,95.9999970703126,10|0,0:0|0:0,0:0:0:0:
271,107,87311,6,0,P|354:69|437:119,2,191.999994140625,6|8|2,1:2|0:0|1:2,0:0:0:0:
223,214,88159,1,0,1:2:0:0:
133,78,88328,2,0,P|85:97|33:117,1,95.9999970703126,8|0,0:0|0:0,0:0:0:0:
18,232,88667,5,4,1:2:0:0:
147,311,88837,1,0,1:2:0:0:
103,186,89006,1,8,0:0:0:0:
65,366,89176,6,1,P|140:350|273:321,1,191.999994140625,4|0,1:2|1:2,0:0:0:0:
368,338,89684,1,8,0:0:0:0:
315,193,89854,1,8,0:0:0:0:
315,193,89938,1,8,0:0:0:0:
315,193,90023,6,0,P|264:205|211:219,1,95.9999970703126,6|2,1:2|0:0,0:0:0:0:
33,220,90362,2,0,P|30:159|65:130,1,95.9999970703126,10|2,0:0|1:2,0:0:0:0:
205,24,90701,2,0,P|192:65|173:126,1,95.9999970703126,8|2,0:0|0:0,0:0:0:0:
122,297,91040,1,8,0:0:0:0:
262,379,91209,6,0,P|298:368|361:352,1,95.9999970703126,2|8,1:2|0:0,0:0:0:0:
512,243,91548,2,0,P|476:232|413:216,1,95.9999970703126,2|8,0:0|0:0,0:0:0:0:
258,185,91887,1,2,1:2:0:0:
297,290,92057,1,8,0:0:0:0:
400,154,92226,1,0,1:2:0:0:
263,19,92396,2,0,P|216:13|175:36,1,95.9999970703126,8|0,0:0|1:2,0:0:0:0:
28,113,92735,6,0,P|12:63|-5:5,1,95.9999970703126,14|2,0:0|0:0,0:0:0:0:
141,123,93074,2,0,P|127:168|112:214,1,95.9999970703126,10|2,0:0|1:2,0:0:0:0:
0,340,93413,2,0,P|35:374|100:357,1,95.9999970703126,8|2,0:0|0:0,0:0:0:0:
213,311,93752,1,8,0:0:0:0:
339,375,93921,6,0,P|359:337|350:274,1,95.9999970703126,2|8,1:2|0:0,0:0:0:0:
234,128,94260,2,0,P|213:170|217:217,1,95.9999970703126,2|8,0:0|0:0,0:0:0:0:
355,285,94599,2,0,P|396:277|465:264,1,95.9999970703126,2|8,1:2|0:0,0:0:0:0:
512,138,94938,1,8,0:0:0:0:
512,138,95023,1,8,0:0:0:0:
512,138,95108,2,1,P|476:147|450:153,1,47.9999985351563,8|8,3:0|3:0,0:0:0:0:
384,195,95277,2,0,P|360:189|337:183,1,47.9999985351563,8|8,3:0|3:0,0:0:0:0:
274,125,95447,5,14,0:0:0:0:
172,273,95616,1,2,0:0:0:0:
83,172,95786,2,0,P|120:142|167:139,1,95.9999970703126,10|0,0:0|1:2,0:0:0:0:
297,254,96125,2,0,P|284:300|272:346,1,95.9999970703126,8|0,0:0|1:2,0:0:0:0:
104,378,96464,2,0,P|92:331|79:285,1,95.9999970703126,8|0,0:0|1:2,0:0:0:0:
0,143,96803,6,0,P|12:96|25:50,1,95.9999970703126,8|0,0:0|1:2,0:0:0:0:
184,9,97142,2,0,P|231:12|267:42,1,95.9999970703126,8|0,0:0|1:2,0:0:0:0:
354,164,97481,2,0,P|306:175|250:187,1,95.9999970703126,10|8,0:0|3:0,0:0:0:0:
160,252,97820,1,8,0:0:0:0:
132,283,97904,1,8,0:0:0:0:
133,325,97989,1,8,0:0:0:0:
162,356,98074,1,8,0:0:0:0:
205,357,98159,6,1,B|238:309|287:320|287:320|318:376|371:358,1,192,6|0,1:2|1:2,0:0:0:0:
447,308,98837,2,1,P|454:232|463:174,1,128,8|0,0:0|1:2,0:0:0:0:
381,17,99515,6,1,P|306:11|263:66,2,128,0|0|8,1:2|0:0|0:0,0:0:0:0:
475,67,100362,1,0,0:0:0:0:
434,173,100532,1,10,3:0:0:0:
434,173,100616,1,8,3:0:0:0:
434,173,100701,2,0,P|385:164|376:161,1,32,4|4,3:0|3:0,0:0:0:0:
334,139,100870,6,1,B|273:114|248:149|255:149|228:189|171:172,1,176.000005371094,6|8,1:2|0:0,0:0:0:0:
74,62,101379,2,0,P|23:110|48:207,1,176.000005371094,6|2,1:2|1:2,0:0:0:0:
201,345,101887,6,1,P|183:237|168:148,1,176.000005371094,14|0,0:0|1:2,0:0:0:0:
143,26,102396,1,8,0:0:0:0:
284,59,102565,2,0,P|275:99|264:154,1,88.000002685547,0|8,1:2|0:0,0:0:0:0:
304,288,102904,2,0,P|373:277|387:250,1,88.000002685547,8|0,0:0|1:0,0:0:0:0:
392,261,103159,1,8,0:0:0:0:
404,255,103243,2,1,P|396:220|392:203,1,44.0000013427735,8|8,0:0|0:0,0:0:0:0:
349,145,103413,2,0,P|356:110|361:93,1,44.0000013427735,8|8,0:0|0:0,0:0:0:0:
394,24,103582,6,0,P|463:30|513:117,1,160,6|10,1:2|0:0,0:0:0:0:
509,234,104091,1,2,0:0:0:0:
432,365,104260,2,0,P|422:323|410:275,1,80,0|2,1:2|1:2,0:0:0:0:
313,210,104599,1,10,0:0:0:0:
213,344,104769,6,1,B|127:351|146:292|61:312,1,160,2|2,0:0|0:0,0:0:0:0:
0,201,105277,1,10,0:0:0:0:
132,83,105447,2,0,P|113:156|91:245,1,160,2|2,1:2|1:2,0:0:0:0:
0,112,105955,2,1,P|10:70|24:15,1,80,10|2,0:0|0:0,0:0:0:0:
170,23,106294,5,6,1:2:0:0:
206,169,106464,1,10,0:0:0:0:
84,71,106633,1,10,0:0:0:0:
267,5,106803,2,1,P|255:75|238:183,1,160,6|2,1:2|1:2,0:0:0:0:
142,238,107311,1,8,0:0:0:0:
259,365,107481,6,1,B|308:373|334:335|325:341|357:307|406:332,1,160,6|2,1:2|1:2,0:0:0:0:
512,288,107989,2,0,P|503:324|493:375,1,80,10|10,0:0|0:0,0:0:0:0:
418,239,108328,1,0,1:2:0:0:
512,167,108497,1,10,0:0:0:0:
512,167,108582,1,8,0:0:0:0:
512,167,108667,2,0,P|457:132|381:143,1,120,10|4,0:0|3:0,0:0:0:0:
349,180,109006,6,0,P|286:188|227:132,1,120,10|0,0:2|1:2,0:0:0:0:
232,149,109345,1,14,0:0:0:0:
167,22,109514,1,2,0:0:0:0:
339,0,109684,2,0,P|327:38|316:76,1,80,0|2,1:2|1:2,0:0:0:0:
276,219,110023,1,10,0:0:0:0:
138,111,110193,6,0,P|104:94|48:106,1,80,2|0,0:0|0:0,0:0:0:0:
0,244,110532,2,0,P|34:261|90:249,1,80,2|10,0:0|0:0,0:0:0:0:
209,144,110870,2,0,P|219:217|234:311,1,160,2|2,1:2|1:2,0:0:0:0:
109,379,111379,2,0,P|70:369|39:335,1,80,10|2,0:0|0:0,0:0:0:0:
0,217,111718,5,6,1:2:0:0:
111,127,111888,1,2,1:2:0:0:
88,252,112057,1,10,0:0:0:0:
17,80,112226,2,0,P|71:28|155:47,1,160,6|10,1:2|3:3,0:0:0:0:
298,106,112735,1,10,0:0:0:0:
232,302,112904,6,1,P|219:223|209:144,1,160,6|0,1:2|1:2,0:0:0:0:
256,25,113413,1,8,0:0:0:0:
376,101,113582,2,0,P|409:75|452:78,1,80,4|0,3:0|1:2,0:0:0:0:
512,180,113921,1,8,2:0:0:0:
512,180,114006,1,8,2:0:0:0:
512,180,114091,2,0,P|503:204|496:226,3,40,8|0|0|0,1:2|1:0|1:0|1:2,0:0:0:0:
449,272,114430,5,10,1:2:0:0:
327,185,114599,2,0,P|333:145|342:106,1,80,10|2,0:2|0:0,0:0:0:0:
234,224,114938,1,10,1:2:0:0:
234,224,115023,1,8,0:0:0:0:
234,224,115108,2,0,P|197:208|157:212,1,80,10|2,0:2|0:0,0:0:0:0:
44,274,115447,1,10,1:2:0:0:
156,367,115616,6,0,P|203:357|246:346,1,80,10|2,0:2|0:0,0:0:0:0:
369,330,115955,1,10,0:0:0:0:
237,172,116125,1,10,0:0:0:0:
123,40,116294,1,8,3:0:0:0:
123,40,116379,1,8,3:0:0:0:
123,40,116464,6,0,P|111:78|100:116,1,80,8|4,3:0|3:0,0:0:0:0:
5,212,116803,1,4,3:0:0:0:
187,348,117142,5,10,1:2:0:0:
318,264,117311,2,0,P|279:252|240:259,1,80,10|2,0:2|0:0,0:0:0:0:
116,209,117650,1,10,1:2:0:0:
116,209,117735,1,8,0:0:0:0:
116,209,117820,2,0,P|127:165|139:113,1,80,10|2,0:2|0:0,0:0:0:0:
218,21,118159,1,10,1:2:0:0:
339,89,118328,6,0,P|329:125|319:166,1,80,10|0,0:2|0:0,0:0:0:0:
226,272,118667,1,10,1:2:0:0:
378,383,118837,1,10,0:2:0:0:
503,179,119176,2,0,P|462:233|405:239,2,120,2|2|2,0:0|0:0|0:0,0:0:0:0:
493,27,119854,5,6,1:2:0:0:
0,331,124938,5,8,3:0:0:0:
14,349,125023,1,8,3:0:0:0:
43,360,125107,1,6,3:0:0:0:
69,352,125192,1,4,3:0:0:0:
95,333,125277,5,8,0:0:0:0:
193,255,125447,1,8,0:0:0:0:
108,181,125616,1,8,0:0:0:0:
199,367,125786,1,10,0:0:0:0:
2,116,126633,5,8,0:0:0:0:
105,12,126803,1,8,0:0:0:0:
138,129,126972,1,10,0:0:0:0:
0,15,127142,1,10,0:0:0:0:
228,299,127989,5,6,0:2:0:0:
498,347,129176,6,0,P|505:358|513:372,2,27.9999991455078,10|8|8,0:0|0:0|0:0,0:0:0:0:
360,338,129515,1,4,1:2:0:0:
444,207,129854,1,4,1:2:0:0:
512,71,130193,2,1,P|491:20|435:6,1,111.999996582031,4|8,1:2|3:0,0:0:0:0:
429,10,130616,1,8,0:0:0:0:
418,17,130701,6,1,P|345:34|273:54,1,143.999995605469,6|2,1:2|0:0,0:0:0:0:
168,25,131209,2,1,P|162:59|175:92,1,71.9999978027344,10|0,0:0|0:0,0:0:0:0:
257,176,131548,2,0,P|249:211|241:246,1,71.9999978027344,2|8,1:2|0:0,0:0:0:0:
154,373,131887,6,0,P|142:321|53:294,1,143.999995605469,2|0,0:0|1:2,0:0:0:0:
0,201,132395,1,0,0:0:0:0:
0,201,132734,2,0,P|8:170|18:123,1,71.9999978027344,2|0,0:0|1:2,0:0:0:0:
78,42,133073,1,10,0:0:0:0:
164,161,133243,6,0,P|197:129|297:146,1,143.999995605469,2|0,0:0|0:0,0:0:0:0:
439,97,133752,2,1,P|424:159|407:228,1,107.999996704102,10|0,0:0|0:0,0:0:0:0:
416,222,134091,1,6,1:2:0:0:
337,299,134260,1,0,1:2:0:0:
253,221,134430,1,8,0:0:0:0:
118,348,134599,6,1,P|185:331|281:309,1,143.999995605469,6|0,1:2|1:2,0:0:0:0:
357,381,135108,1,8,0:0:0:0:
456,334,135277,1,4,3:0:0:0:
456,334,135362,1,4,3:0:0:0:
456,334,135447,2,0,L|472:286,3,35.9999989013672,2|0|8|0,1:2|0:0|3:0|0:0,0:0:0:0:
479,266,135786,1,2,1:2:0:0:
470,154,135955,1,8,3:0:0:0:
470,154,136039,1,8,3:0:0:0:
470,154,136124,6,1,P|379:192|327:161,1,143.999995605469,6|2,1:2|0:0,0:0:0:0:
258,101,136633,1,2,1:2:0:0:
258,101,136802,1,8,0:0:0:0:
324,17,136972,2,1,P|358:28|398:39,1,71.9999978027344,10|0,0:0|0:0,0:0:0:0:
210,18,137311,6,0,P|133:40|59:60,1,143.999995605469,6|8,1:2|0:0,0:0:0:0:
5,171,137820,2,0,P|35:162|80:148,1,71.9999978027344,0|0,0:0|1:2,0:0:0:0:
179,225,138159,2,1,P|214:174|308:166,1,143.999995605469,10|10,3:0|3:0,0:0:0:0:
372,258,138667,1,6,3:0:0:0:
372,258,138751,1,4,3:0:0:0:
372,258,138836,6,0,P|363:292|351:341,1,71.9999978027344,4|2,1:2|1:2,0:0:0:0:
257,380,139176,1,10,0:0:0:0:
193,233,139345,2,0,P|121:187|58:214,1,143.999995605469,4|0,1:2|1:2,0:0:0:0:
2,358,139854,2,0,P|32:348|83:333,1,71.9999978027344,8|2,0:0|1:2,0:0:0:0:
193,233,140193,5,2,1:2:0:0:
278,339,140362,1,2,0:0:0:0:
372,239,140532,1,8,0:0:0:0:
286,155,140701,1,6,1:2:0:0:
286,155,140786,1,2,0:0:0:0:
286,155,140870,2,1,P|266:164|250:173,3,35.9999989013672,2|2|2|2,0:0|0:0|1:2|0:0,0:0:0:0:
179,163,141209,2,1,P|157:151|146:146,3,35.9999989013672,8|2|4|4,0:0|0:0|3:0|3:0,0:0:0:0:
101,85,141548,5,6,1:2:0:0:
512,14,150362,5,8,0:0:0:0:
397,20,150532,1,10,0:0:0:0:
329,107,150701,1,8,3:0:0:0:
499,171,150870,6,0,B|468:134|426:150|426:150|420:191|373:205,1,160,6|4,1:2|3:0,0:0:0:0:
252,202,151379,1,0,1:2:0:0:
304,318,151548,2,1,P|338:311|387:303,1,80,4|0,3:0|1:2,0:0:0:0:
512,259,151887,1,0,1:2:0:0:
469,371,152057,1,4,1:2:0:0:
413,220,152226,1,2,1:2:0:0:
413,220,152311,1,2,1:2:0:0:
413,220,152396,6,0,P|362:208|303:246,1,107.999996704102,6|0,1:2|0:0,0:0:0:0:
308,248,152735,2,0,L|220:226,1,71.9999978027344,8|0,0:0|0:0,0:0:0:0:
145,309,153074,2,1,P|127:273|127:239,1,71.9999978027344,2|0,1:2|1:2,0:0:0:0:
168,140,153413,1,8,0:0:0:0:
81,80,153582,2,0,P|43:93|8:102,1,71.9999978027344,2|2,1:2|1:2,0:0:0:0:
147,8,153921,1,2,0:0:0:0:
263,76,154091,6,0,P|246:136|224:223,1,143.999995605469,8|0,0:0|0:0,0:0:0:0:
141,288,154599,1,2,1:2:0:0:
217,368,154769,2,1,P|234:329|226:296,1,71.9999978027344,10|2,0:0|0:0,0:0:0:0:
137,196,155108,6,1,P|65:219|-9:241,1,143.999995605469,4|10,1:2|0:0,0:0:0:0:
0,123,155616,2,0,P|34:113|73:100,1,71.9999978027344,2|0,0:0|1:2,0:0:0:0:
138,24,155955,2,1,P|172:35|206:45,1,71.9999978027344,6|8,1:2|0:0,0:0:0:0:
352,93,156294,6,1,B|433:54|433:54|481:86,1,143.999995605469,6|8,1:2|3:0,0:0:0:0:
509,194,156803,2,0,P|476:173|432:178,1,71.9999978027344,8|0,0:0|1:0,0:0:0:0:
345,235,157142,1,0,1:2:0:0:
432,321,157311,1,8,0:0:0:0:
432,321,157396,1,8,0:0:0:0:
432,321,157481,2,1,P|440:294|452:261,3,35.9999989013672,8|8|4|4,3:3|3:3|3:3|3:3,0:0:0:0:
454,269,157820,5,6,1:2:0:0:
454,269,157989,1,2,1:2:0:0:
373,162,158159,2,0,B|290:146|311:201|236:191,1,143.999995605469,10|2,0:0|1:2,0:0:0:0:
149,128,158667,1,0,0:0:0:0:
149,128,158836,1,8,0:0:0:0:
67,205,159006,6,1,P|62:240|76:272,1,71.9999978027344,2|0,1:2|0:0,0:0:0:0:
148,351,159345,2,1,P|185:343|228:332,1,71.9999978027344,2|8,1:2|0:0,0:0:0:0:
329,358,159684,2,1,P|333:321|310:278,1,71.9999978027344,2|0,1:2|0:0,0:0:0:0:
337,174,160023,2,0,P|275:199|194:229,1,143.999995605469,2|10,1:2|0:0,0:0:0:0:
194,233,160447,1,8,0:0:0:0:
187,241,160531,5,2,1:2:0:0:
106,159,160701,1,2,1:2:0:0:
188,81,160870,2,0,P|159:47|60:52,1,143.999995605469,10|2,0:0|1:2,0:0:0:0:
16,147,161379,1,0,0:0:0:0:
82,228,161548,1,8,0:0:0:0:
184,155,161718,6,1,P|237:145|331:127,1,143.999995605469,2|2,1:2|1:2,0:0:0:0:
389,48,162226,2,0,P|410:75|413:111,1,71.9999978027344,8|0,0:0|1:2,0:0:0:0:
480,162,162565,2,0,L|466:195,3,35.9999989013672,14|0|8|8,0:0|0:0|0:0|0:0,0:0:0:0:
423,257,162904,2,0,L|437:291,3,35.9999989013672,2|8|8|8,1:2|0:0|3:0|3:0,0:0:0:0:
476,363,163243,6,1,B|415:392|386:351|393:353|353:310|297:344,1,192,6|0,1:2|1:2,0:0:0:0:
208,371,163921,1,8,0:0:0:0:
208,371,164260,1,2,1:2:0:0:
105,321,164430,6,1,P|140:270|201:261,1,128,10|8,0:0|3:0,0:0:0:0:
316,262,164938,1,8,3:0:0:0:
316,262,165108,2,0,P|307:231|299:200,1,64,0|8,1:2|0:0,0:0:0:0:
358,115,165447,1,2,1:2:0:0:
358,115,165616,2,0,P|333:96|290:98,1,64,10|2,3:0|0:0,0:0:0:0:
208,70,165955,6,1,P|203:42|184:18,2,55.9999982910157,6|0|0,1:2|0:0|0:0,0:0:0:0:
142,147,166464,2,0,P|115:137|89:128,2,55.9999982910157,0|8|8,1:2|0:0|0:0,0:0:0:0:
228,197,166972,2,0,P|255:187|281:178,2,55.9999982910157,8|4|0,0:0|1:2|0:0,0:0:0:0:
140,248,167481,2,0,P|113:239|86:230,2,55.9999982910157,0|8|0,1:2|0:0|1:2,0:0:0:0:
251,284,167989,1,8,0:0:0:0:
173,358,168159,5,4,3:0:0:0:
173,358,168243,1,0,1:0:0:0:
173,358,168328,2,1,P|162:323|155:306,1,40,2|2,1:2|1:2,0:0:0:0:
140,248,168498,2,1,P|145:229|150:210,1,40,2|2,1:2|1:2,0:0:0:0:
84,156,168667,6,0,P|154:125|222:162,1,160,12|2,0:0|1:2,0:0:0:0:
315,251,169175,2,0,P|353:235|394:219,1,80,2|0,1:2|1:2,0:0:0:0:
483,161,169514,1,2,1:2:0:0:
397,35,169684,1,10,0:0:0:0:
306,162,169853,1,14,0:2:0:0:
306,162,170192,5,8,0:0:0:0:
495,52,170362,1,12,0:0:0:0:
483,161,170532,1,8,0:0:0:0:
483,161,170616,1,8,0:0:0:0:
483,161,170701,2,0,P|454:148|438:143,1,40,2|8,1:2|3:0,0:0:0:0:
332,80,170870,5,8,3:0:0:0:
292,74,170954,1,8,3:0:0:0:
255,87,171039,1,6,3:0:0:0:
226,115,171124,1,4,3:0:0:0:
213,152,171208,1,8,0:0:0:0:
218,192,171293,1,8,0:0:0:0:
239,225,171379,6,1,P|303:207|391:181,1,143.999995605469,6|0,1:2|0:0,0:0:0:0:
446,145,171718,2,1,P|459:194|431:247,1,95.9999970703126,14|0,0:0|0:0,0:0:0:0:
359,359,172057,2,0,P|297:344|258:334,1,95.9999970703126,2|0,1:2|1:2,0:0:0:0:
93,281,172396,2,0,P|155:266|194:256,1,95.9999970703126,10|0,0:0|1:2,0:0:0:0:
319,120,172735,6,1,B|264:111|255:61|255:61|205:45|167:95,1,191.999994140625,2|8,1:2|0:0,0:0:0:0:
30,23,173243,1,2,1:2:0:0:
30,23,173328,1,2,1:2:0:0:
30,23,173413,2,1,P|41:67|57:128,1,95.9999970703126,2|0,1:2|1:2,0:0:0:0:
0,256,173752,2,0,P|36:280|88:268,1,95.9999970703126,10|2,0:0|0:0,0:0:0:0:
232,363,174091,6,0,P|210:262|189:159,1,191.999994140625,2|8,1:2|0:0,0:0:0:0:
259,18,174599,1,2,0:0:0:0:
402,67,174769,2,1,P|390:111|376:169,1,95.9999970703126,2|0,1:2|0:0,0:0:0:0:
449,294,175108,2,0,P|383:318|319:288,1,143.999995605469,8|0,0:0|0:0,0:0:0:0:
276,232,175447,6,0,P|234:241|175:253,1,95.9999970703126,0|0,1:2|1:2,0:0:0:0:
12,316,175786,2,0,P|60:326|106:336,1,95.9999970703126,8|0,0:0|0:0,0:0:0:0:
41,204,176125,1,2,1:2:0:0:
41,204,176294,1,0,1:2:0:0:
132,53,176464,1,10,0:0:0:0:
0,100,176633,1,8,0:0:0:0:
0,100,176718,1,8,0:0:0:0:
0,100,176803,6,0,P|46:114|99:127,1,95.9999970703126,6|0,1:2|0:0,0:0:0:0:
206,234,177142,2,0,P|252:240|295:219,1,95.9999970703126,10|0,0:0|0:0,0:0:0:0:
461,137,177481,2,0,P|448:183|432:228,1,95.9999970703126,2|0,1:2|1:2,0:0:0:0:
357,380,177820,2,0,P|341:333|328:288,1,95.9999970703126,10|0,0:0|1:2,0:0:0:0:
274,90,178159,6,0,B|225:84|213:35|213:35|160:26|127:81,2,191.999994140625,2|8|0,1:2|0:0|1:2,0:0:0:0:
423,71,179006,1,2,1:2:0:0:
384,211,179175,1,10,0:0:0:0:
331,24,179345,1,2,0:0:0:0:
472,161,179514,6,1,P|483:211|449:267,1,95.9999970703126,6|0,1:2|0:0,0:0:0:0:
352,353,179853,1,10,0:0:0:0:
250,232,180023,2,0,P|203:242|156:252,1,95.9999970703126,2|8,1:2|0:0,0:0:0:0:
32,316,180362,1,10,0:0:0:0:
142,178,180531,1,8,0:0:0:0:
142,178,180616,1,8,0:0:0:0:
142,178,180701,6,1,P|131:272|119:375,1,191.999994140625,6|4,1:2|1:2,0:0:0:0:
17,226,181209,2,0,P|5:180|27:138,1,95.9999970703126,8|0,0:0|1:2,0:0:0:0:
74,25,181548,1,10,0:0:0:0:
74,25,181633,1,8,0:0:0:0:
74,25,181718,2,0,L|132:49,1,47.9999985351563,8|8,0:0|0:0,0:0:0:0:
237,68,181887,1,2,1:2:0:0:
237,68,181972,1,8,0:0:0:0:
237,68,182057,2,1,L|179:92,1,47.9999985351563,8|8,0:0|0:0,0:0:0:0:
126,144,182226,6,1,P|185:218|265:210,1,143.999995605469,6|0,1:2|0:0,0:0:0:0:
274,299,182565,2,1,P|307:265|314:218,1,95.9999970703126,10|0,0:0|0:0,0:0:0:0:
310,42,182904,2,0,P|353:52|403:64,1,95.9999970703126,2|0,1:2|1:2,0:0:0:0:
509,158,183243,2,0,P|498:214|480:313,1,143.999995605469,10|0,0:0|0:0,0:0:0:0:
431,354,183582,6,1,B|381:375|341:327|351:330|312:288|254:318,1,191.999994140625,2|8,1:2|0:0,0:0:0:0:
126,371,184091,1,2,1:2:0:0:
126,371,184175,1,2,1:2:0:0:
126,371,184260,2,1,P|136:309|145:248,1,95.9999970703126,2|0,1:2|1:2,0:0:0:0:
298,200,184599,2,0,P|255:225|203:214,1,95.9999970703126,10|0,0:0|1:2,0:0:0:0:
158,76,184938,6,1,P|90:14|-3:36,2,191.999994140625,2|8|2,1:2|0:0|1:2,0:0:0:0:
210,219,185786,1,0,1:2:0:0:
32,181,185955,2,0,P|73:166|140:142,1,95.9999970703126,8|0,0:0|0:0,0:0:0:0:
268,117,186294,5,4,1:2:0:0:
382,193,186464,1,0,1:2:0:0:
280,245,186633,1,8,0:0:0:0:
429,113,186803,2,0,P|418:166|391:314,1,191.999994140625,4|0,1:2|1:2,0:0:0:0:
278,368,187311,1,8,0:0:0:0:
180,284,187481,1,8,0:0:0:0:
180,284,187565,1,8,0:0:0:0:
180,284,187650,6,0,P|192:233|206:180,1,95.9999970703126,6|2,1:2|0:0,0:0:0:0:
348,45,187989,2,0,P|317:10|271:5,1,95.9999970703126,10|2,0:0|1:2,0:0:0:0:
76,73,188328,2,0,P|121:87|167:101,1,95.9999970703126,8|2,0:0|0:0,0:0:0:0:
323,168,188667,1,8,0:0:0:0:
295,342,188836,6,0,P|253:364|188:337,1,95.9999970703126,2|8,1:2|0:0,0:0:0:0:
70,320,189175,2,0,P|81:273|95:227,1,95.9999970703126,2|8,0:0|0:0,0:0:0:0:
158,111,189514,1,2,1:2:0:0:
209,220,189684,1,8,0:0:0:0:
71,137,189853,1,0,1:2:0:0:
272,46,190023,2,0,P|257:90|237:151,1,95.9999970703126,8|0,0:0|1:2,0:0:0:0:
233,320,190362,6,0,P|278:331|322:313,1,95.9999970703126,14|2,0:0|0:0,0:0:0:0:
512,245,190701,2,0,P|497:199|482:153,1,95.9999970703126,10|2,0:0|1:2,0:0:0:0:
364,23,191040,2,0,P|349:68|335:114,1,95.9999970703126,8|2,0:0|0:0,0:0:0:0:
299,249,191379,1,8,0:0:0:0:
404,352,191548,6,0,P|427:283|401:246,1,95.9999970703126,2|8,1:2|0:0,0:0:0:0:
285,165,191887,2,0,P|241:178|178:196,1,95.9999970703126,2|8,1:2|0:0,0:0:0:0:
44,303,192226,2,0,P|91:311|138:321,1,95.9999970703126,2|8,1:2|0:0,0:0:0:0:
257,344,192565,1,8,0:0:0:0:
257,344,192650,1,8,0:0:0:0:
257,344,192735,2,1,P|248:308|242:282,1,47.9999985351563,8|8,0:0|0:0,0:0:0:0:
180,238,192904,2,1,P|186:214|191:191,1,47.9999985351563,0|0,1:2|1:2,0:0:0:0:
247,117,193074,5,14,0:0:0:0:
121,38,193243,1,0,0:0:0:0:
295,54,193413,2,0,P|250:36|203:55,1,95.9999970703126,10|0,0:0|1:2,0:0:0:0:
68,128,193752,2,0,P|55:81|42:35,1,95.9999970703126,8|0,0:0|1:2,0:0:0:0:
172,141,194091,2,0,P|158:187|147:233,1,95.9999970703126,8|0,0:0|1:2,0:0:0:0:
86,373,194430,6,0,P|38:377|-3:347,1,95.9999970703126,12|0,0:0|1:2,0:0:0:0:
147,233,194769,2,0,P|194:236|230:266,1,95.9999970703126,12|0,0:0|1:2,0:0:0:0:
353,362,195108,2,1,P|364:314|376:258,1,95.9999970703126,10|4,0:0|3:0,0:0:0:0:
482,105,195447,1,8,3:0:0:0:
510,136,195531,1,8,3:0:0:0:
509,178,195616,1,10,3:0:0:0:
480,209,195701,1,8,3:0:0:0:
437,210,195786,6,1,B|371:180|327:157|327:157|305:183|271:211,1,192,6|0,1:2|1:2,0:0:0:0:
237,296,196464,2,0,P|180:322|119:306,1,128,8|0,0:0|1:2,0:0:0:0:
50,236,196972,1,8,0:0:0:0:
123,134,197142,6,0,P|55:152|-7:171,2,128,0|0|8,1:2|0:0|0:0,0:0:0:0:
189,57,197989,1,8,0:0:0:0:
263,121,198159,1,2,1:2:0:0:
263,121,198243,1,8,0:0:0:0:
263,121,198328,2,1,P|258:148|251:179,1,32,8|8,0:0|0:0,0:0:0:0:
254,226,198498,6,0,P|306:278|406:252,1,176.000005371094,6|8,1:2|0:0,0:0:0:0:
512,129,199006,2,1,P|460:77|360:103,1,176.000005371094,6|2,1:2|1:2,0:0:0:0:
199,15,199515,6,0,P|211:67|239:188,1,176.000005371094,14|0,0:0|1:2,0:0:0:0:
184,285,200023,1,8,0:0:0:0:
289,361,200192,2,0,P|335:350|378:340,1,88.000002685547,0|8,1:2|0:0,0:0:0:0:
512,255,200531,2,0,P|501:186|474:172,1,88.000002685547,2|2,1:2|1:2,0:0:0:0:
485,167,200786,1,0,1:0:0:0:
479,155,200870,2,0,P|444:163|427:167,1,44.0000013427735,8|8,1:2|0:0,0:0:0:0:
369,210,201040,2,0,P|334:203|317:198,1,44.0000013427735,8|8,0:0|0:0,0:0:0:0:
266,155,201209,6,1,P|201:157|105:215,1,176.000005371094,6|8,1:2|0:0,0:0:0:0:
19,367,201718,2,0,P|8:318|-2:274,1,88.000002685547,2|8,1:2|0:0,0:0:0:0:
28,148,202057,1,2,0:0:0:0:
28,148,202142,1,2,0:0:0:0:
28,148,202226,1,8,0:0:0:0:
161,298,202396,6,0,B|214:314|240:273|234:276|262:238|323:266,1,176.000005371094,6|0,1:2|1:2,0:0:0:0:
402,351,202904,1,8,0:0:0:0:
470,267,203074,2,0,L|516:281,2,44.0000013427735,8|8|0,3:0|3:0|1:2,0:0:0:0:
391,191,203413,1,2,0:0:0:0:
471,118,203582,1,2,1:2:0:0:
471,118,203667,1,4,3:0:0:0:
471,118,203752,2,1,P|465:81|463:69,1,44.0000013427735,10|8,3:0|3:0,0:0:0:0:
400,34,203921,6,0,B|355:3|316:28|316:28|308:71|255:81,1,176.000005371094,6|8,1:2|0:0,0:0:0:0:
151,155,204430,2,0,P|185:166|238:182,1,88.000002685547,2|8,1:2|0:0,0:0:0:0:
346,254,204769,1,2,0:0:0:0:
346,254,204854,1,8,0:0:0:0:
346,254,204938,1,8,0:0:0:0:
219,370,205108,6,0,P|156:320|66:352,1,176.000005371094,6|6,1:2|1:2,0:0:0:0:
7,223,205616,1,8,0:0:0:0:
7,223,205701,1,0,0:0:0:0:
7,223,205786,2,0,P|29:217|52:211,1,44.0000013427735,8|8,3:0|3:0,0:0:0:0:
124,238,205955,1,0,1:2:0:0:
197,188,206125,1,2,0:0:0:0:
161,107,206294,1,2,1:2:0:0:
73,120,206464,1,6,3:0:0:0:
124,238,206633,6,0,P|206:225|304:210,1,176.000005371094,6|10,1:2|0:0,0:0:0:0:
403,279,207142,1,2,0:0:0:0:
321,326,207311,1,2,1:2:0:0:
377,203,207481,1,2,1:2:0:0:
484,319,207650,1,8,0:0:0:0:
512,136,207820,6,0,P|456:101|351:125,1,176.000005371094,2|2,1:2|1:2,0:0:0:0:
274,34,208328,1,10,0:0:0:0:
166,151,208498,2,0,P|187:229|212:330,1,176.000005371094,2|2,1:2|1:2,0:0:0:0:
214,332,208921,1,2,0:0:0:0:
216,343,209006,1,10,0:0:0:0:
304,258,209176,1,2,0:0:0:0:
413,363,209345,6,1,B|468:299|468:299|412:226,1,176.000005371094,2|10,1:2|0:0,0:0:0:0:
325,116,209854,1,2,0:0:0:0:
418,131,210023,1,2,1:2:0:0:
322,36,210193,1,2,1:2:0:0:
264,182,210362,1,10,0:0:0:0:
402,9,210532,6,1,P|298:23|208:36,1,176.000005371094,6|2,1:2|1:2,0:0:0:0:
159,119,211040,1,10,0:0:0:0:
24,33,211209,2,1,B|-19:93|-19:93|39:179,1,176.000005371094,6|2,1:2|1:2,0:0:0:0:
172,260,211718,2,0,P|216:212|280:204,1,132.00000402832,10|0,0:0|0:0,0:0:0:0:
296,211,212057,5,10,0:0:0:0:
373,370,212226,1,10,0:0:0:0:
470,203,212396,1,10,0:0:0:0:
369,381,212565,1,10,0:0:0:0:
215,140,212904,5,10,0:0:0:0:
0,295,213243,6,0,P|65:274|175:244,1,176.000005371094,14|2,0:0|0:0,0:0:0:0:
179,249,213667,1,2,0:0:0:0:
188,253,213752,1,4,3:0:0:0:
273,299,213921,1,4,3:0:0:0:
207,369,214091,2,0,P|161:360|118:351,1,88.000002685547,8|8,3:0|3:0,0:0:0:0:
16,362,214430,1,4,3:0:0:0:
79,107,214769,5,6,1:2:0:0:
251,173,214938,1,10,3:0:0:0:
71,283,215108,1,10,0:0:0:0:
262,169,215277,1,10,0:0:0:0:
382,372,215616,5,14,0:0:0:0:
512,220,215955,6,0,P|448:276|364:264,1,176.000005371094,14|4,0:0|3:0,0:0:0:0:
254,159,216464,1,10,0:0:0:0:
373,52,216633,1,8,1:2:0:0:
373,52,216718,1,8,0:0:0:0:
373,52,216803,1,10,0:0:0:0:
447,118,216972,5,8,3:0:0:0:
396,181,217142,1,10,3:0:0:0:
297,91,217311,1,4,3:0:0:0:
297,91,217396,1,4,3:0:0:0:
297,91,217481,6,0,P|238:86|176:137,1,128,6|0,1:2|0:0,0:0:0:0:
135,214,217989,1,0,1:2:0:0:
252,264,218159,2,0,P|243:223|232:181,1,64,10|10,0:0|0:0,0:0:0:0:
182,123,218498,1,10,0:0:0:0:
108,11,218667,6,0,P|63:0|-5:65,1,128,6|8,1:2|0:0,0:0:0:0:
34,146,219176,2,0,P|26:174|17:227,1,64,2|4,1:2|3:0,0:0:0:0:
18,218,219430,1,4,3:0:0:0:
15,229,219515,1,0,1:2:0:0:
4,319,219684,1,8,3:0:0:0:
80,365,219854,1,2,1:2:0:0:
292,193,220193,5,10,0:0:0:0:
202,370,220362,1,10,0:0:0:0:
110,202,220701,5,10,0:0:0:0:
274,100,220870,1,10,0:0:0:0:
382,357,221209,5,10,0:0:0:0:
197,254,221378,1,10,0:0:0:0:
512,10,222565,5,4,3:0:0:0:
342,125,222904,5,10,0:0:0:0:
434,311,223073,1,10,0:0:0:0:
499,111,223412,5,10,0:0:0:0:
312,30,223581,1,10,0:0:0:0:
256,258,223920,5,10,0:0:0:0:
423,150,224091,1,10,0:0:0:0:
146,21,224938,1,4,1:2:0:0:
68,93,225108,1,10,1:2:0:0:
68,93,225193,1,8,0:0:0:0:
68,93,225277,2,0,P|75:114|84:139,3,32,8|8|8|8,0:2|0:2|0:2|0:2,0:0:0:0:
132,172,225616,6,0,P|141:202|135:233,1,64,6|0,1:2|1:2,0:0:0:0:
98,326,225955,1,10,0:0:0:0:
0,231,226125,2,0,P|8:192|17:145,1,64,6|0,1:2|0:0,0:0:0:0:
68,93,226464,1,10,0:0:0:0:
68,93,226633,1,10,0:0:0:0:
238,4,226803,6,0,P|224:62|207:134,1,128,4|10,1:2|0:0,0:0:0:0:
163,254,227311,1,10,0:0:0:0:
301,332,227481,1,10,0:0:0:0:
243,210,227650,1,10,0:0:0:0:
194,366,227820,5,4,3:0:0:0:
194,366,227904,1,4,3:0:0:0:
194,366,227989,2,0,P|211:360|248:348,1,32,10|8,0:0|0:0,0:0:0:0:
327,267,228159,1,8,0:0:0:0:
327,267,228243,1,8,0:0:0:0:
327,267,228328,2,0,P|357:276|387:287,1,64,10|0,0:0|1:0,0:0:0:0:
396,294,228582,1,0,1:2:0:0:
403,302,228667,6,1,P|468:278|484:211,1,143.999995605469,14|0,0:0|0:0,0:0:0:0:
511,140,229006,2,0,P|461:135|418:174,1,95.9999970703126,2|0,1:2|0:0,0:0:0:0:
282,294,229345,2,0,P|271:247|259:200,1,95.9999970703126,10|0,0:0|0:0,0:0:0:0:
83,55,229684,6,0,B|143:77|176:27|169:32|200:-5|260:16,1,191.999994140625,2|8,1:2|0:0,0:0:0:0:
380,117,230193,1,2,1:2:0:0:
380,117,230277,1,2,1:2:0:0:
380,117,230362,2,0,P|386:165|354:210,1,95.9999970703126,2|0,1:2|0:0,0:0:0:0:
250,332,230701,2,0,P|186:316|145:306,1,95.9999970703126,10|4,0:0|3:0,0:0:0:0:
0,188,231040,6,0,B|57:160|103:137|103:137|147:147|155:197,1,191.999994140625,6|8,1:2|0:0,0:0:0:0:
234,300,231548,1,2,0:0:0:0:
101,362,231718,2,0,P|78:315|94:267,1,95.9999970703126,2|0,1:2|0:0,0:0:0:0:
220,147,232057,2,1,P|286:163|372:183,1,143.999995605469,8|0,0:0|0:0,0:0:0:0:
418,229,232396,6,0,P|438:189|423:140,1,95.9999970703126,4|0,1:2|1:2,0:0:0:0:
316,22,232735,2,0,P|269:34|210:51,1,95.9999970703126,8|4,0:0|3:0,0:0:0:0:
101,108,233074,1,2,1:2:0:0:
101,108,233243,1,4,3:0:0:0:
204,196,233413,1,2,1:2:0:0:
83,299,233582,1,4,3:0:0:0:
83,299,233667,1,8,3:0:0:0:
83,299,233752,6,1,P|63:247|78:204,1,95.9999970703126,6|0,1:2|0:0,0:0:0:0:
174,104,234091,2,0,P|217:115|276:131,1,95.9999970703126,10|0,0:0|0:0,0:0:0:0:
403,164,234430,2,0,P|414:118|393:76,1,95.9999970703126,2|0,1:2|0:0,0:0:0:0:
259,204,234769,2,1,P|268:242|280:300,1,95.9999970703126,10|0,0:0|0:0,0:0:0:0:
512,334,235108,6,0,B|454:304|407:350|425:343|385:391|335:370,2,191.999994140625,2|8|0,1:2|0:0|1:2,0:0:0:0:
382,243,235955,1,2,0:0:0:0:
480,124,236124,1,10,0:0:0:0:
512,249,236294,1,2,0:0:0:0:
366,92,236463,6,0,P|319:102|272:112,1,95.9999970703126,6|0,1:2|0:0,0:0:0:0:
164,206,236802,1,10,0:0:0:0:
260,297,236972,2,0,P|289:252|280:203,1,95.9999970703126,2|8,1:2|0:0,0:0:0:0:
182,87,237311,1,2,0:0:0:0:
182,87,237396,1,8,0:0:0:0:
182,87,237480,1,8,0:0:0:0:
0,273,237650,6,0,B|33:220|89:228|89:228|103:281|158:285,1,191.999994140625,6|4,1:2|1:2,0:0:0:0:
283,352,238159,2,0,P|230:368|185:380,1,95.9999970703126,8|8,0:0|3:0,0:0:0:0:
44,370,238497,1,6,1:2:0:0:
44,370,238582,1,0,1:2:0:0:
44,370,238667,2,1,L|68:312,1,47.9999985351563,8|8,0:0|0:0,0:0:0:0:
111,231,238836,1,10,1:2:0:0:
111,231,238921,1,8,0:0:0:0:
111,231,239006,2,0,L|87:173,1,47.9999985351563,4|4,3:0|3:0,0:0:0:0:
12,166,239175,6,0,P|57:114|127:114,1,143.999995605469,6|0,1:2|0:0,0:0:0:0:
189,161,239515,2,0,P|231:178|281:161,1,95.9999970703126,10|0,0:2|0:0,0:0:0:0:
417,34,239854,2,0,P|410:76|399:135,1,95.9999970703126,2|0,1:2|1:2,0:0:0:0:
512,257,240192,2,0,P|442:249|401:285,1,95.9999970703126,10|0,0:2|1:2,0:0:0:0:
350,362,240532,5,14,0:2:0:0:
303,351,240616,1,0,0:0:0:0:
265,322,240701,1,8,0:2:0:0:
242,280,240786,1,8,0:2:0:0:
238,233,240870,2,0,P|246:204|256:175,1,47.9999985351563,8|8,0:2|0:2,0:0:0:0:
316,114,241040,2,0,P|307:85|297:56,1,47.9999985351563,8|8,0:2|0:2,0:0:0:0:
245,7,241209,1,2,1:2:0:0:
118,73,241379,5,8,0:2:0:0:
118,73,241464,1,8,0:2:0:0:
118,73,241548,2,1,P|112:101|104:128,1,47.9999985351563,10|8,0:2|0:2,0:0:0:0:
46,184,241718,2,1,P|53:208|60:239,1,47.9999985351563,8|10,0:2|0:2,0:0:0:0:
44,304,241887,5,2,0:0:0:0:
191,361,242057,1,4,1:2:0:0:
510,347,242565,6,0,P|492:269|374:235,1,191.999994140625,6|8,1:2|0:0,0:0:0:0:
219,149,243074,2,0,B|309:102|329:88|329:88|312:113|310:189,1,191.999994140625,4|8,1:2|3:3,0:0:0:0:
272,262,243582,1,8,0:0:0:0:
402,335,243752,1,4,3:0:0:0:
402,335,243837,1,4,3:0:0:0:
402,335,243921,1,4,3:0:0:0:
448,211,244091,1,4,1:2:0:0:
385,68,244260,5,8,0:0:0:0:
337,68,244344,1,8,0:0:0:0:
301,98,244429,1,8,3:0:0:0:
293,144,244514,1,8,3:0:0:0:
310,191,244599,6,0,P|259:203|206:217,1,95.9999970703126,6|2,1:2|0:0,0:0:0:0:
78,325,244938,2,0,P|129:337|182:351,1,95.9999970703126,10|2,0:0|1:2,0:0:0:0:
340,384,245277,2,0,P|356:339|334:290,1,95.9999970703126,8|2,0:0|1:2,0:0:0:0:
236,139,245616,1,8,0:0:0:0:
405,51,245785,6,0,P|394:87|378:150,1,95.9999970703126,2|12,1:2|0:0,0:0:0:0:
169,273,246124,2,0,P|157:226|143:180,1,95.9999970703126,2|8,1:2|0:0,0:0:0:0:
93,13,246463,1,2,1:2:0:0:
4,176,246633,1,8,0:0:0:0:
200,73,246802,1,0,1:2:0:0:
6,2,246972,2,0,P|16:45|31:103,1,95.9999970703126,8|0,0:0|1:2,0:0:0:0:
113,266,247311,6,0,P|63:282|5:299,1,95.9999970703126,14|2,0:0|1:2,0:0:0:0:
161,144,247650,2,0,P|206:158|252:173,1,95.9999970703126,10|2,0:0|1:2,0:0:0:0:
411,139,247989,2,0,P|415:197|388:232,1,95.9999970703126,8|6,0:0|1:2,0:0:0:0:
252,298,248328,1,8,0:0:0:0:
380,372,248498,6,0,P|424:359|487:341,1,95.9999970703126,10|8,3:0|0:0,0:0:0:0:
503,165,248837,2,0,P|458:152|396:134,1,95.9999970703126,2|8,1:2|0:0,0:0:0:0:
276,9,249177,2,0,P|242:53|249:105,1,95.9999970703126,6|8,1:2|0:0,0:0:0:0:
325,211,249514,1,0,1:2:0:0:
325,211,249599,1,0,1:0:0:0:
325,211,249684,2,0,P|289:220|263:226,1,47.9999985351563,8|0,0:0|1:0,0:0:0:0:
210,269,249853,2,0,P|186:263|163:257,1,47.9999985351563,4|4,3:0|3:0,0:0:0:0:
86,244,250023,5,6,1:2:0:0:
243,91,250193,1,2,0:0:0:0:
82,33,250362,2,0,P|88:72|100:130,1,95.9999970703126,10|0,0:0|1:2,0:0:0:0:
210,269,250701,2,0,P|219:221|227:174,1,95.9999970703126,8|0,0:0|1:2,0:0:0:0:
337,22,251040,2,0,P|388:24|426:55,1,95.9999970703126,8|0,0:0|1:2,0:0:0:0:
473,227,251379,6,0,P|421:224|384:194,1,95.9999970703126,12|0,0:0|1:2,0:0:0:0:
245,86,251718,2,0,L|270:188,1,95.9999970703126,8|0,0:0|1:2,0:0:0:0:
241,344,252057,2,0,P|274:323|336:333,1,95.9999970703126,10|8,0:0|0:0,0:0:0:0:
475,331,252396,1,0,1:2:0:0:
503,300,252480,1,8,3:0:0:0:
502,258,252565,1,4,3:0:0:0:
473,227,252650,1,4,3:0:0:0:
430,226,252735,6,0,P|344:246|235:272,1,191.999994140625,6|0,1:2|1:2,0:0:0:0:
175,208,253413,2,0,P|113:201|63:238,1,128,8|0,0:0|1:2,0:0:0:0:
0,310,253921,1,8,3:0:0:0:
75,361,254091,6,0,P|132:367|211:376,2,128,0|0|8,1:2|0:0|0:0,0:0:0:0:
0,310,254938,1,8,0:0:0:0:
62,238,255108,1,2,1:2:0:0:
62,238,255192,1,4,3:0:0:0:
62,238,255277,2,0,P|53:189|50:180,1,32,4|4,3:0|3:0,0:0:0:0:
2,145,255447,6,0,P|-4:79|91:27,1,176.000005371094,6|8,1:2|0:0,0:0:0:0:
211,109,255955,2,0,B|297:123|277:48|377:82,1,176.000005371094,6|2,1:2|1:2,0:0:0:0:
512,197,256464,6,0,P|442:246|361:223,1,176.000005371094,14|0,0:0|1:2,0:0:0:0:
270,125,256972,1,0,1:2:0:0:
168,197,257141,2,0,P|177:237|188:292,1,88.000002685547,8|8,0:0|0:0,0:0:0:0:
261,376,257481,1,10,0:0:0:0:
342,309,257650,2,0,P|350:265|360:222,1,88.000002685547,8|8,0:0|0:0,0:0:0:0:
468,143,257989,1,8,0:0:0:0:
468,143,258073,1,8,0:0:0:0:
468,143,258159,6,0,P|443:106|312:86,1,160,6|10,1:2|0:0,0:0:0:0:
227,138,258667,1,2,0:0:0:0:
120,36,258837,2,0,P|112:73|101:130,1,80,2|2,1:2|1:2,0:0:0:0:
71,232,259175,1,8,0:0:0:0:
177,332,259345,6,0,B|268:306|244:368|338:352,1,160,2|2,0:0|1:2,0:0:0:0:
442,303,259853,1,10,0:0:0:0:
333,178,260023,2,0,P|255:198|177:217,1,160,2|2,1:2|1:2,0:0:0:0:
64,168,260531,2,0,P|57:126|98:79,1,80,10|2,0:0|1:2,0:0:0:0:
213,35,260870,5,6,1:2:0:0:
140,144,261040,1,2,1:2:0:0:
122,6,261209,1,10,0:0:0:0:
244,130,261379,2,0,P|304:115|421:86,1,160,6|2,1:2|1:2,0:0:0:0:
506,31,261887,1,10,0:0:0:0:
512,186,262057,6,0,P|476:233|360:225,1,160,6|2,1:2|1:2,0:0:0:0:
283,185,262565,2,0,P|265:220|266:260,1,80,10|10,0:0|0:0,0:0:0:0:
367,342,262904,1,0,1:2:0:0:
250,370,263073,1,8,0:0:0:0:
250,370,263158,1,0,0:0:0:0:
250,370,263243,2,0,P|194:361|119:346,1,120,8|4,0:0|3:0,0:0:0:0:
99,361,263582,6,0,P|80:303|123:215,1,160,6|10,1:2|0:0,0:0:0:0:
181,133,264090,1,2,0:0:0:0:
62,60,264260,2,0,P|73:98|84:136,1,80,2|2,1:2|1:2,0:0:0:0:
198,220,264599,1,10,0:0:0:0:
265,79,264769,6,0,P|303:86|360:96,1,80,2|0,0:0|1:2,0:0:0:0:
470,152,265108,2,0,P|442:186|404:192,1,80,2|10,1:2|0:0,0:0:0:0:
328,319,265446,2,0,P|307:243|284:166,1,160,2|2,1:2|1:2,0:0:0:0:
184,80,265955,2,0,P|136:69|96:101,1,80,10|2,0:0|1:2,0:0:0:0:
0,176,266294,5,6,1:2:0:0:
148,151,266464,1,2,1:2:0:0:
51,37,266633,1,10,0:0:0:0:
88,229,266803,2,0,P|122:194|245:199,1,160,6|2,1:2|1:2,0:0:0:0:
338,250,267311,1,10,0:0:0:0:
464,140,267480,6,0,P|474:219|483:298,1,160,6|0,1:2|1:2,0:0:0:0:
378,373,267989,1,8,0:0:0:0:
279,313,268158,2,0,P|234:308|202:335,1,80,4|0,3:0|1:2,0:0:0:0:
84,338,268497,1,0,1:0:0:0:
84,338,268582,1,0,1:0:0:0:
84,338,268667,2,0,P|91:356|97:375,3,40,0|8|8|8,1:2|3:0|3:0|3:0,0:0:0:0:
114,267,269006,5,6,1:2:0:0:
12,198,269176,2,0,P|42:175|109:180,1,80,2|8,0:0|0:0,0:0:0:0:
215,220,269515,1,2,0:0:0:0:
215,220,269600,1,8,3:0:0:0:
215,220,269685,2,0,P|218:179|188:128,1,80,2|0,1:2|1:2,0:0:0:0:
119,69,270024,1,10,0:0:0:0:
234,8,270193,6,0,P|272:17|311:25,1,80,2|0,1:2|1:2,0:0:0:0:
397,127,270532,1,2,1:2:0:0:
507,42,270702,2,0,P|495:80|484:118,1,80,10|4,0:0|3:0,0:0:0:0:
502,233,271041,2,0,P|459:235|410:206,1,80,2|0,1:2|1:2,0:0:0:0:
327,172,271380,1,10,0:0:0:0:
327,172,271719,5,6,1:2:0:0:
247,285,271888,2,0,P|280:260|333:275,1,80,2|8,0:0|0:0,0:0:0:0:
422,348,272227,1,10,3:0:0:0:
422,348,272312,1,0,0:0:0:0:
422,348,272397,2,0,P|378:359|326:371,1,80,2|0,1:2|1:2,0:0:0:0:
242,375,272736,1,10,0:0:0:0:
150,281,272905,6,0,P|160:243|169:204,1,80,2|12,1:2|0:0,0:0:0:0:
240,118,273244,1,6,3:0:0:0:
154,18,273413,2,0,P|108:11|71:38,1,80,2|4,1:2|3:0,0:0:0:0:
74,35,273668,1,4,3:0:0:0:
68,44,273752,6,0,P|77:82|86:121,1,80,2|4,1:2|3:0,0:0:0:0:
111,280,274091,1,2,1:2:0:0:
81,305,274175,1,8,3:0:0:0:
42,305,274260,1,8,3:0:0:0:
12,279,274345,1,4,3:0:0:0:
0,237,274430,6,0,B|103:181|151:247|140:243|196:320|262:272|265:269|312:252|312:252|315:214|277:191|277:191|318:170|354:194|354:194|382:162|389:134|389:134|420:167|407:207|407:207|437:235|478:237|478:237|465:274|421:274|421:274|400:305|417:353|417:353|376:343|361:303|361:303|331:291|290:324|290:324|288:288|301:270,1,1079.99996704102,6|2,1:2|0:0,0:0:0:0:
