osu file format v14

[General]
AudioFilename: audio.mp3
AudioLeadIn: 0
PreviewTime: 200749
Countdown: 0
SampleSet: Soft
StackLeniency: 0.4
Mode: 0
LetterboxInBreaks: 0
WidescreenStoryboard: 1

[Editor]
DistanceSpacing: 1.3
BeatDivisor: 4
GridSize: 4
TimelineZoom: 3

[Metadata]
Title:Koiseyo Otome
TitleUnicode:コイセヨオトメ
Artist:Inori Minase
ArtistUnicode:水瀬いのり
Creator:Sekai
Version:AsuKo's Extra
Source:
Tags:いのりん inorin Innocent flower しほり 齋藤真也 shihori shinya saito female vocal jpop j-pop japanese pop Sekaii Sekai-nyan AsuKow pnky -karupa- Kanui Baack GrazuKo
BeatmapID:4000162
BeatmapSetID:1935510

[Difficulty]
HPDrainRate:5.5
CircleSize:4.2
OverallDifficulty:8.5
ApproachRate:9.2
SliderMultiplier:1.7
SliderTickRate:1

[Events]
//Background and Video events
0,0,"suimyaaaaaa.jpg",0,0
//Break Periods
2,202327,207075
//Storyboard Layer 0 (Background)
//Storyboard Layer 1 (Fail)
//Storyboard Layer 2 (Pass)
//Storyboard Layer 3 (Foreground)
//Storyboard Layer 4 (Overlay)
//Storyboard Sound Samples

[TimingPoints]
749,344.827586206897,4,2,1,54,1,0
5921,-250.000000000001,4,2,1,54,0,0
6180,-166.666666666667,4,2,1,54,0,0
6266,-100,4,2,1,54,0,0
6525,-100,4,2,1,54,0,0
6611,-100,4,2,1,54,0,0
6870,-100,4,2,1,54,0,0
6956,-100,4,2,1,54,0,0
7214,-100,4,2,1,54,0,0
7301,-100,4,2,1,54,0,0
7559,-100,4,2,1,54,0,0
7645,-100,4,2,1,54,0,0
7904,-100,4,2,1,54,0,0
7990,-100,4,2,1,54,0,0
8249,-100,4,2,1,54,0,0
8335,-100,4,2,1,54,0,0
8594,-100,4,2,1,54,0,0
8680,-100,4,2,1,54,0,0
8938,-100,4,2,1,54,0,0
9025,-100,4,2,1,54,0,0
9283,-100,4,2,1,54,0,0
9370,-100,4,2,1,54,0,0
9628,-100,4,2,1,54,0,0
9714,-100,4,2,1,54,0,0
9973,-100,4,2,1,54,0,0
10059,-100,4,2,1,54,0,0
10231,-90.9090909090909,4,2,1,54,0,0
10490,-90.9090909090909,4,2,1,54,0,0
10576,-90.9090909090909,4,2,1,54,0,0
11783,-100,4,2,1,54,0,0
12042,-100,4,2,1,54,0,0
12128,-71.4285714285714,4,2,1,54,0,0
12387,-71.4285714285714,4,2,1,54,0,0
12473,-71.4285714285714,4,2,1,54,0,0
12818,-100,4,2,1,54,0,0
13766,-100,4,2,1,54,0,0
13852,-100,4,2,1,54,0,0
13938,-100,4,2,1,54,0,0
14025,-100,4,2,1,54,0,0
14370,-100,4,2,1,54,0,0
14542,-100,4,2,1,54,0,0
14801,-100,4,2,1,54,0,0
14886,-71.4285714285714,4,2,1,54,0,0
15145,-71.4285714285714,4,2,1,54,0,0
15232,-71.4285714285714,4,2,1,54,0,0
15318,-71.4285714285714,4,2,1,54,0,0
15404,-71.4285714285714,4,2,1,54,0,0
15749,-66.6666666666667,4,2,1,54,0,0
15835,-66.6666666666667,4,2,1,54,0,0
16094,-66.6666666666667,4,2,1,54,0,0
16180,-66.6666666666667,4,2,1,54,0,0
16438,-66.6666666666667,4,2,1,54,0,0
16525,-66.6666666666667,4,2,1,54,0,0
16783,-100,4,2,1,54,0,0
17042,-100,4,2,1,54,0,0
17128,-100,4,2,1,54,0,0
17301,-100,4,2,1,54,0,0
17559,-100,4,2,1,54,0,0
17645,-71.4285714285714,4,2,1,54,0,0
17904,-71.4285714285714,4,2,1,54,0,0
17990,-100,4,2,1,54,0,0
19887,-100,4,2,1,54,0,0
20059,-100,4,2,1,54,0,0
20663,-100,4,2,1,54,0,0
20749,-100,4,2,1,54,0,0
20835,-100,4,2,1,54,0,0
20921,-100,4,2,1,54,0,0
21956,-100,4,2,1,54,0,0
22128,-100,4,2,1,54,0,0
22214,-100,4,2,1,54,0,0
22473,-100,4,2,1,54,0,0
22559,-100,4,2,1,54,0,0
22818,-76.9230769230769,4,2,1,54,0,0
22990,-111.111111111111,4,2,1,54,0,0
27818,-111.111111111111,4,2,1,54,0,0
28335,-83.3333333333333,4,2,1,54,0,0
28852,-100,4,2,1,54,0,0
28938,-100,4,2,1,54,0,0
29025,-100,4,2,1,54,0,0
29628,-100,4,2,1,54,0,0
29714,-100,4,2,1,54,0,0
30318,-100,4,2,1,54,0,0
30404,-100,4,2,1,54,0,0
30749,-142.857142857143,4,2,1,54,0,0
30921,-142.857142857143,4,2,1,54,0,0
31007,-142.857142857143,4,2,1,54,0,0
31093,-100,4,2,1,54,0,0
31697,-100,4,2,1,54,0,0
31783,-100,4,2,1,54,0,0
32473,-83.3333333333333,4,2,1,54,0,0
33852,-100,4,2,1,54,0,0
34456,-100,4,2,1,54,0,0
34542,-100,4,2,1,54,0,0
35145,-100,4,2,1,54,0,0
35232,-100,4,2,1,54,0,0
35835,-100,4,2,1,54,0,0
35921,-83.3333333333333,4,2,1,54,0,0
36180,-83.3333333333333,4,2,1,54,0,0
36266,-83.3333333333333,4,2,1,54,0,0
36525,-83.3333333333333,4,2,1,54,0,0
36611,-100,4,2,1,54,0,0
37214,-100,4,2,1,54,0,0
37301,-100,4,2,1,54,0,0
37904,-100,4,2,1,54,0,0
37990,-100,4,2,1,54,0,0
38594,-100,4,2,1,54,0,0
38680,-100,4,2,1,54,0,0
39024,-125,4,2,1,54,0,0
39197,-125,4,2,1,54,0,0
39283,-125,4,2,1,54,0,0
39369,-100,4,2,1,54,0,0
39542,-100,4,2,4,54,0,0
39714,-100,4,2,1,54,0,0
39973,-100,4,2,1,54,0,0
40059,-100,4,2,1,54,0,0
41352,-100,4,2,1,54,0,0
41438,-100,4,2,1,54,0,0
41783,-125,4,2,1,54,0,0
42128,-100,4,2,1,54,0,0
42732,-100,4,2,1,54,0,0
42818,-100,4,2,1,54,0,0
43335,-100,4,2,1,54,0,0
44025,-100,4,2,1,54,0,0
44197,-100,4,2,1,54,0,0
44886,-125,4,2,1,54,0,0
52990,-125,4,2,1,54,0,0
53076,-125,4,2,1,54,0,0
53162,-111.111111111111,4,2,1,54,0,0
53421,-111.111111111111,4,2,1,54,0,0
53507,-90.9090909090908,4,2,1,54,0,0
53852,-111.111111111111,4,2,1,54,0,0
54111,-111.111111111111,4,2,1,54,0,0
54197,-90.9090909090908,4,2,1,54,0,0
54542,-90.9090909090908,4,2,1,54,0,0
55921,-90.9090909090908,4,2,1,54,0,0
56180,-90.9090909090908,4,2,1,54,0,0
56266,-90.9090909090908,4,2,1,54,0,0
57128,-90.9090909090908,4,2,1,54,0,0
57387,-90.9090909090908,4,2,1,54,0,0
57473,-90.9090909090908,4,2,1,54,0,0
58335,-250,4,2,1,54,0,0
58594,-250,4,2,1,54,0,0
58680,-66.6666666666667,4,2,1,63,0,0
58938,-66.6666666666667,4,2,1,63,0,0
59025,-83.3333333333333,4,2,1,63,0,0
59283,-83.3333333333333,4,2,1,63,0,0
59370,-83.3333333333333,4,2,1,63,0,0
59973,-83.3333333333333,4,2,1,63,0,0
60059,-83.3333333333333,4,2,1,63,0,0
60663,-83.3333333333333,4,2,1,63,0,0
60749,-83.3333333333333,4,2,1,63,0,0
60835,-83.3333333333333,4,2,1,63,0,0
60921,-83.3333333333333,4,2,1,63,0,0
62042,-83.3333333333333,4,2,1,63,0,0
62128,-83.3333333333333,4,2,1,63,0,0
63421,-83.3333333333333,4,2,1,63,0,0
63507,-83.3333333333333,4,2,1,63,0,0
63594,-83.3333333333333,4,2,1,63,0,0
63680,-83.3333333333333,4,2,1,63,0,0
65490,-83.3333333333333,4,2,1,63,0,0
65576,-83.3333333333333,4,2,1,63,0,0
68594,-83.3333333333333,4,2,1,63,0,0
68680,-83.3333333333333,4,2,1,63,0,0
69197,-83.3333333333333,4,2,1,63,0,0
69714,-66.6666666666667,4,2,1,63,0,0
69973,-66.6666666666667,4,2,1,63,0,0
70059,-83.3333333333333,4,2,1,63,0,0
70318,-83.3333333333333,4,2,1,63,0,0
70404,-83.3333333333333,4,2,1,63,0,0
71007,-83.3333333333333,4,2,1,63,0,0
71094,-83.3333333333333,4,2,1,63,0,0
71697,-83.3333333333333,4,2,1,63,0,0
71783,-83.3333333333333,4,2,1,63,0,0
71870,-83.3333333333333,4,2,1,63,0,0
71956,-83.3333333333333,4,2,1,63,0,0
72301,-83.3333333333333,4,2,1,63,0,0
72473,-83.3333333333333,4,2,1,63,0,0
73076,-83.3333333333333,4,2,1,63,0,0
73163,-83.3333333333333,4,2,1,63,0,0
73766,-83.3333333333333,4,2,1,63,0,0
73852,-83.3333333333333,4,2,1,63,0,0
74456,-83.3333333333333,4,2,1,63,0,0
74542,-83.3333333333333,4,2,1,63,0,0
74628,-83.3333333333333,4,2,1,63,0,0
74714,-83.3333333333333,4,2,1,63,0,0
75059,-83.3333333333333,4,2,1,63,0,0
75232,-83.3333333333333,4,2,1,63,0,0
75490,-83.3333333333333,4,2,1,63,0,0
75576,-83.3333333333333,4,2,1,63,0,0
76180,-83.3333333333333,4,2,1,63,0,0
76266,-83.3333333333333,4,2,1,63,0,0
76870,-83.3333333333333,4,2,1,63,0,0
76956,-83.3333333333333,4,2,1,63,0,0
77559,-83.3333333333333,4,2,1,63,0,0
77645,-83.3333333333333,4,2,1,63,0,0
79283,-83.3333333333333,4,2,1,63,0,0
79370,-83.3333333333333,4,2,1,63,0,0
81956,-83.3333333333333,4,2,1,54,0,0
82128,-100,4,2,1,54,0,0
82732,-100,4,2,1,54,0,0
82818,-100,4,2,1,54,0,0
84111,-100,4,2,1,54,0,0
84197,-100,4,2,1,54,0,0
84283,-100,4,2,1,54,0,0
84370,-100,4,2,1,54,0,0
85490,-100,4,2,1,54,0,0
85576,-100,4,2,1,54,0,0
85663,-100,4,2,1,54,0,0
85749,-100,4,2,1,54,0,0
87042,-100,4,2,1,54,0,0
87128,-100,4,2,1,54,0,0
87301,-100,4,2,1,54,0,0
87645,-90.9090909090909,4,2,1,54,0,0
87904,-90.9090909090909,4,2,1,54,0,0
87990,-76.9230769230769,4,2,1,54,0,0
88249,-76.9230769230769,4,2,1,54,0,0
88335,-100,4,2,1,54,0,0
88421,-100,4,2,1,54,0,0
88507,-100,4,2,1,54,0,0
89628,-100,4,2,1,54,0,0
89714,-100,4,2,1,54,0,0
89801,-100,4,2,1,54,0,0
89887,-100,4,2,1,54,0,0
91007,-100,4,2,1,54,0,0
91094,-100,4,2,1,54,0,0
91180,-100,4,2,1,54,0,0
91266,-100,4,2,1,54,0,0
91611,-83.3333333333333,4,2,1,54,0,0
91870,-100,4,2,1,54,0,0
91956,-100,4,2,1,54,0,0
92473,-100,4,2,1,54,0,0
93163,-100,4,2,1,54,0,0
93680,-111.111111111111,4,2,1,54,0,0
98680,-83.3333333333333,4,2,1,54,0,0
99197,-100,4,2,1,54,0,0
99283,-100,4,2,1,54,0,0
99370,-100,4,2,1,54,0,0
99973,-100,4,2,1,54,0,0
100059,-100,4,2,1,54,0,0
100663,-100,4,2,1,54,0,0
100749,-100,4,2,1,54,0,0
101093,-125,4,2,1,54,0,0
101352,-125,4,2,1,54,0,0
101438,-100,4,2,1,54,0,0
102214,-100,4,2,1,54,0,0
102473,-100,4,2,1,54,0,0
102559,-100,4,2,1,54,0,0
102645,-100,4,2,1,54,0,0
102818,-100,4,2,1,54,0,0
103163,-100,4,2,1,54,0,0
103507,-100,4,2,1,54,0,0
106266,-83.3333333333333,4,2,1,54,0,0
106525,-83.3333333333333,4,2,1,54,0,0
106611,-83.3333333333333,4,2,1,54,0,0
106870,-83.3333333333333,4,2,1,54,0,0
106956,-100,4,2,1,54,0,0
109197,-100,4,2,1,54,0,0
109714,-100,4,2,1,54,0,0
110318,-100,4,2,1,54,0,0
110404,-100,4,2,1,54,0,0
111007,-100,4,2,1,54,0,0
111094,-100,4,2,1,54,0,0
111697,-100,4,2,1,54,0,0
111783,-100,4,2,1,54,0,0
112128,-125,4,2,1,54,0,0
112473,-100,4,2,1,54,0,0
113076,-100,4,2,1,54,0,0
113163,-100,4,2,1,54,0,0
113249,-100,4,2,1,54,0,0
113335,-100,4,2,1,54,0,0
115231,-125,4,2,1,54,0,0
117904,-125,4,2,1,54,0,0
117990,-125,4,2,1,54,0,0
123421,-125,4,2,1,54,0,0
123507,-111.111111111111,4,2,1,54,0,0
123766,-111.111111111111,4,2,1,54,0,0
123852,-90.9090909090909,4,2,1,54,0,0
124197,-111.111111111111,4,2,1,54,0,0
124456,-111.111111111111,4,2,1,54,0,0
124542,-90.9090909090909,4,2,1,54,0,0
124887,-90.9090909090909,4,2,1,54,0,0
126266,-90.9090909090909,4,2,1,54,0,0
126525,-90.9090909090909,4,2,1,54,0,0
126611,-90.9090909090909,4,2,1,54,0,0
127904,-90.9090909090909,4,2,1,54,0,0
127990,-90.9090909090909,4,2,1,54,0,0
128507,-90.9090909090909,4,2,1,54,0,0
128680,-90.9090909090909,4,2,1,54,0,0
129024,-66.6666666666667,4,2,1,63,0,0
129283,-66.6666666666667,4,2,1,63,0,0
129370,-83.3333333333333,4,2,1,63,0,0
129628,-83.3333333333333,4,2,1,63,0,0
129714,-83.3333333333333,4,2,1,63,0,0
130318,-83.3333333333333,4,2,1,63,0,0
130404,-83.3333333333333,4,2,1,63,0,0
131007,-83.3333333333333,4,2,1,63,0,0
131094,-83.3333333333333,4,2,1,63,0,0
131180,-83.3333333333333,4,2,1,63,0,0
131266,-83.3333333333333,4,2,1,63,0,0
131697,-83.3333333333333,4,2,1,63,0,0
131783,-83.3333333333333,4,2,1,63,0,0
132387,-83.3333333333333,4,2,1,63,0,0
132473,-83.3333333333333,4,2,1,63,0,0
133076,-83.3333333333333,4,2,1,63,0,0
133163,-83.3333333333333,4,2,1,63,0,0
133766,-83.3333333333333,4,2,1,63,0,0
133852,-83.3333333333333,4,2,1,63,0,0
133938,-83.3333333333333,4,2,1,63,0,0
134025,-83.3333333333333,4,2,1,63,0,0
135835,-83.3333333333333,4,2,1,63,0,0
135921,-83.3333333333333,4,2,1,63,0,0
138594,-83.3333333333333,4,2,1,63,0,0
138680,-83.3333333333333,4,2,1,63,0,0
138938,-83.3333333333333,4,2,1,63,0,0
139025,-83.3333333333333,4,2,1,63,0,0
139542,-83.3333333333333,4,2,1,63,0,0
139714,-83.3333333333333,4,2,1,63,0,0
139801,-83.3333333333333,4,2,1,63,0,0
139887,-83.3333333333333,4,2,1,63,0,0
140059,-66.6666666666667,4,2,1,63,0,0
140318,-66.6666666666667,4,2,1,63,0,0
140404,-83.3333333333333,4,2,1,63,0,0
140663,-83.3333333333333,4,2,1,63,0,0
140749,-83.3333333333333,4,2,1,63,0,0
141352,-83.3333333333333,4,2,1,63,0,0
141438,-83.3333333333333,4,2,1,63,0,0
142042,-83.3333333333333,4,2,1,63,0,0
142128,-83.3333333333333,4,2,1,63,0,0
142214,-83.3333333333333,4,2,1,63,0,0
142301,-83.3333333333333,4,2,1,63,0,0
142732,-83.3333333333333,4,2,1,63,0,0
142818,-83.3333333333333,4,2,1,63,0,0
143421,-83.3333333333333,4,2,1,63,0,0
143507,-83.3333333333333,4,2,1,63,0,0
144111,-83.3333333333333,4,2,1,63,0,0
144197,-83.3333333333333,4,2,1,63,0,0
144801,-83.3333333333333,4,2,1,63,0,0
144887,-83.3333333333333,4,2,1,63,0,0
144973,-83.3333333333333,4,2,1,63,0,0
145059,-83.3333333333333,4,2,1,63,0,0
145835,-83.3333333333333,4,2,1,63,0,0
145921,-83.3333333333333,4,2,1,63,0,0
146525,-83.3333333333333,4,2,1,63,0,0
146611,-83.3333333333333,4,2,1,63,0,0
147214,-83.3333333333333,4,2,1,63,0,0
147301,-83.3333333333333,4,2,1,63,0,0
147904,-83.3333333333333,4,2,1,63,0,0
147990,-83.3333333333333,4,2,1,63,0,0
148335,-83.3333333333333,4,2,1,63,0,0
149628,-83.3333333333333,4,2,1,63,0,0
149714,-83.3333333333333,4,2,1,63,0,0
152301,-83.3333333333333,4,2,1,54,0,0
152473,-90.9090909090909,4,2,1,54,0,0
152732,-90.9090909090909,4,2,1,54,0,0
152818,-90.9090909090909,4,2,1,54,0,0
153076,-90.9090909090909,4,2,1,54,0,0
153163,-90.9090909090909,4,2,1,54,0,0
154456,-90.9090909090909,4,2,1,54,0,0
154542,-90.9090909090909,4,2,1,54,0,0
154628,-90.9090909090909,4,2,1,54,0,0
154714,-90.9090909090909,4,2,1,54,0,0
155835,-90.9090909090909,4,2,1,54,0,0
155921,-90.9090909090909,4,2,1,54,0,0
156007,-90.9090909090909,4,2,1,54,0,0
156094,-90.9090909090909,4,2,1,54,0,0
158249,-90.9090909090909,4,2,1,54,0,0
158335,-76.9230769230769,4,2,1,54,0,0
158594,-76.9230769230769,4,2,1,54,0,0
158680,-76.9230769230769,4,2,1,54,0,0
159197,-90.9090909090909,4,2,1,54,0,0
159973,-90.9090909090909,4,2,1,54,0,0
160059,-90.9090909090909,4,2,1,54,0,0
160145,-90.9090909090909,4,2,1,54,0,0
160232,-90.9090909090909,4,2,1,54,0,0
161266,-90.9090909090909,4,2,1,54,0,0
161438,-90.9090909090909,4,2,1,54,0,0
162990,-90.9090909090909,4,2,1,54,0,0
163163,-90.9090909090909,4,2,1,54,0,0
163507,-90.9090909090909,4,2,1,54,0,0
163766,-90.9090909090909,4,2,1,54,0,0
163852,-76.9230769230769,4,2,1,54,0,0
164111,-90.9090909090909,4,2,1,54,0,0
164197,-90.9090909090909,4,2,1,54,0,0
164801,-90.9090909090909,4,2,1,54,0,0
164887,-90.9090909090909,4,2,1,54,0,0
166180,-90.9090909090909,4,2,1,54,0,0
166266,-90.9090909090909,4,2,1,54,0,0
166870,-90.9090909090909,4,2,1,54,0,0
166956,-90.9090909090909,4,2,1,54,0,0
167042,-90.9090909090909,4,2,1,54,0,0
167128,-90.9090909090909,4,2,1,54,0,0
168421,-90.9090909090909,4,2,1,54,0,0
168507,-90.9090909090909,4,2,1,54,0,0
168680,-90.9090909090909,4,2,1,54,0,0
168766,-90.9090909090909,4,2,1,54,0,0
169025,-90.9090909090909,4,2,1,54,0,0
169283,-90.9090909090909,4,2,1,54,0,0
169369,-76.9230769230769,4,2,1,54,0,0
169628,-90.9090909090909,4,2,1,54,0,0
169714,-90.9090909090909,4,2,1,54,0,0
172387,-90.9090909090909,4,2,1,54,0,0
172473,-90.9090909090909,4,2,1,54,0,0
172559,-90.9090909090909,4,2,1,54,0,0
172645,-90.9090909090909,4,2,1,54,0,0
174542,-125,4,2,1,54,0,0
181352,-125,4,2,1,54,0,0
181438,-125,4,2,1,54,0,0
184714,-125,4,2,1,54,0,0
184887,-125,4,2,1,54,0,0
185059,-125,4,2,1,54,0,0
185232,-125,4,2,1,54,0,0
185576,-125,4,2,1,54,0,0
186180,-125,4,2,1,54,0,0
186266,-125,4,2,1,54,0,0
187214,-125,4,2,1,54,0,0
187301,-125,4,2,1,54,0,0
187559,-125,4,2,1,54,0,0
187645,-125,4,2,1,54,0,0
188335,-100,4,2,1,54,0,0
188852,-66.6666666666667,4,2,1,54,0,0
188938,-66.6666666666667,4,2,1,54,0,0
189197,-66.6666666666667,4,2,1,54,0,0
189283,-66.6666666666667,4,2,1,54,0,0
189542,-100,4,2,1,54,0,0
191093,-111.111111111111,4,2,1,54,0,0
191352,-111.111111111111,4,2,1,54,0,0
191438,-90.9090909090908,4,2,1,54,0,0
191783,-111.111111111111,4,2,1,54,0,0
192042,-111.111111111111,4,2,1,54,0,0
192128,-90.9090909090908,4,2,1,54,0,0
192732,-90.9090909090908,4,2,1,54,0,0
192818,-90.9090909090908,4,2,1,54,0,0
193076,-90.9090909090908,4,2,1,54,0,0
193163,-90.9090909090908,4,2,1,54,0,0
193421,-90.9090909090908,4,2,1,54,0,0
193507,-90.9090909090908,4,2,1,54,0,0
193766,-90.9090909090908,4,2,1,54,0,0
193852,-90.9090909090908,4,2,1,54,0,0
196611,-90.9090909090908,4,2,1,54,0,0
196783,-90.9090909090908,4,2,1,54,0,0
196956,-90.9090909090908,4,2,1,54,0,0
197301,-90.9090909090908,4,2,1,54,0,0
197645,-90.9090909090909,4,2,1,54,0,0
197990,-90.9090909090909,4,2,1,54,0,0
198335,-90.9090909090909,4,2,1,54,0,0
198680,-90.9090909090909,4,2,1,54,0,0
199025,-90.9090909090909,4,2,1,54,0,0
199369,-178.571428571429,4,2,1,54,0,0
200749,-178.571428571429,4,2,1,54,0,0
201783,-178.571428571429,4,2,6,54,0,0
202128,-250,4,2,1,54,0,0
207301,-250,4,2,1,54,0,0
207645,-166.666666666667,4,2,1,54,0,0
211783,-100,4,2,1,54,0,0
211956,-100,4,2,1,54,0,0
212128,-100,4,2,1,54,0,0
212473,-100,4,2,1,54,0,0
212818,-100,4,2,1,54,0,0
212990,-100,4,2,1,54,0,0
213162,-66.6666666666667,4,2,1,63,0,0
213421,-66.6666666666667,4,2,1,63,0,0
213507,-66.6666666666667,4,2,1,63,0,0
213680,-83.3333333333333,4,2,1,63,0,0
213766,-83.3333333333333,4,2,1,63,0,0
213852,-83.3333333333333,4,2,1,63,0,0
214456,-83.3333333333333,4,2,1,63,0,0
214542,-83.3333333333333,4,2,1,63,0,0
215145,-83.3333333333333,4,2,1,63,0,0
215232,-83.3333333333333,4,2,1,63,0,0
215318,-83.3333333333333,4,2,1,63,0,0
215404,-83.3333333333333,4,2,1,63,0,0
215835,-83.3333333333333,4,2,1,63,0,0
215921,-83.3333333333333,4,2,1,63,0,0
216525,-83.3333333333333,4,2,1,63,0,0
216611,-83.3333333333333,4,2,1,63,0,0
216697,-83.3333333333333,4,2,1,63,0,0
216783,-83.3333333333333,4,2,1,63,0,0
217214,-83.3333333333333,4,2,1,63,0,0
217301,-83.3333333333333,4,2,1,63,0,0
217904,-83.3333333333333,4,2,1,63,0,0
217990,-83.3333333333333,4,2,1,63,0,0
218076,-83.3333333333333,4,2,1,63,0,0
218163,-83.3333333333333,4,2,1,63,0,0
218938,-83.3333333333333,4,2,1,63,0,0
219025,-83.3333333333333,4,2,1,63,0,0
219628,-83.3333333333333,4,2,1,63,0,0
219714,-83.3333333333333,4,2,1,63,0,0
220318,-83.3333333333333,4,2,1,63,0,0
220404,-83.3333333333333,4,2,1,63,0,0
221007,-83.3333333333333,4,2,1,63,0,0
221094,-83.3333333333333,4,2,1,63,0,0
221438,-83.3333333333333,4,2,1,63,0,0
222732,-83.3333333333333,4,2,1,63,0,0
222818,-83.3333333333333,4,2,1,63,0,0
224887,-83.3333333333333,4,2,1,63,0,0
226956,-83.3333333333333,4,2,1,63,0,0
229714,-83.3333333333333,4,2,1,63,0,0
229801,-83.3333333333333,4,2,1,63,0,0
230059,-83.3333333333333,4,2,1,63,0,0
230404,-83.3333333333333,4,2,1,63,0,0
230749,-83.3333333333333,4,2,1,63,0,0
231094,-83.3333333333333,4,2,1,63,0,0
231180,-83.3333333333333,4,2,1,63,0,0
231266,-83.3333333333333,4,2,1,63,0,0
231352,-83.3333333333333,4,2,1,63,0,0
231438,-83.3333333333333,4,2,1,63,0,0
231525,-83.3333333333333,4,2,1,63,0,0
231611,-83.3333333333333,4,2,1,63,0,0
231870,-83.3333333333333,4,2,1,63,0,0
231956,-83.3333333333333,4,2,1,63,0,0
232128,-83.3333333333333,4,2,1,63,0,0
232473,-100,4,2,1,54,0,0
232732,-100,4,2,1,54,0,0
232817,-71.4285714285714,4,2,1,54,0,0
233076,-71.4285714285714,4,2,1,54,0,0
233163,-100,4,2,1,54,0,0
234456,-100,4,2,1,54,0,0
234542,-100,4,2,1,54,0,0
234628,-100,4,2,1,54,0,0
234714,-100,4,2,1,54,0,0
235145,-100,4,2,1,54,0,0
235232,-100,4,2,1,54,0,0
235490,-100,4,2,1,54,0,0
235576,-100,4,2,1,54,0,0
235835,-100,4,2,1,54,0,0
235921,-100,4,2,1,54,0,0
238249,-100,4,2,1,54,0,0
238335,-71.4285714285714,4,2,1,54,0,0
238507,-100,4,2,1,54,0,0
238594,-100,4,2,1,54,0,0
238680,-100,4,2,1,54,0,0
238766,-100,4,2,1,54,0,0
238852,-100,4,2,1,54,0,0
241352,-100,4,2,1,54,0,0
241438,-100,4,2,1,54,0,0
241525,-100,4,2,1,54,0,0
241611,-100,4,2,1,54,0,0
243507,-166.666666666667,4,2,1,54,0,0
246266,-166.666666666667,4,2,1,54,0,0
248680,-333.333333333333,4,2,1,54,0,0
254312,-333.333333333333,4,2,1,54,0,0
254714,-333.333333333333,4,2,1,54,0,0

[Colours]
Combo1 : 128,128,255
Combo2 : 255,128,192

[HitObjects]
512,26,1093,5,2,0:0:0:0:
512,26,1782,5,2,0:0:0:0:
341,138,2472,5,2,0:0:0:0:
341,138,3162,5,2,0:0:0:0:
185,244,3851,5,2,0:0:0:0:
185,244,4541,5,2,0:0:0:0:
0,379,5231,5,2,0:0:0:0:
164,382,5748,5,2,0:0:0:0:
165,375,5834,1,2,0:0:0:0:
166,368,5921,2,0,P|151:311|149:305,1,51,2|0,0:0|0:0,0:0:0:0:
89,260,6266,6,0,P|60:206|94:155,1,127.5,6|0,3:2|0:0,0:0:0:0:
164,157,6611,6,0,B|226:163|212:114|285:132,1,127.5,2|0,3:2|0:0,0:0:0:0:
345,165,6955,6,0,P|330:222|312:297,1,127.5,0|0,3:2|0:0,0:0:0:0:
375,349,7300,6,0,P|390:292|408:217,1,127.5,0|0,3:2|0:0,0:0:0:0:
467,180,7644,6,0,P|491:127|444:75,1,127.5,0|0,3:2|0:0,0:0:0:0:
401,23,7989,6,0,P|323:42|256:58,1,127.5,2|0,3:2|0:0,0:0:0:0:
206,28,8334,6,0,B|152:19|152:19|129:32|129:32|69:24,1,127.5,2|0,3:2|0:0,0:0:0:0:
0,63,8679,6,0,P|60:56|100:103,1,127.5,0|0,3:2|0:0,0:0:0:0:
148,165,9024,6,0,P|77:148|20:136,1,127.5,0|0,3:2|0:0,0:0:0:0:
0,222,9369,6,0,P|70:238|128:251,1,127.5,2|0,3:2|0:0,0:0:0:0:
176,312,9713,6,0,B|230:303|230:303|253:316|253:316|313:308,1,127.5,0|0,3:2|0:0,0:0:0:0:
345,240,10058,1,8,0:0:0:0:
512,384,10231,6,0,P|502:314|492:245,1,140.25000428009,6|0,3:2|0:0,0:0:0:0:
512,169,10576,1,10,3:2:0:0:
348,68,10748,1,10,3:2:0:0:
512,9,10920,1,10,3:2:0:0:
420,192,11093,1,10,0:2:0:0:
243,5,11265,1,2,3:0:0:0:
0,307,11783,6,0,P|59:324|122:342,1,127.5,4|0,3:2|0:0,0:0:0:0:
202,384,12128,6,0,P|230:333|205:282,1,118.999996368408,10|2,0:0|0:0,0:0:0:0:
195,279,12386,1,10,0:0:0:0:
183,279,12472,1,2,3:2:0:0:
14,178,12644,1,2,3:2:0:0:
164,57,12817,1,8,0:0:0:0:
67,15,12989,6,0,P|54:53|66:94,1,85,2|0,3:2|0:0,0:0:0:0:
214,202,13334,2,0,P|255:191|296:180,1,85,2|8,3:2|0:0,0:0:0:0:
422,77,13679,1,2,0:0:0:0:
414,68,13765,1,10,0:0:0:0:
406,61,13851,2,0,P|383:70|365:78,1,42.5,0|10,3:0|0:0,0:0:0:0:
273,92,14024,6,0,P|354:94|394:165,1,170,2|8,3:2|0:0,0:0:0:0:
472,288,14455,1,10,0:0:0:0:
462,286,14541,2,0,P|391:257|338:237,1,127.5,0|0,3:2|0:0,0:0:0:0:
255,297,14886,6,0,P|228:245|247:191,1,118.999996368408,10|0,0:0|0:0,0:0:0:0:
256,189,15144,1,8,0:0:0:0:
266,187,15231,1,2,3:2:0:0:
470,154,15403,1,2,3:2:0:0:
331,55,15575,1,10,0:0:0:0:
469,28,15749,6,0,P|490:32|470:23,1,63.7500024318696,2|0,3:0|0:0,0:0:0:0:
279,116,16093,6,0,P|286:141|302:192,1,63.7500024318696,2|0,3:0|0:0,0:0:0:0:
446,340,16438,6,0,P|455:309|464:279,1,63.7500024318696,2|0,3:0|0:0,0:0:0:0:
297,177,16783,2,0,P|237:157|182:186,1,127.5,2|0,3:0|0:0,0:0:0:0:
65,152,17128,2,0,P|47:139|29:129,1,42.5,8|8,0:0|0:0,0:0:0:0:
84,235,17300,6,0,P|103:166|120:110,1,127.5,4|0,3:2|0:0,0:0:0:0:
134,32,17645,2,0,P|89:-5|27:3,1,118.999996368408,10|0,0:0|0:0,0:0:0:0:
23,7,17903,1,10,0:0:0:0:
12,16,17989,1,2,3:2:0:0:
119,112,18162,1,2,3:2:0:0:
271,17,18334,1,10,0:0:0:0:
108,121,18506,6,0,P|119:160|135:212,1,85,2|0,3:2|0:0,0:0:0:0:
255,380,18851,2,0,P|267:339|279:298,1,85,2|8,3:2|0:0,0:0:0:0:
425,140,19196,2,0,B|394:95|351:97|351:97|340:143|266:147,1,170,2|0,3:2|3:0,0:0:0:0:
196,77,19713,1,10,0:0:0:0:
63,136,19886,1,10,0:0:0:0:
50,130,19972,1,8,0:0:0:0:
40,123,20058,6,0,L|-5:138,3,42.5,6|0|2|2,3:2|0:0|0:0|0:0,0:0:0:0:
30,247,20403,2,0,P|52:239|85:229,1,42.5,10|0,0:0|0:0,0:0:0:0:
180,247,20575,2,0,P|188:236|182:247,1,42.5,2|8,0:0|0:0,0:0:0:0:
121,359,20748,2,0,P|109:329|100:305,1,42.5,2|8,3:2|0:0,0:0:0:0:
86,193,20920,2,0,P|78:212|70:232,1,42.5,2|0,3:2|0:0,0:0:0:0:
2,337,21093,2,0,P|1:321|0:337,1,42.5,10|0,0:0|0:0,0:0:0:0:
121,359,21265,6,0,P|203:337|295:312,1,170,6|0,3:2|3:0,0:0:0:0:
463,381,21782,2,0,P|485:346|480:304,1,85,14|8,0:0|0:2,0:0:0:0:
376,210,22127,1,8,3:2:0:0:
512,96,22300,1,8,0:2:0:0:
509,108,22386,1,8,0:2:0:0:
504,118,22472,2,0,P|496:138|488:163,1,42.5,8|8,3:2|0:2,0:0:0:0:
390,250,22644,2,0,P|382:229|375:209,1,42.5,8|8,0:2|0:2,0:0:0:0:
335,133,22817,5,4,3:2:0:0:
335,133,22990,2,0,B|253:136|274:86|191:98,1,152.999995330811,2|2,0:0|0:0,0:0:0:0:
53,102,23506,2,0,P|64:139|75:176,1,76.4999976654053,2|2,3:2|0:0,0:0:0:0:
190,249,23851,2,0,P|203:202|214:169,1,76.4999976654053,2|2,3:2|0:0,0:0:0:0:
308,56,24196,5,2,3:2:0:0:
222,5,24369,1,2,0:0:0:0:
316,60,24541,1,2,3:2:0:0:
214,0,24713,1,2,0:0:0:0:
211,175,24886,2,0,P|174:159|141:144,1,76.4999976654053,2|0,3:2|0:0,0:0:0:0:
277,284,25231,2,0,P|314:268|347:253,1,76.4999976654053,2|2,3:2|0:0,0:0:0:0:
357,248,25489,1,2,0:0:0:0:
366,245,25575,6,0,P|400:260|435:275,1,76.4999976654053,6|2,3:2|0:0,0:0:0:0:
506,151,25920,2,0,P|463:131|426:145,1,76.4999976654053,2|2,3:2|0:0,0:0:0:0:
309,148,26265,1,2,3:2:0:0:
394,53,26437,1,2,0:0:0:0:
304,157,26610,2,0,P|295:124|282:78,1,76.4999976654053,2|2,3:2|0:0,0:0:0:0:
143,31,26955,6,0,P|105:24|74:45,1,76.4999976654053,2|2,3:2|0:0,0:0:0:0:
70,55,27213,1,2,0:0:0:0:
67,65,27300,2,0,P|35:86|-1:79,1,76.4999976654053,2|0,3:2|0:0,0:0:0:0:
141,136,27644,1,2,3:2:0:0:
23,242,27817,1,10,0:0:0:0:
16,233,27903,1,10,0:0:0:0:
9,226,27989,1,10,3:2:0:0:
141,304,28162,1,10,0:0:0:0:
133,310,28248,1,10,0:0:0:0:
125,319,28335,6,0,B|182:352|216:302|209:302|248:258|312:295,1,203.999993774414,6|8,3:2|0:0,0:0:0:0:
460,240,28852,2,0,P|458:224|464:239,1,42.5,2|10,0:0|0:0,0:0:0:0:
512,302,29024,2,0,B|468:278|426:255|426:255|383:275|393:312,1,170,2|8,3:2|0:0,0:0:0:0:
267,374,29541,1,2,0:0:0:0:
154,220,29713,6,0,P|183:190|225:184,1,85,2|0,3:2|3:0,0:0:0:0:
395,165,30058,2,0,P|382:201|362:260,1,85,10|0,0:0|0:0,0:0:0:0:
281,248,30317,1,10,0:0:0:0:
284,240,30403,2,0,P|296:203|317:145,1,85,2|0,3:2|3:0,0:0:0:0:
418,29,30749,2,0,P|454:4|497:9,1,89.2499972763062,10|0,0:0|0:0,0:0:0:0:
479,82,31093,6,0,P|386:59|307:40,1,170,2|8,3:2|0:0,0:0:0:0:
166,30,31610,1,2,0:0:0:0:
175,36,31696,1,10,0:0:0:0:
183,44,31782,1,2,3:2:0:0:
288,113,31955,1,0,3:0:0:0:
218,265,32127,2,0,P|203:223|187:185,1,85,8|0,0:0|3:0,0:0:0:0:
0,92,32472,5,14,0:0:0:0:
95,285,32644,1,0,3:0:0:0:
130,131,32817,5,10,0:0:0:0:
0,327,32989,1,0,3:0:0:0:
221,376,33162,6,0,P|265:362|326:346,1,101.999996887207,14|0,0:0|3:0,0:0:0:0:
420,232,33506,1,10,0:0:0:0:
497,375,33679,1,8,0:0:0:0:
489,365,33765,1,10,0:0:0:0:
482,353,33852,6,0,P|501:248|515:173,1,170,4|8,3:2|0:0,0:0:0:0:
374,96,34369,1,2,0:0:0:0:
454,14,34541,2,0,P|487:48|483:95,1,85,2|2,3:2|3:2,0:0:0:0:
336,182,34886,2,0,P|290:164|252:148,1,85,8|2,0:0|0:0,0:0:0:0:
108,193,35231,5,2,3:2:0:0:
227,63,35403,1,2,0:0:0:0:
119,10,35575,2,0,P|129:47|145:103,1,85,10|2,0:0|0:0,0:0:0:0:
187,152,35834,1,10,0:0:0:0:
191,168,35921,2,0,P|180:205|154:319,1,152.999995330811,6|0,3:2|0:0,0:0:0:0:
208,380,36265,2,0,B|157:358|126:342|126:342|104:366|71:375,1,152.999995330811,14|0,0:0|0:0,0:0:0:0:
54,295,36610,5,4,3:2:0:0:
2,175,36782,2,0,P|-15:137|0:99,1,85,0|10,0:0|0:0,0:0:0:0:
106,20,37127,1,2,0:0:0:0:
112,30,37213,1,10,0:0:0:0:
119,40,37300,1,2,3:2:0:0:
216,166,37472,1,2,3:2:0:0:
108,207,37644,2,0,P|120:166|131:125,1,85,10|2,0:0|0:0,0:0:0:0:
284,17,37989,6,0,P|323:6|362:22,1,85,2|0,3:2|3:0,0:0:0:0:
491,151,38334,2,0,P|503:103|515:57,1,85,10|0,0:0|0:0,0:0:0:0:
368,130,38679,1,2,3:2:0:0:
368,130,38851,1,0,3:0:0:0:
424,267,39024,2,0,P|458:239|524:256,1,102,10|10,0:0|0:0,0:0:0:0:
484,310,39369,6,0,P|408:293|300:271,1,170,6|8,3:2|0:0,0:0:0:0:
219,350,39886,1,2,0:0:0:0:
209,343,39972,1,10,0:0:0:0:
198,336,40058,2,0,P|185:305|201:254,1,85,2|0,3:2|3:0,0:0:0:0:
298,128,40403,2,0,P|347:148|388:166,1,85,8|2,0:0|0:0,0:0:0:0:
250,32,40748,6,0,P|188:35|163:62,1,85,2|0,3:2|3:0,0:0:0:0:
45,152,41093,2,0,P|28:106|15:70,1,85,10|2,0:0|0:0,0:0:0:0:
7,64,41351,1,10,0:0:0:0:
0,55,41437,2,0,P|35:33|76:37,1,85,2|0,3:2|3:0,0:0:0:0:
183,124,41783,2,0,P|172:164|159:211,1,68,10|0,0:0|3:0,0:0:0:0:
0,355,42128,6,0,B|44:331|86:308|86:308|129:328|119:365,1,170,6|8,3:2|0:0,0:0:0:0:
234,293,42644,1,2,0:0:0:0:
94,235,42817,1,2,3:2:0:0:
249,287,42989,2,0,P|236:327|224:368,1,85,2|8,3:2|0:0,0:0:0:0:
179,144,43334,6,0,B|245:132|245:132|273:153|273:153|340:147,1,170,4|0,3:2|3:0,0:0:0:0:
484,77,43851,1,8,0:0:0:0:
382,17,44024,1,8,0:0:0:0:
388,29,44110,1,8,0:0:0:0:
394,43,44196,1,2,3:2:0:0:
439,171,44369,5,8,0:3:0:0:
476,268,44541,5,2,3:2:0:0:
502,340,44713,5,4,0:3:0:0:
298,384,44886,6,0,B|265:324|265:324|303:268,1,136,6|8,3:2|0:0,0:0:0:0:
400,240,45403,1,2,3:2:0:0:
487,364,45575,2,0,P|422:345|357:327,1,136,2|8,3:2|0:0,0:0:0:0:
228,300,46093,1,2,3:2:0:0:
305,223,46265,6,0,P|292:182|283:154,1,68,2|0,0:0|3:0,0:0:0:0:
329,63,46610,1,10,0:0:0:0:
219,7,46782,2,0,P|153:5|119:74,1,136,2|2,3:2|3:2,0:0:0:0:
0,182,47300,1,10,0:0:0:0:
0,182,47644,6,0,P|39:225|59:229,1,68,6|0,3:2|0:0,0:0:0:0:
200,177,47989,2,0,P|166:177|137:194,1,68,10|0,0:0|3:0,0:0:0:0:
98,342,48334,2,0,P|114:312|114:279,1,68,2|0,3:2|0:0,0:0:0:0:
0,181,48679,2,0,P|16:210|46:226,1,68,10|0,0:0|3:0,0:0:0:0:
173,382,49024,6,0,P|195:299|212:239,1,136,2|8,0:0|0:0,0:0:0:0:
321,189,49541,1,2,3:2:0:0:
254,122,49713,2,0,P|180:124|142:188,1,136,2|10,3:2|0:0,0:0:0:0:
38,101,50231,1,0,0:0:0:0:
215,14,50403,6,0,B|273:28|359:50,1,136,6|8,3:2|0:0,0:0:0:0:
448,7,50920,1,2,3:2:0:0:
512,129,51093,2,0,P|466:107|388:157,1,136,2|8,3:2|0:0,0:0:0:0:
303,201,51610,1,2,3:2:0:0:
397,247,51782,6,0,P|429:235|461:224,1,68,2|2,0:0|3:2,0:0:0:0:
512,296,52127,1,10,0:0:0:0:
408,384,52300,2,0,P|326:360|268:343,1,136,2|2,3:2|3:2,0:0:0:0:
103,366,52817,2,0,B|79:323|79:323|118:281,1,102,10|8,0:0|0:0,0:0:0:0:
72,231,53162,6,0,P|126:244|195:262,1,114.749996498108,6|0,3:2|0:0,0:0:0:0:
261,276,53507,2,0,P|265:230|229:193,1,93.5000028533936,6|0,3:1|0:0,0:0:0:0:
188,49,53852,6,0,P|134:36|65:18,1,114.749996498108,6|0,3:2|0:0,0:0:0:0:
0,6,54197,2,0,P|-4:51|34:86,1,93.5000028533936,6|0,3:1|0:0,0:0:0:0:
154,186,54541,5,4,3:2:0:0:
154,186,54713,1,10,0:3:0:0:
296,81,54886,1,2,0:0:0:0:
331,236,55058,2,0,P|288:215|246:195,1,93.5000028533936,8|8,0:3|0:3,0:0:0:0:
93,251,55403,1,4,0:3:0:0:
211,113,55575,1,2,0:0:0:0:
87,261,55748,1,2,3:2:0:0:
326,384,55920,6,0,P|385:354|390:287,1,140.25000428009,10|0,0:0|0:0,0:0:0:0:
331,236,56265,1,0,3:0:0:0:
503,89,56437,2,0,P|490:44|477:-1,1,93.5000028533936,10|0,0:0|3:0,0:0:0:0:
375,127,56782,1,0,3:0:0:0:
512,188,56955,1,10,0:0:0:0:
392,376,57127,6,0,B|351:342|328:323|328:323|298:336|267:354,1,140.25000428009,4|0,3:2|0:0,0:0:0:0:
200,377,57472,1,8,3:2:0:0:
16,254,57644,1,8,3:2:0:0:
264,212,57817,1,8,3:2:0:0:
86,366,57989,1,10,0:0:0:0:
276,206,58162,1,0,3:0:0:0:
92,111,58335,6,0,P|110:113|92:115,1,51,14|0,0:0|0:0,0:0:0:0:
4,49,58680,6,0,B|61:21|99:59|92:60|123:97|183:77,1,191.250007295609,6|0,3:2|0:0,0:0:0:0:
249,13,59024,1,10,0:0:0:0:
422,144,59196,2,0,P|372:135|327:158,1,101.999996887207,2|2,0:0|3:2,0:0:0:0:
154,277,59541,1,2,3:2:0:0:
241,143,59713,1,10,0:0:0:0:
341,344,59886,1,2,0:0:0:0:
86,384,60058,6,0,P|110:283|132:186,1,203.999993774414,2|8,3:2|0:0,0:0:0:0:
307,35,60575,1,2,0:0:0:0:
287,11,60662,1,8,0:0:0:0:
251,6,60748,1,2,3:2:0:0:
219,23,60834,1,8,0:0:0:0:
199,51,60920,2,0,P|206:71|219:116,1,50.9999984436036,0|0,3:0|0:0,0:0:0:0:
251,179,61093,1,8,0:0:0:0:
444,84,61265,1,0,3:0:0:0:
504,320,61437,5,2,3:2:0:0:
368,160,61610,1,2,0:0:0:0:
282,361,61782,2,0,P|309:318|356:302,1,101.999996887207,10|2,0:0|0:0,0:0:0:0:
372,305,62041,1,10,0:0:0:0:
384,313,62127,1,2,3:2:0:0:
512,213,62300,1,2,3:2:0:0:
341,61,62472,2,0,P|350:95|371:171,1,101.999996887207,10|2,0:0|0:0,0:0:0:0:
191,342,62817,6,0,B|127:308|87:351|98:347|49:397|-2:368,1,203.999993774414,2|8,3:2|0:0,0:0:0:0:
161,173,63334,1,2,0:0:0:0:
17,241,63506,1,2,3:2:0:0:
16,209,63593,1,10,0:0:0:0:
41,191,63679,2,0,P|61:198|94:211,1,50.9999984436036,2|0,3:0|0:0,0:0:0:0:
172,252,63851,1,8,0:0:0:0:
315,188,64024,1,10,0:0:0:0:
333,166,64110,1,10,0:0:0:0:
352,146,64196,6,0,P|360:92|308:49,1,101.999996887207,6|2,3:2|0:0,0:0:0:0:
167,22,64541,1,10,0:0:0:0:
267,270,64713,6,0,P|359:240|464:205,1,203.999993774414,6|2,3:2|3:2,0:0:0:0:
338,359,65231,1,10,0:0:0:0:
267,158,65403,1,2,0:0:0:0:
259,172,65489,1,8,0:0:0:0:
251,189,65575,2,0,P|202:174|135:155,1,101.999996887207,4|2,3:2|0:0,0:0:0:0:
0,247,65920,1,10,0:0:0:0:
72,8,66093,6,0,B|23:3|2:51|2:51|25:86|61:149,1,203.999993774414,6|2,3:2|3:2,0:0:0:0:
151,355,66610,1,10,0:0:0:0:
232,208,66782,1,8,0:0:0:0:
220,195,66869,1,8,0:0:0:0:
206,183,66955,6,0,P|156:174|113:199,1,101.999996887207,6|0,3:2|0:0,0:0:0:0:
41,258,67213,1,2,0:0:0:0:
26,273,67300,2,0,P|43:320|66:383,1,101.999996887207,8|2,3:2|0:0,0:0:0:0:
278,298,67644,2,0,P|295:250|312:202,1,101.999996887207,2|0,3:2|0:0,0:0:0:0:
232,140,67903,1,2,0:0:0:0:
238,123,67990,2,0,P|277:92|327:97,1,101.999996887207,8|2,3:2|0:0,0:0:0:0:
495,360,68334,6,0,P|478:285|460:211,1,152.999995330811,2|0,3:2|0:0,0:0:0:0:
512,142,68679,2,0,P|524:93|501:49,1,101.999996887207,8|0,3:2|0:0,0:0:0:0:
305,169,69024,1,10,0:0:0:0:
423,3,69196,1,8,0:0:0:0:
429,21,69282,1,8,0:0:0:0:
432,39,69369,2,0,P|426:63|419:91,1,50.9999984436036,10|8,0:0|0:0,0:0:0:0:
317,218,69541,2,0,P|310:192|304:168,1,50.9999984436036,8|8,0:0|0:0,0:0:0:0:
195,22,69714,6,0,P|103:11|44:81,1,191.250007295609,6|0,3:2|0:0,0:0:0:0:
0,160,70058,1,10,0:0:0:0:
101,304,70231,2,0,P|146:291|216:268,1,101.999996887207,2|2,0:0|3:2,0:0:0:0:
377,226,70575,1,2,3:2:0:0:
210,172,70748,1,10,0:0:0:0:
368,352,70920,1,2,0:0:0:0:
498,139,71093,6,0,P|402:168|290:201,1,203.999993774414,2|8,3:2|0:0,0:0:0:0:
104,49,71610,1,2,0:0:0:0:
124,25,71697,1,8,0:0:0:0:
160,20,71783,1,2,3:2:0:0:
192,37,71869,1,8,0:0:0:0:
212,65,71955,2,0,P|205:85|192:130,1,50.9999984436036,0|0,3:0|0:0,0:0:0:0:
160,193,72128,1,8,0:0:0:0:
2,327,72300,1,10,0:0:0:0:
81,143,72472,5,6,3:2:0:0:
231,357,72644,1,2,0:0:0:0:
45,261,72817,2,0,P|95:245|155:226,1,101.999996887207,10|2,0:0|0:0,0:0:0:0:
156,234,73075,1,10,0:0:0:0:
168,239,73162,1,2,3:2:0:0:
355,277,73334,1,2,3:2:0:0:
214,107,73506,2,0,P|227:156|240:205,1,101.999996887207,10|2,0:0|0:0,0:0:0:0:
399,375,73851,6,0,P|460:321|420:201,1,203.999993774414,2|8,3:2|0:0,0:0:0:0:
284,81,74368,1,2,0:0:0:0:
457,1,74542,1,2,3:2:0:0:
489,0,74628,1,0,0:0:0:0:
507,25,74713,2,0,P|507:44|487:78,1,50.9999984436036,0|0,3:0|0:0,0:0:0:0:
442,136,74886,1,10,0:0:0:0:
263,259,75058,1,10,0:0:0:0:
241,241,75144,1,10,0:0:0:0:
219,232,75231,6,0,P|169:252|63:296,1,152.999995330811,6|0,3:2|0:0,0:0:0:0:
47,368,75575,2,0,P|6:339|1:290,1,101.999996887207,10|0,3:2|0:0,0:0:0:0:
10,88,75920,2,0,B|75:71|75:71|101:83|101:83|167:70,1,152.999995330811,6|0,3:2|0:0,0:0:0:0:
232,44,76265,2,0,P|273:17|322:26,1,101.999996887207,10|0,3:2|0:0,0:0:0:0:
512,114,76610,6,0,P|459:157|374:128,1,152.999995330811,6|0,3:2|0:0,0:0:0:0:
285,103,76955,2,0,P|299:147|318:212,1,101.999996887207,10|0,3:2|0:0,0:0:0:0:
453,384,77300,2,0,P|467:308|482:233,1,152.999995330811,6|0,3:2|0:0,0:0:0:0:
507,155,77644,1,10,3:2:0:0:
507,155,77817,1,2,0:0:0:0:
317,338,77989,6,0,P|301:282|284:230,1,101.999996887207,14|0,0:0|0:0,0:0:0:0:
132,131,78334,1,10,0:0:0:0:
64,314,78506,1,2,3:2:0:0:
243,150,78679,2,0,P|291:136|336:157,1,101.999996887207,10|0,0:0|3:0,0:0:0:0:
511,31,79024,2,0,P|440:10|377:49,1,152.999995330811,8|0,0:0|0:0,0:0:0:0:
288,64,79369,5,14,0:0:0:0:
429,269,79541,1,2,3:2:0:0:
382,144,79713,1,2,3:2:0:0:
279,304,79886,1,8,0:3:0:0:
507,248,80058,2,0,P|485:203|437:189,1,101.999996887207,2|2,3:2|3:2,0:0:0:0:
239,200,80403,1,14,0:0:0:0:
360,304,80575,1,2,3:2:0:0:
290,110,80748,1,2,3:2:0:0:
135,275,80920,5,8,0:3:0:0:
198,41,81093,1,2,3:2:0:0:
309,236,81265,1,2,3:2:0:0:
83,91,81437,1,12,0:0:0:0:
207,320,81610,1,2,3:2:0:0:
196,331,81696,1,2,3:2:0:0:
186,344,81782,2,0,P|140:370|76:352,1,101.999996887207,10|2,0:0|0:0,0:0:0:0:
0,152,82128,6,0,P|81:132|192:109,1,170,4|10,3:2|0:0,0:0:0:0:
289,24,82644,1,2,0:0:0:0:
301,18,82731,1,10,0:0:0:0:
317,16,82817,2,0,P|327:56|308:93,1,85,2|2,3:2|3:2,0:0:0:0:
201,222,83162,1,8,0:0:0:0:
284,374,83334,6,0,P|341:298|298:233,1,170,6|2,3:2|3:2,0:0:0:0:
165,114,83852,2,0,P|123:128|79:143,1,85,10|0,0:0|0:0,0:0:0:0:
69,148,84110,1,8,0:0:0:0:
57,154,84196,1,2,3:2:0:0:
220,288,84369,1,2,3:2:0:0:
116,384,84541,1,10,0:0:0:0:
165,187,84713,6,0,P|245:199|366:219,1,170,6|2,3:2|3:2,0:0:0:0:
512,278,85231,1,10,0:0:0:0:
441,148,85403,1,2,0:0:0:0:
435,156,85489,1,0,0:0:0:0:
430,164,85575,1,2,3:2:0:0:
367,276,85748,1,2,3:2:0:0:
512,220,85920,1,10,0:0:0:0:
373,367,86093,6,0,B|318:379|294:339|300:342|275:300|219:319,1,170,6|2,3:2|3:2,0:0:0:0:
36,375,86610,2,0,P|48:334|61:293,1,85,10|8,0:0|0:0,0:0:0:0:
188,178,86955,5,8,0:3:0:0:
192,165,87041,1,8,0:0:0:0:
195,152,87127,1,10,0:0:0:0:
197,139,87213,1,8,0:0:0:0:
164,106,87299,1,10,0:0:0:0:
121,92,87385,1,8,0:0:0:0:
75,102,87473,1,10,0:0:0:0:
41,134,87559,1,8,0:0:0:0:
116,168,87645,6,0,P|183:147|250:127,1,140.25000428009,6|0,3:2|0:0,0:0:0:0:
260,40,87990,2,0,P|311:55|337:103,1,110.499994941712,10|2,0:0|0:0,0:0:0:0:
340,113,88248,1,10,0:0:0:0:
339,123,88334,1,2,3:2:0:0:
512,145,88506,1,2,3:2:0:0:
346,231,88679,1,8,0:0:0:0:
492,383,88851,6,0,P|470:292|451:213,1,170,6|2,3:2|3:2,0:0:0:0:
512,50,89369,2,0,P|470:25|427:36,1,85,10|0,0:0|0:0,0:0:0:0:
316,132,89714,2,0,P|326:109|335:92,1,42.5,2|8,0:0|0:0,0:0:0:0:
414,135,89886,1,2,3:2:0:0:
275,30,90058,1,10,0:0:0:0:
502,170,90231,6,0,B|458:131|418:158|418:158|411:198|364:208,1,170,6|2,3:2|3:2,0:0:0:0:
186,225,90748,2,0,P|173:185|194:149,1,85,10|0,0:0|0:0,0:0:0:0:
323,289,91093,2,0,L|271:306,1,42.5,2|8,3:2|0:0,0:0:0:0:
182,331,91266,1,2,3:2:0:0:
275,199,91437,1,8,0:0:0:0:
427,352,91611,6,0,P|354:326|282:302,1,152.999995330811,6|0,3:2|0:0,0:0:0:0:
220,261,91955,1,10,3:2:0:0:
32,363,92127,1,10,3:2:0:0:
166,163,92300,1,10,3:2:0:0:
251,384,92472,5,10,0:0:0:0:
148,123,92644,1,2,3:0:0:0:
0,38,93162,6,0,B|46:22|80:61|80:61|104:18|158:24,1,170,4|10,3:2|0:0,0:0:0:0:
283,51,93679,1,2,0:0:0:0:
188,126,93851,2,0,P|199:163|210:200,1,76.4999976654053,2|2,0:0|3:2,0:0:0:0:
334,236,94196,2,0,P|347:189|358:156,1,76.4999976654053,8|8,0:3|0:3,0:0:0:0:
463,78,94541,5,2,0:0:0:0:
377,27,94714,1,2,3:2:0:0:
471,82,94886,1,10,0:0:0:0:
369,22,95058,1,2,0:0:0:0:
323,135,95231,2,0,P|286:119|253:104,1,76.4999976654053,2|8,3:2|0:3,0:0:0:0:
403,226,95576,2,0,P|440:210|473:195,1,76.4999976654053,2|4,0:0|0:3,0:0:0:0:
481,194,95834,1,0,0:0:0:0:
491,194,95920,6,0,P|514:223|512:260,1,76.4999976654053,0|2,0:0|3:2,0:0:0:0:
499,371,96265,1,10,0:0:0:0:
415,306,96437,1,2,0:0:0:0:
329,236,96610,1,2,3:2:0:0:
223,291,96782,1,2,3:2:0:0:
296,379,96955,2,0,P|332:369|375:359,1,76.4999976654053,8|8,0:3|0:3,0:0:0:0:
379,365,97213,1,0,0:0:0:0:
391,370,97300,6,0,P|416:343|415:306,1,76.4999976654053,2|0,0:0|3:0,0:0:0:0:
387,173,97644,2,0,P|402:133|416:100,1,76.4999976654053,10|0,0:0|3:0,0:0:0:0:
258,223,97989,2,0,P|243:183|229:150,1,76.4999976654053,14|0,0:0|3:0,0:0:0:0:
155,11,98334,1,10,0:0:0:0:
77,131,98506,1,10,0:0:0:0:
85,115,98593,1,10,0:0:0:0:
94,96,98680,6,0,P|150:47|273:93,1,203.999993774414,6|8,3:2|0:0,0:0:0:0:
385,134,99197,2,0,P|398:124|382:126,1,42.5,2|10,0:0|0:0,0:0:0:0:
358,53,99369,2,0,P|346:113|323:224,1,170,2|8,3:2|0:0,0:0:0:0:
267,374,99886,1,2,0:0:0:0:
154,256,100058,6,0,P|182:229|242:232,1,85,2|0,3:2|3:0,0:0:0:0:
183,368,100403,2,0,P|139:354|98:342,1,85,10|0,0:0|0:0,0:0:0:0:
86,350,100662,1,8,0:0:0:0:
70,357,100748,2,0,P|56:317|68:277,1,85,2|0,3:2|3:0,0:0:0:0:
151,156,101093,2,0,B|165:126|139:104|139:104|149:128|125:161,1,102,10|10,0:0|0:0,0:0:0:0:
67,126,101438,6,0,P|153:110|243:93,1,170,2|8,3:2|0:0,0:0:0:0:
354,22,101955,1,2,0:0:0:0:
476,126,102127,1,2,3:2:0:0:
455,161,102213,1,8,0:0:0:0:
418,182,102299,1,8,0:0:0:0:
376,179,102385,1,8,0:0:0:0:
342,155,102472,2,0,P|351:128|359:103,1,42.5,8|8,3:2|0:0,0:0:0:0:
449,6,102644,2,0,P|455:26|462:46,1,42.5,8|8,0:0|0:0,0:0:0:0:
512,200,102817,5,2,3:2:0:0:
508,209,103162,5,2,0:0:0:0:
504,217,103507,5,2,0:0:0:0:
501,223,103851,5,2,0:0:0:0:
183,366,104196,6,0,B|232:341|281:317|281:317|297:338|326:363,1,170,4|2,3:2|3:2,0:0:0:0:
438,265,104714,1,0,0:0:0:0:
369,182,104886,2,0,P|336:216|340:263,1,85,2|2,3:2|0:0,0:0:0:0:
434,360,105231,2,0,P|473:343|512:328,1,85,2|2,3:2|0:0,0:0:0:0:
495,205,105576,5,2,3:2:0:0:
380,312,105748,1,2,0:0:0:0:
503,203,105920,2,0,P|488:156|475:113,1,85,2|2,3:2|0:0,0:0:0:0:
494,50,106179,1,0,0:0:0:0:
487,38,106266,2,0,P|421:6|356:41,1,152.999995330811,2|0,3:2|0:0,0:0:0:0:
315,106,106610,2,0,P|250:141|183:108,1,152.999995330811,10|0,3:2|0:0,0:0:0:0:
141,38,106955,5,0,3:0:0:0:
0,126,107127,2,0,P|38:114|97:98,1,85,2|0,0:0|3:0,0:0:0:0:
185,196,107472,1,2,0:0:0:0:
185,196,107644,1,2,3:2:0:0:
78,271,107817,1,2,0:0:0:0:
138,344,107989,2,0,P|168:315|172:273,1,85,2|2,3:2|0:0,0:0:0:0:
81,164,108334,6,0,P|39:176|0:188,1,85,2|0,3:2|0:0,0:0:0:0:
109,52,108679,2,0,P|151:64|190:76,1,85,2|0,3:2|0:0,0:0:0:0:
281,12,109024,1,6,3:2:0:0:
380,57,109196,1,10,0:0:0:0:
384,48,109282,1,10,0:0:0:0:
388,40,109369,1,10,0:0:0:0:
253,138,109541,1,10,0:0:0:0:
248,148,109627,1,10,0:0:0:0:
244,160,109713,6,0,B|297:132|331:167|325:168|352:201|403:186,1,170,6|8,3:2|0:0,0:0:0:0:
512,67,110231,2,0,P|525:57|509:59,1,42.5,2|10,0:0|0:0,0:0:0:0:
452,4,110403,2,0,P|460:45|494:201,1,170,2|8,3:2|0:0,0:0:0:0:
503,359,110920,1,2,0:0:0:0:
510,352,111006,1,10,0:0:0:0:
512,344,111093,6,0,P|456:303|424:309,1,85,2|0,3:2|3:0,0:0:0:0:
265,287,111437,2,0,P|277:328|288:369,1,85,10|2,0:0|0:0,0:0:0:0:
299,374,111696,1,10,0:0:0:0:
307,379,111782,2,0,P|370:352|382:321,1,85,2|0,3:2|3:0,0:0:0:0:
449,190,112128,2,0,P|487:190|523:229,1,68,10|0,0:0|3:0,0:0:0:0:
298,220,112473,6,0,P|201:188|129:164,1,170,6|8,3:2|0:0,0:0:0:0:
0,121,112989,1,2,0:0:0:0:
0,121,113162,1,2,3:2:0:0:
42,220,113334,1,2,3:0:0:0:
154,79,113506,1,8,0:0:0:0:
31,240,113679,6,0,P|89:297|172:276,1,170,4|0,3:2|3:0,0:0:0:0:
180,273,114110,1,0,3:0:0:0:
189,267,114196,1,12,0:0:0:0:
355,210,114369,1,0,3:0:0:0:
259,383,114541,5,10,0:0:0:0:
379,333,114713,1,8,0:0:0:0:
368,325,114800,1,8,0:0:0:0:
358,318,114886,2,0,P|329:328|300:338,1,42.5,10|0,0:0|0:0,0:0:0:0:
259,383,115058,2,0,P|247:379|218:369,1,42.5,8|4,0:3|0:3,0:0:0:0:
77,373,115231,6,0,B|95:319|95:319|82:296|82:296|101:247,1,136,6|8,3:2|0:0,0:0:0:0:
179,185,115748,1,2,3:2:0:0:
107,47,115920,2,0,P|66:105|97:161,1,136,2|8,3:2|0:0,0:0:0:0:
179,185,116437,1,2,3:2:0:0:
258,118,116610,6,0,P|245:77|236:49,1,68,2|2,0:0|3:2,0:0:0:0:
161,104,116955,1,10,0:0:0:0:
261,197,117127,6,0,B|305:175|331:163|331:163|371:172|373:218,1,136,2|2,3:2|3:2,0:0:0:0:
322,337,117645,1,10,0:0:0:0:
322,337,117989,6,0,P|289:352|254:369,1,68,6|0,3:2|0:0,0:0:0:0:
365,269,118334,2,0,P|368:229|371:194,1,68,10|0,0:0|3:0,0:0:0:0:
407,344,118679,2,0,P|434:362|468:386,1,68,2|0,3:2|0:0,0:0:0:0:
322,337,119024,2,0,P|287:353|254:369,1,68,10|0,0:0|3:0,0:0:0:0:
133,303,119369,6,0,P|156:263|251:255,1,136,2|8,0:0|0:0,0:0:0:0:
329,188,119886,1,2,3:2:0:0:
211,115,120058,2,0,P|222:170|241:262,1,136,2|8,3:2|0:0,0:0:0:0:
124,189,120576,1,2,0:0:0:0:
180,33,120748,6,0,B|234:22|234:22|259:33|259:33|312:24,1,136,6|8,3:2|0:0,0:0:0:0:
417,1,121265,1,2,3:2:0:0:
512,98,121437,2,0,P|479:161|406:164,1,136,2|8,3:2|0:0,0:0:0:0:
310,212,121955,1,2,3:2:0:0:
218,148,122127,6,0,P|230:116|241:84,1,68,2|0,0:0|3:0,0:0:0:0:
310,212,122472,1,10,0:0:0:0:
250,301,122644,6,0,P|299:257|365:265,1,136,2|2,3:2|3:2,0:0:0:0:
488,288,123162,2,0,B|505:340|505:340|471:373,1,102,10|0,0:0|0:0,0:0:0:0:
394,377,123507,6,0,P|340:364|271:346,1,114.749996498108,6|0,3:2|0:0,0:0:0:0:
194,378,123852,2,0,B|189:358|206:334|206:334|199:360|225:389,1,93.5000028533936,2|0,3:1|0:0,0:0:0:0:
327,227,124197,6,0,P|310:147|296:86,1,114.749996498108,6|0,3:2|0:0,0:0:0:0:
264,26,124542,2,0,B|284:21|308:38|308:38|282:31|253:57,1,93.5000028533936,2|0,3:1|0:0,0:0:0:0:
185,123,124886,5,4,3:2:0:0:
105,191,125058,1,8,0:3:0:0:
0,284,125231,1,0,3:0:0:0:
108,370,125403,2,0,P|130:330|112:288,1,93.5000028533936,8|0,0:3|3:0,0:0:0:0:
15,199,125748,1,4,0:3:0:0:
217,152,125920,1,4,3:0:0:0:
119,63,126093,1,4,3:0:0:0:
187,254,126265,6,0,P|253:265|302:219,1,140.25000428009,14|0,0:0|0:0,0:0:0:0:
341,150,126610,1,0,3:0:0:0:
208,37,126782,2,0,P|163:50|118:63,1,93.5000028533936,14|0,0:0|3:0,0:0:0:0:
0,163,127127,1,0,3:0:0:0:
187,254,127300,2,0,P|200:209|213:164,1,93.5000028533936,10|0,0:0|3:0,0:0:0:0:
325,31,127644,6,0,P|400:21|451:80,1,140.25000428009,14|0,0:0|0:0,0:0:0:0:
447,134,127989,2,0,P|503:108|512:65,1,93.5000028533936,14|0,0:0|3:0,0:0:0:0:
372,96,128334,1,14,0:0:0:0:
512,266,128506,1,8,0:0:0:0:
490,233,128592,1,8,0:0:0:0:
457,213,128680,1,10,0:0:0:0:
418,210,128766,1,8,0:0:0:0:
381,225,128851,2,0,P|389:245|403:285,1,46.7500014266968,8|8,0:0|0:0,0:0:0:0:
512,369,129024,6,0,P|441:310|353:337,1,191.250007295609,6|0,3:2|0:0,0:0:0:0:
291,379,129369,1,10,0:0:0:0:
183,261,129541,2,0,P|198:212|215:153,1,101.999996887207,2|2,0:0|3:2,0:0:0:0:
171,4,129886,1,2,3:2:0:0:
61,190,130058,1,10,0:0:0:0:
251,82,130231,1,2,0:0:0:0:
0,20,130403,6,0,B|78:40|78:40|90:80|90:80|173:106,1,203.999993774414,2|8,3:2|0:0,0:0:0:0:
327,203,130920,5,2,0:0:0:0:
351,222,131007,1,8,0:0:0:0:
356,258,131093,1,2,3:2:0:0:
340,290,131179,1,8,0:0:0:0:
312,311,131265,2,0,P|291:304|246:292,1,50.9999984436036,0|0,3:0|0:0,0:0:0:0:
184,292,131438,1,8,0:0:0:0:
332,127,131610,1,2,0:0:0:0:
145,4,131782,6,0,P|154:44|169:115,1,101.999996887207,2|2,3:2|0:0,0:0:0:0:
0,326,132127,2,0,P|27:283|74:267,1,101.999996887207,10|2,0:0|0:0,0:0:0:0:
87,269,132386,1,10,0:0:0:0:
99,276,132472,1,2,3:2:0:0:
286,304,132645,1,2,3:2:0:0:
220,214,132817,2,0,P|182:258|193:312,1,101.999996887207,10|2,0:0|0:0,0:0:0:0:
406,382,133162,6,0,B|464:356|526:338|526:338|470:347|441:312,1,203.999993774414,2|8,3:2|0:0,0:0:0:0:
365,186,133679,1,2,0:0:0:0:
462,59,133851,1,2,3:2:0:0:
494,58,133938,1,8,0:0:0:0:
512,83,134024,2,0,P|505:103|492:136,1,50.9999984436036,0|0,3:0|0:0,0:0:0:0:
461,205,134196,5,8,0:0:0:0:
299,364,134369,1,10,0:0:0:0:
286,344,134455,1,10,0:0:0:0:
271,328,134541,2,0,P|285:278|297:229,1,101.999996887207,6|2,3:2|0:0,0:0:0:0:
397,100,134886,1,10,0:0:0:0:
182,20,135058,6,0,B|120:0|82:55|92:51|64:98|-4:79,1,203.999993774414,6|2,3:2|3:2,0:0:0:0:
200,144,135575,1,10,0:0:0:0:
42,264,135748,1,2,0:0:0:0:
28,256,135834,1,10,0:0:0:0:
11,248,135920,2,0,P|-4:201|20:158,1,101.999996887207,6|2,3:2|3:2,0:0:0:0:
155,243,136265,1,8,0:0:0:0:
322,96,136437,6,0,B|384:76|422:131|412:127|440:174|508:155,1,203.999993774414,6|2,3:2|3:2,0:0:0:0:
404,20,136955,1,10,0:0:0:0:
323,189,137127,1,8,0:0:0:0:
311,202,137214,1,8,0:0:0:0:
297,214,137300,6,0,P|247:223|204:198,1,101.999996887207,2|0,3:2|0:0,0:0:0:0:
161,128,137558,1,2,0:0:0:0:
139,139,137644,2,0,P|114:182|123:231,1,101.999996887207,8|2,3:2|0:0,0:0:0:0:
256,365,137989,2,0,P|304:348|352:331,1,101.999996887207,2|0,3:2|0:0,0:0:0:0:
389,255,138248,1,2,0:0:0:0:
406,261,138335,2,0,P|437:300|432:350,1,101.999996887207,8|2,3:2|0:0,0:0:0:0:
155,376,138679,6,0,P|173:301|189:227,1,152.999995330811,2|0,3:2|0:0,0:0:0:0:
100,171,139024,2,0,B|127:142|157:151|157:151|132:158|117:192,1,101.999996887207,12|0,3:2|0:0,0:0:0:0:
273,247,139369,1,10,3:2:0:0:
132,374,139541,1,8,0:0:0:0:
104,368,139627,1,8,0:0:0:0:
76,363,139713,2,0,P|67:330|57:303,1,50.9999984436036,10|8,3:2|0:0,0:0:0:0:
203,178,139886,2,0,P|194:202|188:226,1,50.9999984436036,8|8,0:0|0:0,0:0:0:0:
52,129,140059,6,0,B|-32:88|2:-11|102:15|78:87,1,191.250007295609,6|0,3:2|0:0,0:0:0:0:
136,121,140403,1,10,0:0:0:0:
317,61,140575,2,0,P|279:13|236:10,1,101.999996887207,2|2,0:0|3:2,0:0:0:0:
136,121,140920,1,2,3:2:0:0:
317,206,141093,1,10,0:0:0:0:
158,289,141265,1,2,0:0:0:0:
394,383,141437,6,0,B|418:305|418:305|392:272|392:272|421:196,1,203.999993774414,2|8,3:2|0:0,0:0:0:0:
483,7,141955,1,2,0:0:0:0:
507,27,142042,1,0,0:0:0:0:
512,63,142128,1,2,3:2:0:0:
495,95,142214,1,8,0:0:0:0:
467,115,142300,2,0,P|447:108|402:95,1,50.9999984436036,0|0,3:0|0:0,0:0:0:0:
339,63,142473,1,8,0:0:0:0:
195,169,142644,1,2,0:0:0:0:
326,218,142817,5,6,3:2:0:0:
223,18,142989,1,2,0:0:0:0:
88,195,143162,2,0,P|72:145|53:85,1,101.999996887207,10|2,0:0|0:0,0:0:0:0:
61,84,143420,1,10,0:0:0:0:
66,72,143507,1,2,3:2:0:0:
267,164,143679,1,2,3:2:0:0:
96,283,143851,1,10,0:0:0:0:
221,95,144024,1,2,0:0:0:0:
388,314,144196,6,0,B|328:333|295:287|305:291|268:237|200:263,1,203.999993774414,2|8,3:2|0:0,0:0:0:0:
51,354,144713,1,2,0:0:0:0:
10,213,144885,1,2,3:2:0:0:
9,181,144972,1,10,0:0:0:0:
34,163,145058,2,0,P|53:163|87:183,1,50.9999984436036,2|0,3:2|0:0,0:0:0:0:
146,226,145231,1,10,0:0:0:0:
324,143,145403,1,10,0:0:0:0:
304,128,145489,1,10,0:0:0:0:
277,115,145575,6,0,P|229:164|267:247,1,152.999995330811,6|0,3:2|0:0,0:0:0:0:
227,304,145920,2,0,P|274:268|325:275,1,101.999996887207,10|0,3:2|0:0,0:0:0:0:
483,382,146265,6,0,P|501:292|516:210,1,152.999995330811,6|0,3:2|0:0,0:0:0:0:
512,145,146610,2,0,P|462:151|431:194,1,101.999996887207,10|2,3:2|0:0,0:0:0:0:
317,378,146955,6,0,P|232:357|168:341,1,152.999995330811,6|0,3:2|0:0,0:0:0:0:
86,373,147300,2,0,P|80:323|108:282,1,101.999996887207,10|0,3:2|0:0,0:0:0:0:
0,130,147644,2,0,B|45:97|75:73|75:73|85:103|115:113,1,152.999995330811,6|0,3:2|0:0,0:0:0:0:
192,88,147989,1,10,3:2:0:0:
34,203,148162,1,2,0:0:0:0:
200,74,148334,6,0,P|248:89|297:103,1,101.999996887207,14|0,0:0|3:0,0:0:0:0:
506,188,148679,1,10,0:0:0:0:
283,223,148851,1,2,3:2:0:0:
451,66,149024,2,0,P|439:115|426:164,1,101.999996887207,10|0,0:0|3:0,0:0:0:0:
278,355,149369,2,0,P|204:354|168:291,1,152.999995330811,8|0,0:0|0:0,0:0:0:0:
196,212,149714,5,14,0:0:0:0:
49,269,149886,1,2,3:2:0:0:
184,136,150058,1,2,3:2:0:0:
248,284,150231,1,8,0:3:0:0:
62,154,150403,2,0,P|81:99|97:49,1,101.999996887207,2|2,3:2|3:2,0:0:0:0:
239,0,150748,1,14,0:0:0:0:
376,126,150920,1,2,3:2:0:0:
197,131,151093,1,2,3:2:0:0:
389,13,151265,5,10,0:0:0:0:
184,136,151437,1,2,3:2:0:0:
415,232,151610,1,2,3:2:0:0:
288,84,151782,1,8,0:3:0:0:
153,281,151955,1,2,3:2:0:0:
143,292,152041,1,2,0:0:0:0:
134,303,152127,2,0,P|180:290|239:275,1,101.999996887207,14|2,0:0|0:0,0:0:0:0:
512,352,152473,6,0,P|456:312|390:328,1,140.25000428009,6|0,3:2|0:0,0:0:0:0:
333,380,152817,2,0,B|305:337|305:337|319:297,1,93.5000028533936,10|0,0:0|0:0,0:0:0:0:
324,288,153075,1,8,0:0:0:0:
333,281,153162,5,10,0:0:0:0:
512,141,153334,1,2,3:0:0:0:
512,141,153679,6,0,B|467:96|424:119|424:119|416:165|361:170,1,187.000005706787,6|2,3:2|3:2,0:0:0:0:
197,106,154196,2,0,P|208:60|219:15,1,93.5000028533936,10|2,0:0|0:0,0:0:0:0:
226,10,154455,1,10,0:0:0:0:
232,11,154541,2,0,P|252:23|281:39,1,46.7500014266968,2|8,3:2|0:0,0:0:0:0:
348,88,154713,2,0,P|360:92|344:92,1,46.7500014266968,2|2,3:2|0:0,0:0:0:0:
237,129,154886,2,0,P|216:116|188:101,1,46.7500014266968,10|2,0:0|0:0,0:0:0:0:
20,9,155058,6,0,B|49:77|49:77|29:113|29:113|54:180,1,187.000005706787,6|2,3:2|3:2,0:0:0:0:
184,337,155575,1,10,0:0:0:0:
295,223,155748,1,2,0:0:0:0:
282,212,155834,1,10,0:0:0:0:
267,205,155920,2,0,P|238:214|213:222,1,46.7500014266968,2|10,3:2|0:0,0:0:0:0:
132,272,156093,2,0,P|104:263|78:255,1,46.7500014266968,2|0,3:2|0:0,0:0:0:0:
0,224,156265,1,10,0:0:0:0:
90,382,156437,6,0,P|175:357|284:326,1,187.000005706787,6|2,3:2|3:2,0:0:0:0:
278,328,156869,1,2,0:0:0:0:
285,331,156955,2,0,P|308:338|343:349,1,46.7500014266968,10|0,0:0|0:0,0:0:0:0:
440,343,157127,2,0,P|442:319|433:298,1,46.7500014266968,10|8,0:0|0:0,0:0:0:0:
395,186,157300,5,0,3:0:0:0:
355,179,157386,1,8,0:0:0:0:
316,186,157472,1,8,0:0:0:0:
284,208,157558,1,8,0:0:0:0:
262,242,157644,1,8,0:3:0:0:
237,270,157731,1,8,0:3:0:0:
200,287,157817,1,4,0:3:0:0:
161,290,157903,1,4,0:3:0:0:
122,280,157989,6,0,P|99:185|85:125,1,140.25000428009,4|0,3:2|0:0,0:0:0:0:
0,139,158335,2,0,P|17:82|68:57,1,110.499994941712,10|0,0:0|0:0,0:0:0:0:
79,59,158593,1,8,0:0:0:0:
91,64,158679,5,10,0:0:0:0:
289,14,158851,1,2,3:0:0:0:
289,14,159197,6,0,B|263:43|236:67|236:67|261:107|295:165,1,187.000005706787,6|2,3:2|3:2,0:0:0:0:
473,218,159713,2,0,P|473:152|357:113,1,187.000005706787,10|2,0:0|3:2,0:0:0:0:
365,111,160144,1,8,0:0:0:0:
358,117,160231,1,2,3:2:0:0:
194,167,160403,1,10,0:0:0:0:
369,367,160575,6,0,B|394:291|394:291|378:256|378:256|401:180,1,187.000005706787,6|2,3:2|3:2,0:0:0:0:
355,1,161093,1,10,0:0:0:0:
512,72,161265,1,10,0:0:0:0:
397,190,161437,5,8,3:0:0:0:
371,152,161523,1,8,0:0:0:0:
330,131,161611,1,10,0:0:0:0:
284,132,161697,1,10,0:0:0:0:
244,156,161782,2,0,P|251:178|262:212,1,46.7500014266968,10|0,0:0|0:0,0:0:0:0:
356,320,161955,2,0,P|365:289|370:275,1,46.7500014266968,4|0,3:2|0:0,0:0:0:0:
397,190,162127,5,2,0:0:0:0:
270,272,162300,1,2,3:2:0:0:
274,279,162386,1,2,0:0:0:0:
277,285,162472,2,0,P|260:324|253:340,3,46.7500014266968,10|2|2|2,0:0|0:0|3:2|0:0,0:0:0:0:
185,221,162817,2,0,P|178:189|173:166,1,46.7500014266968,10|2,0:0|0:0,0:0:0:0:
224,72,162989,2,0,P|224:56|227:72,1,46.7500014266968,10|10,0:0|0:0,0:0:0:0:
325,111,163162,5,8,0:0:0:0:
302,151,163248,1,8,0:0:0:0:
264,178,163334,1,8,0:0:0:0:
219,186,163420,1,8,0:0:0:0:
175,175,163506,6,0,P|131:131|43:149,1,140.25000428009,4|0,3:2|0:0,0:0:0:0:
0,192,163852,2,0,P|15:245|31:298,1,110.499994941712,10|0,0:0|0:0,0:0:0:0:
34,305,164110,1,10,0:0:0:0:
37,312,164196,1,2,3:2:0:0:
174,175,164369,1,2,3:2:0:0:
288,335,164541,1,10,0:0:0:0:
127,355,164713,6,0,P|151:264|174:174,1,187.000005706787,2|2,0:0|3:2,0:0:0:0:
269,20,165231,1,10,0:0:0:0:
456,168,165403,2,0,B|402:178|371:136|380:137|345:89|288:119,1,187.000005706787,2|2,3:2|3:2,0:0:0:0:
127,11,165920,2,0,P|93:41|93:86,1,93.5000028533936,10|2,0:0|0:0,0:0:0:0:
99,94,166179,1,10,0:0:0:0:
106,99,166265,5,2,3:2:0:0:
200,218,166437,1,2,0:0:0:0:
209,213,166524,1,2,0:0:0:0:
217,207,166610,2,0,P|205:173|199:153,1,46.7500014266968,10|0,0:0|0:0,0:0:0:0:
73,204,166782,5,2,0:0:0:0:
50,244,166868,1,0,0:0:0:0:
53,290,166954,1,2,3:2:0:0:
80,327,167042,1,10,0:0:0:0:
122,345,167127,2,0,P|143:336|165:326,1,46.7500014266968,2|0,3:2|0:0,0:0:0:0:
335,285,167300,2,0,P|337:269|330:285,1,46.7500014266968,10|0,0:0|0:0,0:0:0:0:
258,384,167472,6,0,P|275:292|292:200,1,187.000005706787,6|2,3:2|3:2,0:0:0:0:
228,66,167989,1,10,0:0:0:0:
404,4,168162,5,10,0:0:0:0:
450,3,168248,1,0,0:0:0:0:
487,29,168334,1,8,3:0:0:0:
503,73,168420,1,8,0:0:0:0:
492,117,168506,2,0,P|460:101|439:90,1,46.7500014266968,10|8,0:0|0:0,0:0:0:0:
335,106,168679,5,8,3:2:0:0:
320,112,168765,1,8,0:0:0:0:
304,120,168851,1,10,0:0:0:0:
288,128,168937,1,10,0:0:0:0:
272,136,169024,6,0,P|289:204|306:272,1,140.25000428009,6|0,3:2|0:0,0:0:0:0:
244,332,169369,2,0,B|286:367|286:367|339:352,1,110.499994941712,8|2,0:0|0:0,0:0:0:0:
348,348,169627,1,10,0:0:0:0:
355,344,169713,1,2,3:2:0:0:
512,322,169886,1,2,3:2:0:0:
370,214,170058,1,10,0:0:0:0:
512,132,170231,6,0,B|465:95|460:52|460:52|462:107|419:134,1,187.000005706787,2|2,3:2|3:2,0:0:0:0:
370,214,170748,1,10,0:0:0:0:
444,361,170920,2,0,B|399:316|355:335|355:335|341:383|288:381,1,187.000005706787,2|2,3:2|3:2,0:0:0:0:
199,249,171437,1,10,0:0:0:0:
298,185,171610,1,10,0:0:0:0:
302,195,171696,1,10,0:0:0:0:
307,204,171782,6,0,P|297:243|282:294,1,93.5000028533936,6|0,3:2|0:0,0:0:0:0:
221,353,172041,2,0,P|176:365|136:344,1,93.5000028533936,2|0,0:0|0:0,0:0:0:0:
127,340,172300,1,2,0:0:0:0:
120,336,172386,2,0,P|130:300|137:277,1,46.7500014266968,8|2,0:0|3:2,0:0:0:0:
63,200,172644,1,0,3:0:0:0:
202,131,172817,1,8,0:0:0:0:
75,9,172989,6,0,P|0:54|8:142,1,187.000005706787,6|2,3:2|3:2,0:0:0:0:
136,212,173506,1,14,0:0:0:0:
0,296,173679,1,2,0:0:0:0:
120,368,173851,2,0,L|164:353,1,46.7500014266968,10|0,0:0|0:0,0:0:0:0:
252,248,174024,5,8,0:0:0:0:
278,209,174110,1,8,0:0:0:0:
319,188,174196,1,8,0:0:0:0:
365,188,174282,1,8,0:0:0:0:
406,210,174369,2,0,P|398:229|385:269,1,46.7500014266968,8|8,0:0|0:0,0:0:0:0:
328,368,174542,6,0,P|304:332|316:304,1,68,6|0,3:2|0:0,0:0:0:0:
389,253,174886,1,10,0:0:0:0:
477,324,175058,2,0,B|496:298|516:284|516:284|499:245|484:207,1,136,2|2,0:0|0:0,0:0:0:0:
425,112,175575,2,0,P|454:85|489:84,1,68,10|2,0:0|0:0,0:0:0:0:
390,181,175920,1,0,3:0:0:0:
390,181,176265,6,0,B|318:181|336:131|263:142,2,136,10|2|10,0:0|0:0|0:0,0:0:0:0:
332,16,177300,5,2,3:2:0:0:
266,52,177472,1,2,0:0:0:0:
201,89,177644,1,10,0:0:0:0:
134,124,177817,2,0,P|124:58|175:15,1,136,2|2,0:0|0:0,0:0:0:0:
266,52,178334,2,0,P|277:83|270:116,1,68,10|2,0:0|0:0,0:0:0:0:
214,207,178679,1,0,3:0:0:0:
214,207,179024,6,0,P|270:154|336:165,2,136,10|2|10,0:0|0:0|0:0,0:0:0:0:
63,349,180058,6,0,P|35:368|2:364,1,68,6|0,3:2|0:0,0:0:0:0:
0,257,180403,2,0,P|13:225|25:193,1,68,10|0,0:0|0:0,0:0:0:0:
118,130,180748,2,0,P|130:161|143:193,1,68,2|0,0:0|0:0,0:0:0:0:
15,82,181093,2,0,P|36:36|82:19,1,102,10|0,0:0|0:0,0:0:0:0:
152,8,181437,6,0,P|217:24|284:39,1,136,2|10,3:2|0:0,0:0:0:0:
492,154,182127,2,0,P|511:118|503:88,1,68,2|0,0:0|0:0,0:0:0:0:
448,12,182472,2,0,P|414:19|381:27,1,68,10|0,0:0|0:0,0:0:0:0:
275,109,182817,6,0,B|298:156|298:156|288:182|288:182|313:231,1,136,2|8,3:2|0:0,0:0:0:0:
392,273,183334,1,8,0:3:0:0:
469,290,183506,1,8,0:3:0:0:
512,221,183679,1,4,0:3:0:0:
459,160,183851,1,8,0:0:0:0:
385,192,184024,1,4,0:3:0:0:
239,317,184196,6,0,B|217:290|194:278|194:278|212:240|220:206,1,136,6|8,3:2|0:0,0:0:0:0:
283,147,184713,1,10,0:0:0:0:
242,69,184886,2,0,P|195:85|150:101,1,68,2|8,3:2|0:0,0:0:0:0:
169,96,185144,1,8,0:0:0:0:
162,101,185231,1,0,3:0:0:0:
35,186,185403,1,8,0:0:0:0:
41,193,185489,1,8,0:0:0:0:
46,200,185575,6,0,P|79:222|123:209,1,68,6|0,3:2|0:0,0:0:0:0:
256,191,185920,1,10,0:0:0:0:
173,170,186093,1,2,0:0:0:0:
180,175,186179,1,8,0:0:0:0:
187,181,186265,2,0,P|178:221|165:264,1,68,0|2,3:0|3:2,0:0:0:0:
228,358,186610,2,0,P|193:332|162:332,1,68,10|2,0:0|0:0,0:0:0:0:
15,367,186955,6,0,L|50:258,1,102,0|0,3:0|0:0,0:0:0:0:
104,220,187300,2,0,P|112:187|101:156,1,68,10|0,0:0|0:0,0:0:0:0:
94,149,187558,1,8,0:0:0:0:
88,144,187644,1,2,3:2:0:0:
0,76,187817,1,0,3:0:0:0:
127,13,187989,2,0,P|157:25|200:42,1,68,10|0,0:0|0:0,0:0:0:0:
352,122,188334,5,2,3:2:0:0:
210,161,188506,1,0,3:0:0:0:
343,20,188679,1,10,0:0:0:0:
484,204,188852,6,0,P|493:191|485:207,1,63.7500024318696,2|0,3:0|0:0,0:0:0:0:
265,257,189196,6,0,P|227:242|202:233,1,63.7500024318696,2|0,3:0|0:0,0:0:0:0:
385,328,189542,6,0,B|404:265|404:265|385:232|385:232|401:168,1,170,4|0,3:2|3:0,0:0:0:0:
298,54,190058,2,0,P|330:27|372:27,1,85,8|0,0:0|3:0,0:0:0:0:
512,95,190403,1,8,0:0:0:0:
401,167,190575,1,2,3:2:0:0:
478,12,190748,1,8,0:0:0:0:
341,118,190920,1,10,0:0:0:0:
333,125,191006,1,10,0:0:0:0:
323,134,191093,6,0,P|263:116|208:101,1,114.749996498108,6|0,3:2|0:0,0:0:0:0:
167,32,191438,2,0,P|133:62|129:109,1,93.5000028533936,10|0,3:2|0:0,0:0:0:0:
9,248,191783,6,0,P|50:211|106:214,1,114.749996498108,2|0,3:2|0:0,0:0:0:0:
186,191,192128,2,0,P|174:229|157:283,1,93.5000028533936,10|0,3:2|0:0,0:0:0:0:
297,371,192472,6,0,B|374:338|374:338|388:362|421:363,1,140.25000428009,2|0,3:2|0:0,0:0:0:0:
500,362,192817,6,0,P|520:296|454:250,1,140.25000428009,10|10,3:2|0:0,0:0:0:0:
418,194,193162,6,0,P|345:217|272:242,1,140.25000428009,2|0,3:2|0:0,0:0:0:0:
226,285,193506,6,0,B|178:289|156:246|156:246|181:268|216:255,1,140.25000428009,10|0,3:2|0:0,0:0:0:0:
232,186,193851,1,10,0:0:0:0:
232,186,194024,1,0,3:0:0:0:
333,84,194196,1,0,3:0:0:0:
168,5,194369,1,10,0:0:0:0:
273,0,194541,2,0,P|262:40|244:105,1,93.5000028533936,2|0,3:2|3:0,0:0:0:0:
315,248,194886,2,0,P|363:246|404:215,1,93.5000028533936,10|0,0:0|3:0,0:0:0:0:
512,80,195231,5,0,3:0:0:0:
361,0,195403,2,0,P|371:40|390:105,1,93.5000028533936,10|0,0:0|3:0,0:0:0:0:
502,191,195748,1,0,3:0:0:0:
379,340,195920,2,0,P|340:315|289:319,1,93.5000028533936,10|0,0:0|3:0,0:0:0:0:
177,369,196265,1,8,0:3:0:0:
177,369,196437,1,4,0:3:0:0:
47,215,196610,5,14,0:0:0:0:
157,265,196782,1,8,0:0:0:0:
63,319,196955,1,8,0:0:0:0:
136,184,197127,1,8,0:0:0:0:
224,308,197300,1,8,0:0:0:0:
310,163,197472,1,8,0:0:0:0:
382,343,197644,1,8,0:0:0:0:
223,218,197817,1,8,0:0:0:0:
453,101,197989,5,8,0:0:0:0:
314,276,198162,1,8,0:0:0:0:
234,51,198334,1,8,0:0:0:0:
113,261,198506,1,8,0:0:0:0:
250,30,198679,1,8,0:0:0:0:
21,97,198851,1,8,0:0:0:0:
307,203,199024,1,8,0:0:0:0:
0,89,199196,1,8,0:0:0:0:
373,232,199369,6,0,B|418:162|339:92|266:134|266:134|245:56|128:66|117:151|117:151|108:230|197:226|191:344|191:344|246:270|306:288,1,761.600009296875,4|4,3:2|3:2,0:0:0:0:
0,350,207645,6,0,P|49:345|88:305,1,101.999996887207,2|2,3:2|0:0,0:0:0:0:
133,245,208162,1,2,0:0:0:0:
0,173,208334,2,0,P|7:218|17:278,1,101.999996887207,0|2,3:0|0:0,0:0:0:0:
0,350,208851,1,2,0:0:0:0:
125,367,209024,6,0,B|167:355|167:355|182:363|182:363|240:348,1,101.999996887207,0|2,3:0|0:0,0:0:0:0:
305,331,209541,1,2,0:0:0:0:
231,227,209713,2,0,P|210:240|200:273,1,50.9999984436036,0|2,3:0|0:0,0:0:0:0:
222,352,210058,1,2,0:0:0:0:
451,97,211783,6,0,P|440:49|431:5,1,85,12|8,3:2|0:0,0:0:0:0:
325,107,212127,1,8,3:2:0:0:
512,201,212300,1,8,0:0:0:0:
373,225,212472,2,0,P|382:202|393:174,1,42.5,14|0,3:2|0:0,0:0:0:0:
512,368,212644,5,8,0:0:0:0:
464,376,212730,1,8,0:0:0:0:
418,368,212817,1,10,0:0:0:0:
384,336,212903,1,8,0:0:0:0:
350,302,212989,1,8,0:0:0:0:
304,289,213075,1,8,0:0:0:0:
292,364,213162,6,0,P|383:335|474:306,1,191.250007295609,6|0,3:2|0:0,0:0:0:0:
512,240,213507,1,10,0:0:0:0:
432,40,213680,2,0,P|415:88|398:136,1,101.999996887207,2|2,0:0|3:2,0:0:0:0:
304,289,214024,1,2,3:2:0:0:
185,112,214196,1,10,0:0:0:0:
32,256,214369,1,2,0:0:0:0:
40,237,214455,1,2,0:0:0:0:
52,225,214541,6,0,B|88:176|143:192|143:192|149:249|208:256,1,203.999993774414,2|8,3:2|0:0,0:0:0:0:
346,134,215058,5,2,0:0:0:0:
360,108,215145,1,0,0:0:0:0:
349,73,215231,1,2,3:2:0:0:
320,51,215317,1,10,0:0:0:0:
286,45,215403,2,0,P|266:84|255:108,1,50.9999984436036,2|0,3:2|0:0,0:0:0:0:
235,175,215576,1,8,0:0:0:0:
398,356,215748,1,2,0:0:0:0:
409,336,215834,1,10,0:0:0:0:
419,319,215920,5,6,3:2:0:0:
512,143,216093,1,2,0:0:0:0:
340,213,216265,1,10,0:0:0:0:
510,384,216437,2,0,P|492:309|473:232,1,152.999995330811,2|0,0:0|0:0,0:0:0:0:
444,164,216782,1,2,3:2:0:0:
252,299,216955,1,10,0:0:0:0:
460,154,217127,1,2,0:0:0:0:
254,16,217300,6,0,B|226:47|192:63|192:63|219:109|254:184,1,203.999993774414,2|8,3:2|0:0,0:0:0:0:
355,351,217817,1,2,0:0:0:0:
334,336,217903,1,0,0:0:0:0:
309,336,217989,2,0,P|279:346|244:358,1,50.9999984436036,2|10,3:2|0:0,0:0:0:0:
185,381,218162,1,2,3:2:0:0:
0,313,218334,1,10,0:0:0:0:
157,268,218506,1,10,0:0:0:0:
145,298,218593,1,10,0:0:0:0:
131,330,218679,6,0,L|87:169,1,152.999995330811,6|0,3:2|0:0,0:0:0:0:
16,160,219024,2,0,B|-3:113|-3:113|29:73,1,101.999996887207,10|0,3:2|0:0,0:0:0:0:
277,42,219369,6,0,B|334:29|334:29|366:47|366:47|422:36,1,152.999995330811,6|0,3:2|0:0,0:0:0:0:
494,0,219713,2,0,P|506:49|481:91,1,101.999996887207,10|2,3:2|0:0,0:0:0:0:
288,253,220058,6,0,P|230:211|242:127,1,152.999995330811,6|0,3:2|0:0,0:0:0:0:
313,112,220403,2,0,P|350:125|419:147,1,101.999996887207,10|0,3:2|0:0,0:0:0:0:
512,351,220748,6,0,B|433:327|441:388|367:374,1,152.999995330811,6|0,3:2|0:0,0:0:0:0:
296,334,221093,1,10,0:0:0:0:
434,211,221265,1,2,3:2:0:0:
223,384,221437,6,0,P|201:337|220:290,1,101.999996887207,14|0,0:0|3:0,0:0:0:0:
313,112,221782,1,10,0:0:0:0:
388,308,221955,1,2,3:2:0:0:
176,158,222127,2,0,P|120:181|75:200,1,101.999996887207,10|0,0:0|3:0,0:0:0:0:
261,9,222472,2,0,P|317:26|429:59,1,152.999995330811,8|0,0:0|0:0,0:0:0:0:
484,82,222817,5,14,0:0:0:0:
319,209,222989,1,2,3:2:0:0:
464,316,223162,1,2,3:2:0:0:
383,132,223334,1,8,0:3:0:0:
268,274,223506,2,0,P|218:260|169:248,1,101.999996887207,2|2,3:2|3:2,0:0:0:0:
0,166,223851,1,14,0:0:0:0:
90,352,224024,1,2,3:2:0:0:
112,187,224196,5,10,0:0:0:0:
126,169,224283,1,0,0:0:0:0:
142,153,224369,2,0,P|168:165|188:173,1,50.9999984436036,0|0,3:0|3:0,0:0:0:0:
320,324,224541,5,8,0:3:0:0:
334,342,224628,1,8,0:3:0:0:
350,358,224714,2,0,P|377:345|397:337,1,50.9999984436036,0|0,3:0|3:0,0:0:0:0:
512,263,224886,5,14,0:0:0:0:
310,85,225058,1,2,3:2:0:0:
499,37,225231,1,2,3:2:0:0:
319,210,225403,1,14,0:0:0:0:
511,24,225575,1,2,3:2:0:0:
400,261,225748,1,2,3:2:0:0:
233,62,225920,6,0,P|258:18|305:2,1,101.999996887207,14|10,0:0|0:0,0:0:0:0:
470,122,226265,1,10,0:0:0:0:
451,107,226351,1,8,0:0:0:0:
434,93,226437,1,8,0:0:0:0:
319,210,226610,5,8,0:3:0:0:
267,158,226726,6,0,P|281:129|313:119,1,67.9999979248048,4|8,0:3|0:3,0:0:0:0:
369,159,226955,5,14,0:0:0:0:
215,371,227127,1,2,3:2:0:0:
90,210,227300,1,2,3:2:0:0:
328,306,227472,1,14,0:0:0:0:
71,203,227644,1,2,3:2:0:0:
244,88,227817,1,2,3:2:0:0:
52,8,227989,2,0,P|69:55|85:104,1,101.999996887207,14|2,0:0|3:2,0:0:0:0:
251,236,228334,1,2,3:2:0:0:
0,384,228506,6,0,P|51:332|99:340,1,101.999996887207,14|2,0:0|3:2,0:0:0:0:
287,378,228851,1,2,3:2:0:0:
172,168,229024,1,14,0:0:0:0:
96,244,229196,2,0,P|79:238|63:233,3,33.9999989624024,2|0|0|14,3:2|3:0|3:0|0:0,0:0:0:0:
201,317,229541,1,2,0:0:0:0:
346,169,229713,5,8,3:2:0:0:
334,156,229800,1,8,0:2:0:0:
319,147,229886,2,0,P|290:158|271:165,1,50.9999984436036,8|8,0:2|0:2,0:0:0:0:
201,317,230059,5,8,3:2:0:0:
253,299,230144,1,8,0:2:0:0:
309,310,230230,1,8,0:2:0:0:
354,344,230316,1,8,0:2:0:0:
405,367,230405,5,8,3:2:0:0:
461,358,230490,1,8,0:2:0:0:
498,317,230576,1,8,0:2:0:0:
495,261,230662,1,8,0:2:0:0:
458,218,230749,1,8,3:2:0:0:
403,209,230835,1,8,0:2:0:0:
352,227,230920,2,0,L|370:288,1,50.9999984436036,8|8,0:2|0:2,0:0:0:0:
458,218,231094,6,0,L|472:169,1,50.9999984436036,8|8,3:0|0:0,0:0:0:0:
512,67,231266,1,8,0:0:0:0:
482,25,231352,1,8,0:0:0:0:
439,4,231438,1,8,0:0:0:0:
391,5,231524,1,8,0:0:0:0:
349,28,231612,1,8,0:0:0:0:
323,70,231697,1,8,0:0:0:0:
318,116,231783,2,0,P|277:96|242:77,1,50.9999984436036,8|8,3:0|0:0,0:0:0:0:
200,8,231956,6,0,P|175:15|158:33,1,50.9999984436036,8|8,0:0|0:0,0:0:0:0:
125,175,232128,6,0,P|130:150|124:126,1,50.9999984436036,8|8,3:2|0:3,0:0:0:0:
23,35,232301,6,0,P|43:52|67:58,1,50.9999984436036,4|0,0:3|0:3,0:0:0:0:
243,168,232473,6,0,P|226:224|199:303,1,127.5,6|0,3:2|0:0,0:0:0:0:
160,371,232818,2,0,P|110:367|71:307,1,118.999996368408,10|2,0:0|0:0,0:0:0:0:
73,304,233076,1,10,0:0:0:0:
80,295,233163,1,2,3:2:0:0:
243,168,233335,1,2,3:2:0:0:
68,58,233507,1,8,0:0:0:0:
178,0,233679,6,0,P|202:39|183:94,1,85,2|0,3:2|0:0,0:0:0:0:
79,226,234024,2,0,P|31:208|-14:191,1,85,2|8,3:2|0:0,0:0:0:0:
184,335,234369,2,0,P|232:317|277:300,1,85,2|2,0:0|3:2,0:0:0:0:
489,167,234713,2,0,B|455:123|415:136|415:136|404:178|351:178,1,170,2|2,3:2|0:0,0:0:0:0:
277,186,235144,1,10,0:0:0:0:
275,174,235231,6,0,P|299:105|316:48,1,127.5,6|0,3:2|0:0,0:0:0:0:
392,4,235575,2,0,P|433:8|462:38,1,85,10|2,0:0|0:0,0:0:0:0:
468,46,235834,1,10,0:0:0:0:
473,56,235920,1,2,3:2:0:0:
384,240,236093,1,2,3:2:0:0:
478,156,236265,1,10,0:0:0:0:
339,328,236437,5,6,3:2:0:0:
247,134,236610,1,8,0:0:0:0:
228,356,236782,5,6,3:2:0:0:
385,158,236955,1,8,0:0:0:0:
396,382,237127,5,6,3:2:0:0:
172,248,237300,1,8,0:0:0:0:
318,41,237473,6,0,P|376:60|379:150,1,127.5,6|0,3:2|0:0,0:0:0:0:
476,190,237817,2,0,P|497:176|522:164,1,42.5,10|10,0:0|0:0,0:0:0:0:
392,236,237989,6,0,P|331:216|270:197,1,127.5,6|0,3:2|0:0,0:0:0:0:
204,105,238335,6,0,P|154:137|146:193,1,118.999996368408,10|0,0:0|0:0,0:0:0:0:
151,203,238593,1,8,0:0:0:0:
158,212,238679,1,2,3:2:0:0:
296,276,238851,1,2,3:2:0:0:
121,373,239024,1,10,0:0:0:0:
304,256,239196,6,0,P|291:206|278:157,1,85,6|0,3:2|0:0,0:0:0:0:
99,66,239541,2,0,P|88:107|77:148,1,85,2|8,3:2|0:0,0:0:0:0:
21,351,239886,2,0,B|87:330|87:330|114:346|114:346|182:328,1,170,6|0,3:2|3:0,0:0:0:0:
356,276,240403,1,10,0:0:0:0:
384,256,240489,1,0,0:0:0:0:
392,224,240575,1,10,0:0:0:0:
376,192,240663,1,10,0:0:0:0:
344,176,240748,6,0,L|357:135,3,42.5,6|0|2|2,3:2|0:0|0:0|0:0,0:0:0:0:
250,244,241093,2,0,P|243:223|236:203,1,42.5,10|0,0:0|0:0,0:0:0:0:
153,131,241265,2,0,P|155:115|148:129,1,42.5,2|10,0:0|0:0,0:0:0:0:
196,28,241438,2,0,P|176:20|156:12,1,42.5,2|10,3:2|0:0,0:0:0:0:
276,80,241610,2,0,P|295:71|315:64,1,42.5,2|0,3:2|0:0,0:0:0:0:
448,56,241783,2,0,P|449:40|442:54,1,42.5,10|0,0:0|0:0,0:0:0:0:
376,4,241955,6,0,P|398:86|420:168,1,170,6|0,3:2|3:0,0:0:0:0:
246,304,242472,2,0,P|263:225|340:198,1,170,10|8,0:0|0:0,0:0:0:0:
512,384,242989,5,8,0:0:0:0:
481,370,243075,1,8,0:0:0:0:
450,356,243161,1,8,0:0:0:0:
419,342,243249,1,8,0:0:0:0:
389,328,243335,1,8,0:0:0:0:
358,314,243420,1,8,0:0:0:0:
324,298,243507,6,0,P|363:257|423:268,2,101.999996887207,6|2|2,3:2|0:0|0:0,0:0:0:0:
133,375,244542,1,0,0:0:0:0:
133,375,244713,2,0,L|109:312,1,50.9999984436036,2|0,0:0|0:0,0:0:0:0:
219,270,245058,2,0,L|200:317,1,50.9999984436036,2|0,0:0|0:0,0:0:0:0:
129,245,245403,2,0,L|153:182,1,50.9999984436036,2|0,0:0|0:0,0:0:0:0:
228,184,245748,5,2,3:2:0:0:
176,120,245920,1,10,0:0:0:0:
96,140,246093,1,2,0:0:0:0:
208,60,246265,6,0,P|254:52|313:42,2,101.999996887207,2|2|2,3:2|0:0|0:0,0:0:0:0:
32,92,247300,1,0,0:0:0:0:
32,92,247472,2,0,P|18:111|14:141,1,50.9999984436036,2|0,0:0|0:0,0:0:0:0:
125,183,247817,2,0,P|115:161|91:142,1,50.9999984436036,2|0,0:0|0:0,0:0:0:0:
1,219,248162,2,0,P|24:221|52:210,1,50.9999984436036,2|0,0:0|0:0,0:0:0:0:
148,96,248506,1,10,0:0:0:0:
369,207,248680,6,0,B|361:193|361:193|366:156|416:144|416:144|363:109|323:134|323:134|287:101|283:65|283:65|246:101|255:150|255:150|224:176|177:181|177:181|196:222|248:221|248:221|266:261|244:312|244:312|292:301|315:247|315:247|345:248|390:286|390:286|392:243|376:220,1,892.5,6|0,3:2|3:0,0:0:0:0:
