osu file format v14

[General]
AudioFilename: audio.mp3
AudioLeadIn: 0
PreviewTime: 221539
Countdown: 0
SampleSet: Soft
StackLeniency: 0.7
Mode: 0
LetterboxInBreaks: 0
WidescreenStoryboard: 1

[Editor]
DistanceSpacing: 1
BeatDivisor: 8
GridSize: 32
TimelineZoom: 2

[Metadata]
Title:HELLO HORIZON
TitleUnicode:HELLO HORIZON
Artist:Inori Minase
ArtistUnicode:水瀬いのり
Creator:Saggin
Version:Believe
Source:現実主義勇者の王国再建記
Tags:japanese pop j-pop jpop anime opening full ver Genjitsu Shugi Yuusha no Oukoku Saikenki How a Realist Hero Rebuilt the Kingdom
BeatmapID:3112747
BeatmapSetID:1520903

[Difficulty]
HPDrainRate:5
CircleSize:3.8
OverallDifficulty:8.8
ApproachRate:9
SliderMultiplier:1.7
SliderTickRate:1

[Events]
//Background and Video events
0,0,"bg.jpg",0,0
//Break Periods
//Storyboard Layer 0 (Background)
//Storyboard Layer 1 (Fail)
//Storyboard Layer 2 (Pass)
//Storyboard Layer 3 (Foreground)
//Storyboard Layer 4 (Overlay)
//Storyboard Sound Samples

[TimingPoints]
320,361.445783132531,4,2,1,40,1,0
320,-133.333333333333,4,2,1,40,0,0
1223,329.67032967033,4,2,1,40,1,0
1387,361.445783132531,4,2,1,40,1,0
1387,-133.333333333333,4,2,1,40,0,0
1929,340.909090909091,4,2,1,40,1,0
1929,-133.333333333333,4,2,1,40,0,0
2440,370.370370370371,4,2,1,40,1,0
2810,361.445783132531,4,2,1,40,1,0
2810,-111.111111111111,4,2,1,40,0,0
3352,340.909090909091,4,2,1,40,1,0
3352,-111.111111111111,4,2,1,40,0,0
3863,363.636363636364,4,2,1,40,1,0
3863,-111.111111111111,4,2,1,40,0,0
4225,331.491712707182,4,2,1,40,1,0
4390,352.941176470589,4,2,1,40,1,0
4390,-111.111111111111,4,2,1,40,0,0
4566,326.08695652174,4,2,1,45,1,0
4891,389.61038961039,4,2,1,45,1,0
4891,-111.111111111111,4,2,1,45,0,0
5281,352.941176470588,4,2,1,100,1,0
5281,-66.6666666666667,4,2,1,60,0,0
7398,-133.333333333333,4,2,1,60,0,0
7751,-66.6666666666667,4,2,1,70,0,0
9516,326.08695652174,4,2,1,40,1,0
9842,384.615384615385,4,2,1,70,1,0
10034,267.857142857143,4,2,1,45,1,0
10569,352.941176470588,4,2,1,40,1,0
10569,-111.111111111111,4,2,1,40,0,0
19039,-111.111111111111,4,2,1,50,0,0
21863,-100,4,2,1,50,0,0
44451,-100,4,2,1,60,0,0
50098,-66.6666666666667,4,2,1,70,0,1
50363,-66.6666666666667,4,2,1,5,0,1
50451,-90.9090909090909,4,2,1,70,0,1
56010,-90.9090909090909,4,2,1,5,0,1
56098,-90.9090909090909,4,2,1,70,0,1
59363,-90.9090909090909,4,2,1,5,0,1
59451,-90.9090909090909,4,2,1,70,0,1
59539,-90.9090909090909,4,2,1,5,0,1
59627,-90.9090909090909,4,2,1,70,0,1
70127,-90.9090909090909,4,2,1,5,0,1
70216,-90.9090909090909,4,2,1,70,0,1
70657,-90.9090909090909,4,2,1,5,0,1
70745,-90.9090909090909,4,2,1,70,0,1
70833,-90.9090909090909,4,2,1,5,0,1
70921,-90.9090909090909,4,2,1,70,0,1
81157,-200,4,2,1,50,0,0
89098,-100,4,2,1,50,0,0
95274,-333.333333333333,4,2,1,50,0,0
95804,-83.3333333333333,4,2,1,50,0,0
96333,-100,4,2,1,50,0,0
97039,-83.3333333333333,4,2,1,50,0,0
98098,-100,4,2,1,50,0,0
123510,-100,4,2,1,60,0,0
129157,-66.6666666666667,4,2,1,70,0,1
129421,-66.6666666666667,4,2,1,5,0,1
129510,-90.9090909090909,4,2,1,70,0,1
135068,-90.9090909090909,4,2,1,5,0,1
135157,-90.9090909090909,4,2,1,70,0,1
138421,-90.9090909090909,4,2,1,5,0,1
138510,-90.9090909090909,4,2,1,70,0,1
138598,-90.9090909090909,4,2,1,5,0,1
138686,-90.9090909090909,4,2,1,70,0,1
140716,-90.9090909090909,4,2,1,5,0,1
140804,-90.9090909090909,4,2,1,70,0,1
149186,-90.9090909090909,4,2,1,5,0,1
149274,-90.9090909090909,4,2,1,70,0,1
149716,-90.9090909090909,4,2,1,5,0,1
149804,-90.9090909090909,4,2,1,70,0,1
149892,-90.9090909090909,4,2,1,5,0,1
149980,-90.9090909090909,4,2,1,70,0,1
160216,-200,4,2,1,50,0,0
163039,-133.333333333333,4,2,1,40,0,0
174333,-111.111111111111,4,2,1,45,0,0
179980,-111.111111111111,4,2,1,50,0,0
185627,-83.3333333333333,4,2,1,70,0,1
187304,-83.3333333333333,4,2,1,5,0,1
187392,-83.3333333333333,4,2,1,70,0,1
188716,-83.3333333333333,4,2,1,5,0,1
188804,-83.3333333333333,4,2,1,70,0,1
191539,-83.3333333333333,4,2,1,5,0,1
191627,-83.3333333333333,4,2,1,70,0,1
192951,-83.3333333333333,4,2,1,5,0,1
193039,-83.3333333333333,4,2,1,70,0,1
196216,-100,4,2,1,60,0,0
196921,-83.3333333333333,4,2,1,60,0,0
198686,-100,4,2,1,60,0,0
199745,-83.3333333333333,4,2,1,60,0,0
201510,-100,4,2,1,60,0,0
202568,-100,4,2,1,65,0,1
205304,-100,4,2,1,5,0,1
205392,-66.6666666666667,4,2,1,65,0,1
205657,-66.6666666666667,4,2,1,5,0,1
205745,-66.6666666666667,4,2,1,65,0,1
206892,-66.6666666666667,4,2,1,5,0,1
206980,-66.6666666666667,4,2,1,65,0,0
208216,-76.9230769230769,4,2,1,70,0,1
208480,-76.9230769230769,4,2,1,5,0,1
208568,-76.9230769230769,4,2,1,70,0,1
209098,-90.9090909090909,4,2,1,70,0,1
209186,-90.9090909090909,4,2,1,5,0,1
209274,-90.9090909090909,4,2,1,70,0,1
209363,-90.9090909090909,4,2,1,5,0,1
209451,-90.9090909090909,4,2,1,70,0,1
209716,-90.9090909090909,4,2,1,5,0,1
209804,-90.9090909090909,4,2,1,70,0,1
209892,-90.9090909090909,4,2,1,5,0,1
209980,-90.9090909090909,4,2,1,70,0,1
210068,-90.9090909090909,4,2,1,5,0,1
210157,-76.9230769230769,4,2,1,70,0,1
210421,-76.9230769230769,4,2,1,5,0,1
210510,-76.9230769230769,4,2,1,70,0,1
210686,-90.9090909090909,4,2,1,70,0,1
211568,-76.9230769230769,4,2,1,70,0,1
211833,-76.9230769230769,4,2,1,5,0,1
211921,-90.9090909090909,4,2,1,70,0,1
212274,-76.9230769230769,4,2,1,70,0,1
212539,-76.9230769230769,4,2,1,5,0,1
212627,-90.9090909090909,4,2,1,70,0,1
212716,-90.9090909090909,4,2,1,5,0,1
212804,-90.9090909090909,4,2,1,70,0,1
212892,-90.9090909090909,4,2,1,5,0,1
212980,-90.9090909090909,4,2,1,70,0,1
214392,-76.9230769230769,4,2,1,70,0,1
214745,-90.9090909090909,4,2,1,70,0,1
214833,-90.9090909090909,4,2,1,5,0,1
214921,-90.9090909090909,4,2,1,70,0,1
215010,-90.9090909090909,4,2,1,5,0,1
215098,-76.9230769230769,4,2,1,70,0,1
215363,-76.9230769230769,4,2,1,5,0,1
215451,-90.9090909090909,4,2,1,70,0,1
215539,-90.9090909090909,4,2,1,5,0,1
215627,-90.9090909090909,4,2,1,70,0,1
215716,-90.9090909090909,4,2,1,5,0,1
215804,-76.9230769230769,4,2,1,70,0,1
216068,-76.9230769230769,4,2,1,5,0,1
216157,-76.9230769230769,4,2,1,70,0,1
216333,-90.9090909090909,4,2,1,70,0,1
217480,-90.9090909090909,4,2,1,5,0,1
217568,-90.9090909090909,4,2,1,70,0,1
217657,-90.9090909090909,4,2,1,5,0,1
217745,-90.9090909090909,4,2,1,70,0,1
217833,-90.9090909090909,4,2,1,5,0,1
217921,-90.9090909090909,4,2,1,70,0,1
219510,-100,4,2,1,70,0,1
220921,-100,4,2,1,50,0,0
221627,-133.333333333333,4,2,1,40,0,0
223745,-454.545454545455,4,2,1,30,0,0
233627,-333.333333333333,4,2,1,20,0,0
244392,-90.9090909090909,4,2,1,50,0,0
244921,-66.6666666666667,4,2,1,60,0,0
245186,-66.6666666666667,4,2,1,5,0,0
245274,-90.9090909090909,4,2,1,60,0,0
247745,-66.6666666666667,4,2,1,70,0,1
248010,-66.6666666666667,4,2,1,5,0,1
248098,-83.3333333333333,4,2,1,70,0,1
265480,-83.3333333333333,4,2,1,5,0,1
265568,-83.3333333333333,4,2,1,70,0,1
267421,-83.3333333333333,4,2,1,5,0,1
267510,-83.3333333333333,4,2,1,70,0,1
275980,-200,4,2,1,50,0,0
277392,-133.333333333333,4,2,1,50,0,0
278804,-200,4,2,1,50,0,0
279068,-200,4,2,1,5,0,0
279157,-90.9090909090909,4,2,1,60,0,0
290098,-133.333333333333,4,2,1,55,0,0
291333,-90.9090909090909,4,2,1,55,0,0
291863,-133.333333333333,4,2,1,55,0,0
295745,-66.6666666666667,4,2,1,60,0,0
297863,-133.333333333333,4,2,1,60,0,0
298127,-133.333333333333,4,2,1,5,0,0
298216,-66.6666666666667,4,2,1,70,0,0

[Colours]
Combo1 : 255,115,115
Combo2 : 0,128,255
Combo3 : 236,171,36
Combo4 : 128,253,253

[HitObjects]
452,72,320,6,0,P|420:78|346:123,1,95.6250036478044,2|2,0:0|0:0,0:0:0:0:
349,116,681,1,2,0:0:0:0:
219,233,862,6,0,P|178:222|151:166,1,95.6250036478044,2|2,0:0|0:0,0:0:0:0:
149,162,1223,1,2,0:0:0:0:
276,25,1387,6,0,P|267:81|263:130,1,95.6250036478044,2|2,0:0|0:0,0:0:0:0:
262,136,1748,1,2,0:0:0:0:
351,230,1929,6,0,P|342:286|339:336,1,95.6250036478044,2|2,0:0|0:0,0:0:0:0:
337,345,2269,1,2,0:0:0:0:
422,173,2440,5,2,0:0:0:0:
422,173,2810,6,0,B|353:184|383:208|300:223,1,114.749996498108,2|2,0:0|0:0,0:0:0:0:
299,222,3171,1,2,0:0:0:0:
144,313,3352,6,0,P|191:320|268:351,1,114.749996498108,2|2,0:0|0:0,0:0:0:0:
269,352,3692,1,2,0:0:0:0:
132,156,3863,6,0,P|78:167|55:237,1,114.749996498108,2|2,0:0|0:0,0:0:0:0:
54,235,4225,1,2,0:0:0:0:
209,107,4390,6,0,P|199:71|216:32,1,76.4999976654053,2|2,0:0|0:0,0:0:0:0:
222,30,4647,1,2,0:0:0:0:
230,32,4729,1,2,0:0:0:0:
238,34,4810,1,2,0:0:0:0:
245,34,4891,2,0,L|297:48,3,38.2499988327027,2|2|2|2,1:2|0:0|0:0|0:0,0:0:0:0:
313,141,5281,6,0,P|384:121|447:115,1,127.500004863739,6|2,1:2|1:2,0:0:0:0:
494,180,5545,1,2,1:2:0:0:
494,180,5633,2,0,L|421:197,1,63.7500024318696,2|2,1:2|1:2,0:0:0:0:
312,335,5810,6,0,B|240:332|279:275|149:290,1,127.500004863739,6|0,1:2|1:2,1:2:0:0:
138,233,6075,5,2,1:2:0:0:
125,235,6163,1,2,1:2:0:0:
112,238,6251,1,2,1:2:0:0:
99,239,6339,2,0,P|67:156|113:65,1,191.250007295609,6|2,1:2|1:2,0:0:0:0:
183,27,6692,1,2,1:2:0:0:
183,27,6780,1,2,1:2:0:0:
183,27,6869,2,0,L|241:44,6,42.5000016212464,6|0|0|0|0|0|2,1:2|1:0|1:0|1:0|1:0|1:0|1:2,0:0:0:0:
179,111,7310,5,2,1:2:0:0:
179,111,7398,2,0,L|289:138,1,95.6250036478044,2|0,1:2|0:0,0:0:0:0:
291,106,7751,6,0,B|233:122|233:122|230:131|230:131|153:153,1,127.500004863739,6|2,1:2|1:2,0:0:0:0:
164,228,8016,1,2,1:2:0:0:
164,228,8104,2,0,L|225:210,1,63.7500024318696,2|2,1:2|1:2,0:0:0:0:
352,43,8280,6,0,P|418:33|469:157,1,191.250007295609,4|2,1:2|1:2,0:0:0:0:
422,179,8633,1,2,1:2:0:0:
422,179,8722,1,0,1:0:0:0:
422,179,8810,2,0,L|434:258,1,63.7500024318696,6|0,1:2|1:0,0:0:0:0:
250,350,8986,5,2,1:2:0:0:
205,345,9075,1,2,1:2:0:0:
167,320,9163,1,2,1:2:0:0:
148,279,9251,1,2,1:2:0:0:
154,234,9339,2,0,P|160:197|163:167,1,63.7500024318696,2|0,1:2|0:0,0:0:0:0:
292,34,9516,5,2,1:2:0:0:
304,37,9597,1,2,1:2:0:0:
315,40,9679,1,2,1:2:0:0:
327,43,9760,1,2,1:2:0:0:
335,46,9842,1,10,0:2:0:0:
493,184,10034,5,2,0:0:0:0:
448,247,10123,6,0,P|413:256|388:274,1,56.6666666666667,2|0,0:0|0:0,0:0:0:0:
307,335,10301,6,0,P|342:344|367:362,2,56.6666666666667,2|2|2,0:0|0:0|0:0,0:0:0:0:
231,368,10569,6,0,P|216:318|252:201,1,152.999995330811,4|2,1:2|1:2,0:0:0:0:
141,34,11274,2,0,B|56:43|96:102|-20:110,1,152.999995330811,2|2,1:2|1:2,0:0:0:0:
139,206,11804,1,0,0:0:0:0:
198,148,11980,6,0,P|260:165|364:181,1,152.999995330811,2|2,1:2|1:2,0:0:0:0:
465,73,12510,1,2,0:0:0:0:
465,73,12686,2,0,P|421:97|414:140,1,76.4999976654053,0|0,1:2|0:0,0:0:0:0:
290,236,13039,2,0,P|298:288|298:324,1,76.4999976654053,2|2,1:2|0:0,0:0:0:0:
385,342,13304,5,0,1:0:0:0:
385,342,13392,2,0,P|374:273|364:158,1,152.999995330811,0|2,1:2|1:2,0:0:0:0:
278,67,13921,1,2,0:0:0:0:
278,67,14098,2,0,P|229:86|190:92,1,76.4999976654053,0|0,1:2|0:0,0:0:0:0:
125,194,14451,2,0,P|162:202|197:217,1,76.4999976654053,2|2,1:2|0:0,0:0:0:0:
88,71,14804,6,0,P|37:86|31:192,2,152.999995330811,0|0|0,1:0|1:0|1:0,0:0:0:0:
279,205,15863,6,0,P|232:214|200:227,1,76.4999976654053,10|2,0:0|0:0,0:0:0:0:
37,281,16216,2,0,B|123:301|68:336|171:358,1,152.999995330811,0|2,1:0|1:2,0:0:0:0:
302,227,16745,1,2,0:0:0:0:
302,227,16921,2,0,P|284:181|310:59,1,152.999995330811,0|2,1:2|1:2,0:0:0:0:
412,195,17451,5,2,1:2:0:0:
412,195,17539,1,0,1:0:0:0:
412,195,17627,2,0,P|458:209|490:211,1,76.4999976654053,0|0,1:0|0:0,0:0:0:0:
338,335,17980,2,0,P|300:338|263:351,1,76.4999976654053,2|2,1:2|0:0,0:0:0:0:
146,266,18333,1,0,1:0:0:0:
211,219,18510,1,0,1:0:0:0:
104,93,18686,1,2,0:2:0:0:
186,50,18863,5,2,1:2:0:0:
186,50,18951,1,0,1:2:0:0:
186,50,19039,2,0,P|178:104|178:155,1,76.4999976654053,6|2,1:2|0:0,0:0:0:0:
265,14,19392,1,10,0:0:0:0:
109,172,19568,6,0,P|165:180|260:225,1,152.999995330811,6|0,1:2|1:0,0:0:0:0:
411,121,20098,1,6,1:2:0:0:
323,260,20274,2,0,P|331:212|339:160,1,76.4999976654053,2|0,0:2|0:0,0:0:0:0:
494,285,20627,5,12,0:2:0:0:
319,384,20804,1,2,0:0:0:0:
395,307,20980,1,2,0:0:0:0:
470,382,21157,5,10,0:0:0:0:
309,238,21333,2,0,P|254:247|228:350,1,152.999995330811,2|0,1:2|0:0,0:0:0:0:
50,209,21863,6,0,B|110:194|110:194|116:181|116:181|192:160,1,127.5,4|2,1:2|0:0,0:0:0:0:
186,163,22216,2,0,P|203:117|179:73,1,85,10|0,0:0|0:0,0:0:0:0:
306,214,22568,2,0,P|298:275|296:320,1,85,2|0,0:2|1:0,0:0:0:0:
147,374,22921,2,0,B|138:333|138:333|155:283,1,85,10|2,0:0|0:0,0:0:0:0:
315,195,23274,6,0,B|358:151|425:172|425:172|442:200|485:215,1,170,0|10,1:2|0:0,0:0:0:0:
353,62,23804,1,2,0:0:0:0:
292,17,23980,2,0,P|248:34|231:77,1,85,0|0,1:2|1:0,0:0:0:0:
140,203,24333,2,0,P|206:215|236:229,1,85,10|2,0:0|0:0,0:0:0:0:
44,78,24686,6,0,P|46:138|44:280,1,170,0|10,1:2|0:0,0:0:0:0:
202,338,25216,1,2,0:0:0:0:
128,376,25392,2,0,P|116:333|132:293,1,85,0|0,1:0|1:0,0:0:0:0:
297,177,25745,2,0,P|293:228|290:272,1,85,10|2,0:0|0:0,0:0:0:0:
130,132,26098,6,0,B|217:121|181:70|302:62,1,170,0|8,1:2|0:0,0:0:0:0:
403,178,26627,1,0,1:0:0:0:
454,107,26804,5,2,1:2:0:0:
316,189,26980,1,0,1:0:0:0:
454,107,27157,1,8,0:0:0:0:
473,255,27333,1,2,0:0:0:0:
344,105,27510,6,0,P|288:102|232:199,1,170,0|10,1:2|0:0,0:0:0:0:
369,311,28039,1,2,0:0:0:0:
314,365,28216,2,0,P|262:356|209:356,1,85,0|0,0:0|1:0,0:0:0:0:
357,228,28568,2,0,P|409:237|462:237,1,85,10|2,0:0|0:0,0:0:0:0:
272,94,28921,6,0,B|201:104|234:153|134:156,1,127.5,0|2,1:2|0:0,0:0:0:0:
146,144,29274,2,0,P|133:95|149:61,1,85,10|0,0:0|0:0,0:0:0:0:
288,173,29627,2,0,P|282:223|280:259,1,85,2|0,0:0|1:0,0:0:0:0:
156,354,29980,1,10,0:0:0:0:
156,354,30333,6,0,P|138:293|25:290,2,170,2|8|0,1:2|0:0|0:0,0:0:0:0:
156,354,31216,1,0,1:0:0:0:
301,198,31392,5,8,0:0:0:0:
447,346,31568,2,0,P|400:350|271:390,1,170,6|0,1:2|1:0,0:0:0:0:
159,268,32098,2,0,P|146:221|163:182,1,85,8|0,0:0|0:0,0:0:0:0:
240,62,32451,5,2,1:2:0:0:
315,85,32627,1,0,1:0:0:0:
394,186,32804,5,2,1:2:0:0:
319,209,32980,1,0,1:0:0:0:
177,286,33157,6,0,B|256:307|256:307|264:325|264:325|346:347,1,170,6|8,1:2|0:0,0:0:0:0:
483,178,33686,2,0,P|483:126|361:90,1,170,6|0,1:2|1:0,0:0:0:0:
240,205,34216,1,8,0:0:0:0:
301,16,34392,6,0,P|309:70|323:226,1,170,6|0,1:2|0:0,0:0:0:0:
197,292,34921,2,0,P|151:276|108:271,1,85,2|0,0:0|0:0,0:0:0:0:
15,181,35274,5,8,0:0:0:0:
47,105,35451,1,0,1:0:0:0:
152,41,35627,5,0,1:0:0:0:
171,118,35804,1,0,1:0:0:0:
268,245,35980,6,0,P|323:232|360:232,1,85,4|0,1:2|0:0,0:0:0:0:
351,231,36333,1,2,1:2:0:0:
195,372,36510,6,0,P|147:361|117:254,1,170,4|0,1:2|1:0,0:0:0:0:
163,194,37039,1,2,1:2:0:0:
299,35,37216,6,0,B|312:77|312:77|298:127,1,85,6|0,1:2|0:0,0:0:0:0:
435,247,37568,5,0,1:0:0:0:
493,198,37745,1,0,1:0:0:0:
470,125,37921,1,0,1:0:0:0:
353,242,38098,6,0,P|358:296|358:343,1,85,8|0,0:0|0:0,0:0:0:0:
408,180,38451,1,2,1:2:0:0:
408,180,38627,1,10,0:2:0:0:
280,309,38804,6,0,B|251:271|188:279|188:279|169:304|107:308,1,170,2|2,1:2|0:0,0:0:0:0:
24,205,39333,1,2,0:0:0:0:
84,155,39510,2,0,P|134:168|146:200,1,85,8|0,0:0|0:0,0:0:0:0:
224,358,39863,5,2,0:0:0:0:
292,311,40039,1,0,1:0:0:0:
292,311,40127,1,0,1:0:0:0:
292,311,40216,2,0,P|346:325|379:328,1,85,0|8,0:0|0:0,0:0:0:0:
240,229,40568,6,0,P|258:181|237:134,1,85,2|0,0:0|1:0,0:0:0:0:
375,63,40921,2,0,P|366:122|364:166,1,85,10|0,0:0|0:0,0:0:0:0:
265,40,41274,1,2,0:0:0:0:
265,40,41627,6,0,B|190:57|190:57|179:74|179:74|103:92,1,170,6|2,1:2|0:0,0:0:0:0:
2,229,42157,1,2,1:2:0:0:
9,148,42333,2,0,B|96:167|41:221|168:229,1,170,8|2,0:0|0:0,0:0:0:0:
294,330,42863,2,0,P|233:342|193:362,1,85,2|0,1:2|0:0,0:0:0:0:
300,195,43216,5,8,0:0:0:0:
372,221,43392,1,0,1:0:0:0:
374,298,43568,1,0,1:0:0:0:
212,350,43745,6,0,P|209:300|201:264,1,85,10|0,0:0|1:0,0:0:0:0:
409,128,44098,2,0,P|397:176|394:213,1,85,2|0,1:2|1:0,0:0:0:0:
215,48,44451,6,0,B|151:66|151:66|132:91|132:91|45:115,1,170,6|0,1:2|1:0,0:0:0:0:
263,211,44980,1,0,1:0:0:0:
53,336,45157,1,0,1:0:0:0:
205,158,45333,1,0,1:0:0:0:
317,335,45510,5,10,0:0:0:0:
88,187,45686,2,0,P|103:140|83:-11,1,170,6|0,1:2|1:0,0:0:0:0:
214,156,46216,2,0,P|256:144|314:141,1,85,8|0,0:0|0:0,0:0:0:0:
197,288,46568,5,0,1:0:0:0:
157,289,46657,1,0,1:0:0:0:
121,275,46745,1,8,0:0:0:0:
100,243,46833,1,8,0:0:0:0:
90,205,46921,1,0,1:0:0:0:
214,76,47098,1,0,1:0:0:0:
315,258,47274,5,4,1:2:0:0:
82,117,47451,1,0,1:0:0:0:
331,31,47627,1,0,1:0:0:0:
173,217,47804,6,0,P|118:205|69:207,1,85,4|0,1:2|0:0,0:0:0:0:
342,110,48157,5,0,1:0:0:0:
108,8,48333,1,0,1:0:0:0:
255,240,48510,6,0,P|250:192|251:136,1,85,4|0,1:2|0:0,0:0:0:0:
413,14,48863,5,0,1:0:0:0:
167,137,49039,1,8,0:0:0:0:
413,257,49216,5,0,1:0:0:0:
413,257,49304,1,0,1:0:0:0:
413,257,49392,1,2,1:2:0:0:
151,359,49568,5,0,1:0:0:0:
157,325,49657,1,0,1:0:0:0:
165,292,49745,1,2,1:2:0:0:
170,258,49833,1,0,1:0:0:0:
177,225,49921,2,0,L|188:168,1,42.5,0|0,1:0|0:0,0:0:0:0:
302,48,50098,6,0,P|321:122|439:122,1,191.250007295609,6|0,1:2|0:0,0:0:0:0:
433,147,50451,1,10,0:0:0:0:
289,362,50627,2,0,P|274:313|287:266,1,93.5000028533936,2|0,0:0|1:0,0:0:0:0:
322,208,50980,1,0,0:0:0:0:
122,52,51157,6,8,P|132:114|133:171,1,93.5000028533936,10|2,0:0|0:0,0:0:0:0:
33,349,51510,2,0,B|138:349|83:276|211:284,1,187.000005706787,0|10,1:2|0:0,0:0:0:0:
338,80,52039,2,0,P|287:97|269:150,1,93.5000028533936,2|0,0:0|1:0,0:0:0:0:
227,199,52392,1,0,0:0:0:0:
387,355,52568,6,0,B|404:309|404:309|385:260,1,93.5000028533936,10|2,0:0|0:0,0:0:0:0:
250,49,52921,2,0,B|188:22|140:58|140:58|121:98|68:88,1,187.000005706787,0|10,1:0|0:0,0:0:0:0:
224,212,53451,2,0,P|277:220|323:244,1,93.5000028533936,2|0,0:0|1:0,0:0:0:0:
387,267,53804,1,0,0:0:0:0:
188,340,53980,5,10,0:0:0:0:
385,184,54157,1,2,0:0:0:0:
182,45,54333,6,0,P|192:111|204:250,2,187.000005706787,0|8|0,1:0|0:0|1:0,0:0:0:0:
182,45,55216,1,0,0:0:0:0:
84,224,55392,5,10,0:0:0:0:
276,29,55568,1,2,1:2:0:0:
276,29,55657,1,0,1:2:0:0:
276,29,55745,2,0,P|334:14|379:103,1,140.25000428009,0|0,1:2|0:0,0:0:0:0:
383,87,56098,1,8,0:0:0:0:
506,276,56274,2,0,P|525:222|494:177,1,93.5000028533936,2|0,0:0|1:0,0:0:0:0:
459,134,56627,1,0,0:0:0:0:
359,357,56804,5,10,0:0:0:0:
351,274,56980,1,2,1:2:0:0:
351,274,57068,1,0,1:2:0:0:
351,274,57157,2,0,B|458:286|392:348|523:362,1,187.000005706787,0|10,1:0|0:0,0:0:0:0:
357,137,57686,2,0,P|311:153|293:201,1,93.5000028533936,2|0,0:0|1:0,0:0:0:0:
268,268,58039,1,0,0:0:0:0:
116,135,58216,6,0,B|100:89|100:89|120:32,1,93.5000028533936,10|2,0:0|0:0,0:0:0:0:
22,280,58568,2,0,B|95:298|95:298|116:330|116:330|217:359,1,187.000005706787,0|10,1:2|0:0,0:0:0:0:
364,221,59098,1,2,0:0:0:0:
206,114,59274,6,0,L|195:186,1,46.7500014266968,0|0,1:0|0:0,0:0:0:0:
280,167,59451,2,0,L|287:120,1,46.7500014266968,0|0,1:0|0:0,0:0:0:0:
185,249,59627,5,10,0:0:0:0:
347,38,59804,6,0,P|395:25|463:141,1,187.000005706787,6|0,1:2|1:0,0:0:0:0:
290,251,60333,1,8,0:0:0:0:
479,351,60510,1,0,1:0:0:0:
357,187,60686,5,0,1:0:0:0:
199,347,60863,1,0,1:0:0:0:
357,187,61039,1,8,0:0:0:0:
156,37,61216,5,2,1:2:0:0:
156,37,61304,1,0,1:0:0:0:
156,37,61392,2,0,L|181:208,1,140.25000428009,4|0,1:2|0:0,0:0:0:0:
178,195,61745,1,8,0:0:0:0:
314,340,61921,2,0,P|360:317|373:266,1,93.5000028533936,2|0,0:0|1:0,0:0:0:0:
387,203,62274,1,0,0:0:0:0:
277,37,62451,5,10,0:0:0:0:
454,152,62627,1,2,0:0:0:0:
359,5,62804,6,0,P|353:60|350:112,1,93.5000028533936,0|0,1:0|0:0,0:0:0:0:
245,251,63157,1,8,0:0:0:0:
190,192,63333,1,0,0:0:0:0:
324,346,63510,2,0,P|342:299|322:251,1,93.5000028533936,0|0,1:0|0:0,0:0:0:0:
248,375,63863,5,10,0:0:0:0:
439,232,64039,1,2,0:0:0:0:
239,122,64216,6,0,B|132:130|181:197|66:206,1,187.000005706787,0|8,1:2|0:0,0:0:0:0:
240,355,64745,2,0,P|186:340|133:336,1,93.5000028533936,2|0,0:0|1:0,0:0:0:0:
75,323,65098,1,0,0:0:0:0:
288,189,65274,5,10,0:0:0:0:
77,94,65451,1,2,0:0:0:0:
157,51,65627,6,0,P|152:107|150:163,1,93.5000028533936,0|0,1:0|0:0,0:0:0:0:
151,162,65892,1,2,0:0:0:0:
151,162,65980,1,10,0:0:0:0:
272,264,66157,5,2,0:0:0:0:
279,248,66245,1,2,0:0:0:0:
277,234,66333,1,0,1:2:0:0:
154,342,66510,1,0,0:0:0:0:
329,170,66686,2,0,P|383:181|402:237,1,93.5000028533936,8|2,0:0|0:0,0:0:0:0:
234,23,67039,6,0,B|167:39|167:39|144:75|144:75|36:105,1,187.000005706787,6|8,1:2|0:0,0:0:0:0:
93,14,67568,1,2,0:0:0:0:
324,168,67745,6,0,B|371:126|436:152|436:152|456:194|509:201,1,187.000005706787,2|8,1:2|0:0,0:0:0:0:
509,123,68274,1,2,0:0:0:0:
316,356,68451,6,0,P|340:301|309:166,1,187.000005706787,2|8,1:2|0:0,0:0:0:0:
258,126,68980,1,2,0:0:0:0:
389,23,69157,6,0,P|382:77|381:128,1,93.5000028533936,2|0,1:2|0:0,0:0:0:0:
247,301,69510,2,0,P|245:254|238:208,1,93.5000028533936,8|0,0:2|0:0,0:0:0:0:
48,37,69863,6,0,B|125:48|85:96|182:107,1,140.25000428009,6|0,1:2|0:0,0:0:0:0:
183,108,70216,2,0,P|198:63|178:17,1,93.5000028533936,8|0,0:0|0:0,0:0:0:0:
80,196,70568,6,0,L|34:208,1,46.7500014266968,0|0,1:0|0:0,0:0:0:0:
7,135,70745,2,0,L|51:122,1,46.7500014266968,0|0,1:0|0:0,0:0:0:0:
0,299,70921,1,10,0:0:0:0:
187,117,71098,6,0,B|262:135|262:135|278:164|278:164|368:185,1,187.000005706787,6|0,1:2|1:0,0:0:0:0:
416,140,71627,1,8,0:0:0:0:
311,257,71804,2,0,L|265:268,2,46.7500014266968,0|0|0,1:0|1:0|1:0,0:0:0:0:
344,328,72157,1,0,1:0:0:0:
160,200,72333,5,8,0:0:0:0:
160,200,72421,1,0,1:0:0:0:
160,200,72510,2,0,L|170:257,1,46.7500014266968,0|0,1:0|1:0,0:0:0:0:
218,76,72686,5,6,1:2:0:0:
106,317,72863,2,0,P|167:330|216:352,1,93.5000028533936,2|8,1:2|0:0,0:0:0:0:
0,235,73216,5,2,1:2:0:0:
254,151,73392,1,8,0:0:0:0:
0,69,73568,5,2,1:2:0:0:
254,151,73745,1,8,0:0:0:0:
0,249,73921,5,2,1:2:0:0:
159,12,74098,2,0,P|146:83|145:133,1,93.5000028533936,8|2,0:2|1:2,0:0:0:0:
255,318,74451,5,10,0:0:0:0:
369,116,74627,1,2,1:2:0:0:
141,247,74804,5,8,0:0:0:0:
388,345,74980,1,0,1:0:0:0:
224,124,75157,5,10,0:0:0:0:
32,348,75333,1,2,1:2:0:0:
293,166,75510,6,0,P|306:109|289:72,1,93.5000028533936,8|0,0:0|1:0,0:0:0:0:
165,328,75863,5,10,0:0:0:0:
81,84,76039,1,2,1:2:0:0:
317,250,76216,6,0,B|257:260|217:277|216:277,1,93.5000028533936,8|0,0:0|1:0,0:0:0:0:
368,55,76568,5,10,0:0:0:0:
512,228,76745,1,2,1:2:0:0:
440,14,76921,5,8,0:0:0:0:
385,299,77098,1,0,1:0:0:0:
285,22,77274,5,8,0:0:0:0:
224,261,77451,1,0,1:0:0:0:
128,28,77627,5,8,0:0:0:0:
340,184,77804,1,0,1:0:0:0:
110,329,77980,5,8,0:0:0:0:
271,113,78157,1,0,1:0:0:0:
418,322,78333,5,14,0:2:0:0:
175,100,78510,2,0,P|184:155|185:196,1,93.5000028533936,2|8,1:2|0:0,0:0:0:0:
314,35,78863,5,2,1:2:0:0:
62,149,79039,1,8,0:0:0:0:
316,237,79216,5,2,1:2:0:0:
62,149,79392,1,8,0:0:0:0:
218,324,79568,5,2,1:2:0:0:
355,122,79745,2,0,P|300:139|251:146,1,93.5000028533936,8|2,0:0|1:2,0:0:0:0:
48,278,80098,5,10,0:2:0:0:
217,80,80274,1,2,1:2:0:0:
380,279,80451,5,8,0:0:0:0:
306,236,80627,1,0,1:0:0:0:
187,157,80804,5,10,0:2:0:0:
111,186,80980,1,2,1:2:0:0:
344,359,81157,6,0,B|409:352|388:313|468:311,1,127.5,4|0,1:2|1:0,0:0:0:0:
391,188,81863,5,0,1:0:0:0:
444,130,82039,1,0,1:0:0:0:
510,48,82216,5,2,1:2:0:0:
447,0,82392,1,2,0:0:0:0:
447,0,82480,1,2,0:0:0:0:
447,0,82568,2,0,P|403:-10|345:55,1,127.5,4|0,1:0|0:0,0:0:0:0:
232,205,83274,6,0,B|161:188|161:188|147:163|147:163|66:147,1,170,4|0,1:2|0:0,0:0:0:0:
256,192,84068,12,0,85745,0:0:0:0:
412,105,88921,5,0,1:0:0:0:
412,105,89098,6,0,L|403:62,1,42.5,0|0,1:0|1:0,0:0:0:0:
459,239,89274,1,0,1:0:0:0:
459,239,89627,6,0,P|406:230|361:304,1,127.5,4|0,1:2|1:0,0:0:0:0:
360,304,89980,2,0,P|313:292|270:291,1,85,10|0,0:0|1:0,0:0:0:0:
123,366,90333,2,0,P|109:320|126:272,1,85,2|0,0:2|1:2,0:2:0:0:
40,139,90686,5,10,0:0:0:0:
35,223,90863,2,0,B|129:216|96:158|199:151,1,170,2|0,1:2|1:0,0:0:0:0:
346,185,91392,5,10,0:0:0:0:
247,66,91568,2,0,P|259:124|271:244,1,170,2|0,1:2|1:0,0:0:0:0:
438,345,92098,5,10,0:0:0:0:
380,294,92274,1,2,1:2:0:0:
380,294,92363,1,0,1:0:0:0:
380,294,92451,2,0,P|334:295|296:375,1,127.5,0|0,1:2|1:0,0:0:0:0:
292,376,92804,5,10,0:0:0:0:
167,261,92980,2,0,B|156:220|156:220|169:178,1,85,2|0,1:2|0:0,0:0:0:0:
168,179,93333,1,0,1:0:0:0:
106,325,93510,5,10,0:0:0:0:
242,143,93686,2,0,P|288:130|348:228,1,170,2|0,1:2|1:0,0:0:0:0:
468,71,94216,1,8,0:0:0:0:
424,6,94392,5,0,1:0:0:0:
424,6,94480,1,0,1:0:0:0:
424,6,94568,1,0,1:0:0:0:
387,75,94745,1,0,1:0:0:0:
429,141,94921,1,10,0:0:0:0:
491,270,95098,5,0,1:0:0:0:
491,270,95186,1,0,1:0:0:0:
491,270,95274,2,0,L|504:217,1,50.9999984436036,0|0,1:0|1:0,0:0:0:0:
512,209,95804,6,0,B|452:166|387:206|387:206|370:255|310:253,1,203.999993774414,4|0,1:2|1:0,0:0:0:0:
211,139,96333,5,8,0:0:0:0:
300,360,96510,1,0,1:0:0:0:
309,120,96686,5,8,0:0:0:0:
214,367,96863,2,0,L|207:324,3,28.3333333333333,0|0|0|0,1:0|1:0|1:0|1:0,0:0:0:0:
208,314,97216,6,0,B|292:335|292:335|307:365|307:365|391:385,1,203.999993774414,4|0,1:2|0:0,0:0:0:0:
227,188,97745,1,8,0:0:0:0:
74,364,97921,5,0,1:0:0:0:
74,364,98010,1,0,1:0:0:0:
74,364,98098,2,0,P|59:314|74:274,1,85,4|0,1:2|1:0,0:0:0:0:
78,275,98363,1,0,1:0:0:0:
78,275,98451,1,0,1:0:0:0:
174,66,98627,6,0,P|150:118|52:115,1,127.5,4|0,1:2|0:0,0:0:0:0:
72,135,98980,1,0,1:2:0:0:
243,286,99157,6,0,P|298:271|434:250,1,170,4|0,1:2|1:0,0:0:0:0:
231,133,99686,5,4,1:2:0:0:
401,34,99863,1,0,0:0:0:0:
348,97,100039,1,0,1:0:0:0:
227,6,100216,2,0,P|272:19|314:25,1,85,0|0,1:0|1:0,0:0:0:0:
425,186,100568,5,0,1:0:0:0:
432,170,100657,1,0,1:0:0:0:
435,153,100745,1,0,1:0:0:0:
432,136,100833,1,0,1:0:0:0:
425,115,100921,6,0,P|368:123|266:157,1,127.5,4|0,1:2|1:0,0:0:0:0:
289,128,101274,2,0,P|273:83|295:49,1,85,10|0,0:0|1:0,0:0:0:0:
423,205,101627,2,0,P|414:251|411:306,1,85,2|0,1:2|1:0,0:0:0:0:
501,168,101980,5,8,0:0:0:0:
341,328,102157,2,0,P|291:317|239:317,1,85,2|0,0:0|1:0,0:0:0:0:
123,194,102510,5,0,1:0:0:0:
123,194,102598,1,0,1:0:0:0:
123,194,102686,1,10,0:0:0:0:
181,139,102863,2,0,P|226:144|256:188,1,85,2|0,1:2|1:0,0:0:0:0:
261,190,103127,1,0,1:0:0:0:
261,190,103216,1,0,1:0:0:0:
89,309,103392,5,10,0:0:0:0:
162,356,103568,1,2,1:2:0:0:
162,356,103657,1,0,1:2:0:0:
162,356,103745,2,0,P|169:309|187:228,1,127.5,0|0,1:0|1:0,0:0:0:0:
192,217,104098,5,10,0:0:0:0:
308,65,104274,2,0,B|403:77|351:134|487:153,1,170,2|0,1:2|0:0,0:0:0:0:
301,264,104804,5,10,0:0:0:0:
450,342,104980,1,2,1:2:0:0:
450,342,105068,1,0,1:0:0:0:
450,342,105157,2,0,P|470:299|455:258,1,85,0|0,1:0|1:0,0:0:0:0:
453,253,105421,1,0,1:0:0:0:
453,253,105510,1,8,0:0:0:0:
393,197,105686,1,0,1:0:0:0:
509,82,105863,6,0,P|501:135|500:184,1,85,2|2,1:2|1:2,0:0:0:0:
371,276,106216,5,10,0:2:0:0:
375,292,106304,1,0,1:0:0:0:
379,308,106392,1,2,1:2:0:0:
382,324,106480,1,0,1:0:0:0:
386,340,106568,2,0,B|299:336|342:280|209:284,1,170,0|8,1:0|0:0,0:0:0:0:
129,156,107098,2,0,P|178:165|200:202,1,85,2|0,0:0|1:0,0:0:0:0:
197,191,107451,1,0,1:0:0:0:
337,70,107627,5,10,0:0:0:0:
263,40,107804,1,2,1:2:0:0:
263,40,107892,1,0,1:2:0:0:
263,40,107980,2,0,P|272:94|278:136,1,85,0|2,1:0|0:0,0:0:0:0:
336,175,108245,1,0,1:0:0:0:
336,175,108333,2,0,L|353:277,1,85,10|0,0:0|1:0,0:0:0:0:
231,357,108686,5,2,1:2:0:0:
283,296,108863,1,0,1:0:0:0:
419,347,109039,2,0,P|376:349|322:369,1,85,10|0,0:0|0:0,0:0:0:0:
202,280,109304,5,0,1:0:0:0:
202,280,109392,2,0,P|180:224|224:110,1,170,6|0,1:2|1:0,0:0:0:0:
417,33,109921,1,0,1:0:0:0:
278,173,110098,1,0,1:0:0:0:
157,31,110274,1,0,1:0:0:0:
373,154,110451,1,2,1:2:0:0:
171,275,110627,6,0,P|122:261|66:258,1,85,10|0,0:0|0:0,0:0:0:0:
307,82,110980,5,4,1:2:0:0:
187,358,111157,2,0,P|177:297|166:261,1,85,12|0,1:2|1:0,0:0:0:0:
113,101,111510,5,2,1:2:0:0:
187,126,111686,1,0,1:2:0:0:
286,217,111863,5,2,1:2:0:0:
302,214,111951,1,0,1:0:0:0:
318,210,112039,1,0,1:0:0:0:
334,207,112127,1,0,1:0:0:0:
350,206,112216,6,0,P|374:163|281:85,1,170,6|0,1:2|0:0,0:0:0:0:
166,266,112745,2,0,B|103:251|103:251|108:255|80:225|80:225|-5:206,1,170,6|0,1:2|1:0,0:0:0:0:
6,208,113186,1,0,1:0:0:0:
6,208,113274,1,2,1:2:0:0:
225,30,113451,6,0,P|213:97|199:213,1,170,6|0,1:2|1:0,0:0:0:0:
291,325,113980,6,0,P|340:311|389:302,1,85,10|0,0:0|1:0,1:0:0:0:
477,155,114333,2,0,P|424:158|403:254,1,127.5,2|0,1:2|1:0,0:0:0:0:
454,278,114686,2,0,L|454:344,2,56.6666666666667,2|0|0,1:2|1:0|1:0,0:0:0:0:
318,182,115039,6,0,B|283:145|218:164|218:164|199:199|141:204,1,170,4|2,1:2|1:2,0:0:0:0:
347,4,115568,2,0,P|402:-2|457:110,1,170,6|0,1:2|1:0,0:0:0:0:
456,161,116098,1,2,1:2:0:0:
304,350,116274,6,0,B|291:306|291:306|303:265,1,85,6|0,1:2|0:0,0:0:0:0:
221,100,116627,5,0,1:0:0:0:
187,168,116804,1,0,1:0:0:0:
227,234,116980,1,0,1:0:0:0:
364,117,117157,2,0,P|357:67|357:29,1,85,8|4,0:0|1:2,0:0:0:0:
434,173,117510,5,2,1:2:0:0:
434,173,117686,1,2,0:0:0:0:
281,15,117863,2,0,P|228:18|189:126,1,170,2|2,1:2|1:2,0:0:0:0:
77,255,118392,1,2,0:0:0:0:
77,175,118568,2,0,B|167:184|112:245|250:253,1,170,8|2,0:0|1:2,0:0:0:0:
366,124,119098,6,0,P|381:81|365:37,1,85,2|0,1:2|0:0,0:0:0:0:
370,44,119451,1,8,0:0:0:0:
289,176,119627,2,0,P|297:235|298:281,1,85,2|0,0:0|1:0,0:0:0:0:
418,356,119980,2,0,P|465:343|480:306,1,85,10|0,0:0|1:0,0:0:0:0:
497,239,120333,1,2,0:0:0:0:
333,357,120510,5,0,1:0:0:0:
333,357,120598,1,0,1:0:0:0:
333,357,120686,2,0,B|296:318|228:333|228:333|203:363|155:365,1,170,6|2,1:2|0:0,0:0:0:0:
45,234,121216,1,2,1:2:0:0:
95,376,121392,2,0,P|106:324|123:279,1,85,8|0,0:0|0:0,0:0:0:0:
192,104,121745,5,10,0:0:0:0:
49,152,121921,2,0,P|96:162|121:202,1,85,2|0,1:2|0:0,0:0:0:0:
259,291,122274,5,0,1:0:0:0:
293,222,122451,1,0,1:0:0:0:
258,151,122627,1,0,1:0:0:0:
117,296,122804,6,0,P|74:281|28:281,1,85,10|0,0:0|1:0,0:0:0:0:
204,93,123157,2,0,P|246:91|286:77,1,85,2|0,0:0|1:0,0:0:0:0:
468,273,123510,6,0,B|395:289|395:289|374:314|374:314|289:336,1,170,6|0,1:2|1:0,0:0:0:0:
128,208,124039,1,0,1:0:0:0:
308,103,124216,1,0,1:0:0:0:
170,301,124392,1,0,1:0:0:0:
45,100,124568,5,2,1:2:0:0:
237,358,124745,2,0,P|218:308|252:187,1,170,6|0,1:2|1:0,0:0:0:0:
344,28,125274,1,0,1:0:0:0:
413,165,125451,5,0,1:0:0:0:
403,162,125539,1,0,1:0:0:0:
394,159,125627,1,0,1:0:0:0:
385,156,125716,1,0,1:0:0:0:
376,153,125804,2,0,L|327:136,1,42.5,0|0,1:0|1:0,0:0:0:0:
155,26,125980,2,0,P|161:74|162:121,1,85,8|0,0:2|0:0,0:0:0:0:
297,285,126333,5,4,1:2:0:0:
52,163,126510,1,0,1:0:0:0:
312,69,126686,1,0,1:0:0:0:
134,319,126863,6,0,P|76:303|39:300,1,85,4|0,1:2|0:0,0:0:0:0:
240,115,127216,5,0,1:0:0:0:
371,324,127392,1,8,0:0:0:0:
492,113,127568,6,0,B|503:69|503:69|488:24,1,85,4|0,1:2|0:0,0:0:0:0:
233,199,127921,5,0,1:0:0:0:
485,330,128098,1,0,1:0:0:0:
349,79,128274,6,0,L|361:183,1,85,4|0,0:0|0:0,0:0:0:0:
188,351,128627,5,0,1:2:0:0:
149,346,128716,1,0,1:2:0:0:
116,326,128804,1,0,1:2:0:0:
96,293,128892,1,0,1:2:0:0:
93,254,128980,1,0,1:2:0:0:
105,218,129068,1,0,1:2:0:0:
135,191,129157,6,0,B|212:208|212:208|231:238|231:238|320:259,1,191.250007295609,6|0,1:2|0:0,0:0:0:0:
319,259,129510,1,10,0:0:0:0:
468,61,129686,2,0,P|418:74|398:118,1,93.5000028533936,2|0,0:0|1:0,0:0:0:0:
362,178,130039,1,0,0:0:0:0:
505,330,130216,6,0,B|521:284|521:284|505:230,1,93.5000028533936,10|2,0:0|0:0,0:0:0:0:
341,51,130568,2,0,B|299:13|231:27|231:27|211:64|143:66,1,187.000005706787,0|10,1:2|0:0,0:0:0:0:
26,234,131098,2,0,P|13:187|29:143,1,93.5000028533936,2|0,0:0|1:0,0:0:0:0:
71,82,131451,1,0,0:0:0:0:
204,260,131627,6,0,P|153:272|104:293,1,93.5000028533936,10|2,0:0|0:0,0:0:0:0:
305,57,131980,2,0,P|354:48|411:163,1,187.000005706787,0|10,1:2|0:0,0:0:0:0:
300,334,132510,2,0,P|296:276|286:228,1,93.5000028533936,2|0,0:0|1:0,0:0:0:0:
281,168,132863,1,0,0:0:0:0:
186,374,133039,5,10,0:0:0:0:
405,231,133216,1,2,0:0:0:0:
192,113,133392,6,0,P|138:121|0:148,2,187.000005706787,0|8|0,1:2|0:0|1:0,0:0:0:0:
192,113,134274,1,0,0:0:0:0:
403,18,134451,5,10,0:0:0:0:
252,186,134627,1,2,1:2:0:0:
252,186,134716,1,0,1:0:0:0:
252,186,134804,2,0,P|282:102|250:39,1,140.25000428009,0|0,1:0|0:0,0:0:0:0:
256,41,135157,1,10,0:0:0:0:
401,217,135333,2,0,P|450:205|471:163,1,93.5000028533936,2|0,0:0|1:0,0:0:0:0:
475,95,135686,1,0,0:0:0:0:
319,231,135863,6,0,P|330:293|330:332,1,93.5000028533936,10|2,0:0|0:0,0:0:0:0:
206,124,136216,2,0,B|96:128|146:193|17:196,1,187.000005706787,0|10,1:2|0:0,0:0:0:0:
199,363,136745,2,0,P|219:315|202:268,1,93.5000028533936,2|0,0:0|1:0,0:0:0:0:
179,205,137098,1,0,0:0:0:0:
327,43,137274,6,0,P|321:95|319:159,1,93.5000028533936,10|2,0:0|0:0,0:0:0:0:
298,342,137627,2,0,B|348:294|408:310|408:310|437:345|487:341,1,187.000005706787,0|10,1:0|0:0,0:0:0:0:
259,183,138157,1,2,0:0:0:0:
479,95,138333,6,0,L|472:163,1,46.7500014266968,0|0,1:0|0:0,0:0:0:0:
399,138,138510,2,0,L|403:91,1,46.7500014266968,0|0,1:0|0:0,0:0:0:0:
493,221,138686,5,10,0:0:0:0:
342,38,138863,6,0,B|269:57|269:57|248:86|248:86|155:113,1,187.000005706787,4|0,1:2|1:0,0:0:0:0:
0,233,139392,5,8,0:0:0:0:
127,46,139568,1,0,1:0:0:0:
232,231,139745,5,0,1:0:0:0:
14,106,139921,1,0,1:0:0:0:
240,20,140098,1,8,0:0:0:0:
100,256,140274,5,2,1:2:0:0:
100,256,140363,1,0,1:2:0:0:
100,256,140451,2,0,P|82:209|113:111,1,140.25000428009,6|0,1:2|0:0,0:0:0:0:
115,110,140804,1,10,0:0:0:0:
257,17,140980,2,0,P|310:34|356:40,1,93.5000028533936,2|0,0:0|1:0,0:0:0:0:
426,47,141333,1,0,0:0:0:0:
254,169,141510,5,10,0:0:0:0:
436,270,141686,1,2,0:0:0:0:
364,329,141863,6,0,P|356:268|346:220,1,93.5000028533936,0|0,1:0|0:0,0:0:0:0:
509,69,142216,2,0,P|500:114|494:161,1,93.5000028533936,8|0,0:0|0:0,0:0:0:0:
482,170,142480,1,2,0:0:0:0:
482,170,142568,2,0,P|424:159|409:122,1,93.5000028533936,0|0,1:0|0:0,0:0:0:0:
286,0,142921,5,10,0:0:0:0:
172,165,143098,1,2,0:0:0:0:
231,110,143274,2,0,P|290:108|330:227,1,187.000005706787,0|10,1:2|0:0,0:0:0:0:
221,341,143804,2,0,P|170:329|122:329,1,93.5000028533936,2|0,0:0|1:0,0:0:0:0:
52,323,144157,1,0,0:0:0:0:
253,189,144333,5,10,0:0:0:0:
42,89,144510,1,2,0:0:0:0:
103,34,144686,6,0,P|156:46|175:96,1,93.5000028533936,0|0,1:0|0:0,0:0:0:0:
183,97,144951,1,0,1:0:0:0:
183,97,145039,1,8,0:0:0:0:
62,231,145216,5,0,1:0:0:0:
57,217,145304,1,8,0:0:0:0:
60,203,145392,1,0,1:0:0:0:
198,302,145568,1,2,0:0:0:0:
9,140,145745,2,0,P|20:89|22:36,1,93.5000028533936,8|2,1:2|0:0,0:0:0:0:
159,233,146098,6,0,B|240:254|240:254|257:280|257:280|352:304,1,187.000005706787,4|8,1:2|0:0,0:0:0:0:
310,215,146627,1,2,0:0:0:0:
101,368,146804,6,0,P|46:359|40:245,1,187.000005706787,2|8,1:2|0:0,0:0:0:0:
37,247,147333,1,0,0:0:0:0:
211,73,147510,6,0,B|263:23|324:54|324:54|341:82|398:83,1,187.000005706787,2|8,1:2|0:0,0:0:0:0:
388,8,148039,1,2,0:0:0:0:
249,148,148216,6,0,P|259:200|268:254,1,93.5000028533936,2|0,1:2|0:0,0:0:0:0:
399,360,148568,2,0,P|406:313|415:268,1,93.5000028533936,8|0,0:2|0:0,0:0:0:0:
508,54,148921,6,0,P|447:59|438:160,1,140.25000428009,2|0,1:2|0:0,0:0:0:0:
411,143,149274,2,0,P|467:152|524:176,1,93.5000028533936,8|0,0:0|0:0,0:0:0:0:
273,48,149627,6,0,L|284:-14,1,46.7500014266968,0|0,1:0|0:0,0:0:0:0:
358,13,149804,2,0,L|349:59,1,46.7500014266968,0|0,1:0|0:0,0:0:0:0:
257,166,149980,1,10,0:0:0:0:
72,18,150157,6,0,P|94:143|100:228,1,187.000005706787,6|0,1:2|1:0,0:0:0:0:
259,284,150686,1,8,0:0:0:0:
95,366,150863,1,0,1:0:0:0:
78,349,150951,1,0,1:0:0:0:
66,329,151039,1,0,1:0:0:0:
59,306,151127,1,0,1:0:0:0:
57,283,151215,1,0,1:0:0:0:
60,260,151304,1,0,1:0:0:0:
68,238,151392,1,8,0:0:0:0:
80,218,151480,1,0,1:0:0:0:
98,201,151568,2,0,L|154:215,1,46.7500014266968,0|0,1:0|1:0,0:0:0:0:
366,280,151745,5,14,0:0:0:0:
227,59,151921,2,0,P|237:118|239:165,1,93.5000028533936,2|8,1:2|0:0,0:0:0:0:
352,8,152274,5,2,1:2:0:0:
100,119,152451,1,8,0:0:0:0:
351,114,152627,5,2,1:2:0:0:
101,19,152804,1,8,0:0:0:0:
365,126,152980,5,2,1:2:0:0:
112,249,153157,2,0,P|56:234|12:233,1,93.5000028533936,8|2,0:0|1:2,0:0:0:0:
199,50,153510,5,10,0:0:0:0:
316,255,153686,1,2,1:2:0:0:
88,130,153863,5,8,0:0:0:0:
320,3,154039,1,0,1:0:0:0:
151,250,154216,5,10,0:0:0:0:
4,12,154392,1,2,1:2:0:0:
240,209,154568,6,0,P|229:264|225:315,1,93.5000028533936,8|0,0:0|1:0,0:0:0:0:
261,108,154921,5,10,0:0:0:0:
29,256,155098,1,2,1:2:0:0:
271,362,155274,6,0,P|329:349|392:349,1,93.5000028533936,8|0,0:0|1:0,0:0:0:0:
149,242,155627,5,10,0:0:0:0:
368,151,155804,1,2,1:2:0:0:
160,17,155980,5,8,0:0:0:0:
225,292,156157,1,0,1:0:0:0:
304,5,156333,5,8,0:0:0:0:
351,241,156510,1,0,1:0:0:0:
351,241,156598,1,0,1:0:0:0:
351,241,156686,1,8,0:0:0:0:
114,125,156863,1,0,1:0:0:0:
371,46,157039,5,8,0:0:0:0:
124,233,157216,1,0,1:0:0:0:
403,344,157392,5,6,1:2:0:0:
195,146,157568,2,0,P|207:93|210:44,1,93.5000028533936,2|8,1:2|0:0,0:0:0:0:
322,162,157921,5,2,1:2:0:0:
70,78,158098,1,8,0:0:0:0:
327,73,158274,5,2,1:2:0:0:
63,166,158451,1,8,0:0:0:0:
316,295,158627,5,2,0:0:0:0:
57,342,158804,2,0,P|112:350|166:367,1,93.5000028533936,8|2,0:0|1:2,0:0:0:0:
333,184,159157,5,10,0:0:0:0:
146,279,159333,1,2,1:2:0:0:
334,347,159510,5,8,0:0:0:0:
93,184,159686,1,8,0:0:0:0:
360,50,159863,1,10,0:0:0:0:
237,190,160039,1,10,0:2:0:0:
70,2,160216,6,0,P|115:18|209:30,1,127.5,4|0,1:2|1:0,0:0:0:0:
351,180,160921,6,0,P|372:150|353:57,1,127.5,4|0,1:2|1:0,0:0:0:0:
230,194,161627,5,0,1:0:0:0:
165,146,161804,1,4,1:2:0:0:
243,114,161980,5,0,1:0:0:0:
156,228,162157,1,0,1:0:0:0:
254,324,162333,6,0,P|292:313|347:305,1,85,0|0,1:0|1:0,0:0:0:0:
307,232,162863,1,0,0:0:0:0:
175,354,163039,6,0,B|72:351|118:280|-19:299,1,191.250007295609,2|0,1:2|0:0,0:0:0:0:
42,120,163745,5,2,0:0:0:0:
115,137,163921,1,2,0:0:0:0:
163,197,164098,1,2,0:0:0:0:
156,275,164274,1,2,0:0:0:0:
265,358,164451,5,0,0:0:0:0:
274,355,164804,1,2,0:0:0:0:
283,353,165157,1,0,0:0:0:0:
293,350,165510,1,0,0:0:0:0:
386,218,165863,5,2,1:2:0:0:
328,270,166039,1,0,1:0:0:0:
401,357,166216,2,0,P|411:322|402:290,1,63.7500024318696
274,161,166568,5,2,0:0:0:0:
290,84,166745,1,2,0:0:0:0:
360,43,166921,1,2,0:0:0:0:
442,51,167098,2,0,P|435:89|428:128,1,63.7500024318696,2|0,0:0|0:0,0:0:0:0:
506,254,167451,5,2,0:0:0:0:
446,204,167627,2,0,P|405:215|389:236,1,63.7500024318696,2|2,0:0|0:0,0:0:0:0:
337,293,167980,2,0,P|344:331|351:370,2,63.7500024318696
337,293,168510,1,0,0:0:0:0:
216,146,168686,6,0,P|270:153|294:241,1,127.500004863739,2|0,1:2|0:0,0:0:0:0:
301,213,169216,1,0,0:0:0:0:
140,365,169392,5,2,0:0:0:0:
68,342,169568,1,2,0:0:0:0:
35,272,169745,1,2,0:0:0:0:
70,202,169921,1,2,0:0:0:0:
222,128,170098,6,0,L|215:185,3,42.5000016212464,0|0|0|2,0:0|0:0|0:0|0:0,0:0:0:0:
216,170,170627,1,0,0:0:0:0:
302,268,170804,2,0,P|343:259|360:236,1,63.7500024318696
441,128,171157,5,2,0:0:0:0:
501,181,171333,1,0,1:0:0:0:
416,50,171510,6,0,P|378:45|327:130,1,127.500004863739,2|0,1:2|0:0,0:0:0:0:
245,261,172039,6,0,B|164:258|204:211|104:221,1,127.500004863739,2|0,0:0|0:0,0:0:0:0:
10,92,172568,5,2,0:0:0:0:
81,50,172745,2,0,P|68:130|61:187,1,127.500004863739,0|8,1:0|0:0,0:0:0:0:
157,334,173274,5,0,1:0:0:0:
198,263,173451,1,0,1:0:0:0:
279,157,173627,5,0,1:0:0:0:
320,228,173804,1,0,1:0:0:0:
388,342,173980,5,0,1:0:0:0:
429,271,174157,1,0,1:0:0:0:
510,107,174333,6,0,B|428:107|456:157|359:158,1,152.999995330811,6|0,1:2|0:0,0:0:0:0:
369,157,174863,1,0,1:0:0:0:
252,25,175039,5,10,0:0:0:0:
177,60,175216,1,2,0:0:0:0:
154,136,175392,1,2,0:0:0:0:
186,210,175568,2,0,P|229:216|341:255,1,152.999995330811,2|0,1:2|1:0,0:0:0:0:
169,339,176098,6,0,P|130:348|83:368,1,76.4999976654053,2|0,1:2|0:0,0:0:0:0:
17,250,176451,5,8,0:0:0:0:
84,203,176627,1,0,1:0:0:0:
2,102,176804,2,0,P|9:150|14:195,1,76.4999976654053,0|0,1:0|0:0,0:0:0:0:
174,343,177157,6,0,P|217:339|241:235,1,152.999995330811,2|0,1:2|0:0,0:0:0:0:
248,247,177686,1,0,1:0:0:0:
326,79,177863,5,10,0:0:0:0:
366,146,178039,1,2,0:0:0:0:
332,212,178216,1,2,0:0:0:0:
190,79,178392,6,0,B|99:82|142:143|35:145|34:129,1,152.999995330811,2|8,1:2|0:0,0:0:0:0:
6,20,178921,2,0,P|49:32|59:74,1,76.4999976654053,0|0,1:0|1:0,0:0:0:0:
182,160,179274,2,0,P|174:209|163:338,1,152.999995330811,8|0,0:0|1:0,0:0:0:0:
346,357,179804,5,8,0:0:0:0:
346,357,179892,1,0,1:0:0:0:
346,357,179980,2,0,B|426:347|391:296|494:302,1,152.999995330811,6|2,1:2|0:0,0:0:0:0:
331,191,180510,2,0,P|341:240|345:286,1,76.4999976654053,2|8,1:2|0:0,0:0:0:0:
454,129,180863,1,2,1:2:0:0:
454,129,181216,5,2,0:0:0:0:
306,36,181392,1,4,1:2:0:0:
382,7,181568,2,0,P|376:52|371:98,1,76.4999976654053,2|0,0:0|0:0,0:0:0:0:
259,171,181921,1,2,0:0:0:0:
319,224,182098,1,8,0:0:0:0:
233,91,182274,6,0,P|176:93|136:197,1,152.999995330811,4|0,1:2|1:0,0:0:0:0:
28,292,182804,6,0,B|127:292|68:342|198:346,1,152.999995330811,2|0,0:0|0:0,0:0:0:0:
352,365,183333,5,2,1:2:0:0:
352,365,183421,1,2,1:2:0:0:
352,365,183510,2,0,P|333:324|361:203,1,152.999995330811,6|0,1:2|0:0,0:0:0:0:
348,220,184039,1,0,1:0:0:0:
478,91,184216,6,0,P|472:146|469:190,1,76.4999976654053,6|0,1:2|0:0,0:0:0:0:
343,35,184568,5,0,1:0:0:0:
343,35,184657,1,0,1:0:0:0:
343,35,184745,2,0,L|289:47,1,38.2499988327027,0|0,1:0|1:0,1:0:0:0:
137,132,184921,5,2,1:2:0:0:
171,115,185010,1,0,1:0:0:0:
209,113,185098,1,0,1:0:0:0:
243,130,185186,1,0,1:0:0:0:
265,160,185274,1,0,1:0:0:0:
289,189,185363,1,0,1:0:0:0:
325,201,185451,1,0,1:0:0:0:
362,204,185539,1,0,1:0:0:0:
397,189,185627,6,0,P|342:186|305:324,1,203.999993774414,6|8,1:2|0:2,0:0:0:0:
122,128,186157,6,0,P|70:144|6:155,1,101.999996887207,2|8,1:2|0:0,0:0:0:0:
166,358,186510,2,0,P|172:308|189:250,1,101.999996887207,2|8,1:2|0:0,0:0:0:0:
371,57,186863,5,2,1:2:0:0:
178,184,187039,2,0,B|262:181|210:242|351:240,1,152.999995330811,8|0,0:0|0:0,0:0:0:0:
330,243,187392,5,10,0:0:0:0:
496,79,187568,1,0,1:0:0:0:
285,10,187745,5,10,0:0:0:0:
501,165,187921,1,0,1:0:0:0:
249,305,188098,5,10,0:0:0:0:
427,126,188274,1,0,1:0:0:0:
204,9,188451,6,0,P|218:79|232:196,1,152.999995330811,10|0,0:0|0:0,0:0:0:0:
234,177,188804,5,10,0:0:0:0:
64,357,188980,2,0,P|17:340|0:290,1,101.999996887207,2|8,1:2|0:0,0:0:0:0:
18,223,189333,1,0,1:0:0:0:
201,351,189510,6,0,P|253:336|308:326,1,101.999996887207,10|2,0:0|1:2,0:0:0:0:
469,122,189863,5,8,0:0:0:0:
370,369,190039,1,0,1:0:0:0:
376,97,190216,5,8,0:0:0:0:
471,366,190392,1,0,1:0:0:0:
481,94,190568,5,10,0:0:0:0:
370,369,190745,1,0,1:0:0:0:
244,113,190921,5,10,0:0:0:0:
479,241,191098,1,2,1:2:0:0:
238,361,191274,6,0,B|144:359|197:307|61:307,1,152.999995330811,6|0,1:2|0:0,0:0:0:0:
78,304,191627,5,10,0:0:0:0:
327,130,191804,2,0,P|315:187|310:238,1,101.999996887207,2|8,1:2|0:0,0:0:0:0:
289,304,192157,1,0,1:0:0:0:
105,127,192333,5,10,0:0:0:0:
357,26,192510,1,2,1:2:0:0:
189,252,192686,6,0,P|176:202|213:71,1,152.999995330811,10|0,0:0|0:0,0:0:0:0:
203,90,193039,5,10,0:0:0:0:
409,214,193216,1,0,1:0:0:0:
200,337,193392,5,10,0:0:0:0:
397,134,193568,1,0,1:2:0:0:
512,351,193745,5,10,0:0:0:0:
331,185,193921,1,0,1:0:0:0:
512,26,194098,6,0,P|502:85|489:234,1,203.999993774414,6|2,1:2|1:2,0:0:0:0:
289,353,194627,1,2,0:0:0:0:
341,288,194804,2,0,P|391:299|414:349,1,101.999996887207,8|0,0:0|1:0,0:0:0:0:
240,194,195157,5,10,0:0:0:0:
303,142,195333,1,2,1:2:0:0:
161,57,195510,5,8,0:0:0:0:
220,112,195686,1,0,1:0:0:0:
322,22,195863,5,0,1:0:0:0:
141,136,196039,1,8,0:0:0:0:
320,221,196216,6,0,P|373:209|413:205,1,85,2|0,1:2|1:0,0:0:0:0:
169,320,196568,5,2,1:2:0:0:
169,320,196657,1,0,1:0:0:0:
169,320,196745,2,0,L|158:269,1,42.5,0|0,1:0|1:0,1:0:0:0:
239,32,196921,6,0,P|227:99|87:121,1,203.999993774414,4|0,1:2|1:0,0:0:0:0:
262,308,197451,6,0,P|311:311|382:334,1,101.999996887207,2|0,1:2|0:0,0:0:0:0:
241,197,197804,5,2,1:2:0:0:
241,197,197980,1,0,1:0:0:0:
39,360,198157,6,0,P|60:304|27:140,1,203.999993774414,4|0,1:2|1:2,0:2:0:0:
192,29,198686,2,0,P|183:85|179:127,1,85,8|0,0:0|0:0,0:0:0:0:
183,128,198951,1,0,1:0:0:0:
183,128,199039,1,0,1:0:0:0:
223,195,199216,1,0,1:0:0:0:
332,81,199392,6,0,P|284:97|272:151,1,85,2|2,0:0|0:0,0:0:0:0:
116,300,199745,6,0,B|205:323|205:323|218:346|218:346|306:367,1,203.999993774414,6|10,1:2|0:0,0:0:0:0:
476,228,200274,6,0,B|494:178|494:178|478:128,1,101.999996887207,6|0,1:2|0:0,0:0:0:0:
405,279,200627,5,2,1:2:0:0:
405,279,200804,1,0,1:0:0:0:
227,108,200980,6,0,B|187:62|109:82|109:82|90:115|30:120,1,203.999993774414,6|0,1:2|1:0,0:0:0:0:
216,270,201510,2,0,P|236:225|215:178,1,85,8|0,0:0|0:0,0:0:0:0:
143,345,201863,5,0,1:0:0:0:
307,102,202039,2,0,P|358:115|373:148,1,85,8|2,0:0|0:0,0:0:0:0:
461,339,202392,5,2,1:2:0:0:
461,339,202480,1,0,1:0:0:0:
461,339,202568,2,0,P|437:282|462:160,1,170,6|2,1:2|1:2,0:0:0:0:
298,17,203098,2,0,P|305:66|306:114,1,85,2|0,0:0|1:0,0:0:0:0:
328,298,203451,1,0,1:0:0:0:
156,111,203627,5,10,0:0:0:0:
385,240,203804,1,2,0:0:0:0:
152,370,203980,2,0,P|104:357|54:351,1,85,0|0,1:0|0:1,0:0:0:0:
245,213,204333,6,0,P|255:266|237:302,1,85,10|0,0:0|0:0,0:0:0:0:
76,89,204686,2,0,P|85:39|87:1,1,85,2|0,1:2|1:0,0:0:0:0:
13,231,205039,6,0,P|60:238|140:280,1,127.5,8|0,0:0|0:0,0:0:0:0:
172,209,205392,6,0,B|89:232|89:232|74:265|74:265|-31:294,1,191.250007295609,6|0,1:2|0:0,0:0:0:0:
8,283,205745,5,10,0:0:0:0:
261,123,205921,1,2,1:2:0:0:
15,0,206098,5,8,0:0:0:0:
184,185,206274,1,0,1:0:0:0:
184,185,206363,1,8,0:0:0:0:
184,185,206451,1,8,0:0:0:0:
361,13,206627,6,0,P|293:9|252:119,1,191.250007295609,4|0,1:2|0:0,0:0:0:0:
282,191,206980,5,0,1:0:0:0:
286,189,207068,1,0,1:0:0:0:
290,188,207156,1,2,1:2:0:0:
295,187,207244,1,0,1:0:0:0:
299,186,207332,1,0,1:0:0:0:
303,185,207421,1,0,1:0:0:0:
308,183,207509,1,2,1:2:0:0:
312,182,207597,1,0,1:0:0:0:
317,181,207685,1,0,1:0:0:0:
321,180,207774,1,0,1:0:0:0:
326,179,207862,1,10,0:2:0:0:
330,178,207951,1,0,1:0:0:0:
334,177,208038,1,2,1:2:0:0:
339,176,208127,1,0,1:0:0:0:
343,175,208216,6,0,B|373:99|373:99|343:3,1,165.749992412568,4|0,1:2|0:0,0:0:0:0:
347,18,208568,1,10,0:0:0:0:
510,279,208745,6,0,B|446:303|446:303|424:335|424:335|349:361,1,165.749992412568,4|0,1:2|0:0,0:0:0:0:
300,318,209098,6,0,L|239:299,1,46.7500014266968,0|0,1:2|0:0,0:0:0:0:
361,194,209274,2,0,L|405:207,1,46.7500014266968,8|0,0:0|0:0,0:0:0:0:
210,368,209451,6,0,P|96:337|36:335,1,140.25000428009,4|0,1:2|0:0,0:0:0:0:
3,310,209804,6,0,L|11:372,1,46.7500014266968,0|0,1:2|0:0,0:0:0:0:
98,230,209980,2,0,L|91:184,1,46.7500014266968,8|0,0:0|0:0,0:0:0:0:
259,8,210157,6,0,P|246:61|130:67,1,165.749992412568,6|0,1:2|0:0,0:0:0:0:
135,70,210510,1,2,1:2:0:0:
276,271,210686,2,0,P|337:278|375:298,1,93.5000028533936,10|0,0:0|1:0,0:0:0:0:
432,247,210951,5,0,1:0:0:0:
432,247,211039,2,0,P|448:200|430:150,1,93.5000028533936,2|0,1:2|1:0,0:0:0:0:
436,151,211304,1,0,1:0:0:0:
436,151,211392,1,10,0:0:0:0:
189,4,211568,6,0,P|197:77|204:195,1,165.749992412568,6|0,1:2|0:0,0:0:0:0:
159,236,211921,2,0,P|106:226|86:168,1,93.5000028533936,2|0,1:2|1:0,0:0:0:0:
296,7,212274,6,0,B|361:29|361:29|375:51|375:51|466:82,1,165.749992412568,6|0,1:2|0:0,0:0:0:0:
461,66,212627,6,0,L|450:-1,1,46.7500014266968,2|0,1:2|0:0,0:0:0:0:
350,134,212804,2,0,L|357:180,1,46.7500014266968,8|0,0:0|0:0,0:0:0:0:
512,328,212980,6,0,B|464:286|396:314|396:314|379:344|332:350,1,187.000005706787,2|0,1:2|1:0,0:0:0:0:
150,245,213510,5,8,0:0:0:0:
160,204,213598,1,0,1:0:0:0:
192,177,213686,1,0,1:0:0:0:
232,166,213774,1,0,1:0:0:0:
274,172,213863,6,0,P|266:234|259:339,1,140.25000428009,2|0,1:2|1:0,0:0:0:0:
257,327,214216,1,10,0:0:0:0:
501,111,214392,6,0,P|483:50|367:49,1,165.749992412568,6|0,1:2|0:2,1:2:0:0:
312,25,214745,6,0,L|301:83,1,46.7500014266968,2|0,1:2|0:0,0:0:0:0:
404,197,214921,2,0,L|412:151,1,46.7500014266968,8|0,0:0|0:0,0:0:0:0:
230,10,215098,6,0,B|163:27|163:27|142:56|142:56|64:74,1,165.749992412568,4|0,1:2|0:0,0:0:0:0:
53,0,215451,6,0,L|-3:13,1,46.7500014266968,2|0,1:2|0:0,0:0:0:0:
146,135,215627,2,0,L|191:124,1,46.7500014266968,8|0,0:0|0:0,0:0:0:0:
3,327,215804,6,0,P|28:266|-1:150,1,165.749992412568,6|0,1:2|0:2,0:0:0:0:
0,149,216157,1,0,1:2:0:0:
173,288,216333,2,0,P|230:268|282:267,1,93.5000028533936,10|0,0:0|1:0,0:0:0:0:
278,244,216598,5,0,1:0:0:0:
278,244,216686,2,0,P|342:250|477:318,1,187.000005706787,6|8,1:2|0:0,0:0:0:0:
313,28,217216,6,0,P|265:18|211:114,1,140.25000428009,2|0,1:2|0:0,0:0:0:0:
266,164,217568,2,0,L|273:117,1,46.7500014266968,2|0,1:2|0:0,0:0:0:0:
140,11,217745,2,0,L|132:57,1,46.7500014266968,8|0,0:0|0:0,0:0:0:0:
31,265,217921,6,0,B|77:224|144:244|144:244|169:280|217:284,1,187.000005706787,6|2,1:2|1:2,0:0:0:0:
352,119,218451,1,10,0:0:0:0:
286,356,218627,6,0,P|282:297|259:152,1,187.000005706787,6|0,1:2|1:0,0:0:0:0:
366,36,219157,2,0,P|415:51|435:93,1,93.5000028533936,8|0,0:0|0:0,0:0:0:0:
198,8,219510,6,0,B|94:14|137:68|26:77,1,170,6|0,1:2|1:0,0:0:0:0:
180,221,220039,5,0,1:0:0:0:
213,153,220216,1,0,0:0:0:0:
176,86,220392,1,0,1:0:0:0:
255,86,220568,5,0,1:0:0:0:
136,157,220745,1,0,0:0:0:0:
243,283,220921,6,0,B|342:282|290:210|435:217,1,170,4|0,1:2|1:0,0:0:0:0:
459,169,221392,5,0,1:0:0:0:
490,98,221510,5,0,1:0:0:0:
466,21,221627,6,0,B|427:-15|326:8|338:112|338:112|362:137|409:145,1,255.000009727478,4|0,1:2|0:0,0:0:0:0:
138,313,223745,6,0,B|140:358|76:374|76:374|28:304|98:198,1,280.500008560181,2|0,0:0|0:0,0:0:0:0:
205,75,226745,6,0,L|202:47,2,28.0500008560181
348,206,227627,5,2,0:0:0:0:
290,157,227804,2,0,P|246:164|216:257,1,149.60000456543,2|0,0:0|0:0,0:0:0:0:
261,319,229392,6,0,P|300:325|333:340,2,74.8000022827149,2|0|0,0:0|0:0|0:0,0:0:0:0:
36,95,232568,5,2,0:0:0:0:
102,53,232745,1,2,0:0:0:0:
226,15,233098,5,2,0:0:0:0:
292,57,233275,1,2,0:0:0:0:
309,134,233451,5,2,0:0:0:0:
309,134,233539,1,2,0:0:0:0:
309,134,233627,2,0,P|263:141|251:146,1,50.9999984436036,2|0,0:0|0:0,0:0:0:0:
240,127,234157,2,0,P|279:128|339:150,1,101.999996887207,2|0,0:0|0:0,0:0:0:0:
412,123,235039,6,0,P|429:90|412:23,1,101.999996887207,2|2,0:0|0:0,0:0:0:0:
505,236,236098,6,0,L|507:220,2,16.9999994812012,2|2|2,0:0|0:0|0:0,0:0:0:0:
512,241,236451,2,0,P|481:244|434:263,1,76.4999976654053,2|0,0:0|0:0,0:0:0:0:
291,355,237333,5,2,0:0:0:0:
282,334,237510,1,2,0:0:0:0:
307,265,237686,1,2,0:0:0:0:
307,265,237774,1,2,0:0:0:0:
307,265,237863,2,0,P|336:273|346:300,2,50.9999984436036,2|0|0,0:0|0:0|0:0,0:0:0:0:
119,196,239098,6,0,L|104:200,2,8.49999974060059,2|2|2,0:0|0:0|0:0,0:0:0:0:
130,200,239274,2,0,P|162:201|193:162,1,76.4999976654053,2|2,0:0|0:0,0:0:0:0:
191,170,240157,1,2,0:0:0:0:
184,154,240333,1,2,0:0:0:0:
228,86,240510,5,2,0:0:0:0:
228,86,240598,1,2,0:0:0:0:
228,86,240686,6,0,P|271:84|311:177,1,152.999995330811,2|0,0:0|0:0,0:0:0:0:
238,317,242010,6,0,L|240:326,2,6.37499980545045,2|2|2,0:0|0:0|0:0,0:0:0:0:
38,70,243510,5,2,0:0:0:0:
274,208,244216,5,2,0:0:0:0:
127,29,244392,5,0,1:0:0:0:
127,29,244480,1,0,1:0:0:0:
127,29,244568,1,8,0:0:0:0:
134,85,244657,1,8,0:0:0:0:
144,139,244745,1,8,0:0:0:0:
153,194,244833,1,8,0:0:0:0:
165,248,244921,6,0,B|249:269|249:269|266:295|266:295|348:316,1,191.250007295609,4|0,1:2|0:0,0:0:0:0:
356,315,245274,1,0,1:0:0:0:
493,125,245451,5,2,0:0:0:0:
512,206,245627,2,0,B|395:203|463:143|324:139,1,187.000005706787,2|0,0:0|1:0,0:0:0:0:
153,5,246157,5,2,0:0:0:0:
292,234,246333,2,0,P|270:186|300:39,1,187.000005706787,2|0,0:0|1:0,0:0:0:0:
348,7,246863,1,0,0:0:0:0:
173,212,247039,5,10,0:0:0:0:
120,231,247127,1,10,0:0:0:0:
65,215,247216,1,10,0:0:0:0:
28,172,247304,1,10,0:0:0:0:
15,117,247392,1,10,0:0:0:0:
35,64,247480,1,10,0:0:0:0:
82,31,247568,1,10,0:0:0:0:
140,28,247657,1,10,0:0:0:0:
190,51,247745,6,0,P|173:127|158:260,1,191.250007295609,4|0,0:0|0:0,0:0:0:0:
153,259,248098,1,10,0:0:0:0:
393,363,248274,2,0,P|442:352|447:221,1,203.999993774414,2|0,1:2|1:0,0:0:0:0:
219,338,248804,2,0,P|161:349|106:371,1,101.999996887207,10|2,0:0|0:0,0:0:0:0:
326,224,249157,6,0,P|315:169|333:119,1,101.999996887207,0|0,1:0|0:0,0:0:0:0:
338,116,249421,1,0,1:0:0:0:
338,116,249510,1,8,0:0:0:0:
463,17,249686,1,0,1:0:0:0:
336,35,249863,2,0,P|389:51|415:93,1,101.999996887207,0|0,1:0|1:0,0:0:0:0:
484,269,250216,6,0,B|503:220|503:220|486:165,1,101.999996887207,10|2,0:0|0:0,0:0:0:0:
384,349,250568,2,0,B|348:304|264:325|264:325|247:354|197:359,1,203.999993774414,0|10,1:0|0:0,0:0:0:0:
18,202,251098,2,0,B|129:194|77:129|214:132,1,203.999993774414,2|0,1:2|1:0,0:0:0:0:
329,246,251627,6,0,P|282:235|261:165,1,101.999996887207,10|2,0:0|0:0,0:0:0:0:
16,22,251980,2,0,P|26:80|32:132,1,101.999996887207,0|0,1:0|0:0,0:0:0:0:
37,141,252245,1,0,1:0:0:0:
37,141,252333,1,10,0:0:0:0:
276,3,252510,2,0,P|326:-3|369:124,1,203.999993774414,2|0,1:2|1:0,0:0:0:0:
219,298,253039,6,0,P|157:283|109:282,1,101.999996887207,10|2,0:0|0:0,0:0:0:0:
308,74,253392,2,0,P|295:128|288:179,1,101.999996887207,0|0,1:0|0:0,0:0:0:0:
287,192,253657,1,0,1:0:0:0:
287,192,253745,1,10,0:0:0:0:
473,364,253921,2,0,P|506:301|468:163,1,203.999993774414,2|0,1:2|1:0,0:0:0:0:
308,283,254451,6,0,L|366:299,1,50.9999984436036,10|8,0:0|0:0,0:0:0:0:
512,46,254627,2,0,B|433:69|433:69|413:99|413:99|329:124,1,203.999993774414,6|0,1:2|1:0,0:0:0:0:
150,318,255157,1,0,1:0:0:0:
214,14,255333,6,0,L|251:240,1,203.999993774414,12|0,0:0|1:0,0:0:0:0:
87,366,255863,5,8,0:0:0:0:
33,350,255951,1,8,0:0:0:0:
2,303,256039,1,10,0:0:0:0:
10,247,256127,1,8,0:0:0:0:
50,207,256216,2,0,P|108:219|156:240,1,101.999996887207,6|0,1:2|0:0,0:0:0:0:
166,246,256480,1,0,1:0:0:0:
166,246,256568,1,10,0:0:0:0:
357,376,256745,2,0,P|377:325|363:278,1,101.999996887207,2|0,1:2|0:0,0:0:0:0:
319,217,257098,1,0,1:0:0:0:
197,54,257274,5,10,0:0:0:0:
404,206,257451,1,2,0:0:0:0:
276,0,257627,6,0,P|284:60|287:114,1,101.999996887207,0|0,1:0|0:0,0:0:0:0:
293,125,257892,1,0,1:0:0:0:
293,125,257980,1,8,0:0:0:0:
138,257,258157,1,0,1:0:0:0:
222,296,258333,2,0,P|218:245|211:194,1,101.999996887207,0|0,0:0|1:0,0:0:0:0:
124,365,258686,5,10,0:0:0:0:
326,201,258863,1,2,0:0:0:0:
114,105,259039,6,0,P|66:120|45:179,1,101.999996887207,0|0,1:0|0:0,0:0:0:0:
47,188,259304,1,0,1:0:0:0:
47,188,259392,1,10,0:0:0:0:
200,315,259568,2,0,P|251:320|302:340,1,101.999996887207,2|0,1:2|0:0,0:0:0:0:
370,363,259921,1,0,1:0:0:0:
174,218,260098,5,10,0:0:0:0:
386,129,260274,1,2,0:0:0:0:
172,17,260451,6,0,P|181:80|184:128,1,101.999996887207,0|0,1:2|0:0,0:0:0:0:
189,139,260716,1,0,1:0:0:0:
189,139,260804,1,8,0:0:0:0:
321,263,260980,1,2,1:2:0:0:
328,243,261068,1,2,0:0:0:0:
322,225,261157,1,2,0:0:0:0:
176,333,261333,1,0,1:0:0:0:
176,333,261421,1,0,1:0:0:0:
176,333,261510,2,0,P|126:315|68:310,1,101.999996887207,8|2,0:0|0:0,0:0:0:0:
303,118,261863,6,0,B|348:72|421:91|421:91|439:122|487:131,1,203.999993774414,6|8,1:2|0:0,0:0:0:0:
491,52,262392,1,2,1:2:0:0:
277,248,262568,6,0,B|157:243|233:166|69:179,1,203.999993774414,2|8,1:2|0:0,0:0:0:0:
121,251,263098,1,2,0:0:0:0:
303,118,263274,6,0,P|323:69|292:6,1,101.999996887207,2|0,1:2|0:0,0:0:0:0:
300,10,263539,1,0,1:2:0:0:
300,10,263627,1,8,0:0:0:0:
243,66,263804,1,2,1:2:0:0:
435,201,263980,5,2,1:2:0:0:
384,137,264157,1,0,0:0:0:0:
262,273,264333,2,0,P|320:286|359:307,1,101.999996887207,10|2,0:0|0:0,0:0:0:0:
165,111,264686,5,6,1:2:0:0:
26,299,264863,1,0,1:0:0:0:
254,167,265039,1,8,0:0:0:0:
44,34,265216,6,0,P|51:97|56:215,1,152.999995330811,0|0,1:0|0:0,0:0:0:0:
53,203,265568,1,0,1:2:0:0:
178,15,265745,1,10,0:0:0:0:
0,271,265921,6,0,B|127:281|49:357|201:349,1,203.999993774414,6|8,1:2|0:0,0:0:0:0:
201,347,266363,1,0,1:0:0:0:
201,347,266451,1,8,0:0:0:0:
307,177,266627,5,0,1:0:0:0:
308,187,266716,1,0,1:0:0:0:
309,197,266804,1,0,1:0:0:0:
311,207,266892,1,0,1:0:0:0:
312,217,266980,1,0,1:0:0:0:
314,227,267068,1,0,1:0:0:0:
315,237,267157,2,0,P|251:241|147:280,1,152.999995330811,8|0,0:0|0:0,0:0:0:0:
150,272,267510,5,14,0:0:0:0:
412,120,267686,1,2,1:2:0:0:
127,34,267863,5,8,0:0:0:0:
268,157,268039,1,2,1:2:0:0:
381,26,268216,5,8,0:0:0:0:
136,156,268392,1,2,1:2:0:0:
136,156,268480,1,0,1:0:0:0:
136,156,268568,1,8,0:0:0:0:
401,257,268745,1,2,1:2:0:0:
126,363,268921,5,8,0:0:0:0:
290,150,269098,1,2,1:2:0:0:
421,360,269274,5,10,0:0:0:0:
152,236,269451,1,2,1:2:0:0:
409,104,269627,5,8,0:0:0:0:
404,123,269716,1,0,1:0:0:0:
402,143,269804,1,0,1:0:0:0:
404,163,269892,1,0,1:0:0:0:
410,182,269980,1,10,0:0:0:0:
270,19,270157,1,2,1:2:0:0:
476,245,270333,6,0,P|421:257|370:287,1,101.999996887207,8|0,0:0|0:0,0:0:0:0:
114,163,270686,5,10,0:0:0:0:
364,38,270863,1,2,1:2:0:0:
251,290,271039,6,0,P|242:237|225:184,1,101.999996887207,10|0,0:0|0:0,0:0:0:0:
37,35,271392,5,10,0:0:0:0:
296,125,271568,1,2,1:2:0:0:
296,125,271657,1,0,1:0:0:0:
296,125,271745,1,8,0:0:0:0:
23,249,271921,1,4,1:2:0:0:
222,24,272098,5,8,0:0:0:0:
123,309,272274,1,4,1:2:0:0:
369,174,272451,5,8,0:0:0:0:
120,69,272627,1,0,1:0:0:0:
270,290,272804,5,8,0:0:0:0:
406,64,272980,1,0,1:0:0:0:
128,165,273157,5,14,0:0:0:0:
416,269,273333,1,2,1:2:0:0:
123,358,273510,5,8,0:0:0:0:
295,155,273686,1,2,1:2:0:0:
429,355,273863,5,8,0:0:0:0:
173,238,274039,1,2,1:2:0:0:
173,238,274127,1,0,1:0:0:0:
173,238,274216,1,8,0:0:0:0:
437,134,274392,1,2,1:2:0:0:
170,27,274568,5,12,0:0:0:0:
270,338,274745,1,2,1:2:0:0:
270,59,274921,5,10,0:0:0:0:
178,351,275098,1,10,0:0:0:0:
88,47,275274,1,8,0:0:0:0:
343,255,275451,1,8,0:0:0:0:
25,365,275627,5,10,0:0:0:0:
320,132,275804,1,2,1:2:0:0:
190,354,275980,6,0,L|180:252,1,85,4|0,1:2|0:0,0:0:0:0:
167,194,276510,1,0,1:0:0:0:
320,27,276686,6,0,P|368:33|407:105,1,127.5,4|0,1:2|1:0,0:0:0:0:
487,253,277392,6,0,P|442:262|386:290,1,95.6250036478044,0|0,1:0|1:0,0:0:0:0:
379,292,277745,1,0,1:0:0:0:
248,182,277921,5,4,1:2:0:0:
248,182,278010,1,0,1:0:0:0:
248,182,278098,2,0,L|300:192,3,31.8750012159348,0|0|0|0,1:0|1:0|1:0|1:0,0:0:0:0:
119,353,278451,6,0,L|109:376,1,15.9375006079674,2|2,1:2|0:0,0:0:0:0:
68,332,278539,6,0,L|52:354,1,15.9375006079674,2|2,0:0|0:0,0:0:0:0:
34,289,278627,6,0,L|11:304,1,15.9375006079674,2|2,0:0|0:0,0:0:0:0:
38,233,278716,6,0,L|10:232,1,15.9375006079674,2|2,1:2|0:0,0:0:0:0:
71,190,278804,6,0,L|138:210,1,63.75,2|0,0:0|0:0,0:0:0:0:
147,213,279157,5,4,1:2:0:0:
402,335,279333,2,0,P|349:313|345:268,1,93.5000028533936,2|0,0:0|1:0,0:0:0:0:
492,159,279686,5,2,0:0:0:0:
337,71,279863,1,8,0:0:0:0:
408,26,280039,6,0,P|396:89|376:239,1,187.000005706787,2|2,1:2|0:0,0:0:0:0:
213,307,280568,1,10,0:0:0:0:
280,365,280745,1,2,1:2:0:0:
280,365,280833,1,8,0:0:0:0:
280,365,280921,2,0,P|332:351|380:349,1,93.5000028533936
194,152,281274,5,10,0:0:0:0:
0,360,281451,2,0,P|54:348|75:304,1,93.5000028533936,2|0,0:0|1:0,0:0:0:0:
209,59,281804,6,0,P|199:114|192:168,1,93.5000028533936,2|10,0:0|0:0,0:0:0:0:
25,217,282157,1,2,1:2:0:0:
25,217,282245,1,2,1:2:0:0:
25,217,282333,2,0,P|84:228|140:252,1,93.5000028533936,0|2,1:0|0:0,0:0:0:0:
278,115,282686,1,10,0:0:0:0:
445,283,282863,6,0,B|335:293|400:350|258:361,1,187.000005706787,2|2,1:2|0:0,0:0:0:0:
218,316,283304,1,0,1:0:0:0:
218,316,283392,2,0,P|201:268|220:221,1,93.5000028533936,10|2,0:0|0:0,0:0:0:0:
230,219,283657,1,8,0:0:0:0:
230,219,283745,5,0,1:0:0:0:
443,128,283921,1,0,1:0:0:0:
503,364,284098,5,8,0:0:0:0:
356,224,284274,1,0,1:0:0:0:
222,38,284451,6,0,P|175:25|111:145,1,187.000005706787,6|10,1:2|0:0,0:0:0:0:
46,187,284892,1,2,0:0:0:0:
49,219,284980,1,2,0:0:0:0:
52,251,285068,1,2,0:0:0:0:
58,283,285157,5,2,1:2:0:0:
108,316,285245,1,2,0:0:0:0:
168,318,285333,1,2,1:2:0:0:
219,286,285421,1,2,0:0:0:0:
239,228,285510,1,10,0:0:0:0:
447,42,285686,6,0,L|416:262,1,187.000005706787,2|2,0:0|0:0,0:0:0:0:
231,369,286216,5,10,0:0:0:0:
81,167,286392,2,0,P|142:179|155:217,1,93.5000028533936,2|0,0:0|1:0,0:0:0:0:
309,52,286745,5,2,1:2:0:0:
309,52,286833,1,0,1:0:0:0:
309,52,286921,2,0,P|254:71|206:76,1,93.5000028533936,8|0,0:0|0:0,0:0:0:0:
482,183,287274,5,6,1:2:0:0:
202,309,287451,1,2,1:2:0:0:
482,183,287627,1,10,0:0:0:0:
371,359,287804,6,0,P|363:294|352:253,1,93.5000028533936,2|0,1:2|0:0,0:0:0:0:
496,90,288157,2,0,P|485:135|481:182,1,93.5000028533936,2|8,1:2|0:0,0:0:0:0:
302,22,288510,5,2,1:2:0:0:
279,29,288863,5,2,1:2:0:0:
143,155,289039,1,8,0:0:0:0:
130,72,289216,6,0,B|227:78|173:135|320:149,1,187.000005706787,6|0,1:2|1:0,0:0:0:0:
188,272,289745,2,0,P|132:285|81:306,1,93.5000028533936,10|0,0:0|1:0,0:0:0:0:
73,307,290010,5,8,0:0:0:0:
73,307,290098,2,0,P|46:253|85:108,1,191.250007295609,4|0,1:2|1:0,0:0:0:0:
317,20,290804,6,0,P|302:96|295:163,1,127.500004863739,8|0,0:0|1:0,0:0:0:0:
264,341,291333,6,0,B|308:295|384:318|384:318|398:345|446:346,1,187.000005706787,4|8,1:2|0:0,0:0:0:0:
497,222,291863,6,0,P|460:242|451:284,1,63.7500024318696,0|0,0:0|1:0,0:0:0:0:
512,322,292216,1,8,0:0:0:0:
512,322,292392,1,0,1:0:0:0:
394,205,292568,2,0,P|404:157|405:125,1,63.7500024318696,0|0,0:0|1:0,0:0:0:0:
474,104,292833,5,0,1:0:0:0:
474,104,292921,2,0,B|363:109|429:46|291:42,1,191.250007295609,4|0,1:2|1:0,0:0:0:0:
132,150,293627,1,0,1:0:0:0:
132,150,293980,5,8,0:0:0:0:
230,16,294157,2,0,P|217:86|212:166,1,127.500004863739,4|0,1:2|1:0,0:0:0:0:
75,238,294686,2,0,P|126:243|159:260,1,63.7500024318696,8|0,0:0|0:0,0:0:0:0:
200,332,295039,5,0,1:0:0:0:
212,329,295127,1,0,1:0:0:0:
224,326,295216,1,0,1:0:0:0:
236,324,295304,1,0,1:0:0:0:
248,322,295392,2,0,L|307:311,1,31.8750012159348,8|0,0:0|0:0,0:0:0:0:
501,41,295745,6,0,P|431:68|428:137,1,127.500004863739,4|0,1:2|1:0,0:0:0:0:
423,135,296010,1,0,1:0:0:0:
423,135,296098,1,0,1:0:0:0:
279,316,296274,6,0,P|342:324|427:358,1,127.500004863739,4|0,1:2|1:0,0:0:0:0:
470,302,296539,5,0,1:0:0:0:
468,295,296627,1,0,1:0:0:0:
466,288,296716,1,0,1:0:0:0:
463,281,296804,2,0,L|446:218,1,63.7500024318696,4|0,1:2|1:0,0:0:0:0:
341,46,296980,5,0,1:0:0:0:
303,22,297068,1,0,1:0:0:0:
257,22,297157,1,0,1:0:0:0:
219,45,297245,1,0,1:0:0:0:
202,86,297333,2,0,L|219:167,3,63.7500024318696,4|0|0|0,1:2|1:0|1:0|1:0,0:0:0:0:
307,345,297686,5,0,1:0:0:0:
307,345,297774,1,0,1:0:0:0:
307,345,297863,2,0,P|313:285|326:229,1,95.6250036478044,0|0,1:2|0:0,0:0:0:0:
385,303,298216,6,0,B|282:313|326:375|203:386,1,191.250007295609,6|2,1:2|1:2,0:0:0:0:
157,331,298568,5,2,1:2:0:0:
157,331,298657,1,0,1:0:0:0:
157,331,298745,2,0,B|136:269|136:269|158:204,1,127.500004863739,6|0,1:2|1:0,0:0:0:0:
227,166,299010,5,2,1:2:0:0:
223,153,299098,1,2,1:2:0:0:
219,140,299186,1,0,1:0:0:0:
216,125,299274,2,0,P|154:97|87:146,1,127.500004863739,4|0,1:2|1:0,0:0:0:0:
25,129,299539,1,2,1:2:0:0:
25,129,299627,2,0,L|35:193,1,63.7500024318696,2|0,1:2|1:0,0:0:0:0:
236,305,299804,6,0,B|323:323|323:323|338:346|338:346|426:364,1,191.250007295609,6|2,1:2|1:2,0:0:0:0:
465,264,300157,2,0,L|392:284,1,63.7500024318696,2|0,1:2|1:0,0:0:0:0:
111,361,300333,5,4,1:2:0:0:
