osu file format v14

[General]
AudioFilename: audio.mp3
AudioLeadIn: 0
PreviewTime: 130305
Countdown: 0
SampleSet: Soft
StackLeniency: 0.6
Mode: 0
LetterboxInBreaks: 0
WidescreenStoryboard: 0

[Editor]
DistanceSpacing: 1
BeatDivisor: 4
GridSize: 4
TimelineZoom: 2.2

[Metadata]
Title:Catch the Rainbow!
TitleUnicode:Catch the Rainbow!
Artist:Inori Minase
ArtistUnicode:水瀬いのり
Creator:Yogurtt
Version:Prismatic
Source:
Tags:female vocals vocalist pop japanese jpop j-pop 光増ハジメ Mitsumasu Hajime EFFY amateurre koldnoodl shikibe mayu kazato asa shizuku- shizuku wen wendle kowari
BeatmapID:3406344
BeatmapSetID:1668023

[Difficulty]
HPDrainRate:6
CircleSize:4
OverallDifficulty:9
ApproachRate:9.3
SliderMultiplier:1.7
SliderTickRate:1

[Events]
//Background and Video events
0,0,"88590382_p0.jpg",0,0
//Break Periods
2,186268,192144
//Storyboard Layer 0 (Background)
//Storyboard Layer 1 (Fail)
//Storyboard Layer 2 (Pass)
//Storyboard Layer 3 (Foreground)
//Storyboard Layer 4 (Overlay)
//Storyboard Sound Samples

[TimingPoints]
1782,331.491712707182,4,2,2,50,1,0
9737,324.324324324324,4,2,2,50,1,0
11052,328.767123287671,4,2,2,50,1,0
11052,-125,4,2,2,50,0,0
11873,-100,4,2,2,50,0,0
12367,331.491712707182,4,2,2,60,1,0
24797,-76.9230769230769,4,2,2,60,0,0
25295,-62.5,4,2,2,60,0,0
26123,-86.9565217391304,4,2,2,60,0,0
27449,-66.6666666666667,4,2,2,60,0,0
27947,-58.8235294117647,4,2,2,60,0,0
28278,-111.111111111111,4,2,2,50,0,0
37394,-90.9090909090908,4,2,2,60,0,0
38886,-100,4,2,2,60,0,0
48002,-83.3333333333333,4,2,2,60,0,0
48499,-66.6666666666667,4,2,2,60,0,0
48996,-100,4,2,2,60,0,0
49161,-100,4,2,2,50,0,0
49494,-100,4,2,2,60,0,0
53471,-83.3333333333333,4,2,2,60,0,0
53803,-66.6666666666667,4,2,2,60,0,0
54134,-58.8235294117647,4,2,2,60,0,0
54466,-100,4,2,2,60,0,0
57449,-100,4,2,2,70,0,0
57781,-83.3333333333333,4,2,2,70,0,0
58112,-66.6666666666667,4,2,2,70,0,0
60101,-100,4,2,2,70,0,0
62090,-100,4,2,2,50,0,0
62256,-100,4,2,2,60,0,0
62422,-66.6666666666667,4,2,2,60,0,0
62753,-100,4,2,2,70,0,1
72864,-100,4,2,2,70,0,0
73361,-100,4,2,2,70,0,1
80654,-100,4,2,2,60,0,1
81317,-100,4,2,2,70,0,1
82643,-125,4,2,2,70,0,0
83637,-66.6666666666667,4,2,2,70,0,0
83969,-100,4,2,2,60,0,0
95571,-66.6666666666667,4,2,2,60,0,0
95902,-100,4,2,2,50,0,0
105018,-66.6666666666667,4,2,2,60,0,0
106510,-100,4,2,2,60,0,0
115626,-83.3333333333333,4,2,2,60,0,0
116123,-66.6666666666667,4,2,2,60,0,0
116621,-100,4,2,2,60,0,0
121096,-83.3333333333333,4,2,2,60,0,0
121427,-66.6666666666667,4,2,2,60,0,0
121759,-100,4,2,2,60,0,0
125405,-83.3333333333333,4,2,2,60,0,0
125737,-66.6666666666667,4,2,2,60,0,0
127726,-100,4,2,2,60,0,0
130046,-66.6666666666667,4,2,2,80,0,0
130378,-100,4,2,2,70,0,1
140488,-100,4,2,2,70,0,0
140985,-100,4,2,2,70,0,1
148278,-100,4,2,2,60,0,1
148941,-100,4,2,2,70,0,1
150267,-100,4,2,2,70,0,0
150764,-100,4,2,2,50,0,0
155405,-100,4,2,2,60,0,0
156897,-83.3333333333333,4,2,2,60,0,0
158223,-100,4,2,2,60,0,0
161869,-76.9230769230769,4,2,2,60,0,0
163527,-100,4,2,2,60,0,0
169742,-100,4,2,2,50,0,0
172808,-100,4,2,2,60,0,0
175129,-76.9230769230769,4,2,2,60,0,0
175460,-76.9230769230769,4,2,2,50,0,0
176621,-100,4,2,2,60,0,0
183416,-125,4,2,2,50,0,0
193195,-100,4,2,2,50,0,0
194024,-100,4,2,2,60,0,0
195350,-100,4,2,2,50,0,0
196013,-100,4,2,2,60,0,0
196676,-76.9230769230769,4,2,2,70,0,1
196924,-76.9230769230769,4,2,2,5,0,1
197007,-90.9090909090909,4,2,2,70,0,1
207284,-100,4,2,2,60,0,0
210267,-100,4,2,2,50,0,0
213913,-100,4,2,2,60,0,0
220543,-90.9090909090909,4,2,2,60,0,0
225841,331.491712707182,4,2,2,60,1,0
227664,-76.9230769230769,4,2,2,60,0,0
228161,-66.6666666666667,4,2,2,60,0,0
228484,331.491712707182,4,2,2,60,1,0
230307,-76.9230769230769,4,2,2,60,0,0
230804,-66.6666666666667,4,2,2,60,0,0
230970,-66.6666666666667,4,2,2,40,0,0
231135,-66.6666666666667,4,2,2,60,0,0
231798,-66.6666666666667,4,2,2,55,0,0
232461,-66.6666666666667,4,2,2,50,0,0
233124,-66.6666666666667,4,2,2,45,0,0
233787,-66.6666666666667,4,2,2,40,0,0
234450,-66.6666666666667,4,2,2,35,0,0
235113,-66.6666666666667,4,2,2,30,0,0
235776,-66.6666666666667,4,2,2,25,0,0
236439,-66.6666666666667,4,2,2,20,0,0
237102,-66.6666666666667,4,2,2,15,0,0
237433,-66.6666666666667,4,2,2,10,0,0
237765,-66.6666666666667,4,2,2,5,0,0

[Colours]
Combo1 : 153,208,98
Combo2 : 252,141,191
Combo3 : 106,170,234
Combo4 : 223,45,49
Combo5 : 243,192,73

[HitObjects]
260,59,1782,6,0,P|177:62|183:158,1,170,4|8,1:2|2:1,2:0:0:0:
229,186,2223,1,8,2:1:0:0:
252,180,2334,1,8,2:1:0:0:
275,174,2444,2,0,P|258:235|254:275,2,85,2|0|8,2:1|2:0|2:3,2:0:0:0:
138,218,2942,1,4,2:3:0:0:
183,299,3107,6,0,P|138:301|71:318,1,85,4|8,1:2|2:1,2:0:0:0:
54,228,3439,2,0,P|99:226|166:209,1,85,8|8,2:1|2:1,2:0:0:0:
192,158,3770,1,2,2:1:0:0:
426,251,4102,1,8,2:1:0:0:
381,339,4433,6,0,P|340:290|373:172,1,170,4|8,1:2|2:1,2:0:0:0:
418,144,4875,1,8,2:1:0:0:
424,121,4986,1,8,2:1:0:0:
430,98,5096,2,0,P|369:115|329:119,2,85,2|0|8,2:1|2:0|2:3,2:0:0:0:
326,202,5594,5,4,2:3:0:0:
326,202,5759,2,0,P|284:195|243:182,1,85,8|8,2:1|2:1,2:0:0:0:
212,259,6091,2,0,P|226:298|236:340,1,85,8|8,2:1|2:1,2:0:0:0:
318,329,6422,2,0,P|344:296|376:267,1,85,2|0,2:1|2:0,2:0:0:0:
243,182,6754,5,8,2:1:0:0:
179,327,6920,1,8,2:1:0:0:
113,186,7085,2,0,P|54:195|56:308,1,170,4|8,1:2|2:1,2:0:0:0:
133,315,7527,1,8,2:1:0:0:
156,321,7638,1,8,2:1:0:0:
179,327,7748,2,0,P|162:266|158:226,2,85,2|0|8,2:1|2:0|2:1,2:0:0:0:
245,191,8246,1,8,2:3:0:0:
103,74,8411,6,0,P|96:115|83:156,1,85,4|0,1:2|2:0,2:0:0:0:
193,24,8743,1,8,2:0:0:0:
249,111,8909,2,0,P|193:126|194:249,1,170,8|8,1:3|2:3,2:0:0:0:
246,279,9323,1,8,2:3:0:0:
252,269,9406,2,0,L|343:245,1,85,4|4,2:3|2:3,2:0:0:0:
457,255,9737,5,4,1:2:0:0:
390,110,9899,1,0,2:0:0:0:
496,149,10061,1,0,1:2:0:0:
351,216,10223,1,8,1:2:0:0:
506,335,10385,5,8,1:2:0:0:
334,247,10547,1,8,1:2:0:0:
477,116,10709,1,8,1:2:0:0:
412,317,10872,5,8,2:0:0:0:
412,317,10953,1,8,2:0:0:0:
412,317,11052,2,0,B|344:359|265:325|265:325|260:294|245:265,1,204,4|0,1:2|1:0,2:0:0:0:
296,184,11709,5,8,2:0:0:0:
156,327,11873,2,0,P|132:285|139:236,1,85,8|0,2:0|2:0,2:0:0:0:
201,169,12202,5,8,2:0:0:0:
201,169,12284,1,8,2:0:0:0:
201,169,12367,2,0,P|159:214|41:220,1,170,4|12,1:2|3:2,2:0:0:0:
41,101,12864,1,0,2:0:0:0:
107,40,13029,2,0,P|128:83|119:140,1,85,0|0,1:2|2:0,2:0:0:0:
55,226,13361,1,8,3:2:0:0:
245,102,13527,1,8,2:3:0:0:
206,330,13692,6,0,P|184:276|205:160,1,170,0|8,1:2|3:2,2:0:0:0:
245,102,14190,1,0,2:0:0:0:
381,249,14355,2,0,P|338:249|268:269,1,85,0|0,1:0|2:0,2:0:0:0:
442,178,14687,2,0,P|476:232|446:315,1,127.5,8|0,3:2|2:0,2:0:0:0:
389,332,15018,6,0,P|380:290|380:248,1,85,0|0,1:2|2:0,2:0:0:0:
466,158,15350,1,8,3:2:0:0:
297,257,15516,1,0,2:0:0:0:
473,299,15681,1,0,1:2:0:0:
473,299,15764,1,0,1:0:0:0:
473,299,15847,1,0,1:0:0:0:
356,167,16013,1,8,3:2:0:0:
295,355,16179,1,4,2:3:0:0:
172,230,16344,6,0,L|306:259,1,127.5,0|0,1:2|2:0,2:0:0:0:
373,147,16676,2,0,P|331:157|286:163,1,85,8|0,3:2|2:0,2:0:0:0:
295,355,17007,2,0,P|252:342|212:334,1,85,4|8,2:3|2:3,2:0:0:0:
140,135,17339,1,8,3:2:0:0:
296,256,17505,5,8,2:0:0:0:
296,256,17587,1,8,2:0:0:0:
296,256,17670,2,0,P|311:186|286:111,1,127.5,4|0,1:2|2:0,2:0:0:0:
229,84,18002,1,14,3:2:0:0:
387,247,18168,1,0,2:0:0:0:
145,353,18333,1,0,1:2:0:0:
235,190,18499,1,0,2:0:0:0:
450,298,18665,6,0,P|466:238|449:199,1,85,8|0,3:2|2:0,2:0:0:0:
264,349,18996,2,0,P|320:330|368:330,1,85,0|0,1:2|2:0,2:0:0:0:
235,190,19328,2,0,P|274:205|316:210,1,85,8|0,3:2|2:0,2:0:0:0:
390,170,19659,5,0,1:2:0:0:
212,267,19825,1,0,2:0:0:0:
316,210,19991,1,8,3:2:0:0:
134,108,20157,1,0,2:0:0:0:
142,345,20322,6,0,P|174:277|141:172,1,170,4|8,1:2|3:2,2:0:0:0:
28,165,20820,1,0,2:0:0:0:
75,266,20985,2,0,P|143:242|261:231,1,170,0|8,1:0|3:2,2:0:0:0:
369,66,21483,1,0,2:0:0:0:
317,155,21648,2,0,P|283:143|224:137,1,85,0|8,1:0|2:0,2:0:0:0:
164,88,21897,5,8,2:0:0:0:
164,88,21980,2,0,P|161:62|156:35,1,42.5,8|8,2:3|2:3,2:0:0:0:
248,10,22146,2,0,P|244:30|242:52,1,42.5,4|4,2:3|2:3,2:0:0:0:
134,173,22311,1,8,2:0:0:0:
108,206,22394,1,8,2:0:0:0:
106,248,22477,1,8,2:3:0:0:
128,284,22560,1,8,2:0:0:0:
169,292,22643,1,8,1:2:0:0:
209,280,22726,1,8,2:0:0:0:
244,257,22808,1,8,1:2:0:0:
284,243,22891,1,8,2:0:0:0:
325,251,22974,6,0,P|336:311|349:353,1,85,4|0,1:2|1:0,2:0:0:0:
419,204,23306,1,0,1:0:0:0:
300,153,23471,1,0,1:0:0:0:
419,204,23637,2,0,P|460:193|502:186,1,85,8|0,3:2|2:0,2:0:0:0:
497,108,23969,5,0,1:0:0:0:
442,235,24134,1,0,1:0:0:0:
285,147,24300,1,0,1:0:0:0:
343,265,24466,1,0,1:0:0:0:
159,157,24632,5,8,2:0:0:0:
159,157,24715,1,8,2:0:0:0:
159,157,24797,2,0,B|134:270|134:270|174:342,1,165.75,4|0,1:2|2:0,2:0:0:0:
212,370,25129,1,0,1:0:0:0:
400,351,25295,6,0,P|403:263|304:253,1,204,12|0,2:0|2:0,2:0:0:0:
251,331,25626,1,0,1:0:0:0:
468,291,25792,1,0,1:0:0:0:
251,138,25958,1,0,1:0:0:0:
400,351,26123,2,0,P|389:296|387:237,1,97.7500000000001,0|8,1:0|3:2,2:0:0:0:
438,93,26621,5,0,1:0:0:0:
306,250,26786,1,0,1:0:0:0:
171,130,26952,1,0,1:0:0:0:
144,358,27118,2,0,P|171:313|156:245,1,97.7500000000001,0|8,1:0|2:0,2:0:0:0:
47,111,27449,6,0,P|71:181|95:300,1,191.25,4|0,1:2|2:0,2:0:0:0:
144,358,27781,1,8,2:3:0:0:
318,122,27947,6,0,P|235:102|242:225,1,216.75,4|0,2:3|2:0,2:0:0:0:
295,272,28278,6,0,P|370:260|464:252,2,153,6|0|0,1:2|1:0|1:0,2:0:0:0:
229,343,29107,1,0,2:0:0:0:
149,297,29273,2,0,P|145:258|139:221,1,76.5000000000001,2|2,1:2|2:0,2:0:0:0:
344,203,29604,6,0,P|374:249|347:339,1,153,2|2,1:2|1:2,2:0:0:0:
252,187,30101,2,0,P|317:174|402:148,1,153,2|0,2:0|2:0,2:0:0:0:
293,272,30599,1,0,1:0:0:0:
139,221,30930,6,0,B|119:140|164:151|137:44,2,153,2|0|0,1:2|1:0|1:0,2:0:0:0:
139,221,31759,1,0,2:0:0:0:
67,110,31925,1,2,1:2:0:0:
216,182,32090,1,2,2:0:0:0:
53,226,32256,6,0,P|24:265|56:376,1,153,2|2,1:2|1:2,2:0:0:0:
150,371,32753,1,0,2:0:0:0:
150,371,32919,2,0,P|193:357|253:349,1,76.5000000000001,0|0,1:0|2:3,2:0:0:0:
320,242,33250,2,0,P|277:256|217:264,1,76.5000000000001,0|0,1:0|2:0,2:0:0:0:
142,226,33582,6,0,P|113:187|145:76,2,153,2|0|0,1:2|1:0|1:0,2:0:0:0:
263,179,34411,1,0,2:0:0:0:
343,259,34576,1,2,1:2:0:0:
223,351,34742,1,2,2:0:0:0:
263,179,34908,6,0,P|252:127|247:84,1,76.5000000000001,2|0,1:2|2:0,2:0:0:0:
331,24,35239,1,2,1:2:0:0:
432,80,35405,2,0,P|452:137|428:241,1,153,2|0,2:0|2:0,2:0:0:0:
436,226,35902,1,2,1:2:0:0:
346,276,36068,1,0,2:0:0:0:
361,137,36234,5,2,1:2:0:0:
511,189,36400,1,2,2:0:0:0:
346,276,36565,1,2,1:2:0:0:
469,348,36731,1,2,2:0:0:0:
469,348,36897,2,0,P|462:312|456:260,2,76.5000000000001,2|0|8,1:2|2:0|2:0,2:0:0:0:
328,300,37394,6,0,P|275:279|178:302,1,140.25,12|0,1:2|2:0,2:0:0:0:
129,332,37726,1,8,2:0:0:0:
327,197,37891,2,0,P|312:132|316:81,1,93.5000000000001,8|8,2:0|2:3,2:0:0:0:
396,40,38223,5,8,2:0:0:0:
396,40,38306,1,8,2:3:0:0:
396,40,38389,1,4,2:3:0:0:
214,115,38554,1,12,2:0:0:0:
327,197,38720,1,0,2:0:0:0:
173,200,38886,6,0,P|103:201|60:297,2,170,6|8|0,1:2|2:0|1:0,2:0:0:0:
243,242,39715,1,2,2:0:0:0:
153,357,39880,2,0,P|143:307|137:244,1,85,10|2,2:0|2:0,2:0:0:0:
276,179,40212,2,0,P|270:221|261:262,1,85,2|0,1:2|2:0,2:0:0:0:
82,179,40543,5,10,2:0:0:0:
220,315,40709,2,0,P|274:292|390:307,1,170,2|0,2:0|2:0,2:0:0:0:
452,340,41206,1,8,2:0:0:0:
434,186,41538,6,0,P|457:132|442:16,2,170,2|8|2,1:2|2:0|1:2,2:0:0:0:
360,231,42366,1,0,2:0:0:0:
281,174,42532,2,0,P|240:199|188:220,1,85,10|0,2:0|2:0,2:0:0:0:
201,256,42781,5,2,2:0:0:0:
201,256,42864,2,0,P|158:235|103:221,1,85,2|0,1:2|2:0,2:0:0:0:
25,242,43195,1,10,2:0:0:0:
35,101,43361,2,0,B|129:94|106:138|214:125,1,170,6|0,2:3|2:0,2:0:0:0:
286,272,43858,1,8,2:0:0:0:
144,372,44024,5,8,2:0:0:0:
144,372,44107,1,8,2:0:0:0:
144,372,44190,2,0,P|105:328|128:218,2,170,2|8|0,1:2|2:0|1:0,2:0:0:0:
233,339,45018,1,2,2:0:0:0:
324,372,45184,1,10,2:0:0:0:
403,318,45350,1,2,2:0:0:0:
504,382,45516,6,0,P|483:316|494:191,1,170,2|10,1:2|2:0,2:0:0:0:
291,177,46013,2,0,P|346:157|394:257,1,170,2|0,2:0|2:0,2:0:0:0:
315,265,46510,1,10,2:0:0:0:
255,89,46676,1,2,2:0:0:0:
315,265,46842,6,0,P|244:278|203:292,1,85,4|0,1:2|2:0,2:0:0:0:
128,179,47173,2,0,P|169:189|211:195,1,85,10|0,2:0|2:0,2:0:0:0:
255,89,47505,1,4,2:3:0:0:
156,315,47670,1,8,2:3:0:0:
156,315,47753,1,8,2:3:0:0:
156,315,47836,1,8,2:0:0:0:
291,177,48002,6,0,B|327:183|351:163|351:163|376:167|376:167|401:150|456:147,1,153,4|0,1:2|2:0,2:0:0:0:
510,218,48333,1,8,2:0:0:0:
291,67,48499,6,0,P|200:73|219:180,1,191.25,8|0,2:0|2:0,2:0:0:0:
315,265,48831,1,8,2:0:0:0:
389,79,48996,6,0,P|383:54|379:17,2,42.5,8|8|4,1:3|2:3|2:3,2:0:0:0:
67,296,49494,5,4,1:2:0:0:
146,267,49659,1,0,1:0:0:0:
225,238,49825,2,0,P|229:175|239:122,1,85,10|0,2:0|2:0,2:0:0:0:
82,214,50157,5,2,1:2:0:0:
210,320,50322,1,0,1:0:0:0:
232,153,50488,1,8,2:0:0:0:
469,306,50820,5,2,1:2:0:0:
409,235,50985,2,0,P|414:170|408:125,1,85,2|8,1:2|2:0,2:0:0:0:
210,320,51317,2,0,P|259:277|287:241,1,85,2|0,1:2|2:0,2:0:0:0:
319,183,51648,1,2,1:2:0:0:
213,70,51814,2,0,P|224:134|242:175,1,85,8|0,2:0|2:0,2:0:0:0:
409,235,52146,5,0,1:0:0:0:
322,72,52311,1,2,1:2:0:0:
300,265,52477,2,0,P|312:224|318:182,1,85,10|0,2:0|2:0,2:0:0:0:
103,203,52808,1,2,1:2:0:0:
231,152,52974,1,0,1:0:0:0:
210,288,53140,1,10,2:0:0:0:
89,232,53306,5,2,2:0:0:0:
89,232,53389,1,2,2:0:0:0:
89,232,53471,2,0,L|55:47,1,153,14|0,1:2|2:0,2:0:0:0:
133,0,53803,6,0,L|101:214,1,191.25,14|0,1:2|2:0,2:0:0:0:
210,288,54134,6,0,P|295:286|326:234,1,144.5,14|8,1:2|2:0,2:0:0:0:
269,178,54383,5,8,2:0:0:0:
269,178,54466,2,0,L|255:114,3,42.5,8|8|4|4,2:3|2:3|2:3|2:3,2:0:0:0:
253,105,54797,5,4,1:2:0:0:
382,163,54963,1,0,1:0:0:0:
210,288,55129,2,0,P|224:338|229:376,1,85,10|0,2:0|2:0,2:0:0:0:
324,241,55460,5,2,1:2:0:0:
177,130,55626,1,0,1:0:0:0:
392,57,55792,1,8,2:0:0:0:
146,343,56123,5,2,1:2:0:0:
160,264,56289,1,2,1:2:0:0:
175,186,56455,1,8,2:0:0:0:
41,237,56621,6,0,L|224:205,1,170,14|10,1:2|2:0,2:0:0:0:
277,259,57035,1,8,2:0:0:0:
277,259,57118,2,0,L|297:320,1,42.5,8|8,2:0|2:0,2:0:0:0:
329,128,57284,2,0,L|342:87,1,42.5,8|8,2:3|0:3,2:0:0:0:
396,276,57449,6,0,P|452:296|524:256,1,127.5,6|0,1:2|2:0,2:0:0:0:
383,203,57781,6,0,P|365:252|391:373,1,153,6|0,1:2|2:0,2:0:0:0:
474,191,58112,6,0,P|437:128|310:145,1,191.25,4|0,1:2|2:0,2:0:0:0:
276,211,58444,6,0,L|87:182,1,191.25,4|0,1:2|2:0,2:0:0:0:
31,124,58775,5,6,1:2:0:0:
178,224,58941,1,0,2:0:0:0:
215,61,59107,5,8,2:0:0:0:
69,286,59273,1,2,2:0:0:0:
215,61,59438,1,10,1:2:0:0:
95,189,59604,1,8,2:0:0:0:
95,189,59687,1,8,2:0:0:0:
95,189,59770,1,8,2:3:0:0:
256,253,59936,1,4,2:3:0:0:
62,353,60101,6,0,P|56:309|47:256,1,85,8|0,2:0|1:0,2:0:0:0:
359,246,60433,2,0,P|316:240|274:233,1,85,8|0,2:0|1:0,2:0:0:0:
116,84,60764,5,8,1:2:0:0:
218,336,60930,1,8,1:2:0:0:
372,170,61096,1,12,1:2:0:0:
49,268,61262,1,12,1:2:0:0:
316,92,62090,5,2,2:0:0:0:
316,92,62173,1,2,2:0:0:0:
316,92,62256,2,0,L|327:40,1,42.5,0|0,1:0|1:0,2:0:0:0:
403,123,62422,6,0,P|338:117|298:248,1,191.25,12|0,2:0|2:0,2:0:0:0:
387,319,62753,6,0,P|382:266|358:190,1,127.5,6|0,1:2|2:0,2:0:0:0:
238,369,63085,2,0,P|279:378|321:381,1,85,12|0,3:2|2:0,2:0:0:0:
457,234,63416,1,2,1:2:0:0:
254,143,63582,1,0,2:0:0:0:
387,319,63748,1,8,3:2:0:0:
403,123,63913,5,2,2:0:0:0:
403,123,63996,1,2,2:0:0:0:
403,123,64079,2,0,P|408:76|420:22,1,85,2|0,1:2|2:0,2:0:0:0:
235,166,64411,2,0,P|188:161|134:149,1,85,8|0,3:2|2:0,2:0:0:0:
110,65,64742,2,0,P|61:107|71:215,1,170,2|10,1:2|3:2,2:0:0:0:
307,102,65239,6,0,P|302:59|294:18,1,85,2|0,2:0|1:0,2:0:0:0:
151,153,65571,1,2,2:0:0:0:
340,221,65737,2,0,P|287:225|242:339,2,170,10|0|10,3:2|1:0|3:2,2:0:0:0:
435,272,66565,5,2,2:0:0:0:
241,154,66731,1,6,1:2:0:0:
456,259,66897,1,0,2:0:0:0:
312,384,67063,2,0,P|314:334|310:263,1,85,10|0,3:2|2:0,2:0:0:0:
402,139,67394,5,2,1:2:0:0:
188,255,67560,1,12,2:0:0:0:
341,314,67726,1,14,3:2:0:0:
237,84,67891,1,6,2:3:0:0:
97,246,68057,6,0,P|172:225|294:196,1,170,4|8,1:2|3:2,2:0:0:0:
357,73,68554,2,0,P|316:84|274:94,1,85,2|0,2:0|1:0,2:0:0:0:
150,56,68886,1,2,2:0:0:0:
188,255,69052,1,8,3:2:0:0:
342,123,69217,1,2,2:0:0:0:
92,140,69383,6,0,P|60:193|84:314,2,170,6|10|2,1:2|3:2|1:2,2:0:0:0:
190,111,70212,1,0,2:0:0:0:
25,218,70378,1,8,3:2:0:0:
263,285,70543,1,2,1:2:0:0:
92,140,70709,6,0,P|86:94|73:33,1,85,0|0,1:0|2:0,2:0:0:0:
321,211,71041,2,0,P|278:205|237:197,1,85,8|0,3:2|2:0,2:0:0:0:
190,111,71372,5,6,1:3:0:0:
263,285,71538,1,4,1:3:0:0:
380,78,71704,1,10,3:2:0:0:
370,303,71869,2,0,P|397:296|420:293,1,42.5,0|0,1:0|1:0,2:0:0:0:
506,176,72035,5,6,1:2:0:0:
333,231,72201,1,0,1:2:0:0:
271,37,72366,1,8,2:0:0:0:
421,180,72532,2,0,P|418:230|420:283,1,85,6|0,1:2|2:0,2:0:0:0:
213,362,72864,5,8,2:0:0:0:
210,333,72947,1,8,2:0:0:0:
207,305,73029,1,8,2:0:0:0:
203,277,73112,1,8,2:0:0:0:
200,248,73195,1,8,2:0:0:0:
195,220,73278,1,8,2:0:0:0:
191,193,73361,6,0,P|154:152|66:162,1,127.5,6|0,1:2|2:0,2:0:0:0:
15,275,73692,2,0,P|10:232|0:191,1,85,12|0,3:2|2:0,2:0:0:0:
214,71,74024,1,2,1:2:0:0:
114,222,74190,1,0,2:0:0:0:
296,181,74355,5,8,3:2:0:0:
101,71,74521,1,2,2:0:0:0:
101,71,74604,1,2,2:0:0:0:
101,71,74687,1,2,1:2:0:0:
316,162,74853,1,0,2:0:0:0:
105,245,75018,2,0,P|113:291|120:347,1,85,8|0,3:2|2:0,2:0:0:0:
242,242,75350,2,0,P|300:201|417:212,1,170,2|10,1:2|3:2,2:0:0:0:
506,129,75847,6,0,P|513:89|501:32,1,85,2|0,2:0|1:2,2:0:0:0:
316,162,76179,1,2,2:0:0:0:
489,312,76344,2,0,P|405:317|335:272,2,170,10|0|10,3:2|1:0|3:2,2:0:0:0:
506,129,77173,1,2,2:0:0:0:
402,337,77339,5,6,1:2:0:0:
337,187,77505,1,0,1:0:0:0:
506,327,77670,1,10,3:2:0:0:
263,380,77836,2,0,P|221:371|152:362,1,85,6|0,1:2|2:0,2:0:0:0:
42,238,78168,1,8,2:0:0:0:
75,230,78250,1,8,2:0:0:0:
108,222,78333,1,8,2:3:0:0:
141,216,78416,1,8,2:3:0:0:
175,209,78499,1,4,2:3:0:0:
208,204,78582,1,4,2:3:0:0:
242,199,78665,6,0,P|233:157|224:88,1,85,12|0,2:0|1:0,2:0:0:0:
426,238,78996,2,0,P|386:222|346:209,1,85,12|0,2:0|1:0,2:0:0:0:
323,38,79328,1,10,2:0:0:0:
140,150,79494,1,0,1:2:0:0:
292,269,79659,1,8,2:0:0:0:
235,122,79825,5,0,1:0:0:0:
235,122,79908,1,0,1:0:0:0:
235,122,79991,1,12,2:0:0:0:
417,212,80157,1,0,1:0:0:0:
143,322,80322,1,10,2:0:0:0:
336,179,80488,1,0,1:0:0:0:
270,358,80654,6,0,P|264:321|254:280,2,56.6666666666667,10|8|8,1:3|1:3|2:3,2:0:0:0:
339,282,80985,5,8,2:3:0:0:
405,239,81096,5,4,2:3:0:0:
481,264,81206,5,4,2:3:0:0:
418,322,81317,6,0,P|398:262|405:148,1,170,6|8,1:2|1:2,2:0:0:0:
458,83,81814,5,10,1:2:0:0:
405,239,81980,1,8,1:2:0:0:
288,60,82146,5,8,1:2:0:0:
310,271,82311,1,10,1:2:0:0:
114,91,82477,5,10,1:2:0:0:
226,322,82643,2,0,B|176:372|95:353|95:353|129:338|147:303,1,204,4|2,1:2|2:0,2:0:0:0:
66,279,83306,5,8,2:0:0:0:
66,279,83389,1,8,2:3:0:0:
66,279,83471,1,4,2:3:0:0:
231,66,83637,2,0,B|222:134|222:134|198:175|198:175|189:268,1,191.25,12|0,2:0|2:0,2:0:0:0:
226,322,83969,6,0,P|280:353|378:298,1,170,4|8,1:2|3:2,2:0:0:0:
197,149,84466,1,0,2:0:0:0:
294,267,84632,2,0,P|294:225|304:184,1,85,0|0,1:0|2:0,2:0:0:0:
377,95,84963,1,8,3:2:0:0:
190,249,85129,1,4,2:3:0:0:
424,381,85295,6,0,P|413:322|415:202,1,170,0|8,1:0|3:2,2:0:0:0:
294,267,85792,1,0,2:0:0:0:
237,144,85958,2,0,P|296:155|344:150,1,85,0|0,1:0|2:0,2:0:0:0:
204,230,86289,2,0,P|156:240|116:328,1,127.5,8|0,3:2|2:0,2:0:0:0:
72,210,86621,6,0,P|60:151|66:102,1,85,0|0,1:2|2:0,2:0:0:0:
304,78,86952,1,8,3:2:0:0:
144,153,87118,1,0,2:0:0:0:
333,219,87284,1,0,1:0:0:0:
333,219,87366,1,0,1:0:0:0:
333,219,87449,1,0,1:0:0:0:
209,85,87615,1,8,3:2:0:0:
277,290,87781,1,4,2:3:0:0:
473,177,87947,6,0,P|454:222|446:326,1,127.5,0|0,1:0|2:0,2:0:0:0:
383,346,88278,2,0,P|422:331|464:324,1,85,8|0,3:2|2:0,2:0:0:0:
365,197,88610,1,4,2:3:0:0:
365,197,88692,1,4,2:3:0:0:
365,197,88775,1,8,1:3:0:0:
338,163,88858,5,8,2:0:0:0:
300,144,88941,1,8,2:0:0:0:
257,143,89024,1,8,2:0:0:0:
219,161,89107,1,8,2:3:0:0:
192,193,89190,1,4,2:3:0:0:
180,234,89273,6,0,P|187:296|145:362,1,127.5,4|0,1:2|2:0,2:0:0:0:
74,370,89604,1,12,3:2:0:0:
227,300,89770,1,0,2:0:0:0:
0,138,89936,1,0,1:0:0:0:
180,234,90101,1,0,2:0:0:0:
72,285,90267,6,0,P|68:245|58:180,1,85,8|0,3:2|2:0,2:0:0:0:
208,49,90599,2,0,P|201:91|197:133,1,85,0|0,1:0|2:0,2:0:0:0:
281,227,90930,2,0,P|323:220|365:216,1,85,8|0,3:2|2:0,2:0:0:0:
427,140,91262,1,0,1:0:0:0:
307,304,91427,1,0,2:0:0:0:
276,57,91593,1,8,3:2:0:0:
373,225,91759,5,8,2:3:0:0:
373,225,91842,1,8,2:3:0:0:
373,225,91925,2,0,P|305:267|200:260,1,170,4|8,1:2|3:2,2:0:0:0:
28,211,92422,1,0,2:0:0:0:
139,221,92587,2,0,P|193:280|154:368,1,170,0|8,1:0|3:2,2:0:0:0:
277,182,93085,1,0,2:0:0:0:
32,323,93250,6,0,P|83:305|147:300,1,85,0|0,1:0|2:0,2:0:0:0:
308,168,93582,2,0,P|266:160|226:145,1,85,8|0,3:2|1:0,2:0:0:0:
109,37,93913,5,8,2:0:0:0:
102,62,93996,1,8,2:0:0:0:
95,87,94079,2,0,L|153:105,1,42.5,8|8,2:3|2:3,2:0:0:0:
277,215,94245,1,8,2:0:0:0:
272,197,94328,1,8,2:0:0:0:
267,180,94411,2,0,L|313:165,1,42.5,8|8,2:0|2:0,2:0:0:0:
401,85,94576,5,12,2:0:0:0:
357,238,94825,5,8,2:3:0:0:
178,170,95074,5,4,2:3:0:0:
278,350,95239,5,4,2:3:0:0:
467,235,95405,5,0,1:0:0:0:
467,235,95488,1,0,1:0:0:0:
467,235,95571,2,0,P|403:239|411:356,1,191.25,4|0,2:0|2:0,2:0:0:0:
504,320,95902,6,0,P|501:243|519:114,1,170,6|4,1:2|2:3,2:0:0:0:
510,150,96400,1,4,2:3:0:0:
357,238,96565,2,0,B|275:219|281:284|153:258,1,170,8|2,2:0|1:2,2:0:0:0:
120,215,97063,1,6,2:3:0:0:
281,288,97228,5,10,2:3:0:0:
145,349,97394,1,8,2:0:0:0:
237,163,97560,2,0,P|223:211|216:259,1,85,0|2,2:0|1:2,2:0:0:0:
72,118,97891,5,8,2:0:0:0:
120,215,98057,1,0,2:0:0:0:
237,163,98223,1,0,1:0:0:0:
314,239,98389,1,0,2:0:0:0:
382,74,98554,6,0,P|339:112|338:222,1,170,2|4,1:2|2:3,2:0:0:0:
424,263,99052,1,4,2:3:0:0:
418,165,99217,2,0,P|318:135|240:127,1,170,8|2,2:0|1:2,2:0:0:0:
158,150,99715,1,6,2:3:0:0:
158,150,99797,1,0,2:0:0:0:
158,150,99880,1,10,2:3:0:0:
210,43,100046,1,8,2:0:0:0:
70,175,100212,5,0,2:0:0:0:
253,127,100378,1,2,1:2:0:0:
59,38,100543,1,8,2:0:0:0:
223,209,100709,2,0,L|227:251,1,42.5,0|0,1:0|1:0,2:0:0:0:
187,287,100875,2,0,B|277:261|277:261|324:278,1,127.5,12|0,2:0|2:0,2:0:0:0:
400,284,101206,6,0,P|441:227|395:124,1,170,6|4,1:2|2:3,2:0:0:0:
276,107,101704,2,0,L|289:20,2,85,4|8|2,2:3|2:0|2:0,2:0:0:0:
191,157,102201,1,0,1:2:0:0:
363,206,102366,1,6,2:3:0:0:
266,87,102532,5,10,2:3:0:0:
302,293,102698,1,8,2:0:0:0:
266,87,102864,1,0,2:0:0:0:
302,293,103029,1,2,1:2:0:0:
160,250,103195,6,0,P|207:240|259:219,1,85,8|0,2:0|1:0,2:0:0:0:
465,269,103527,2,0,P|418:279|366:300,1,85,10|2,2:0|2:0,2:0:0:0:
189,161,103858,5,4,1:2:0:0:
302,293,104024,1,0,2:0:0:0:
370,125,104190,1,4,2:3:0:0:
235,249,104355,1,4,2:3:0:0:
457,281,104521,5,8,2:0:0:0:
269,122,104687,1,0,2:0:0:0:
482,44,104853,1,8,2:0:0:0:
353,315,105018,6,0,P|357:239|374:92,1,191.25,4|0,1:2|2:0,2:0:0:0:
276,30,105350,6,0,P|269:70|250:110,1,63.75,8|0,1:2|2:0,2:0:0:0:
178,236,105516,2,0,P|171:196|152:156,1,63.75,8|0,1:2|2:0,2:0:0:0:
87,79,105681,2,0,P|127:72|167:53,1,63.75,8|0,2:3|2:0,2:0:0:0:
267,210,105847,5,8,2:0:0:0:
267,210,105930,1,0,1:0:0:0:
267,210,106013,1,4,2:3:0:0:
131,161,106179,1,12,2:0:0:0:
354,99,106344,1,0,2:0:0:0:
283,238,106510,6,0,P|211:261|159:363,2,170,6|8|0,1:2|2:0|1:0,2:0:0:0:
386,256,107339,1,2,2:0:0:0:
327,133,107505,1,10,2:0:0:0:
450,74,107670,1,2,2:0:0:0:
509,197,107836,6,0,P|498:245|494:302,1,85,2|0,1:2|2:0,2:0:0:0:
338,110,108168,1,10,2:0:0:0:
376,351,108333,2,0,P|344:302|374:193,1,170,2|0,2:0|2:0,2:0:0:0:
442,152,108831,1,8,2:0:0:0:
221,104,109162,6,0,P|241:177|254:289,2,170,2|8|2,1:2|2:0|1:2,2:0:0:0:
10,212,109991,1,0,2:0:0:0:
88,366,110157,2,0,P|142:345|180:339,1,85,10|0,2:0|2:0,2:0:0:0:
176,301,110405,5,2,2:0:0:0:
176,301,110488,2,0,P|155:247|149:209,1,85,2|0,1:2|2:0,2:0:0:0:
303,106,110820,1,10,2:0:0:0:
264,270,110985,5,2,2:0:0:0:
264,270,111068,1,2,2:0:0:0:
264,270,111151,2,0,P|286:273|323:289,1,42.5,8|8,2:3|2:3,2:0:0:0:
411,350,111317,2,0,P|404:329|400:308,1,42.5,8|8,1:3|2:0,2:0:0:0:
414,194,111483,2,0,P|393:197|372:204,1,42.5,8|8,2:3|2:3,2:0:0:0:
251,361,111648,1,4,2:3:0:0:
251,361,111731,1,4,2:3:0:0:
251,361,111814,6,0,P|228:309|254:173,2,170,6|8|0,1:2|2:0|1:0,2:0:0:0:
321,263,112643,1,2,2:0:0:0:
148,176,112808,1,10,2:0:0:0:
352,72,112974,1,2,2:0:0:0:
127,159,113140,6,0,P|103:216|211:239,1,170,0|10,1:0|2:0,2:0:0:0:
335,96,113637,2,0,P|341:180|321:263,1,170,2|0,2:0|2:0,2:0:0:0:
189,102,114134,1,10,2:0:0:0:
189,102,114300,1,2,2:0:0:0:
321,262,114466,6,0,P|381:239|429:238,1,85,6|0,1:2|2:0,2:0:0:0:
165,331,114797,2,0,P|223:357|258:390,1,85,10|0,2:0|2:0,2:0:0:0:
141,183,115129,1,2,1:2:0:0:
16,360,115295,1,0,1:0:0:0:
16,360,115378,1,0,1:0:0:0:
16,360,115460,1,10,2:0:0:0:
195,305,115626,6,0,P|234:232|201:141,1,153,6|0,1:2|2:0,2:0:0:0:
116,107,115958,1,8,1:2:0:0:
21,248,116123,6,0,B|159:214|159:214|213:249,1,191.25,8|0,2:0|2:0,2:0:0:0:
318,319,116455,1,8,2:0:0:0:
292,122,116621,6,0,L|308:69,2,42.5,0|0|12,1:0|1:0|2:0,2:0:0:0:
500,377,117118,5,0,1:0:0:0:
471,285,117284,1,0,1:0:0:0:
442,194,117449,2,0,P|392:186|355:172,1,85,10|0,2:0|2:0,2:0:0:0:
224,223,117781,5,2,1:2:0:0:
378,162,117947,1,0,1:0:0:0:
213,74,118112,1,8,2:0:0:0:
376,279,118444,5,2,1:2:0:0:
281,164,118610,1,2,1:2:0:0:
188,358,118775,1,8,2:0:0:0:
238,251,118941,2,0,P|197:237|155:231,1,85,2|0,1:2|2:0,2:0:0:0:
77,149,119273,1,2,1:2:0:0:
166,120,119438,1,8,2:0:0:0:
255,91,119604,1,0,2:0:0:0:
132,83,119770,5,0,1:0:0:0:
281,164,119936,1,2,1:2:0:0:
128,242,120101,2,0,P|113:291|133:354,1,85,10|0,2:0|2:0,2:0:0:0:
192,147,120433,1,2,1:2:0:0:
117,323,120599,1,0,1:0:0:0:
320,264,120764,1,10,2:0:0:0:
229,379,120930,5,2,2:0:0:0:
229,379,121013,1,2,2:0:0:0:
229,379,121096,2,0,P|201:322|229:230,1,153,12|0,2:0|2:0,2:0:0:0:
382,186,121427,6,0,B|346:214|294:194|294:194|256:144|178:168,1,191.25,12|0,2:0|2:0,2:0:0:0:
97,187,121759,6,0,L|107:228,3,42.5,8|8|4|4,2:3|2:3|2:3|2:3,2:0:0:0:
142,333,122090,5,8,2:0:0:0:
182,319,122173,1,8,2:0:0:0:
223,310,122256,1,8,2:0:0:0:
266,307,122339,1,8,2:0:0:0:
308,310,122422,5,4,1:2:0:0:
382,186,122587,1,0,1:0:0:0:
425,384,122753,2,0,P|409:335|407:283,1,85,14|0,2:0|2:0,2:0:0:0:
469,156,123085,5,2,1:2:0:0:
291,110,123250,1,0,1:0:0:0:
406,301,123416,1,8,2:0:0:0:
375,162,123748,5,6,1:2:0:0:
256,192,123913,1,2,1:2:0:0:
137,222,124079,1,8,2:0:0:0:
82,311,124245,6,0,P|49:283|61:150,1,170,4|8,1:2|2:0,2:0:0:0:
135,116,124659,1,8,2:0:0:0:
135,116,124742,2,0,L|198:134,1,42.5,8|8,2:3|2:3,2:0:0:0:
257,260,124908,2,0,L|275:197,1,42.5,4|4,2:3|2:3,2:0:0:0:
410,88,125074,6,0,B|422:134|422:134|419:171|419:171|440:241,1,127.5,4|0,1:2|2:0,2:0:0:0:
512,246,125405,6,0,P|456:234|421:333,1,153,4|0,1:2|2:0,2:0:0:0:
275,368,125737,6,0,P|297:294|216:164,1,191.25,4|0,1:2|2:0,2:0:0:0:
163,156,126068,6,0,P|237:178|367:97,1,191.25,4|0,1:2|2:0,2:0:0:0:
395,60,126400,5,4,1:2:0:0:
323,253,126565,1,0,2:0:0:0:
163,156,126731,5,8,2:0:0:0:
392,203,126897,1,4,2:3:0:0:
163,156,127063,1,0,1:0:0:0:
314,64,127228,1,8,2:0:0:0:
314,64,127311,1,8,2:0:0:0:
314,64,127394,1,8,2:0:0:0:
193,289,127560,1,8,2:3:0:0:
402,293,127726,6,0,P|384:341|374:397,1,85,12|0,2:0|1:0,2:0:0:0:
256,132,128057,2,0,P|265:173|281:212,1,85,8|0,2:0|1:0,2:0:0:0:
421,96,128389,5,12,1:2:0:0:
135,62,128554,1,8,1:2:0:0:
454,76,128720,1,8,1:2:0:0:
110,35,128886,1,12,1:2:0:0:
296,61,129217,5,8,2:0:0:0:
292,84,129300,1,8,2:0:0:0:
289,107,129383,1,8,2:0:0:0:
285,130,129466,1,0,1:0:0:0:
282,153,129549,1,0,1:0:0:0:
278,176,129632,1,0,1:0:0:0:
274,199,129715,1,8,2:3:0:0:
270,222,129797,1,8,2:3:0:0:
265,245,129880,1,4,2:3:0:0:
261,268,129963,1,4,2:3:0:0:
255,292,130046,6,0,P|194:325|109:227,1,191.25,4|0,1:2|2:0,2:0:0:0:
172,115,130378,6,0,P|174:183|192:250,1,127.5,6|0,1:2|2:0,2:0:0:0:
339,296,130709,2,0,P|353:236|355:175,1,85,12|0,3:2|2:0,2:0:0:0:
292,84,131041,1,2,1:2:0:0:
452,187,131206,1,0,2:0:0:0:
265,245,131372,1,8,3:2:0:0:
400,118,131538,5,2,2:0:0:0:
400,118,131621,1,2,2:0:0:0:
400,118,131704,2,0,P|414:58|416:-3,1,85,2|0,1:2|2:0,2:0:0:0:
198,199,132035,2,0,P|258:213|319:215,1,85,8|0,3:2|2:0,2:0:0:0:
192,106,132366,2,0,P|135:128|123:248,1,170,2|10,1:2|3:2,2:0:0:0:
349,294,132864,6,0,P|306:299|265:310,1,85,2|0,2:0|1:0,2:0:0:0:
198,199,133195,1,2,2:0:0:0:
405,359,133361,2,0,P|390:297|398:172,2,170,10|0|10,3:2|1:0|3:2,2:0:0:0:
471,249,134190,1,2,2:0:0:0:
311,149,134355,1,6,1:2:0:0:
502,67,134521,1,0,2:0:0:0:
293,130,134687,2,0,P|300:91|291:23,1,85,10|0,3:2|2:0,2:0:0:0:
399,205,135018,6,0,L|350:223,1,42.5,2|0,1:2|1:0,2:0:0:0:
296,273,135184,2,0,L|256:258,1,42.5,12|0,1:2|1:0,2:0:0:0:
182,278,135350,1,14,3:2:0:0:
105,97,135516,5,6,2:3:0:0:
105,97,135599,1,4,2:3:0:0:
105,97,135681,2,0,P|60:155|66:271,1,170,4|8,1:2|3:2,2:0:0:0:
233,336,136179,2,0,P|255:298|252:249,1,85,2|0,2:0|1:0,2:0:0:0:
154,164,136510,1,2,2:0:0:0:
343,260,136676,1,8,3:2:0:0:
182,278,136842,1,2,2:0:0:0:
351,143,137007,6,0,P|336:80|340:32,1,85,2|0,1:2|2:0,2:0:0:0:
167,360,137339,2,0,P|182:297|178:249,1,85,10|0,3:2|2:0,2:0:0:0:
356,243,137670,1,2,1:2:0:0:
156,137,137836,1,0,2:0:0:0:
336,60,138002,1,8,3:2:0:0:
230,196,138168,1,2,1:2:0:0:
343,339,138333,6,0,P|408:319|453:317,1,85,0|0,1:0|2:0,2:0:0:0:
234,80,138665,2,0,P|299:100|344:102,1,85,8|0,3:2|2:0,2:0:0:0:
220,214,138996,5,6,1:3:0:0:
24,281,139162,1,4,1:3:0:0:
56,107,139328,1,10,3:2:0:0:
128,334,139494,2,0,L|123:381,1,42.5,0|0,1:0|1:0,2:0:0:0:
265,286,139659,5,6,1:2:0:0:
76,202,139825,1,0,1:2:0:0:
288,106,139991,1,8,2:0:0:0:
128,334,140157,6,0,P|77:329|18:336,1,85,6|0,1:2|1:0,2:0:0:0:
43,331,140405,1,0,1:0:0:0:
43,331,140488,1,8,2:0:0:0:
170,218,140654,1,8,2:0:0:0:
188,265,140737,1,8,2:0:0:0:
232,294,140820,1,8,2:0:0:0:
284,301,140902,1,8,2:0:0:0:
334,282,140985,6,0,P|339:213|366:127,1,127.5,4|0,1:2|2:0,2:0:0:0:
254,77,141317,2,0,P|266:126|269:177,1,85,12|0,3:2|2:0,2:0:0:0:
420,95,141648,1,2,1:2:0:0:
178,26,141814,1,0,2:0:0:0:
353,156,141980,5,8,3:2:0:0:
188,265,142146,1,2,2:0:0:0:
188,265,142228,1,2,2:0:0:0:
188,265,142311,1,2,1:2:0:0:
254,77,142477,1,0,2:0:0:0:
328,307,142643,2,0,P|317:264|314:192,1,85,8|0,3:2|2:0,2:0:0:0:
421,334,142974,2,0,P|363:327|268:392,1,170,2|8,1:2|3:2,2:0:0:0:
103,323,143471,6,0,P|81:268|91:222,1,85,2|0,2:0|1:0,2:0:0:0:
242,153,143803,1,2,2:0:0:0:
31,160,143969,2,0,P|96:211|179:210,2,170,10|0|10,3:2|1:0|3:2,2:0:0:0:
145,78,144797,1,10,2:3:0:0:
83,243,144963,5,14,2:0:0:0:
256,235,145129,1,0,1:0:0:0:
56,75,145295,1,2,1:2:0:0:
256,235,145460,2,0,P|297:224|334:204,1,85,10|0,2:0|2:0,2:0:0:0:
452,80,145792,1,10,2:0:0:0:
436,119,145875,1,8,2:0:0:0:
442,161,145958,1,10,2:3:0:0:
469,193,146041,1,8,2:3:0:0:
490,229,146123,1,4,2:3:0:0:
498,270,146206,1,4,2:3:0:0:
483,309,146289,6,0,P|442:320|405:340,1,85,4|0,1:2|1:0,2:0:0:0:
268,151,146621,2,0,P|298:181|334:203,1,85,10|0,2:0|1:0,2:0:0:0:
490,229,146952,1,10,2:0:0:0:
267,313,147118,1,0,1:0:0:0:
404,340,147284,1,8,2:0:0:0:
294,152,147449,5,0,1:0:0:0:
294,152,147532,1,0,1:0:0:0:
294,152,147615,1,12,2:0:0:0:
133,266,147781,1,0,1:0:0:0:
352,218,147947,1,10,2:0:0:0:
113,90,148112,1,0,1:0:0:0:
361,96,148278,5,10,1:3:0:0:
375,78,148389,2,0,P|383:41|397:3,1,56.6666666666667,8|8,1:3|2:3,2:0:0:0:
243,193,148610,1,8,2:3:0:0:
257,211,148720,2,0,P|265:248|279:286,1,56.6666666666667,4|4,2:3|2:3,2:0:0:0:
37,146,148941,6,0,P|118:126|220:103,1,170,6|8,1:2|1:2,2:0:0:0:
411,61,149438,1,10,1:2:0:0:
331,262,149604,1,8,1:2:0:0:
199,0,149770,1,8,1:2:0:0:
356,145,149936,1,10,1:2:0:0:
135,204,150101,1,10,1:2:0:0:
423,251,150267,6,0,P|341:230|258:212,1,170,6|2,1:2|2:0,2:0:0:0:
102,288,150764,2,0,P|55:239|83:132,1,170,8|8,1:3|2:3,2:0:0:0:
157,112,151262,1,6,2:3:0:0:
203,304,151593,5,4,1:2:0:0:
383,125,153748,5,0,1:0:0:0:
383,125,153831,1,0,1:0:0:0:
383,125,153913,1,4,1:2:0:0:
256,192,153996,12,8,155239,2:0:0:0:
63,74,155405,6,0,L|266:113,1,170,12|8,1:2|2:0,2:0:0:0:
309,120,155902,1,8,1:2:0:0:
162,187,156068,1,8,1:2:0:0:
399,265,156234,1,8,1:2:0:0:
255,203,156400,1,8,2:0:0:0:
255,203,156483,1,8,2:0:0:0:
255,203,156565,1,10,2:3:0:0:
467,139,156731,5,4,2:3:0:0:
467,139,156814,1,4,2:3:0:0:
467,139,156897,2,0,B|444:171|444:171|462:203|462:203|420:259|446:344,1,204,4|10,1:2|2:0,2:0:0:0:
441,325,157311,1,2,2:0:0:0:
441,325,157394,1,2,1:2:0:0:
302,275,157560,1,2,1:2:0:0:
482,219,157726,1,0,2:0:0:0:
351,357,157891,1,10,3:2:0:0:
230,216,158057,5,2,2:0:0:0:
230,216,158140,1,2,2:0:0:0:
230,216,158223,2,0,P|209:259|227:321,1,85,2|0,1:2|2:0,2:0:0:0:
390,250,158554,1,8,3:2:0:0:
303,136,158720,2,0,P|255:184|141:161,1,170,2|2,1:2|2:0,2:0:0:0:
21,105,159217,2,0,P|61:145|44:239,1,127.5,8|0,3:2|2:0,2:0:0:0:
15,279,159549,5,0,1:0:0:0:
120,329,159715,1,0,2:0:0:0:
170,224,159880,1,10,3:2:0:0:
62,212,160046,5,0,2:0:0:0:
111,360,160212,1,2,1:2:0:0:
222,152,160378,1,2,1:2:0:0:
234,371,160543,1,8,3:2:0:0:
381,221,160709,6,0,P|391:153|441:41,1,170,12|4,1:2|2:3,2:0:0:0:
311,133,161206,1,8,3:2:0:0:
467,234,161372,2,0,P|430:290|313:271,1,170,12|0,1:2|1:0,2:0:0:0:
246,309,161786,5,0,1:0:0:0:
234,325,161869,2,0,P|190:273|307:237,2,221,12|0|8,1:2|1:2|3:2,2:0:0:0:
381,221,162698,5,2,2:0:0:0:
230,130,162864,1,2,1:2:0:0:
432,63,163029,1,2,2:0:0:0:
291,218,163195,1,10,3:2:0:0:
462,327,163361,5,2,2:0:0:0:
462,327,163444,1,2,2:0:0:0:
462,327,163527,2,0,P|389:323|291:383,1,170,0|8,1:0|3:2,2:0:0:0:
119,364,164024,1,2,2:0:0:0:
98,327,164107,1,2,2:0:0:0:
87,286,164190,1,10,2:0:0:0:
87,244,164273,1,2,2:0:0:0:
99,203,164355,2,0,P|124:196|166:177,1,42.5,10|8,1:3|2:3,2:0:0:0:
156,96,164521,2,0,P|179:109|222:125,1,42.5,8|8,2:3|2:3,2:0:0:0:
272,60,164687,2,0,P|279:85|298:127,1,42.5,4|4,2:3|2:3,2:0:0:0:
379,116,164853,6,0,P|366:139|348:205,1,85,6|0,1:2|1:0,2:0:0:0:
272,60,165184,1,8,3:2:0:0:
443,226,165350,2,0,P|367:214|295:289,1,170,4|0,1:2|1:0,2:0:0:0:
272,356,165847,1,8,3:2:0:0:
113,284,166013,6,0,B|115:251|98:219|98:219|108:188|108:188|91:157|85:107,1,170,4|0,1:2|1:0,2:0:0:0:
144,22,166510,1,8,3:2:0:0:
28,188,166676,1,4,1:2:0:0:
181,229,166842,1,2,2:0:0:0:
190,225,166925,1,2,2:0:0:0:
199,221,167007,2,0,L|237:161,1,42.5,2|2,1:2|2:0,2:0:0:0:
288,244,167173,2,0,L|326:304,1,42.5,10|10,2:0|2:3,2:0:0:0:
375,190,167339,2,0,L|446:175,1,42.5,4|4,2:3|2:3,2:0:0:0:
497,112,167505,5,4,1:2:0:0:
310,254,167670,1,0,1:0:0:0:
299,48,167836,1,8,3:2:0:0:
421,259,168002,2,0,P|411:309|409:376,2,85,4|0|0,1:2|2:0|1:0,2:0:0:0:
259,340,168499,2,0,P|201:313|80:333,1,170,12|4,1:2|0:3,2:0:0:0:
25,281,168996,5,4,2:3:0:0:
3,201,169162,1,0,1:0:0:0:
3,201,169245,1,0,1:0:0:0:
3,201,169328,1,0,1:0:0:0:
45,130,169494,1,8,2:3:0:0:
276,196,169742,5,8,2:0:0:0:
21,363,169991,5,4,2:3:0:0:
132,232,170157,5,8,1:2:0:0:
399,343,170985,5,0,1:0:0:0:
435,248,171151,1,8,2:0:0:0:
203,324,171317,1,4,1:2:0:0:
203,324,171648,1,0,1:0:0:0:
294,196,171814,2,0,P|300:283|312:384,1,170,12|0,1:2|1:0,2:0:0:0:
348,128,172311,5,8,2:0:0:0:
302,115,172394,1,8,2:0:0:0:
256,124,172477,1,8,2:3:0:0:
220,152,172560,1,8,2:3:0:0:
198,192,172643,1,4,2:3:0:0:
197,240,172726,1,4,2:3:0:0:
215,282,172808,6,0,B|310:262|292:304|413:295,1,170,6|8,1:2|2:0,2:0:0:0:
445,205,173306,2,0,P|454:158|479:103,1,85,2|0,1:2|2:0,2:0:0:0:
360,317,173637,2,0,P|407:326|462:351,1,85,2|8,1:2|2:0,2:0:0:0:
189,367,173969,6,0,P|138:327|174:207,1,170,2|2,1:2|1:2,2:0:0:0:
336,156,174466,1,14,2:0:0:0:
151,60,174632,1,0,2:0:0:0:
245,218,174797,2,0,L|257:269,1,42.5,8|8,2:0|2:0,2:0:0:0:
234,247,174963,2,0,L|246:298,1,42.5,8|0,2:3|1:0,2:0:0:0:
385,320,175129,6,0,P|354:308|325:302,1,55.25,8|8,2:0|2:0,2:0:0:0:
93,246,175295,2,0,P|123:234|153:228,1,55.25,8|8,2:0|2:0,2:0:0:0:
252,128,175460,5,12,1:2:0:0:
468,239,176289,5,8,2:0:0:0:
407,345,176455,1,8,2:0:0:0:
376,232,176621,2,0,P|368:186|377:133,1,85,4|0,1:2|2:0,2:0:0:0:
223,10,176952,2,0,L|235:61,1,42.5,0|0,1:0|1:0,2:0:0:0:
265,136,177118,2,0,P|184:158|174:246,1,170,12|8,2:0|2:0,2:0:0:0:
246,268,177532,1,8,2:0:0:0:
266,289,177615,2,0,P|270:263|278:223,1,42.5,8|0,2:3|2:0,2:0:0:0:
80,163,177781,5,8,2:0:0:0:
85,199,177864,1,8,2:0:0:0:
92,236,177947,1,8,2:0:0:0:
99,273,178029,1,8,2:0:0:0:
106,310,178112,1,6,1:2:0:0:
184,221,178278,1,2,1:2:0:0:
0,174,178444,1,8,2:0:0:0:
40,365,178610,6,0,B|88:373|120:334|120:334|164:313|215:340,1,170,6|2,1:2|1:2,2:0:0:0:
274,364,179107,1,8,2:0:0:0:
317,130,179273,6,0,L|336:317,1,170,6|2,1:2|1:2,2:0:0:0:
414,338,179770,1,8,2:0:0:0:
230,126,179936,1,6,1:2:0:0:
407,208,180101,5,8,2:0:0:0:
409,201,180184,1,8,2:0:0:0:
411,195,180267,1,8,2:0:0:0:
414,188,180350,1,8,2:0:0:0:
416,182,180433,2,0,L|403:116,1,42.5,10|8,2:0|2:0,2:0:0:0:
217,106,180599,2,0,L|230:40,1,42.5,8|8,2:3|2:3,2:0:0:0:
296,219,180764,5,14,1:2:0:0:
226,269,180930,1,0,1:0:0:0:
68,192,181096,2,0,P|108:212|172:220,1,85,12|0,1:2|1:0,2:0:0:0:
296,78,181427,2,0,P|256:98|192:106,1,85,12|0,1:2|1:0,2:0:0:0:
192,94,181676,1,0,1:0:0:0:
192,94,181759,2,0,P|212:134|220:198,1,85,12|0,1:2|1:0,2:0:0:0:
119,384,182090,6,0,P|127:342|146:304,1,85,12|0,1:2|2:0,2:0:0:0:
296,219,182422,1,8,2:0:0:0:
386,260,182587,5,0,1:0:0:0:
234,341,182753,1,8,2:0:0:0:
153,189,182919,1,0,1:0:0:0:
153,189,183002,1,0,1:0:0:0:
153,189,183085,1,8,2:0:0:0:
305,108,183250,1,8,2:3:0:0:
146,304,183416,6,0,P|100:275|78:122,1,204,4|8,1:2|1:3,2:0:0:0:
264,140,184245,2,0,L|333:121,2,68,8|4|0,2:3|2:3|2:0,2:0:0:0:
170,83,184742,1,4,1:2:0:0:
256,192,184825,12,4,186068,1:2:0:0:
494,125,192698,6,0,L|388:98,1,102,6|0,1:2|2:0,2:0:0:0:
320,78,193029,1,8,1:3:0:0:
362,219,193195,2,0,P|348:264|338:315,1,85,8|2,2:3|2:0,2:0:0:0:
138,352,193527,5,4,1:3:0:0:
134,240,193692,1,6,2:3:0:0:
233,291,193858,1,2,1:2:0:0:
195,153,194024,5,12,1:2:0:0:
42,260,194190,1,0,2:0:0:0:
66,65,194355,5,8,1:2:0:0:
134,240,194521,1,8,1:2:0:0:
256,88,194687,1,8,1:2:0:0:
256,216,194853,1,8,1:2:0:0:
446,65,195018,1,8,1:2:0:0:
378,240,195184,1,8,1:2:0:0:
256,8,195350,5,12,1:2:0:0:
479,235,196013,6,0,L|465:287,1,42.5,8|0,2:0|2:0,2:0:0:0:
415,362,196179,2,0,L|403:320,1,42.5,8|0,2:3|2:0,2:0:0:0:
257,186,196344,1,8,2:0:0:0:
217,215,196427,1,8,2:0:0:0:
200,262,196510,1,8,2:0:0:0:
210,310,196593,1,8,2:0:0:0:
244,346,196676,6,0,P|320:317|423:326,1,165.75,4|0,1:2|2:0,2:0:0:0:
479,235,197007,2,0,P|469:180|472:125,1,93.5,12|0,3:2|2:0,2:0:0:0:
329,71,197339,1,2,1:2:0:0:
389,231,197505,1,0,2:0:0:0:
504,70,197670,1,8,3:2:0:0:
277,147,197836,5,2,2:0:0:0:
277,147,197919,1,2,2:0:0:0:
277,147,198002,1,2,1:2:0:0:
479,235,198168,1,0,2:0:0:0:
309,256,198333,2,0,P|306:302|318:347,1,93.5,8|0,3:2|2:0,2:0:0:0:
353,181,198665,6,0,P|296:227|229:214,1,140.25,2|0,1:2|2:0,2:0:0:0:
178,150,198996,1,10,3:2:0:0:
156,367,199162,6,0,P|164:304|183:254,1,93.5,2|0,2:0|1:0,2:0:0:0:
36,152,199494,1,2,2:0:0:0:
0,313,199659,2,0,P|72:272|182:279,2,187,10|0|10,3:2|1:0|3:2,2:0:0:0:
155,134,200488,5,2,2:0:0:0:
161,112,200571,1,2,2:0:0:0:
167,90,200654,1,6,1:2:0:0:
52,172,200820,1,0,2:0:0:0:
173,275,200985,1,10,2:0:0:0:
261,93,201151,5,6,1:2:0:0:
80,248,201317,1,0,2:0:0:0:
308,353,201483,1,2,1:2:0:0:
308,353,201565,1,0,1:0:0:0:
308,353,201648,2,0,P|345:341|375:337,1,46.75,10|8,2:0|2:0,2:0:0:0:
250,202,201814,2,0,P|255:224|263:246,1,46.75,8|4,2:3|2:3,2:0:0:0:
426,376,201980,6,0,P|438:342|443:269,1,93.5,12|0,1:2|1:0,2:0:0:0:
349,114,202311,2,0,P|336:147|331:220,1,93.5,10|0,2:0|1:0,2:0:0:0:
249,65,202643,5,10,2:0:0:0:
417,208,202808,1,0,1:0:0:0:
190,341,202974,1,8,2:0:0:0:
250,202,203140,1,0,1:0:0:0:
250,202,203223,1,0,1:0:0:0:
250,202,203306,1,12,2:0:0:0:
92,279,203471,5,0,1:0:0:0:
325,154,203637,1,10,2:0:0:0:
102,110,203803,1,0,1:0:0:0:
331,238,203969,1,10,2:0:0:0:
155,216,204134,1,0,1:0:0:0:
398,107,204300,1,8,2:0:0:0:
237,237,204466,2,0,P|247:265|255:295,1,46.7500014266968,0|0,1:0|1:0,2:0:0:0:
289,348,204632,6,0,P|301:283|333:229,1,93.5,14|0,2:0|2:0,2:0:0:0:
230,114,204963,2,0,P|248:157|254:204,1,93.5,8|2,2:0|1:2,2:0:0:0:
175,294,205295,1,8,2:0:0:0:
404,374,205460,1,0,1:0:0:0:
388,335,205543,1,0,1:0:0:0:
394,293,205626,1,8,2:0:0:0:
421,261,205709,1,8,2:0:0:0:
442,225,205792,1,8,2:0:0:0:
450,184,205875,1,8,2:0:0:0:
435,145,205958,6,0,P|394:134|350:110,1,93.5,6|0,1:2|1:0,2:0:0:0:
285,45,206289,1,8,2:0:0:0:
289,289,206455,2,0,P|267:252|253:204,1,93.5,4|0,1:2|2:0,2:0:0:0:
119,145,206786,1,8,2:0:0:0:
111,156,206869,1,8,2:0:0:0:
104,167,206952,1,8,2:3:0:0:
98,180,207035,1,8,2:3:0:0:
93,192,207118,1,4,2:3:0:0:
89,205,207201,1,4,2:3:0:0:
85,218,207284,6,0,B|168:188|167:233|276:196,1,170,4|4,1:2|2:3,2:0:0:0:
252,203,207781,1,8,2:3:0:0:
371,90,207947,1,12,2:0:0:0:
309,279,208112,1,0,2:0:0:0:
176,187,208278,5,0,1:0:0:0:
176,187,208361,1,0,1:0:0:0:
176,187,208444,2,0,P|207:141|331:167,1,170,4|0,1:2|1:0,2:0:0:0:
456,103,208941,2,0,P|437:174|427:296,1,170,4|2,1:2|2:0,2:0:0:0:
364,70,209438,1,4,2:3:0:0:
364,70,209521,1,8,2:3:0:0:
364,70,209604,1,8,1:3:0:0:
328,331,209936,6,0,L|121:300,1,170,6|0,1:2|1:0,2:0:0:0:
83,229,210433,2,0,L|251:203,1,170,10|8,1:3|2:3,2:0:0:0:
324,248,210930,1,6,2:3:0:0:
166,182,211096,1,2,2:0:0:0:
71,344,211262,1,6,1:2:0:0:
256,192,211344,12,2,212587,2:0:0:0:
145,65,213913,5,0,1:0:0:0:
11,146,214079,1,8,2:0:0:0:
50,129,214162,1,8,1:2:0:0:
92,128,214245,1,8,2:0:0:0:
130,145,214328,1,8,2:0:0:0:
164,170,214411,1,8,2:3:0:0:
205,178,214494,1,8,2:3:0:0:
246,173,214576,1,8,2:0:0:0:
285,156,214659,1,8,2:0:0:0:
311,122,214742,6,0,P|305:99|300:61,1,42.5,8|8,2:3|2:3,2:0:0:0:
195,219,214908,2,0,P|201:196|206:158,1,42.5,8|0,2:0|1:0,2:0:0:0:
388,260,215074,2,0,P|365:254|327:249,1,42.5,8|0,2:0|1:0,2:0:0:0:
100,314,215239,6,0,P|165:297|244:381,1,170,6|14,1:2|3:2,2:0:0:0:
23,267,215737,1,0,2:0:0:0:
130,145,215902,2,0,P|153:174|151:246,1,85,0|0,1:2|2:0,2:0:0:0:
44,109,216234,1,8,3:2:0:0:
246,173,216400,1,4,2:3:0:0:
44,109,216565,6,0,P|115:121|209:49,1,170,0|8,1:0|3:2,2:0:0:0:
236,0,217063,1,0,2:0:0:0:
330,183,217228,2,0,P|278:174|224:174,1,85,0|0,1:0|2:0,2:0:0:0:
378,250,217560,2,0,P|371:187|400:100,1,127.5,8|0,3:2|2:0,2:0:0:0:
428,52,217891,6,0,P|480:61|534:61,1,85,0|0,1:2|2:0,2:0:0:0:
308,93,218223,1,8,3:2:0:0:
462,195,218389,1,0,2:0:0:0:
285,345,218554,2,0,P|294:293|294:239,1,85,0|0,1:2|2:0,2:0:0:0:
386,125,218886,1,8,3:2:0:0:
215,247,219052,1,4,2:3:0:0:
414,276,219217,6,0,P|357:250|272:275,1,127.5,0|0,1:2|2:0,2:0:0:0:
160,310,219549,2,0,P|136:264|146:209,1,85,8|0,3:2|2:0,2:0:0:0:
308,122,219880,6,0,L|267:135,3,42.5,8|8|8|8,1:2|2:0|2:0|2:0,2:0:0:0:
242,118,220212,2,0,L|201:104,1,42.5,4|4,2:3|2:3,2:0:0:0:
137,151,220378,2,0,L|96:164,1,42.5,4|4,2:3|2:3,2:0:0:0:
29,91,220543,6,0,P|1:140|37:242,1,140.25,4|0,1:2|2:0,2:0:0:0:
92,259,220875,1,14,3:2:0:0:
212,217,221041,1,0,2:0:0:0:
315,378,221206,1,0,1:2:0:0:
178,307,221372,1,0,2:0:0:0:
382,233,221538,6,0,P|401:194|381:125,1,93.5,8|0,3:2|2:0,2:0:0:0:
197,43,221869,2,0,P|250:65|318:66,1,93.5,0|0,1:2|2:0,2:0:0:0:
236,207,222201,2,0,P|289:185|357:184,1,93.5,8|0,3:2|2:0,2:0:0:0:
376,42,222532,5,0,1:2:0:0:
324,180,222698,1,0,2:0:0:0:
197,43,222864,1,8,3:2:0:0:
282,270,223029,1,0,2:0:0:0:
29,221,223195,6,0,P|128:203|221:182,1,187,6|8,1:2|3:2,2:0:0:0:
273,94,223692,1,0,2:0:0:0:
163,273,223858,2,0,P|120:220|145:104,1,187,0|8,1:0|3:2,2:0:0:0:
288,70,224355,1,0,2:0:0:0:
132,7,224521,1,0,1:0:0:0:
297,182,224687,5,8,2:0:0:0:
297,182,224770,1,8,2:0:0:0:
297,182,224853,2,0,P|329:172|364:168,1,46.75,8|8,2:0|2:0,2:0:0:0:
424,87,225018,2,0,P|401:82|379:75,1,46.75,8|8,1:2|2:0,2:0:0:0:
432,187,225184,1,8,1:2:0:0:
422,213,225267,1,8,2:0:0:0:
416,241,225350,1,8,1:2:0:0:
412,269,225433,1,8,2:0:0:0:
407,297,225516,5,8,2:0:0:0:
374,341,225599,1,8,2:0:0:0:
325,365,225681,1,8,2:0:0:0:
270,366,225764,1,8,2:0:0:0:
221,341,225841,6,0,P|217:293|226:231,1,85,4|0,1:2|1:0,2:0:0:0:
130,161,226172,1,0,1:0:0:0:
243,242,226338,1,0,1:0:0:0:
130,161,226503,2,0,P|133:203|129:246,1,85,8|0,2:0|2:0,2:0:0:0:
213,127,226835,5,0,1:0:0:0:
82,91,227001,1,0,1:0:0:0:
129,245,227166,1,0,1:0:0:0:
287,165,227332,1,0,1:0:0:0:
39,239,227498,5,8,2:0:0:0:
39,239,227581,1,8,2:0:0:0:
39,239,227664,2,0,P|59:311|177:316,1,165.75,4|0,1:2|2:0,2:0:0:0:
218,292,227995,1,8,1:2:0:0:
348,70,228161,6,0,L|316:285,1,191.25,8|0,1:2|2:0,2:0:0:0:
365,337,228484,1,4,1:2:0:0:
203,189,228649,1,0,1:0:0:0:
435,97,228815,1,0,1:0:0:0:
319,259,228981,2,0,P|262:267|212:287,1,85,0|8,1:0|1:2,2:0:0:0:
104,113,229478,5,4,1:2:0:0:
262,175,229644,1,0,1:0:0:0:
45,268,229809,1,0,1:0:0:0:
319,259,229975,1,0,1:0:0:0:
166,214,230141,5,8,1:2:0:0:
367,168,230307,6,0,B|339:271|339:271|364:339,1,165.75,4|0,1:2|2:0,2:0:0:0:
468,355,230638,1,0,1:0:0:0:
442,92,230804,6,0,P|389:135|253:139,1,191.25,8|0,1:2|2:0,2:0:0:0:
160,33,231135,1,4,1:2:0:0:
256,192,231218,12,0,241743,2:0:0:0:
