osu file format v14

[General]
AudioFilename: audio.mp3
AudioLeadIn: 0
PreviewTime: 185902
Countdown: 0
SampleSet: Soft
StackLeniency: 0.7
Mode: 0
LetterboxInBreaks: 0
WidescreenStoryboard: 1

[Editor]
Bookmarks: 136520,153758,174807,186078,186161,186244,186327,186410,186493,186575,186658,186741,186824,186907,186990,187073,187156,187238,187321,187404,187487,187570,187653,187736,187818,187901,187984,188067,188150,188233,188316,188399,188481,188564,188647,188730,188813,188896,188979,189062,189144,189227,189310,189393,189476,189559,189642,189725,189807,189890,189973,190056,190139,190222,190305,190388,190470,190553,190636,190719,190802,190885,190968,191051,191133,191216,191299,191382,191465,191548,191631,191714,191796,191879,191962,192045,192128,192211,192294,192376,192459,192542,192625,192708,212349,237765
DistanceSpacing: 1.3
BeatDivisor: 4
GridSize: 32
TimelineZoom: 1.8

[Metadata]
Title:Catch the Rainbow!
TitleUnicode:Catch the Rainbow!
Artist:Inori Minase
ArtistUnicode:水瀬いのり
Creator:Suimya
Version:Dreams
Source:
Tags:いのりん inorin Sekai Sekaii Sekai-nyan pop japanese jpop j-pop 光増ハジメ Mitsumasu Hajime EFFY Kanui kowari asukow grazuko
BeatmapID:4000071
BeatmapSetID:1935476

[Difficulty]
HPDrainRate:6
CircleSize:4
OverallDifficulty:9
ApproachRate:9.3
SliderMultiplier:1.6
SliderTickRate:1

[Events]
//Background and Video events
Video,-2260,"Video.mp4"
0,0,"suimyaluvv.jpg",0,0
//Break Periods
2,186267,192128
//Storyboard Layer 0 (Background)
//Storyboard Layer 1 (Fail)
//Storyboard Layer 2 (Pass)
//Storyboard Layer 3 (Foreground)
//Storyboard Layer 4 (Overlay)
//Storyboard Sound Samples

[TimingPoints]
1782,331.491712707182,4,2,2,50,1,0
1782,-117.647058823529,4,2,2,50,0,0
9737,324.324324324324,4,2,2,50,1,0
11052,328.767123287671,4,2,2,50,1,0
11052,-125,4,2,2,50,0,0
11873,-100,4,2,2,50,0,0
12367,331.491712707182,4,2,2,60,1,0
24797,-76.9230769230769,4,2,2,60,0,0
25295,-62.5,4,2,2,60,0,0
26123,-86.9565217391304,4,2,2,60,0,0
27449,-66.6666666666667,4,2,2,60,0,0
27947,-58.8235294117647,4,2,2,60,0,0
28278,-111.111111111111,4,2,2,50,0,0
37394,-90.9090909090908,4,2,2,60,0,0
38886,-100,4,2,2,60,0,0
48002,-83.3333333333333,4,2,2,60,0,0
48499,-66.6666666666667,4,2,2,60,0,0
48996,-100,4,2,2,60,0,0
49161,-100,4,2,2,50,0,0
49494,-100,4,2,2,60,0,0
53471,-83.3333333333333,4,2,2,60,0,0
53803,-66.6666666666667,4,2,2,60,0,0
54300,-100,4,2,2,60,0,0
54466,-100,4,2,2,60,0,0
57449,-100,4,2,2,70,0,0
57781,-83.3333333333333,4,2,2,70,0,0
58112,-66.6666666666667,4,2,2,70,0,0
58775,-83.3333333333333,4,2,2,70,0,0
60101,-100,4,2,2,70,0,0
62090,-100,4,2,2,50,0,0
62256,-100,4,2,2,60,0,0
62422,-66.6666666666667,4,2,2,60,0,0
62753,-90.9090909090909,4,2,2,70,0,1
72864,-90.9090909090909,4,2,2,70,0,0
73361,-90.9090909090909,4,2,2,70,0,1
80654,-90.9090909090909,4,2,2,60,0,1
81317,-90.9090909090909,4,2,2,70,0,1
82643,-125,4,2,2,70,0,0
83637,-66.6666666666667,4,2,2,70,0,0
83969,-100,4,2,2,60,0,0
95571,-66.6666666666667,4,2,2,60,0,0
95902,-100,4,2,2,50,0,0
105018,-66.6666666666667,4,2,2,60,0,0
106510,-100,4,2,2,60,0,0
115626,-83.3333333333333,4,2,2,60,0,0
116123,-100,4,2,2,60,0,0
116621,-100,4,2,2,60,0,0
121096,-83.3333333333333,4,2,2,60,0,0
121427,-66.6666666666667,4,2,2,60,0,0
121759,-100,4,2,2,60,0,0
125405,-83.3333333333333,4,2,2,60,0,0
125737,-66.6666666666667,4,2,2,60,0,0
126400,-83.3333333333333,4,2,2,60,0,0
127726,-100,4,2,2,60,0,0
130046,-66.6666666666667,4,2,2,80,0,0
130378,-90.9090909090909,4,2,2,70,0,1
140488,-90.9090909090909,4,2,2,70,0,0
140985,-90.9090909090909,4,2,2,70,0,1
148278,-90.9090909090909,4,2,2,60,0,1
148941,-90.9090909090909,4,2,2,70,0,1
150267,-100,4,2,2,70,0,0
150764,-100,4,2,2,50,0,0
151593,-200,4,2,2,50,0,0
153748,-133.333333333333,4,2,2,50,0,0
155405,-100,4,2,2,60,0,0
156897,-83.3333333333333,4,2,2,60,0,0
158223,-100,4,2,2,60,0,0
161869,-76.9230769230769,4,2,2,60,0,0
163527,-100,4,2,2,60,0,0
169742,-100,4,2,2,50,0,0
172808,-100,4,2,2,60,0,0
175129,-76.9230769230769,4,2,2,60,0,0
175460,-76.9230769230769,4,2,2,50,0,0
176621,-100,4,2,2,60,0,0
183416,-125,4,2,2,50,0,0
193195,-100,4,2,2,50,0,0
194024,-100,4,2,2,60,0,0
195350,-100,4,2,2,50,0,0
196013,-100,4,2,2,60,0,0
196676,-76.9230769230769,4,2,2,70,0,1
196924,-76.9230769230769,4,2,2,5,0,1
197007,-90.9090909090909,4,2,2,70,0,1
207284,-100,4,2,2,60,0,0
210267,-100,4,2,2,50,0,0
211262,-117.647058823529,4,2,2,50,0,0
213913,-100,4,2,2,60,0,0
220543,-90.9090909090909,4,2,2,60,0,0
225841,331.491712707182,4,2,2,60,1,0
227664,-76.9230769230769,4,2,2,60,0,0
228161,-66.6666666666667,4,2,2,60,0,0
228484,331.491712707182,4,2,2,60,1,0
230307,-76.9230769230769,4,2,2,60,0,0
230804,-66.6666666666667,4,2,2,60,0,0
230970,-66.6666666666667,4,2,2,40,0,0
231135,-196.078431372549,4,2,2,60,0,0
231798,-196.078431372549,4,2,2,55,0,0
232461,-196.078431372549,4,2,2,50,0,0
233124,-196.078431372549,4,2,2,45,0,0
233787,-196.078431372549,4,2,2,40,0,0
234450,-196.078431372549,4,2,2,35,0,0
235113,-196.078431372549,4,2,2,30,0,0
235776,-196.078431372549,4,2,2,25,0,0
236439,-196.078431372549,4,2,2,20,0,0
237102,-196.078431372549,4,2,2,15,0,0
237433,-196.078431372549,4,2,2,10,0,0
237765,-196.078431372549,4,2,2,5,0,0

[Colours]
Combo1 : 153,208,98
Combo2 : 252,141,191
Combo3 : 106,170,234
Combo4 : 223,45,49
Combo5 : 243,192,73

[HitObjects]
414,353,1782,6,0,P|427:295|449:209,1,136.000002593994,4|8,1:2|2:1,2:0:0:0:
457,125,2223,2,0,P|418:137|394:138,1,45.3333341979981,8|8,2:1|2:1,0:0:0:0:
315,108,2444,2,0,P|333:169|343:202,2,68.0000012969971,2|0|8,2:1|2:0|2:3,2:0:0:0:
255,23,2942,1,4,2:3:0:0:
175,177,3107,6,0,P|218:163|243:157,1,68.0000012969971,4|8,1:2|2:1,2:0:0:0:
83,250,3439,2,0,P|117:260|149:271,1,68.0000012969971,8|8,2:1|2:1,2:0:0:0:
214,364,3770,2,0,P|242:318|298:228,1,136.000002593994,2|8,2:1|2:1,0:0:0:0:
216,174,4268,1,0,0:0:0:0:
416,231,4433,6,0,B|328:212|361:267|266:244,1,136.000002593994,4|8,1:2|2:1,2:0:0:0:
216,174,4875,2,0,P|214:198|199:233,1,45.3333341979981,8|8,2:1|2:1,0:0:0:0:
160,320,5096,2,0,P|206:310|242:309,2,68.0000012969971,2|0|8,2:1|2:0|2:3,2:0:0:0:
82,369,5594,1,4,2:3:0:0:
46,227,5759,6,0,P|59:185|68:153,1,68.0000012969971,8|8,2:1|2:1,2:0:0:0:
53,47,6091,2,0,P|95:69|127:79,1,68.0000012969971,8|8,2:1|2:1,2:0:0:0:
220,145,6422,2,0,P|172:154|134:170,1,68.0000012969971,2|0,2:1|2:0,2:0:0:0:
265,78,6754,1,8,2:1:0:0:
256,218,6920,1,8,2:1:0:0:
388,135,7085,6,0,P|322:104|258:75,1,136.000002593994,4|8,1:2|2:1,2:0:0:0:
192,7,7527,2,0,P|191:44|185:70,1,45.3333341979981,8|8,2:1|2:1,0:0:0:0:
139,158,7748,2,0,P|183:143|218:141,2,68.0000012969971,2|0|8,2:1|2:0|2:1,2:0:0:0:
44,179,8246,1,8,2:3:0:0:
193,302,8411,6,0,P|188:259|184:221,1,68.0000012969971,4|0,1:2|2:0,2:0:0:0:
100,325,8743,1,8,2:0:0:0:
180,384,8909,2,0,P|236:370|270:283,1,136.000002593994,8|8,1:3|2:3,2:0:0:0:
306,219,9323,1,8,2:3:0:0:
306,219,9406,2,0,P|351:243|377:255,1,68.0000012969971,4|4,2:3|2:3,2:0:0:0:
344,52,9737,5,4,1:2:0:0:
395,154,9899,1,0,2:0:0:0:
219,86,10061,1,0,1:2:0:0:
423,16,10223,1,8,1:2:0:0:
208,181,10385,5,8,1:2:0:0:
451,94,10547,1,8,1:2:0:0:
189,3,10709,1,8,1:2:0:0:
256,299,10872,5,8,2:0:0:0:
256,299,10953,1,8,2:0:0:0:
256,299,11052,2,0,B|200:344|148:308|148:308|134:263|64:267,1,192,4|0,1:2|1:0,2:0:0:0:
0,172,11709,1,8,2:0:0:0:
192,149,11873,2,0,P|198:215|202:251,1,80,8|0,2:0|2:0,2:0:0:0:
101,48,12202,5,8,2:0:0:0:
101,48,12284,1,8,2:0:0:0:
101,48,12367,2,0,P|170:34|269:15,1,160,6|8,1:2|3:2,2:0:0:0:
392,41,12864,1,0,2:0:0:0:
368,168,13029,2,0,P|323:156|285:144,1,80,2|0,1:2|2:0,2:0:0:0:
177,212,13361,1,8,3:2:0:0:
257,331,13527,5,2,1:2:0:0:
257,331,13610,1,2,1:2:0:0:
257,331,13692,2,0,P|288:293|315:258,1,80,2|0,1:2|0:0,2:0:0:0:
177,212,14024,2,0,P|171:172|164:132,1,80,10|0,3:2|2:0,0:0:0:0:
82,23,14355,1,8,1:0:0:0:
65,156,14521,1,0,2:0:0:0:
188,37,14687,1,8,3:2:0:0:
7,67,14853,5,2,1:2:0:0:
7,67,14936,1,2,1:2:0:0:
7,67,15018,2,0,P|22:112|38:151,1,80,2|0,1:2|2:0,2:0:0:0:
3,300,15350,2,0,P|46:275|94:254,1,80,8|0,3:2|2:0,0:0:0:0:
216,156,15681,2,0,P|156:159|111:152,1,80,2|0,1:2|0:0,0:0:0:0:
221,280,16013,1,8,3:2:0:0:
297,102,16179,5,6,1:3:0:0:
297,102,16262,1,2,1:2:0:0:
297,102,16344,2,0,P|352:125|420:152,1,120,2|0,1:2|2:0,2:0:0:0:
448,161,16676,2,0,P|408:191|375:215,1,80,10|0,3:2|2:0,2:0:0:0:
404,351,17007,2,0,P|358:336|306:327,1,80,6|8,2:3|2:3,2:0:0:0:
181,302,17339,2,0,P|226:260|245:233,1,80,10|10,3:2|2:0,0:0:0:0:
255,208,17587,5,10,2:0:0:0:
255,208,17670,2,0,B|149:171|194:245|79:201,1,160,6|14,1:2|3:2,2:0:0:0:
23,74,18168,1,0,2:0:0:0:
144,51,18333,2,0,P|128:102|120:131,1,80,2|0,1:2|2:0,0:0:0:0:
39,277,18665,2,0,P|23:226|15:197,1,80,10|0,3:2|2:0,2:0:0:0:
43,364,18996,6,0,B|85:366|109:332|109:332|155:318|196:358,1,160,2|8,1:2|3:2,2:0:0:0:
276,223,19494,1,0,2:0:0:0:
296,355,19659,1,2,1:2:0:0:
187,254,19825,1,0,2:0:0:0:
367,207,19991,2,0,P|356:250|343:297,1,80,10|2,3:2|2:0,0:0:0:0:
366,314,20239,5,2,0:0:0:0:
366,314,20322,2,0,P|421:335|499:270,1,160,6|8,1:2|3:2,2:0:0:0:
458,119,20820,1,0,2:0:0:0:
367,207,20985,2,0,P|424:220|457:228,1,80,2|0,1:2|0:0,2:0:0:0:
370,73,21317,1,10,3:2:0:0:
275,227,21483,5,2,2:0:0:0:
275,227,21565,1,2,0:0:0:0:
275,227,21648,1,2,1:2:0:0:
177,83,21814,1,8,2:0:0:0:
140,66,21896,1,8,2:0:0:0:
101,71,21979,1,8,2:3:0:0:
70,96,22062,1,8,2:3:0:0:
57,133,22146,6,0,L|97:160,1,40,4|4,2:3|2:3,2:0:0:0:
249,182,22311,2,0,L|206:216,1,40,8|8,2:0|2:0,0:0:0:0:
153,335,22477,2,0,L|122:300,1,40,8|8,2:3|2:0,0:0:0:0:
303,295,22643,5,8,1:2:0:0:
338,276,22725,1,8,2:0:0:0:
377,276,22808,1,8,1:2:0:0:
412,294,22891,1,8,2:0:0:0:
434,327,22974,5,4,1:2:0:0:
334,185,23140,1,0,1:0:0:0:
357,356,23306,1,0,1:0:0:0:
425,187,23471,1,0,1:0:0:0:
251,234,23637,2,0,P|276:264|302:294,1,80,8|0,3:2|2:0,2:0:0:0:
169,131,23969,5,0,1:0:0:0:
148,290,24134,1,0,1:0:0:0:
261,156,24300,1,0,1:0:0:0:
99,197,24466,1,0,1:0:0:0:
251,24,24632,5,8,2:0:0:0:
251,24,24715,1,8,2:0:0:0:
251,24,24797,2,0,P|188:11|116:78,1,155.999992858887,4|0,1:2|2:0,2:0:0:0:
202,94,25129,1,0,1:0:0:0:
1,8,25295,6,0,B|39:68|39:68|28:117|28:117|66:176,1,192,12|0,2:0|2:0,2:0:0:0:
64,264,25626,5,0,1:0:0:0:
251,169,25792,1,0,1:0:0:0:
156,349,25958,1,0,1:0:0:0:
148,127,26123,1,0,1:0:0:0:
296,289,26289,2,0,P|243:281|197:274,1,92.0000017547608,8|0,3:2|0:0,0:0:0:0:
414,147,26621,5,0,1:0:0:0:
377,366,26786,1,0,1:0:0:0:
293,160,26952,1,0,1:0:0:0:
461,295,27118,1,0,1:0:0:0:
406,98,27284,1,8,2:0:0:0:
205,275,27449,6,0,B|265:293|297:249|297:249|326:222|380:231,1,180.000006866455,4|0,1:2|2:0,2:0:0:0:
355,316,27781,1,8,2:3:0:0:
213,113,27947,6,0,B|165:117|134:90|134:90|127:172|61:215,1,204.000003890991,4|0,1:2|2:0,2:0:0:0:
34,257,28278,6,0,B|99:312|106:241|166:288,1,143.999995605469,6|0,1:2|1:2,2:0:0:0:
243,374,28775,1,0,0:0:0:0:
274,261,28941,2,0,P|322:269|365:274,1,71.9999978027344,0|0,1:2|2:0,0:0:0:0:
405,182,29273,2,0,P|441:205|477:226,1,71.9999978027344,2|2,1:2|2:0,2:0:0:0:
420,80,29604,6,0,P|355:78|309:149,1,143.999995605469,2|2,1:2|1:2,2:0:0:0:
203,96,30101,2,0,P|149:86|56:67,1,143.999995605469,2|0,2:0|2:0,2:0:0:0:
25,186,30599,2,0,P|76:183|114:178,1,71.9999978027344,2|2,1:2|0:0,0:0:0:0:
129,193,30847,5,2,0:0:0:0:
129,193,30930,2,0,P|110:244|77:332,1,143.999995605469,2|0,1:2|1:0,2:0:0:0:
184,368,31427,1,0,0:0:0:0:
193,255,31593,2,0,P|138:261|99:263,1,71.9999978027344,0|0,1:0|2:0,0:0:0:0:
249,316,31925,2,0,P|304:322|343:324,1,71.9999978027344,2|2,1:2|2:0,0:0:0:0:
451,352,32256,6,0,B|482:299|482:299|450:217,1,143.999995605469,2|2,1:2|1:2,2:0:0:0:
471,112,32753,1,0,2:0:0:0:
359,94,32919,2,0,P|368:142|376:179,1,71.9999978027344,2|0,1:2|2:3,2:0:0:0:
273,36,33250,2,0,P|264:84|256:121,1,71.9999978027344,2|0,1:2|2:0,2:0:0:0:
280,229,33582,6,0,P|218:216|129:195,1,143.999995605469,2|0,1:2|1:0,2:0:0:0:
47,240,34079,1,0,0:0:0:0:
115,345,34245,2,0,P|137:308|155:280,1,71.9999978027344,2|0,1:2|2:0,0:0:0:0:
225,179,34576,1,2,1:2:0:0:
245,287,34742,1,2,2:0:0:0:
139,197,34908,6,0,P|135:145|129:103,1,71.9999978027344,2|0,1:2|2:0,2:0:0:0:
176,16,35239,1,2,1:2:0:0:
176,16,35405,2,0,P|216:38|312:90,1,143.999995605469,2|0,2:0|2:0,2:0:0:0:
427,45,35902,1,2,1:2:0:0:
368,151,36068,1,0,2:0:0:0:
332,4,36234,5,2,1:2:0:0:
427,45,36400,1,2,2:0:0:0:
302,84,36565,1,2,1:2:0:0:
458,124,36731,1,2,2:0:0:0:
353,221,36897,2,0,P|365:165|371:135,1,71.9999978027344,2|0,1:2|2:0,2:0:0:0:
460,246,37228,1,8,2:0:0:0:
337,347,37394,6,0,B|310:302|256:303|256:303|219:334|177:325,1,176.000005371094,12|8,1:2|2:0,2:0:0:0:
22,255,37891,2,0,P|35:310|45:358,1,88.000002685547,8|8,2:0|2:3,2:0:0:0:
183,165,38223,1,8,2:0:0:0:
183,165,38306,1,8,2:3:0:0:
183,165,38389,1,4,2:3:0:0:
127,321,38554,2,0,P|83:330|41:340,1,88.000002685547,12|0,2:0|2:0,0:0:0:0:
183,79,38886,6,0,B|242:92|242:92|264:127|264:127|323:141,1,160,6|8,1:2|2:0,2:0:0:0:
436,106,39383,1,0,0:0:0:0:
440,222,39549,2,0,P|390:227|345:231,1,80,0|2,1:0|2:0,0:0:0:0:
297,319,39880,2,0,P|271:272|257:244,1,80,10|2,2:0|2:0,2:0:0:0:
138,160,40212,6,0,P|153:209|141:252,1,80,2|0,1:2|2:0,2:0:0:0:
100,343,40543,1,10,2:0:0:0:
0,284,40709,2,0,P|49:255|78:236,1,80,2|0,2:0|1:0,2:0:0:0:
61,135,41041,2,0,P|109:150|147:163,1,80,2|8,2:0|2:0,0:0:0:0:
181,16,41372,5,2,1:2:0:0:
181,16,41455,1,2,1:2:0:0:
181,16,41538,2,0,P|130:23|2:39,1,160,2|10,1:2|2:0,2:0:0:0:
83,107,42035,1,0,0:0:0:0:
181,16,42201,2,0,P|171:68|167:100,1,80,2|0,1:2|2:0,0:0:0:0:
147,211,42532,1,10,2:0:0:0:
256,131,42698,5,2,1:2:0:0:
256,131,42781,1,2,1:2:0:0:
256,131,42864,2,0,B|302:122|333:152|333:152|386:164|435:132,1,160,2|10,1:2|2:0,2:0:0:0:
498,205,43361,1,6,2:3:0:0:
420,303,43527,2,0,P|404:265|390:227,1,80,2|0,1:2|2:0,0:0:0:0:
271,214,43858,1,8,2:0:0:0:
370,361,44024,5,10,1:2:0:0:
370,361,44107,1,10,1:2:0:0:
370,361,44190,2,0,P|447:377|500:308,1,160,2|8,1:2|2:0,2:0:0:0:
512,209,44687,1,0,0:0:0:0:
401,175,44853,2,0,P|366:202|329:232,1,80,2|2,1:2|2:0,0:0:0:0:
248,172,45184,1,10,2:0:0:0:
341,126,45350,1,2,2:0:0:0:
258,272,45516,6,0,B|217:270|187:239|187:239|174:278|132:297,1,160,2|10,1:2|2:0,2:0:0:0:
68,182,46013,2,0,P|122:165|236:130,1,160,2|0,2:0|2:0,2:0:0:0:
178,27,46510,1,10,2:0:0:0:
315,38,46676,5,2,1:2:0:0:
315,38,46759,1,2,1:2:0:0:
315,38,46842,2,0,P|335:86|349:122,1,80,4|0,1:2|2:0,2:0:0:0:
449,148,47173,2,0,P|419:193|397:227,1,80,10|0,2:0|2:0,2:0:0:0:
403,327,47505,2,0,P|340:288|322:279,1,80,6|8,2:3|2:3,0:0:0:0:
278,175,47836,1,8,2:0:0:0:
278,175,47919,1,0,1:0:0:0:
278,175,48002,6,0,B|252:143|206:155|206:155|188:193|143:198,1,143.999995605469,4|0,1:2|2:0,2:0:0:0:
138,123,48333,1,8,2:0:0:0:
54,311,48499,6,0,B|85:302|117:284|117:284|159:295|159:295|188:277|220:270,1,180.000006866455,8|0,2:0|2:0,2:0:0:0:
227,352,48831,1,8,2:0:0:0:
68,223,48996,5,8,1:3:0:0:
54,198,49079,1,8,2:3:0:0:
38,174,49162,2,0,P|18:166|54:165,1,120,4|0,2:3|0:0,0:0:0:0:
57,43,49494,5,4,1:2:0:0:
145,163,49659,1,0,1:0:0:0:
209,32,49825,2,0,P|166:55|123:81,1,80,10|0,2:0|2:0,2:0:0:0:
326,22,50157,5,2,1:2:0:0:
303,114,50322,1,2,1:2:0:0:
277,206,50488,2,0,P|325:196|366:187,1,80,10|2,2:0|0:0,0:0:0:0:
309,337,50820,5,2,1:2:0:0:
178,298,50985,2,0,P|169:241|161:201,1,80,2|8,1:2|2:0,2:0:0:0:
284,136,51317,2,0,P|276:175|270:214,1,80,2|0,1:2|2:0,2:0:0:0:
152,85,51648,1,2,1:2:0:0:
85,230,51814,2,0,P|139:222|179:216,1,80,10|0,2:0|2:0,2:0:0:0:
61,126,52146,5,2,1:2:0:0:
85,230,52311,1,2,1:2:0:0:
103,351,52477,2,0,P|55:335|14:321,1,80,10|2,2:0|1:2,2:0:0:0:
3,322,52726,1,2,1:2:0:0:
3,322,52808,2,0,P|-8:268|3:239,1,80,2|0,1:2|1:0,0:0:0:0:
6,128,53140,1,10,2:0:0:0:
85,230,53306,1,2,2:0:0:0:
146,91,53471,6,0,B|169:73|175:49|175:49|237:123,1,143.999995605469,14|0,1:2|2:0,2:0:0:0:
413,172,53803,6,0,B|366:166|335:129|335:129|320:176|279:196,1,180.000006866455,14|0,1:2|2:0,2:0:0:0:
234,119,54134,1,14,1:2:0:0:
84,229,54300,6,0,P|90:263|93:293,1,40,8|8,2:0|2:0,0:0:0:0:
206,363,54465,1,8,2:3:0:0:
245,351,54548,1,8,2:3:0:0:
275,325,54631,1,4,2:3:0:0:
293,289,54714,1,4,2:3:0:0:
295,248,54797,5,4,1:2:0:0:
138,157,54963,1,0,1:0:0:0:
299,65,55129,2,0,P|273:118|257:153,1,80,10|0,2:0|2:0,2:0:0:0:
413,28,55460,5,2,1:2:0:0:
299,65,55626,1,2,1:2:0:0:
186,103,55792,2,0,P|155:68|127:31,1,80,10|0,2:0|0:0,0:0:0:0:
53,193,56123,5,2,1:2:0:0:
168,246,56289,2,0,P|205:218|241:190,1,80,2|8,1:2|2:0,0:0:0:0:
430,277,56621,6,0,B|392:284|358:257|358:257|310:256|287:295,1,160,14|10,1:2|2:0,2:0:0:0:
254,368,57035,1,8,2:0:0:0:
254,368,57118,2,0,L|301:376,1,40,8|8,2:0|2:0,2:0:0:0:
430,277,57284,2,0,L|383:285,1,40,8|8,2:3|0:3,2:0:0:0:
502,147,57449,6,0,B|456:136|456:136|437:107|437:107|388:95,1,120,6|0,1:2|2:0,2:0:0:0:
272,207,57781,6,0,B|309:190|320:155|320:155|347:183|383:184,1,143.999995605469,6|0,1:2|2:0,2:0:0:0:
340,298,58112,6,0,B|298:287|251:323|251:323|197:311|199:254,1,180.000006866455,4|0,1:2|2:0,2:0:0:0:
122,115,58444,6,0,B|78:173|109:229|109:229|130:193|185:185,1,180.000006866455,4|0,1:2|2:0,2:0:0:0:
225,149,58775,6,0,P|231:99|230:36,1,95.9999970703126,6|0,1:2|2:0,0:0:0:0:
102,3,59107,1,8,2:0:0:0:
114,202,59273,1,2,2:0:0:0:
5,43,59438,1,10,1:2:0:0:
225,149,59604,5,8,2:0:0:0:
260,175,59686,1,8,2:0:0:0:
304,175,59769,1,8,2:3:0:0:
340,151,59852,1,8,0:0:0:0:
352,110,59935,1,4,2:3:0:0:
387,96,60018,1,8,0:0:0:0:
431,101,60101,5,12,2:0:0:0:
347,311,60267,1,0,1:0:0:0:
277,97,60433,5,8,2:0:0:0:
466,273,60599,1,0,1:0:0:0:
167,317,60764,5,8,1:2:0:0:
387,96,60930,1,8,1:2:0:0:
288,372,61096,1,12,1:2:0:0:
138,97,61262,1,12,1:2:0:0:
453,318,62256,5,0,1:0:0:0:
453,318,62339,1,0,1:0:0:0:
453,318,62422,2,0,P|414:286|451:328,1,180.000006866455,12|0,2:0|2:0,2:0:0:0:
461,204,62753,6,0,P|403:209|299:221,1,132.00000402832,6|0,1:2|2:0,2:0:0:0:
248,257,63085,2,0,P|231:194|224:155,1,88.000002685547,12|0,3:2|2:0,2:0:0:0:
132,73,63416,1,2,1:2:0:0:
140,243,63582,1,0,2:0:0:0:
267,79,63748,1,8,3:2:0:0:
30,147,63913,5,2,2:0:0:0:
30,147,63996,1,2,2:0:0:0:
30,147,64079,2,0,P|90:158|145:168,1,88.000002685547,2|0,1:2|2:0,2:0:0:0:
219,319,64411,2,0,P|158:330|104:340,1,88.000002685547,8|0,3:2|2:0,2:0:0:0:
253,187,64742,1,2,1:2:0:0:
315,358,64908,1,0,0:0:0:0:
140,243,65074,1,10,3:2:0:0:
370,178,65239,6,0,P|347:231|331:267,1,88.000002685547,2|0,2:0|1:0,2:0:0:0:
474,218,65571,1,2,2:0:0:0:
432,64,65737,2,0,P|378:74|239:97,1,176.000005371094,10|0,3:2|1:0,2:0:0:0:
77,43,66234,1,0,0:0:0:0:
176,209,66400,1,10,3:2:0:0:
191,7,66565,1,2,2:0:0:0:
54,139,66731,6,0,P|72:175|99:223,1,88.000002685547,6|0,1:2|2:0,0:0:0:0:
65,377,67063,2,0,P|111:351|154:325,1,88.000002685547,10|0,3:2|2:0,2:0:0:0:
314,233,67394,1,2,1:2:0:0:
219,377,67560,1,12,2:0:0:0:
201,151,67726,1,14,3:2:0:0:
462,274,67891,1,6,2:3:0:0:
462,274,67974,1,2,0:0:0:0:
462,274,68057,6,0,B|426:235|373:253|373:253|353:297|301:299,1,176.000005371094,4|8,1:2|3:2,2:0:0:0:
149,190,68554,2,0,B|129:150|129:150|154:97,1,88.000002685547,2|0,2:0|1:0,2:0:0:0:
336,35,68886,1,2,2:0:0:0:
336,35,68969,1,2,0:0:0:0:
336,35,69052,1,8,3:2:0:0:
253,237,69217,1,2,2:0:0:0:
149,31,69383,6,0,B|129:71|129:71|154:124,1,88.000002685547,6|0,1:2|0:0,0:0:0:0:
304,125,69715,1,10,3:2:0:0:
230,12,69880,1,0,0:0:0:0:
293,221,70046,2,0,P|337:201|389:177,1,88.000002685547,2|0,1:2|2:0,0:0:0:0:
484,131,70378,1,8,3:2:0:0:
512,311,70543,5,2,1:2:0:0:
512,311,70626,1,2,0:0:0:0:
512,311,70709,2,0,P|448:303|326:287,1,176.000005371094,2|8,1:2|3:2,2:0:0:0:
169,337,71206,1,0,2:0:0:0:
273,185,71372,1,6,1:3:0:0:
272,374,71538,1,4,1:3:0:0:
119,256,71704,1,10,3:2:0:0:
361,201,71869,5,0,1:0:0:0:
361,201,71952,1,0,1:0:0:0:
361,201,72035,1,6,1:2:0:0:
109,79,72201,1,0,1:2:0:0:
364,23,72366,1,8,2:0:0:0:
214,217,72532,2,0,P|156:224|116:227,1,88.000002685547,6|0,1:2|2:0,2:0:0:0:
311,351,72864,5,8,2:0:0:0:
343,327,72946,1,8,2:0:0:0:
381,315,73029,1,8,2:0:0:0:
419,304,73112,1,8,2:0:0:0:
451,280,73195,2,0,L|447:228,1,44.0000013427735,8|8,2:0|2:0,0:0:0:0:
480,112,73361,6,0,P|424:102|351:73,1,132.00000402832,6|0,1:2|0:0,2:0:0:0:
278,44,73692,2,0,P|284:90|294:135,1,88.000002685547,12|0,3:2|2:0,0:0:0:0:
158,250,74024,2,0,P|166:211|176:164,1,88.000002685547,2|0,1:2|2:0,0:0:0:0:
98,83,74355,1,8,3:2:0:0:
298,176,74521,5,2,2:0:0:0:
298,176,74604,1,2,2:0:0:0:
298,176,74687,2,0,P|284:222|275:270,1,88.000002685547,2|0,1:2|2:0,0:0:0:0:
127,377,75018,2,0,P|107:323|92:286,1,88.000002685547,8|0,3:2|2:0,2:0:0:0:
280,338,75350,1,2,1:2:0:0:
153,180,75516,1,0,0:0:0:0:
127,377,75681,1,10,3:2:0:0:
365,253,75847,6,0,P|415:260|454:266,1,88.000002685547,2|0,2:0|1:2,2:0:0:0:
376,90,76179,1,2,2:0:0:0:
242,213,76344,2,0,P|269:267|328:368,1,176.000005371094,10|0,3:2|1:0,2:0:0:0:
330,128,76842,1,0,0:0:0:0:
185,288,77007,1,10,3:2:0:0:
207,87,77173,1,2,2:0:0:0:
36,226,77339,6,0,P|89:211|124:197,1,88.000002685547,6|0,1:2|1:0,0:0:0:0:
235,274,77670,1,10,3:2:0:0:
207,87,77836,2,0,P|151:69|105:54,1,88.000002685547,6|0,1:2|2:0,2:0:0:0:
341,23,78168,5,8,2:0:0:0:
380,28,78250,1,8,2:0:0:0:
411,52,78333,1,8,2:3:0:0:
427,88,78416,1,8,2:3:0:0:
423,128,78499,2,0,L|478:123,1,44.0000013427735,4|4,2:3|2:3,0:0:0:0:
418,271,78665,6,0,P|369:249|326:231,1,88.000002685547,12|0,2:0|1:0,2:0:0:0:
178,368,78996,5,12,2:0:0:0:
252,118,79162,1,0,1:0:0:0:
336,342,79328,5,10,2:0:0:0:
97,187,79494,1,0,1:2:0:0:
333,152,79659,5,8,2:0:0:0:
85,320,79825,1,0,1:0:0:0:
85,320,79908,1,0,1:0:0:0:
85,320,79991,6,0,P|137:295|172:278,1,88.000002685547,12|0,2:0|1:0,0:0:0:0:
207,57,80322,5,10,2:0:0:0:
286,260,80488,1,0,1:0:0:0:
97,58,80654,6,0,L|81:115,2,58.6666684570313,10|8|8,1:3|1:3|2:3,2:0:0:0:
215,194,80985,6,0,L|195:137,2,58.6666684570313,8|4|4,2:3|2:3|2:3,0:0:0:0:
316,92,81317,6,0,P|360:82|409:91,1,88.000002685547,6|0,1:2|0:0,2:0:0:0:
409,209,81648,5,8,1:2:0:0:
385,351,81814,1,10,1:2:0:0:
216,267,81980,1,8,1:2:0:0:
409,209,82146,1,8,1:2:0:0:
185,373,82311,1,10,1:2:0:0:
256,102,82477,1,10,1:2:0:0:
385,351,82643,6,0,B|422:329|470:357|470:357|528:291|485:244,1,192,4|2,1:2|2:0,2:0:0:0:
364,243,83306,5,8,2:0:0:0:
364,243,83389,1,0,1:0:0:0:
364,243,83471,1,4,2:3:0:0:
364,243,83554,1,0,1:0:0:0:
364,243,83637,2,0,B|346:197|373:162|373:162|421:137|413:71,1,180.000006866455,12|0,2:0|2:0,2:0:0:0:
326,88,83969,6,0,B|271:118|271:118|233:112|233:112|162:147,1,160,4|8,1:2|3:2,2:0:0:0:
41,102,84466,1,0,2:0:0:0:
38,218,84632,2,0,P|80:231|125:240,1,80,2|0,1:2|2:0,2:0:0:0:
98,365,84963,1,8,3:2:0:0:
258,328,85129,5,6,2:3:0:0:
258,328,85212,1,2,1:2:0:0:
258,328,85295,2,0,P|285:284|309:250,1,80,0|0,1:0|0:0,2:0:0:0:
180,138,85626,2,0,P|202:171|223:205,1,80,8|0,3:2|2:0,0:0:0:0:
356,95,85958,1,0,1:0:0:0:
365,241,86123,1,0,2:0:0:0:
263,120,86289,1,8,3:2:0:0:
458,91,86455,5,2,1:2:0:0:
458,91,86538,1,2,1:2:0:0:
458,91,86621,2,0,P|442:133|429:177,1,80,0|0,1:2|2:0,2:0:0:0:
459,317,86952,2,0,P|420:294|378:292,1,80,8|0,3:2|2:0,0:0:0:0:
235,311,87284,1,2,1:2:0:0:
386,290,87449,1,2,1:2:0:0:
299,177,87615,1,8,3:2:0:0:
324,364,87781,5,6,2:3:0:0:
324,364,87864,1,2,0:0:0:0:
324,364,87947,2,0,P|269:351|220:341,1,80,0|0,1:0|0:0,2:0:0:0:
63,365,88278,2,0,P|105:324|132:294,1,80,10|0,3:2|2:0,2:0:0:0:
162,150,88610,1,4,2:3:0:0:
26,201,88775,6,0,L|40:252,1,40,8|8,1:3|2:0,0:0:0:0:
162,150,88941,2,0,L|172:111,1,40,8|8,2:0|2:0,0:0:0:0:
35,39,89107,2,0,L|49:90,1,40,8|4,2:3|2:3,0:0:0:0:
156,30,89273,6,0,B|207:15|241:53|230:59|263:93|313:74,1,160,4|12,1:2|3:2,2:0:0:0:
450,41,89770,1,0,2:0:0:0:
449,188,89936,2,0,P|386:176|338:167,1,80,2|0,1:2|2:0,0:0:0:0:
382,296,90267,1,10,3:2:0:0:
270,174,90433,1,0,2:0:0:0:
167,317,90599,6,0,P|239:286|323:247,1,160,4|8,1:2|3:2,2:0:0:0:
285,368,91096,1,0,2:0:0:0:
202,216,91262,1,0,1:0:0:0:
196,371,91427,1,0,2:0:0:0:
313,251,91593,1,8,3:2:0:0:
121,188,91759,5,8,2:3:0:0:
121,188,91842,1,8,2:3:0:0:
121,188,91925,2,0,B|91:223|107:269|107:269|79:309|35:290,1,160,4|8,1:2|3:2,2:0:0:0:
5,187,92422,1,0,2:0:0:0:
84,82,92587,2,0,P|137:100|177:114,1,80,2|0,1:2|0:0,2:0:0:0:
247,21,92919,6,0,P|279:46|317:73,1,80,10|2,3:2|1:2,0:0:0:0:
337,99,93168,1,2,1:2:0:0:
337,99,93250,1,2,1:2:0:0:
506,143,93416,1,0,2:0:0:0:
336,229,93582,1,8,3:2:0:0:
429,55,93748,5,8,2:3:0:0:
429,55,93831,1,8,2:3:0:0:
429,55,93913,2,0,P|432:100|432:128,1,40,8|8,2:0|2:0,0:0:0:0:
512,246,94079,1,8,2:3:0:0:
512,246,94162,1,8,2:3:0:0:
512,246,94245,2,0,P|467:249|439:249,1,40,8|8,2:0|2:0,0:0:0:0:
302,146,94411,5,8,2:0:0:0:
302,146,94494,1,8,2:0:0:0:
302,146,94576,1,12,2:0:0:0:
144,327,94825,5,8,2:3:0:0:
193,93,95074,5,4,2:3:0:0:
256,237,95239,5,4,2:3:0:0:
81,191,95405,5,0,1:0:0:0:
81,191,95488,1,0,1:0:0:0:
81,191,95571,2,0,P|121:224|53:212,1,180.000006866455,4|0,2:0|2:0,2:0:0:0:
56,116,95902,6,0,P|122:114|196:178,1,160,6|4,1:2|2:3,2:0:0:0:
224,29,96400,1,4,2:3:0:0:
327,91,96565,2,0,P|317:137|304:188,1,80,10|0,2:0|0:0,2:0:0:0:
210,248,96897,2,0,P|200:209|192:170,1,80,2|6,1:2|2:3,0:0:0:0:
318,252,97228,5,10,2:3:0:0:
237,347,97394,2,0,P|186:334|141:324,1,80,10|0,2:0|2:0,0:0:0:0:
33,363,97726,1,2,1:2:0:0:
41,249,97891,2,0,P|88:224|129:203,1,80,10|0,2:0|2:0,0:0:0:0:
105,92,98223,2,0,P|163:106|205:117,1,80,2|0,1:2|2:0,0:0:0:0:
344,33,98554,6,0,P|325:77|275:188,1,160,2|4,1:2|2:3,2:0:0:0:
293,296,99052,1,4,2:3:0:0:
192,260,99217,2,0,P|138:236|93:218,1,80,8|0,2:0|0:0,2:0:0:0:
211,126,99549,1,2,1:2:0:0:
75,100,99715,5,6,2:3:0:0:
75,100,99798,1,0,0:3:0:0:
75,100,99880,1,10,2:3:0:0:
205,46,100046,2,0,P|208:88|211:133,1,80,10|0,2:0|2:0,0:0:0:0:
329,33,100378,1,2,1:2:0:0:
390,156,100543,2,0,P|329:146|299:140,1,80,8|2,2:0|1:2,0:0:0:0:
311,142,100792,1,0,1:0:0:0:
311,142,100875,1,12,2:0:0:0:
385,258,101041,1,0,0:0:0:0:
467,112,101206,6,0,P|401:76|321:28,1,160,6|4,1:2|2:3,2:0:0:0:
177,24,101704,1,4,2:3:0:0:
205,138,101869,2,0,P|257:115|295:98,1,80,8|2,2:0|2:0,0:0:0:0:
189,226,102201,2,0,P|137:203|99:186,1,80,0|6,1:2|2:3,0:0:0:0:
163,324,102532,5,10,2:3:0:0:
275,301,102698,2,0,P|297:249|309:218,1,80,8|0,2:0|2:0,0:0:0:0:
409,197,103029,1,2,1:2:0:0:
444,324,103195,2,0,P|394:311|349:297,1,80,10|0,2:0|1:0,2:0:0:0:
313,155,103527,2,0,P|356:148|410:202,1,120,10|0,2:0|0:0,2:0:0:0:
422,230,103858,5,4,1:2:0:0:
408,89,104024,1,0,2:0:0:0:
279,173,104190,2,0,P|299:213|321:252,1,80,4|4,2:3|2:3,0:0:0:0:
172,204,104521,1,8,2:0:0:0:
264,331,104687,1,0,2:0:0:0:
279,173,104853,1,8,2:0:0:0:
28,333,105018,6,0,B|64:329|91:351|91:351|53:238,1,180.000006866455,4|0,1:2|2:0,2:0:0:0:
31,120,105350,6,0,L|99:131,1,60.0000022888184,8|0,1:2|1:0,2:0:0:0:
243,31,105516,2,0,L|202:88,1,60.0000022888184,8|0,1:2|1:0,2:0:0:0:
216,244,105681,2,0,L|167:200,1,60.0000022888184,8|0,2:3|1:0,2:0:0:0:
131,16,105847,1,8,2:0:0:0:
364,109,106013,5,4,2:3:0:0:
364,109,106096,1,4,2:3:0:0:
364,109,106179,2,0,B|399:136|446:147|446:147|392:154|366:183,1,180.000006866455,12|0,2:0|0:0,0:0:0:0:
300,243,106510,6,0,P|352:274|442:230,1,160,6|8,1:2|2:0,2:0:0:0:
352,347,107007,1,0,0:0:0:0:
365,200,107173,1,0,1:0:0:0:
266,317,107339,1,2,2:0:0:0:
266,317,107422,1,2,0:0:0:0:
266,317,107505,2,0,P|273:267|279:223,1,80,10|2,2:0|2:0,0:0:0:0:
148,160,107836,6,0,P|159:196|176:242,1,80,2|0,1:2|2:0,2:0:0:0:
258,151,108168,1,10,2:0:0:0:
170,72,108333,2,0,P|111:91|78:101,1,80,2|0,2:0|1:0,2:0:0:0:
0,205,108665,2,0,P|52:215|96:222,1,80,2|8,2:0|2:0,0:0:0:0:
174,350,108996,5,2,0:0:0:0:
174,350,109079,1,2,0:0:0:0:
174,350,109162,2,0,P|215:321|313:245,1,160,2|8,1:2|2:0,2:0:0:0:
391,204,109659,1,0,0:0:0:0:
424,327,109825,2,0,P|382:326|334:323,1,80,2|0,1:2|2:0,0:0:0:0:
479,240,110157,1,10,2:0:0:0:
380,193,110322,1,0,2:0:0:0:
502,81,110488,6,0,P|492:145|477:247,1,160,2|10,1:2|2:0,2:0:0:0:
342,74,110985,1,2,2:0:0:0:
342,74,111068,1,2,2:0:0:0:
342,74,111151,2,0,L|331:124,1,40,8|8,2:3|2:3,2:0:0:0:
230,195,111317,2,0,L|271:176,1,40,8|8,1:3|2:0,2:0:0:0:
399,228,111483,2,0,L|372:179,1,40,8|8,2:3|2:3,2:0:0:0:
232,94,111648,5,6,2:3:0:0:
232,94,111731,1,6,2:3:0:0:
232,94,111814,2,0,P|166:57|87:72,1,160,6|8,1:2|2:0,2:0:0:0:
131,181,112311,1,0,0:0:0:0:
232,94,112477,2,0,P|221:54|213:11,1,80,0|2,1:0|2:0,0:0:0:0:
86,72,112808,1,10,2:0:0:0:
213,16,112974,1,2,2:0:0:0:
131,181,113140,6,0,B|158:196|188:188|188:188|118:288,1,160,4|10,1:2|2:0,2:0:0:0:
300,281,113637,2,0,P|261:266|215:287,1,80,2|0,2:0|1:0,2:0:0:0:
260,359,113969,1,0,2:0:0:0:
383,233,114134,2,0,P|352:204|313:172,1,80,10|2,1:2|2:0,0:0:0:0:
291,157,114383,1,2,0:0:0:0:
291,157,114466,2,0,P|303:114|320:64,1,80,6|0,1:2|2:0,2:0:0:0:
152,19,114797,2,0,P|180:58|200:91,1,80,8|0,2:0|2:0,2:0:0:0:
193,220,115129,1,2,1:2:0:0:
76,129,115295,1,0,1:0:0:0:
256,24,115460,5,10,2:0:0:0:
256,24,115543,1,2,0:0:0:0:
256,24,115626,2,0,P|317:11|374:71,1,143.999995605469,6|0,1:2|2:0,2:0:0:0:
298,90,115958,1,8,1:2:0:0:
498,0,116123,2,0,P|504:58|498:87,1,80,8|0,2:0|0:0,0:0:0:0:
334,19,116455,1,8,2:0:0:0:
497,171,116621,1,0,1:0:0:0:
497,171,116704,1,0,1:2:0:0:
497,171,116786,2,0,P|441:159|419:227,1,120,12|0,2:0|0:0,0:0:0:0:
447,286,117118,5,0,1:0:0:0:
329,158,117284,1,0,1:0:0:0:
330,323,117449,2,0,P|352:285|374:247,1,80,10|0,2:0|2:0,2:0:0:0:
178,317,117781,5,2,1:2:0:0:
132,232,117947,1,2,1:2:0:0:
94,144,118112,2,0,P|61:171|27:202,1,80,10|0,2:0|0:0,0:0:0:0:
94,28,118444,5,2,1:2:0:0:
186,97,118610,2,0,P|235:75|269:61,1,80,2|8,1:2|2:0,0:0:0:0:
378,41,118941,2,0,P|360:85|344:128,1,80,2|0,1:2|2:0,2:0:0:0:
411,232,119273,1,2,1:2:0:0:
512,131,119438,2,0,P|468:113|418:92,1,80,10|0,2:0|2:0,0:0:0:0:
485,275,119770,5,2,1:2:0:0:
394,307,119936,1,2,1:2:0:0:
307,347,120101,2,0,P|308:288|312:244,1,80,10|2,2:0|2:0,2:0:0:0:
192,186,120433,2,0,P|202:234|212:281,1,80,2|2,1:2|1:2,0:0:0:0:
206,304,120681,1,2,1:2:0:0:
206,304,120764,2,0,P|163:290|126:274,1,80,10|2,2:0|2:0,0:0:0:0:
28,135,121096,6,0,B|69:107|111:112|111:112|105:81|126:52,1,143.999995605469,12|0,2:0|2:0,2:0:0:0:
345,55,121427,6,0,B|306:72|282:119|282:119|235:93|184:96,1,180.000006866455,12|0,2:0|2:0,2:0:0:0:
430,121,121759,5,8,2:3:0:0:
430,121,121842,1,8,2:3:0:0:
430,121,121925,2,0,L|416:164,1,40,4|4,2:3|2:3,0:0:0:0:
391,347,122090,2,0,L|352:302,1,40,8|8,2:0|2:0,0:0:0:0:
238,214,122256,2,0,L|280:188,1,40,8|8,2:0|2:0,0:0:0:0:
168,358,122422,5,4,1:2:0:0:
21,238,122587,1,2,1:2:0:0:
171,139,122753,2,0,P|161:194|152:233,1,80,14|0,2:0|2:0,2:0:0:0:
57,25,123085,5,2,1:2:0:0:
167,14,123250,1,0,1:0:0:0:
278,3,123416,2,0,P|270:42|265:81,1,80,10|0,2:0|0:0,0:0:0:0:
367,14,123748,5,6,1:2:0:0:
387,187,123913,1,2,1:2:0:0:
458,61,124079,1,10,2:0:0:0:
264,81,124245,2,0,P|276:128|290:168,1,80,4|0,1:2|0:0,2:0:0:0:
447,269,124576,5,8,2:0:0:0:
414,246,124658,1,8,2:0:0:0:
375,244,124741,1,8,2:3:0:0:
340,262,124824,1,8,2:3:0:0:
320,296,124908,2,0,L|271:281,1,40,4|4,2:3|2:3,2:0:0:0:
143,197,125074,6,0,B|133:227|146:268|146:268|105:238|78:249,1,120,4|0,1:2|2:0,2:0:0:0:
109,107,125405,6,0,B|156:90|193:113|193:113|235:104|248:69,1,143.999995605469,4|0,1:2|2:0,2:0:0:0:
407,17,125737,6,0,B|362:69|362:69|365:110|365:110|306:163,1,180.000006866455,4|0,1:2|2:0,2:0:0:0:
325,326,126068,6,0,B|309:310|291:250|291:250|241:277|197:257,1,180.000006866455,4|0,1:2|0:0,2:0:0:0:
136,191,126400,6,0,P|116:239|111:286,1,95.9999970703126,4|0,1:2|2:0,0:0:0:0:
200,343,126731,1,8,2:0:0:0:
7,244,126897,1,4,2:3:0:0:
209,156,127063,1,0,1:0:0:0:
56,343,127228,5,8,2:0:0:0:
24,319,127310,1,8,2:0:0:0:
7,282,127393,1,8,2:0:0:0:
7,244,127476,1,0,0:0:0:0:
24,206,127559,1,8,2:3:0:0:
56,181,127642,1,8,0:0:0:0:
94,172,127725,5,12,2:0:0:0:
314,269,127891,1,0,1:0:0:0:
169,89,128057,5,8,2:0:0:0:
209,305,128223,1,0,1:0:0:0:
338,72,128389,5,12,1:2:0:0:
94,172,128554,1,8,1:2:0:0:
314,269,128720,1,8,1:2:0:0:
154,66,128886,1,12,1:2:0:0:
431,39,129217,6,0,P|418:57|406:80,1,40,8|8,2:0|2:0,0:0:0:0:
481,222,129383,2,0,P|442:210|418:213,1,40,8|0,2:0|1:0,0:0:0:0:
314,269,129549,2,0,P|325:225|326:201,1,40,0|0,1:0|1:0,0:0:0:0:
201,192,129715,5,8,2:3:0:0:
201,192,129797,1,8,2:3:0:0:
201,192,129880,1,4,2:3:0:0:
201,192,129963,1,4,2:3:0:0:
201,192,130046,2,0,P|163:177|204:199,1,180.000006866455,4|0,1:2|2:0,2:0:0:0:
146,329,130378,6,0,P|208:321|288:315,1,132.00000402832,6|0,1:2|2:0,2:0:0:0:
349,360,130709,2,0,P|388:325|428:297,1,88.000002685547,12|0,3:2|2:0,2:0:0:0:
460,152,131041,1,2,1:2:0:0:
496,340,131206,1,0,2:0:0:0:
327,221,131372,1,8,3:2:0:0:
479,66,131538,5,2,2:0:0:0:
479,66,131621,1,2,2:0:0:0:
479,66,131704,2,0,P|468:115|457:160,1,88.000002685547,2|0,1:2|2:0,2:0:0:0:
346,306,132035,2,0,P|335:263|326:220,1,88.000002685547,8|0,3:2|2:0,2:0:0:0:
192,71,132366,1,2,1:2:0:0:
361,112,132532,1,0,0:0:0:0:
159,201,132698,1,10,3:2:0:0:
303,20,132864,6,0,P|283:73|269:113,1,88.000002685547,2|0,2:0|1:0,2:0:0:0:
212,265,133195,1,2,2:0:0:0:
45,128,133361,2,0,P|100:102|208:49,1,176.000005371094,10|0,3:2|1:0,2:0:0:0:
3,31,133858,1,0,0:0:0:0:
121,200,134024,1,10,3:2:0:0:
121,0,134190,1,2,2:0:0:0:
41,236,134355,6,0,P|85:215|135:193,1,88.000002685547,6|0,1:2|2:0,0:0:0:0:
275,102,134687,2,0,P|259:166|253:221,1,88.000002685547,10|0,3:2|2:0,2:0:0:0:
171,370,135018,1,2,1:2:0:0:
171,370,135101,1,0,1:0:0:0:
171,370,135184,2,0,L|205:317,1,44.0000013427735,12|0,1:2|1:0,2:0:0:0:
120,199,135350,2,0,L|154:237,1,44.0000013427735,14|0,3:2|0:0,0:0:0:0:
313,270,135516,5,6,2:3:0:0:
313,270,135599,1,4,2:3:0:0:
313,270,135681,2,0,B|348:241|399:252|399:252|443:281|489:247,1,176.000005371094,4|8,1:2|3:2,2:0:0:0:
366,342,136179,1,2,2:0:0:0:
442,152,136344,1,0,1:0:0:0:
491,354,136510,1,2,2:0:0:0:
471,330,136593,1,2,0:0:0:0:
448,308,136676,1,8,3:2:0:0:
224,228,136842,1,2,2:0:0:0:
419,63,137007,6,0,P|414:118|420:179,1,88.000002685547,2|0,1:2|2:0,2:0:0:0:
195,99,137339,2,0,P|257:85|294:74,1,88.000002685547,10|0,3:2|2:0,2:0:0:0:
85,26,137670,1,2,1:2:0:0:
184,227,137836,1,0,2:0:0:0:
213,7,138002,1,8,3:2:0:0:
45,118,138168,5,2,1:2:0:0:
45,118,138250,1,2,0:0:0:0:
45,118,138333,2,0,P|85:150|191:232,1,176.000005371094,2|8,1:2|3:2,2:0:0:0:
209,357,138831,1,0,2:0:0:0:
59,348,138996,2,0,P|65:303|69:249,1,88.000002685547,6|4,1:3|1:3,0:0:0:0:
222,147,139328,2,0,P|194:205|175:243,1,88.000002685547,10|0,3:2|1:0,0:0:0:0:
183,226,139576,5,0,1:0:0:0:
183,226,139659,1,6,1:2:0:0:
66,101,139825,1,0,1:2:0:0:
324,168,139991,1,8,2:0:0:0:
215,22,140157,2,0,P|194:90|169:167,1,132.00000402832,6|0,1:2|1:0,2:0:0:0:
139,234,140488,5,8,2:0:0:0:
139,234,140571,1,8,0:0:0:0:
139,234,140654,2,0,L|86:225,1,44.0000013427735,8|8,2:0|2:0,0:0:0:0:
154,355,140820,2,0,L|207:332,1,44.0000013427735,8|8,2:0|2:0,0:0:0:0:
256,240,140985,6,0,P|320:226|376:259,1,132.00000402832,4|0,1:2|2:0,2:0:0:0:
441,319,141317,2,0,P|459:280|478:240,1,88.000002685547,12|0,3:2|2:0,0:0:0:0:
359,46,141648,2,0,P|366:89|374:132,1,88.000002685547,2|0,1:2|2:0,0:0:0:0:
510,116,141980,1,8,3:2:0:0:
332,246,142146,5,2,2:0:0:0:
332,246,142228,1,2,2:0:0:0:
332,246,142311,2,0,P|397:216|422:204,1,88.000002685547,2|0,1:2|2:0,0:0:0:0:
242,323,142643,2,0,P|219:268|200:232,1,88.000002685547,8|0,3:2|2:0,2:0:0:0:
56,112,142974,1,2,1:2:0:0:
72,330,143140,1,0,0:0:0:0:
156,99,143306,1,8,3:2:0:0:
0,254,143471,6,0,P|45:235|92:217,1,88.000002685547,2|0,2:0|1:0,2:0:0:0:
62,39,143803,1,2,2:0:0:0:
236,105,143969,2,0,P|175:85|77:138,1,176.000005371094,10|0,3:2|1:0,2:0:0:0:
254,10,144466,1,0,0:0:0:0:
176,200,144632,1,10,3:2:0:0:
107,6,144797,1,10,2:3:0:0:
367,86,144963,6,0,P|335:113|296:147,1,88.000002685547,14|0,2:0|1:0,0:0:0:0:
448,210,145295,1,2,1:2:0:0:
463,28,145460,2,0,P|410:4|368:-14,1,88.000002685547,10|0,2:0|2:0,2:0:0:0:
327,211,145792,5,10,2:0:0:0:
365,191,145874,1,8,2:0:0:0:
409,190,145957,1,10,2:3:0:0:
448,210,146040,1,8,2:3:0:0:
474,245,146123,1,4,2:3:0:0:
482,288,146206,1,4,2:3:0:0:
469,329,146289,6,0,P|422:317|380:303,1,88.000002685547,4|0,1:2|1:0,0:0:0:0:
156,248,146621,5,10,2:0:0:0:
369,107,146786,1,0,1:0:0:0:
194,328,146952,5,10,2:0:0:0:
409,190,147118,1,0,1:0:0:0:
149,125,147284,5,8,2:0:0:0:
283,365,147449,1,0,1:0:0:0:
283,365,147532,1,0,1:0:0:0:
283,365,147615,6,0,P|291:318|287:272,1,88.000002685547,12|0,2:0|1:0,0:0:0:0:
138,214,147947,5,10,2:0:0:0:
409,190,148112,1,0,1:0:0:0:
160,67,148278,6,0,L|146:140,2,58.6666684570313,10|8|8,1:3|1:3|2:3,0:0:0:0:
276,200,148610,6,0,L|264:142,2,58.6666684570313,8|4|4,2:3|2:3|2:3,0:0:0:0:
350,54,148941,6,0,P|396:51|437:54,1,88.000002685547,6|0,1:2|0:0,0:0:0:0:
135,195,149273,5,8,1:2:0:0:
282,337,149438,1,10,1:2:0:0:
320,128,149604,1,8,1:2:0:0:
107,290,149770,1,8,1:2:0:0:
377,336,149936,1,10,1:2:0:0:
169,113,150101,1,10,1:2:0:0:
493,191,150267,6,0,B|396:162|396:162|357:183|373:236,1,160,6|2,1:2|2:0,2:0:0:0:
321,87,150764,2,0,P|371:58|404:39,1,80,8|0,1:3|0:0,2:0:0:0:
234,18,151096,1,8,2:3:0:0:
233,131,151262,2,4,P|283:155|319:176,1,80,6|4,2:3|2:3,2:3:0:0:
310,210,151510,5,4,2:3:0:0:
310,210,151593,2,0,B|264:182|211:223|211:223|194:219|194:219|131:285|20:216|20:216|-45:296|-23:349|24:360,1,480,4|0,1:2|0:0,0:0:0:0:
116,159,153748,5,0,1:0:0:0:
116,159,153831,1,0,1:0:0:0:
116,159,153913,2,0,P|126:103|140:26,1,120.000004577637,4|0,1:2|0:0,0:0:0:0:
288,91,154576,2,0,P|298:150|309:209,1,120.000004577637,4|0,2:3|0:0,0:0:0:0:
411,326,155239,1,8,2:0:0:0:
497,135,155405,6,0,B|456:114|456:114|380:153,1,120,12|0,1:2|0:0,2:0:0:0:
309,209,155737,1,8,2:0:0:0:
388,45,155902,1,8,1:2:0:0:
435,246,156068,1,8,1:2:0:0:
228,110,156234,1,8,1:2:0:0:
123,327,156400,5,8,2:0:0:0:
161,316,156482,1,8,2:0:0:0:
198,327,156565,1,10,2:3:0:0:
230,351,156648,1,0,0:0:0:0:
270,354,156731,1,4,2:3:0:0:
307,341,156814,1,4,2:3:0:0:
339,316,156897,6,0,B|362:272|332:230|332:230|269:210|275:149,1,191.999994140625,4|10,1:2|2:0,2:0:0:0:
273,124,157311,1,2,2:0:0:0:
273,124,157394,2,0,L|320:109,1,47.9999985351563,2|2,0:2|0:2,0:0:0:0:
175,53,157560,1,2,1:2:0:0:
202,228,157726,1,0,2:0:0:0:
270,42,157891,1,10,3:2:0:0:
92,112,158057,6,0,P|136:131|191:152,1,95.9999970703126,2|2,2:0|1:2,0:0:0:0:
40,31,158389,1,0,2:0:0:0:
39,204,158554,1,8,3:2:0:0:
130,43,158720,2,0,P|176:22|258:92,1,160,2|2,1:2|2:0,2:0:0:0:
256,80,159134,1,2,0:0:0:0:
256,80,159217,1,8,3:2:0:0:
422,77,159383,5,2,0:0:0:0:
422,77,159466,1,2,2:0:0:0:
422,77,159549,2,0,P|383:111|348:142,1,80,2|0,1:2|0:0,0:0:0:0:
305,246,159880,2,0,P|357:239|400:231,1,80,10|0,3:2|2:0,0:0:0:0:
297,338,160212,1,2,1:2:0:0:
437,295,160378,1,2,1:2:0:0:
247,188,160543,1,8,3:2:0:0:
381,376,160709,6,0,B|416:334|416:334|380:223,1,160,12|4,1:2|2:3,2:0:0:0:
318,74,161206,1,8,3:2:0:0:
234,277,161372,2,0,P|275:281|321:285,1,80,12|0,1:2|0:0,2:0:0:0:
115,351,161704,1,0,1:0:0:0:
115,351,161786,1,0,1:0:0:0:
115,351,161869,6,0,B|54:320|78:246|78:246|128:232|144:189,1,207.999990478516,12|0,1:2|1:2,2:0:0:0:
167,63,162366,1,0,0:0:0:0:
43,64,162532,2,0,B|30:121|30:121|60:155,1,103.999995239258,8|2,3:2|2:0,0:0:0:0:
143,25,162864,1,2,1:2:0:0:
208,142,163029,1,2,2:0:0:0:
43,64,163195,1,10,3:2:0:0:
256,35,163361,5,2,2:0:0:0:
256,35,163444,1,2,2:0:0:0:
256,35,163527,2,0,P|321:31|366:83,1,120,2|0,1:2|0:0,2:0:0:0:
291,107,163858,1,8,3:2:0:0:
458,22,164024,5,2,2:0:0:0:
458,22,164107,1,2,2:0:0:0:
458,22,164190,2,0,P|447:61|458:93,1,40,10|2,2:0|2:0,0:0:0:0:
485,211,164355,5,10,1:3:0:0:
485,211,164438,1,8,2:3:0:0:
485,211,164521,2,0,P|446:200|414:211,1,40,8|8,2:3|2:3,2:0:0:0:
291,107,164687,5,4,2:3:0:0:
291,107,164770,1,4,2:3:0:0:
291,107,164853,1,6,1:2:0:0:
334,310,165018,1,0,1:0:0:0:
396,132,165184,1,8,3:2:0:0:
203,249,165350,6,0,B|172:223|131:236|131:236|109:278|39:280,1,160,4|0,1:2|1:0,2:0:0:0:
197,344,165847,1,8,3:2:0:0:
64,197,166013,2,0,P|87:137|119:31,1,160,4|0,1:2|1:0,2:0:0:0:
263,65,166510,1,8,3:2:0:0:
201,265,166676,2,0,P|193:304|197:348,1,80,4|2,1:2|2:0,0:0:0:0:
306,139,167007,6,0,L|347:102,1,40,2|2,1:2|2:0,2:0:0:0:
306,247,167173,2,0,L|348:263,1,40,10|10,2:0|2:3,2:0:0:0:
201,265,167339,2,0,L|194:320,1,40,4|4,2:3|2:3,2:0:0:0:
203,108,167505,5,4,1:2:0:0:
289,332,167670,1,0,1:0:0:0:
66,340,167836,1,8,3:2:0:0:
203,108,168002,6,0,P|148:128|80:96,1,120,4|0,1:2|0:0,2:0:0:0:
151,45,168333,1,0,1:0:0:0:
201,265,168499,6,0,B|246:265|275:295|275:295|284:254|318:232,1,160,12|4,1:2|0:3,2:0:0:0:
426,121,168996,1,4,2:3:0:0:
246,75,169162,6,0,L|222:124,1,40,0|0,1:0|1:0,0:0:0:0:
157,182,169328,2,0,L|143:137,1,40,0|0,1:0|1:0,0:0:0:0:
151,45,169494,2,0,P|104:63|26:78,1,120,8|8,2:3|2:0,0:0:0:0:
120,333,169991,5,4,2:3:0:0:
109,340,170074,1,0,1:0:0:0:
100,345,170157,1,8,0:2:0:0:
45,29,170985,5,0,1:0:0:0:
92,198,171151,1,8,2:0:0:0:
208,72,171317,2,0,B|158:59|158:59|75:110,1,120,4|0,1:2|0:0,0:0:0:0:
38,135,171648,1,0,1:0:0:0:
282,23,171814,2,0,B|304:77|269:127|269:127|300:114|329:114,1,160,12|0,1:2|1:0,2:0:0:0:
480,178,172311,5,8,2:0:0:0:
480,178,172394,1,8,2:0:0:0:
480,178,172477,2,0,P|442:184|415:200,1,40,8|8,2:3|2:3,0:0:0:0:
353,308,172643,2,0,P|408:299|421:291,1,40,4|4,2:3|2:3,0:0:0:0:
230,366,172808,6,0,P|246:319|278:212,1,160,6|8,1:2|2:0,2:0:0:0:
133,167,173306,2,0,P|167:221|180:247,1,80,2|0,1:2|2:0,2:0:0:0:
240,109,173637,2,0,P|296:92|324:84,1,80,2|8,1:2|2:0,2:0:0:0:
138,40,173969,6,0,P|66:50|32:126,1,160,2|2,1:2|1:2,2:0:0:0:
114,234,174466,1,14,2:0:0:0:
0,205,174632,1,0,2:0:0:0:
160,137,174797,5,8,2:0:0:0:
199,131,174879,1,8,2:0:0:0:
236,144,174962,1,8,2:3:0:0:
262,175,175045,1,0,1:0:0:0:
270,213,175129,6,0,L|315:188,1,51.999997619629,8|8,2:0|2:0,2:0:0:0:
418,107,175295,2,0,L|360:74,1,51.999997619629,8|8,2:0|2:0,2:0:0:0:
445,245,175460,5,12,1:2:0:0:
37,325,176289,5,8,2:0:0:0:
244,245,176455,1,8,2:0:0:0:
122,171,176621,6,0,P|127:220|145:343,1,160,4|0,1:2|1:0,2:0:0:0:
39,83,177118,2,0,P|111:88|228:92,1,160,12|8,2:0|2:0,2:0:0:0:
239,84,177532,1,8,2:0:0:0:
239,84,177615,2,0,L|228:139,1,40,8|8,2:3|2:3,2:0:0:0:
166,282,177781,2,0,L|223:266,1,40,8|8,2:0|2:0,0:0:0:0:
369,264,177947,2,0,L|330:230,1,40,8|8,2:0|2:0,0:0:0:0:
239,84,178112,5,6,1:2:0:0:
401,72,178278,1,2,1:2:0:0:
256,202,178444,1,8,2:0:0:0:
481,181,178610,2,0,P|423:185|369:280,1,160,6|2,1:2|1:2,2:0:0:0:
229,360,179107,1,8,2:0:0:0:
251,121,179273,6,0,P|263:173|288:283,1,160,6|2,1:2|1:2,2:0:0:0:
292,313,179687,1,2,0:0:0:0:
292,313,179770,1,10,2:0:0:0:
356,101,179936,1,6,1:2:0:0:
183,256,180101,5,8,2:0:0:0:
152,231,180183,1,8,2:0:0:0:
138,194,180266,1,8,2:0:0:0:
143,155,180349,1,8,2:0:0:0:
168,124,180433,2,0,L|160:74,1,40,10|8,2:0|2:0,2:0:0:0:
294,20,180599,2,0,L|287:59,1,40,8|8,2:3|2:3,2:0:0:0:
255,192,180764,6,0,P|301:166|336:149,1,80,14|0,1:2|1:0,0:0:0:0:
480,276,181096,5,12,1:2:0:0:
408,58,181262,1,0,1:0:0:0:
326,266,181427,5,12,1:2:0:0:
512,123,181593,1,0,1:0:0:0:
501,101,181676,1,0,1:0:0:0:
490,79,181759,5,12,1:2:0:0:
393,328,181925,1,0,1:0:0:0:
258,135,182090,5,12,1:2:0:0:
475,250,182256,1,0,1:0:0:0:
267,336,182422,5,8,2:0:0:0:
357,119,182587,1,0,1:0:0:0:
123,188,182753,5,8,2:0:0:0:
326,266,182919,1,0,1:0:0:0:
323,242,183002,1,0,1:0:0:0:
318,218,183085,5,8,2:0:0:0:
98,288,183250,1,8,2:3:0:0:
166,80,183416,6,0,B|206:37|265:57|265:57|288:106|346:109,1,192,4|8,1:2|1:3,2:0:0:0:
328,106,184245,5,8,2:3:0:0:
373,176,184411,1,4,2:3:0:0:
419,244,184576,1,4,2:3:0:0:
174,355,184742,6,0,B|137:332|111:257|163:193|234:220|234:220|329:194|366:283|276:354|276:354|267:322|239:296,1,512,4|6,1:2|0:0,0:0:0:0:
37,33,192698,6,0,P|85:38|174:46,1,128,4|8,0:0|1:3,0:0:0:0:
248,44,193195,2,0,P|230:103|221:129,1,80,8|2,2:3|2:0,2:0:0:0:
222,225,193527,5,4,1:3:0:0:
312,174,193692,1,6,2:3:0:0:
394,110,193858,1,2,1:2:0:0:
292,271,194024,5,12,1:2:0:0:
219,126,194190,1,0,1:0:0:0:
393,192,194355,1,8,1:2:0:0:
133,144,194521,5,8,1:2:0:0:
337,58,194687,1,8,1:2:0:0:
188,255,194853,1,8,1:2:0:0:
150,16,195018,1,8,1:2:0:0:
359,267,195184,5,8,1:2:0:0:
359,267,195267,1,0,1:0:0:0:
359,267,195350,1,12,1:2:0:0:
3,117,196013,5,8,2:0:0:0:
41,112,196095,1,0,1:0:0:0:
80,124,196178,1,8,2:3:0:0:
118,135,196261,1,0,1:0:0:0:
157,130,196344,2,0,L|135:85,1,40,8|8,2:0|2:0,0:0:0:0:
267,29,196510,2,0,L|284:64,1,40,8|8,2:0|2:0,0:0:0:0:
389,145,196676,6,0,B|335:157|335:157|313:192|313:192|254:205,1,155.999992858887,4|0,1:2|2:0,2:0:0:0:
151,218,197007,2,0,P|179:265|208:313,1,88.000002685547,12|0,3:2|2:0,2:0:0:0:
5,205,197339,1,2,1:2:0:0:
183,103,197505,1,0,2:0:0:0:
64,294,197670,1,8,3:2:0:0:
103,61,197836,5,2,2:0:0:0:
103,61,197919,1,2,2:0:0:0:
103,61,198002,2,0,P|155:74|204:86,1,88.000002685547,2|0,1:2|2:0,0:0:0:0:
389,18,198333,2,0,P|350:56|349:101,1,88.000002685547,10|0,3:2|2:0,2:0:0:0:
387,257,198665,1,2,1:2:0:0:
418,102,198831,1,0,0:0:0:0:
252,236,198996,1,10,3:2:0:0:
508,176,199162,6,0,P|455:187|411:196,1,88.000002685547,2|0,2:0|1:0,2:0:0:0:
235,76,199494,1,2,2:0:0:0:
252,236,199659,2,0,P|285:185|354:73,1,176.000005371094,10|0,3:2|1:0,2:0:0:0:
139,18,200157,1,0,0:0:0:0:
193,188,200322,1,10,3:2:0:0:
294,7,200488,1,2,2:0:0:0:
42,104,200654,6,0,P|84:109|148:114,1,88.000002685547,6|0,1:2|2:0,0:0:0:0:
259,124,200985,1,10,2:0:0:0:
35,289,201151,2,0,P|56:233|67:199,1,88.000002685547,6|0,1:2|2:0,0:0:0:0:
384,134,201483,5,2,1:2:0:0:
345,115,201565,1,0,1:0:0:0:
301,111,201648,1,10,2:0:0:0:
259,124,201731,1,8,2:0:0:0:
225,151,201814,1,8,2:3:0:0:
203,189,201897,1,4,2:3:0:0:
196,233,201980,6,0,P|187:277|193:321,1,88.000002685547,12|0,1:2|1:0,0:0:0:0:
345,115,202311,5,10,2:0:0:0:
269,341,202477,1,0,1:0:0:0:
490,194,202643,5,10,2:0:0:0:
259,124,202808,1,0,1:0:0:0:
447,82,202974,5,8,2:0:0:0:
352,308,203140,1,0,1:0:0:0:
352,308,203223,1,0,1:0:0:0:
352,308,203306,6,0,P|324:273|285:256,1,88.000002685547,12|0,2:0|1:0,0:0:0:0:
136,344,203637,5,10,2:0:0:0:
259,124,203803,1,0,1:0:0:0:
106,207,203969,5,10,2:0:0:0:
364,196,204134,1,0,1:0:0:0:
142,102,204300,5,8,2:0:0:0:
257,325,204466,1,0,1:0:0:0:
257,325,204549,1,0,1:0:0:0:
257,325,204632,6,0,P|249:282|256:236,1,88.000002685547,14|0,2:0|2:0,0:0:0:0:
254,17,204963,5,8,2:0:0:0:
420,173,205129,1,2,1:2:0:0:
165,124,205295,5,8,2:0:0:0:
361,300,205460,1,0,1:0:0:0:
361,300,205543,1,0,1:0:0:0:
361,300,205626,2,0,L|378:242,1,44.0000013427735,8|8,2:0|2:0,0:0:0:0:
196,152,205792,2,0,L|203:214,1,44.0000013427735,8|8,2:0|2:0,0:0:0:0:
347,101,205958,5,6,1:2:0:0:
254,298,206123,1,0,1:0:0:0:
189,73,206289,1,8,2:0:0:0:
455,156,206455,6,0,P|401:168|358:179,1,88.000002685547,4|0,1:2|2:0,2:0:0:0:
146,77,206786,6,0,P|179:71|209:82,1,44.0000013427735,8|8,2:0|2:0,0:0:0:0:
342,58,206952,2,0,P|348:91|337:121,1,44.0000013427735,8|8,2:3|2:3,0:0:0:0:
350,263,207118,2,0,P|317:269|287:258,1,44.0000013427735,4|4,2:3|2:3,0:0:0:0:
179,342,207284,6,0,B|170:284|170:284|227:200,1,160,4|4,1:2|2:3,2:0:0:0:
185,70,207781,1,8,2:3:0:0:
85,152,207947,2,0,P|127:157|183:64,1,160,12|0,2:0|1:0,0:0:0:0:
379,28,208444,6,0,P|344:74|320:101,1,80,4|0,1:2|0:0,2:0:0:0:
256,302,208775,1,0,1:0:0:0:
143,141,208941,2,0,B|187:111|253:146|253:146|306:210|375:172,1,240,4|4,1:2|2:3,2:0:0:0:
362,178,209521,1,8,2:3:0:0:
362,178,209604,1,8,1:3:0:0:
102,327,209936,6,0,B|88:288|108:249|108:249|108:211|64:181,1,160,6|0,1:2|1:0,2:0:0:0:
16,88,210433,2,0,B|83:72|83:72|144:142,1,160,10|8,1:3|2:3,2:0:0:0:
199,41,210930,1,6,2:3:0:0:
210,205,211096,1,2,2:0:0:0:
304,67,211262,22,0,B|327:44|369:62|369:62|430:37|489:69|487:150|457:168|395:160|370:213|370:213|350:169|285:147,1,442.000008430481,6|0,1:2|0:0,0:0:0:0:
304,67,212422,2,0,P|284:58|273:45,2,34.0000006484985,2|2|2,0:0|0:0|0:0,0:0:0:0:
46,337,213913,5,0,1:0:0:0:
46,337,213996,1,0,1:0:0:0:
46,337,214079,2,0,L|39:288,1,40,8|8,2:0|1:2,0:0:0:0:
173,195,214245,2,0,L|165:247,1,40,8|8,2:0|2:0,0:0:0:0:
176,352,214411,2,0,L|126:324,1,40,8|8,2:3|2:3,0:0:0:0:
30,201,214576,2,0,L|80:192,1,40,8|8,2:0|2:0,0:0:0:0:
249,83,214742,5,8,2:3:0:0:
220,55,214824,1,8,2:3:0:0:
183,41,214907,1,8,2:0:0:0:
143,40,214990,1,0,1:0:0:0:
106,55,215073,1,8,2:0:0:0:
77,82,215156,1,0,1:0:0:0:
59,118,215239,6,0,P|91:154|182:250,1,160,6|14,1:2|3:2,2:0:0:0:
308,148,215737,1,0,2:0:0:0:
346,266,215902,2,0,P|306:292|274:313,1,80,0|0,1:2|2:0,2:0:0:0:
401,366,216234,1,8,3:2:0:0:
339,188,216400,5,6,2:3:0:0:
339,188,216483,1,2,0:0:0:0:
339,188,216565,2,0,P|407:201|446:209,1,80,2|0,1:2|0:0,2:0:0:0:
234,131,216897,2,0,P|244:199|249:227,1,80,10|0,3:2|2:0,0:0:0:0:
344,81,217228,1,2,1:2:0:0:
205,54,217394,1,0,2:0:0:0:
343,193,217560,1,8,3:2:0:0:
288,15,217726,5,2,0:0:0:0:
288,15,217808,1,2,2:0:0:0:
288,15,217891,2,0,P|343:33|376:41,1,80,2|0,1:2|2:0,2:0:0:0:
503,28,218223,2,0,P|478:71|459:104,1,80,10|0,3:2|2:0,0:0:0:0:
428,256,218554,1,2,1:2:0:0:
336,130,218720,1,0,2:0:0:0:
492,196,218886,1,10,3:2:0:0:
286,257,219052,1,6,2:3:0:0:
286,257,219134,1,2,0:0:0:0:
286,257,219217,6,0,B|248:273|243:322|243:322|210:293|167:298,1,160,2|10,1:2|3:2,2:0:0:0:
47,347,219715,1,0,2:0:0:0:
82,132,219880,5,8,1:2:0:0:
125,132,219962,1,8,2:0:0:0:
166,148,220045,1,8,2:0:0:0:
200,176,220128,1,8,2:0:0:0:
214,217,220211,1,4,2:3:0:0:
244,248,220294,1,4,2:3:0:0:
286,257,220377,1,4,2:3:0:0:
327,243,220460,1,4,2:3:0:0:
358,211,220543,6,0,P|355:150|349:73,1,132.00000402832,4|0,1:2|2:0,2:0:0:0:
345,34,220875,2,0,P|390:50|438:66,1,88.000002685547,14|0,3:2|2:0,0:0:0:0:
223,5,221206,2,0,P|247:53|266:93,1,88.000002685547,2|0,1:2|2:0,0:0:0:0:
184,186,221538,1,10,3:2:0:0:
103,73,221704,1,0,2:0:0:0:
56,296,221869,6,0,B|85:274|100:245|100:245|137:236|137:236|153:199|183:185,1,176.000005371094,6|8,1:2|3:2,2:0:0:0:
152,326,222366,1,0,2:0:0:0:
31,193,222532,1,2,1:2:0:0:
227,262,222698,1,0,2:0:0:0:
47,328,222864,1,10,3:2:0:0:
259,165,223029,5,2,2:0:0:0:
259,165,223112,1,2,0:0:0:0:
259,165,223195,2,0,P|325:159|369:153,1,88.000002685547,6|0,1:2|0:0,2:0:0:0:
482,95,223527,2,0,P|463:146|447:185,1,88.000002685547,10|0,3:2|2:0,0:0:0:0:
341,267,223858,1,2,1:2:0:0:
470,278,224024,1,0,0:0:0:0:
346,156,224190,2,0,P|335:103|325:50,1,88.000002685547,10|2,3:2|2:0,0:0:0:0:
315,45,224438,1,2,0:0:0:0:
315,45,224521,1,2,1:2:0:0:
341,267,224687,5,8,2:0:0:0:
313,288,224769,1,8,2:0:0:0:
280,300,224852,1,8,2:0:0:0:
245,300,224935,1,8,2:0:0:0:
211,290,225018,1,8,1:2:0:0:
182,272,225101,1,8,2:0:0:0:
165,241,225184,1,8,1:2:0:0:
139,218,225267,1,8,2:0:0:0:
105,211,225349,1,8,1:2:0:0:
72,224,225432,1,8,2:0:0:0:
50,250,225515,1,8,2:0:0:0:
42,284,225598,1,8,2:0:0:0:
49,318,225681,1,8,2:0:0:0:
68,348,225764,1,8,2:0:0:0:
91,366,225841,5,4,1:2:0:0:
105,211,226006,1,0,1:0:0:0:
199,329,226172,1,0,1:0:0:0:
42,284,226338,1,0,1:0:0:0:
212,155,226503,2,0,P|196:209|186:244,1,80,8|0,2:0|2:0,2:0:0:0:
352,36,226835,5,0,1:0:0:0:
315,204,227001,1,0,1:0:0:0:
443,109,227166,1,0,1:0:0:0:
267,75,227332,1,0,1:0:0:0:
410,201,227498,1,8,2:0:0:0:
165,158,227664,6,0,B|141:143|137:105|137:105|204:14,1,155.999992858887,4|0,1:2|2:0,2:0:0:0:
267,75,227995,1,8,1:2:0:0:
163,252,228161,2,0,P|95:303|21:262,1,180.000006866455,8|0,1:2|2:0,2:0:0:0:
92,226,228484,5,4,1:2:0:0:
255,362,228649,1,0,1:0:0:0:
160,178,228815,1,0,1:0:0:0:
350,244,228981,2,0,P|301:266|270:278,1,80,0|8,1:0|1:2,2:0:0:0:
276,275,229478,5,4,1:2:0:0:
349,78,229644,1,0,1:0:0:0:
370,317,229809,1,0,1:0:0:0:
242,135,229975,2,0,P|294:159|323:172,1,80,0|8,1:0|1:2,0:0:0:0:
107,63,230307,6,0,P|72:126|118:197,1,155.999992858887,4|0,1:2|2:0,2:0:0:0:
151,124,230638,1,0,1:0:0:0:
81,310,230804,6,0,B|129:329|165:291|152:285|189:243|244:265,1,180.000006866455,8|0,1:2|2:0,2:0:0:0:
398,197,231135,6,1,B|411:182|419:163|419:163|380:155|348:171|348:171|329:141|293:133|293:133|274:163|279:198|279:198|279:198|279:198|247:210|227:240|227:240|249:269|284:274|284:274|284:309|307:338|307:338|342:323|357:293|357:293|357:293|357:293|390:303|426:290|426:290|422:254|398:230|398:230|467:245|500:224|522:142|494:86|429:65|368:91|368:91|322:46|209:21|204:119|227:207|145:179|120:224|120:224|101:188|-5:215|-40:103|47:45|116:93|116:93|143:73|170:74,1,1632.00000996094,4|0,1:2|0:0,0:0:0:0:
