osu file format v14

[General]
AudioFilename: audio.mp3
AudioLeadIn: 0
PreviewTime: 41951
Countdown: 0
SampleSet: Soft
StackLeniency: 0.7
Mode: 3
LetterboxInBreaks: 0
SpecialStyle: 0
WidescreenStoryboard: 0

[Editor]
Bookmarks: 11275
DistanceSpacing: 1.1
BeatDivisor: 4
GridSize: 4
TimelineZoom: 1

[Metadata]
Title:Aimaimoko
TitleUnicode:アイマイモコ
Artist:Inori Minase
ArtistUnicode:水瀬いのり
Creator:dudehacker
Version:7K NM
Source:徒然チルドレン
Tags:Tsuredure Children Anime FruityEnLoops Tofu1222
BeatmapID:1392155
BeatmapSetID:657205

[Difficulty]
HPDrainRate:7.5
CircleSize:7
OverallDifficulty:7.5
ApproachRate:5
SliderMultiplier:1.4
SliderTickRate:1

[Events]
//Background and Video events
0,0,"bg.jpg",0,0
Video,0,"Tsurezure Children op_v2.avi"
//Break Periods
//Storyboard Layer 0 (Background)
//Storyboard Layer 1 (Fail)
//Storyboard Layer 2 (Pass)
//Storyboard Layer 3 (Foreground)
//Storyboard Sound Samples

[TimingPoints]
503,451.127819548872,4,2,1,15,1,0
3435,-100,4,2,1,45,0,0
42006,-100,4,2,1,65,0,1
56442,-100,4,2,1,15,0,0

[HitObjects]
109,192,503,5,0,0:0:0:0:
182,192,728,1,0,0:0:0:0:
475,192,1179,1,0,0:0:0:0:
109,192,1630,1,0,0:0:0:0:
182,192,1856,1,0,0:0:0:0:
402,192,2307,128,0,3660:0:0:0:0:
36,192,3435,5,2,0:0:0:0:
109,192,3660,1,8,0:0:0:0:
182,192,3660,128,0,4112:0:0:0:0:
329,192,3886,128,2,4112:0:0:0:0:
36,192,4112,1,4,0:0:0:0:
475,192,4112,128,2,4563:0:0:0:0:
402,192,4563,1,8,0:0:0:0:
256,192,4563,1,0,0:0:0:0:
109,192,4788,128,2,5239:0:0:0:0:
182,192,5239,128,2,5690:0:0:0:0:
329,192,5465,1,8,0:0:0:0:
402,192,5465,1,0,0:0:0:0:
475,192,5690,128,2,5916:0:0:0:0:
402,192,5916,128,2,6367:0:0:0:0:
36,192,6367,128,8,6593:0:0:0:0:
256,192,6367,1,0,0:0:0:0:
109,192,6593,128,2,7044:0:0:0:0:
402,192,7044,1,2,0:0:0:0:
182,192,7269,1,8,0:0:0:0:
329,192,7269,1,0,0:0:0:0:
256,192,7721,128,12,7946:0:0:0:0:
329,192,7946,128,2,8172:0:0:0:0:
182,192,8172,128,8,8397:0:0:0:0:
109,192,8397,128,2,8623:0:0:0:0:
329,192,8623,128,8,8848:0:0:0:0:
402,192,8848,128,2,9074:0:0:0:0:
182,192,9074,128,8,9299:0:0:0:0:
109,192,9299,128,2,9525:0:0:0:0:
36,192,9525,128,12,9863:0:0:0:0:
256,192,9863,1,8,0:0:0:0:
329,192,9976,1,0,0:0:0:0:
402,192,10089,1,0,0:0:0:0:
475,192,10202,128,2,10653:0:0:0:0:
182,192,10653,1,2,0:0:0:0:
182,192,10878,1,2,0:0:0:0:
36,192,11330,128,4,11781:0:0:0:0:
475,192,11330,1,2,0:0:0:0:
182,192,11781,1,8,0:0:0:0:
402,192,11781,1,0,0:0:0:0:
109,192,12457,1,2,0:0:0:0:
36,192,12683,1,8,0:0:0:0:
256,192,12683,1,0,0:0:0:0:
329,192,12909,1,0,0:0:0:0:
109,192,13134,1,2,0:0:0:0:
402,192,13134,1,0,0:0:0:0:
182,192,13585,1,8,0:0:0:0:
475,192,13585,1,0,0:0:0:0:
256,192,13811,1,2,0:0:0:0:
109,192,14262,1,2,0:0:0:0:
36,192,14487,1,8,0:0:0:0:
402,192,14487,1,0,0:0:0:0:
256,192,14713,1,0,0:0:0:0:
182,192,14939,1,2,0:0:0:0:
475,192,14939,1,0,0:0:0:0:
36,192,15390,1,8,0:0:0:0:
402,192,15390,1,0,0:0:0:0:
109,192,15615,1,2,0:0:0:0:
329,192,15615,1,0,0:0:0:0:
475,192,16066,1,2,0:0:0:0:
182,192,16292,1,8,0:0:0:0:
402,192,16292,1,0,0:0:0:0:
109,192,16518,1,2,0:0:0:0:
36,192,16743,1,2,0:0:0:0:
329,192,16743,1,0,0:0:0:0:
256,192,17194,1,8,0:0:0:0:
475,192,17194,1,0,0:0:0:0:
182,192,17420,1,2,0:0:0:0:
36,192,17871,1,2,0:0:0:0:
109,192,18096,1,8,0:0:0:0:
329,192,18096,1,0,0:0:0:0:
402,192,18322,1,0,0:0:0:0:
256,192,18548,1,2,0:0:0:0:
475,192,18548,128,4,18773:0:0:0:0:
36,192,18999,1,8,0:0:0:0:
329,192,18999,1,0,0:0:0:0:
182,192,19224,1,0,0:0:0:0:
329,192,19450,1,0,0:0:0:0:
475,192,19675,1,2,0:0:0:0:
256,192,19901,1,8,0:0:0:0:
402,192,19901,1,0,0:0:0:0:
109,192,20127,1,0,0:0:0:0:
329,192,20352,1,2,0:0:0:0:
182,192,20578,1,0,0:0:0:0:
36,192,20803,1,8,0:0:0:0:
256,192,20803,1,0,0:0:0:0:
402,192,21029,1,2,0:0:0:0:
475,192,21254,1,0,0:0:0:0:
256,192,21480,1,2,0:0:0:0:
109,192,21706,1,8,0:0:0:0:
402,192,21706,1,0,0:0:0:0:
182,192,21931,1,0,0:0:0:0:
329,192,22157,1,2,0:0:0:0:
109,192,22608,1,8,0:0:0:0:
475,192,22608,1,0,0:0:0:0:
36,192,22833,1,2,0:0:0:0:
182,192,23059,1,0,0:0:0:0:
329,192,23284,1,2,0:0:0:0:
256,192,23510,1,8,0:0:0:0:
475,192,23510,1,0,0:0:0:0:
402,192,23736,1,0,0:0:0:0:
36,192,23961,128,6,24187:0:0:0:0:
109,192,24187,128,2,24412:0:0:0:0:
402,192,24412,128,8,24638:0:0:0:0:
256,192,24638,128,6,25089:0:0:0:0:
36,192,25089,1,2,0:0:0:0:
475,192,25315,1,8,0:0:0:0:
402,192,25427,1,8,0:0:0:0:
329,192,25540,1,8,0:0:0:0:
36,192,25766,128,2,25991:0:0:0:0:
475,192,25766,1,4,0:0:0:0:
109,192,26217,1,8,0:0:0:0:
402,192,26217,1,0,0:0:0:0:
182,192,26442,1,2,0:0:0:0:
182,192,26893,1,2,0:0:0:0:
109,192,27119,1,8,0:0:0:0:
402,192,27119,1,0,0:0:0:0:
329,192,27345,1,0,0:0:0:0:
256,192,27570,1,2,0:0:0:0:
36,192,27909,1,2,0:0:0:0:
402,192,28021,1,8,0:0:0:0:
475,192,28021,1,0,0:0:0:0:
109,192,28247,1,2,0:0:0:0:
109,192,28698,1,2,0:0:0:0:
402,192,28924,1,8,0:0:0:0:
475,192,28924,1,0,0:0:0:0:
182,192,29149,1,2,0:0:0:0:
182,192,29375,1,2,0:0:0:0:
475,192,29375,1,0,0:0:0:0:
36,192,29826,1,8,0:0:0:0:
109,192,29826,1,0,0:0:0:0:
329,192,30051,1,0,0:0:0:0:
256,192,30277,1,2,0:0:0:0:
36,192,30728,1,8,0:0:0:0:
109,192,30728,1,0,0:0:0:0:
475,192,30954,1,2,0:0:0:0:
475,192,31179,1,2,0:0:0:0:
182,192,31179,1,0,0:0:0:0:
36,192,31630,1,8,0:0:0:0:
402,192,31630,1,0,0:0:0:0:
256,192,31856,1,2,0:0:0:0:
256,192,32081,1,2,0:0:0:0:
329,192,32081,128,4,32307:0:0:0:0:
36,192,32420,1,8,0:0:0:0:
109,192,32420,1,0,0:0:0:0:
402,192,32533,1,8,0:0:0:0:
475,192,32533,1,0,0:0:0:0:
256,192,32758,1,8,0:0:0:0:
182,192,32984,1,4,0:0:0:0:
475,192,32984,128,2,33209:0:0:0:0:
36,192,33435,1,8,0:0:0:0:
109,192,33660,1,2,0:0:0:0:
329,192,33660,1,0,0:0:0:0:
256,192,34112,1,2,0:0:0:0:
182,192,34337,1,8,0:0:0:0:
402,192,34337,1,0,0:0:0:0:
36,192,34563,1,2,0:0:0:0:
36,192,34788,1,2,0:0:0:0:
329,192,34788,1,0,0:0:0:0:
109,192,35239,1,8,0:0:0:0:
402,192,35239,1,0,0:0:0:0:
182,192,35465,1,2,0:0:0:0:
475,192,35465,1,0,0:0:0:0:
256,192,35916,1,8,0:0:0:0:
329,192,36142,1,8,0:0:0:0:
402,192,36142,1,0,0:0:0:0:
109,192,36254,1,8,0:0:0:0:
182,192,36254,1,0,0:0:0:0:
36,192,36593,1,0,0:0:0:0:
475,192,36593,128,4,36818:0:0:0:0:
329,192,36818,1,2,0:0:0:0:
109,192,37044,1,8,0:0:0:0:
182,192,37044,1,0,0:0:0:0:
329,192,37269,1,2,0:0:0:0:
182,192,37495,1,0,0:0:0:0:
109,192,37495,1,8,0:0:0:0:
329,192,37721,1,2,0:0:0:0:
109,192,37946,1,8,0:0:0:0:
182,192,37946,1,0,0:0:0:0:
329,192,38172,1,2,0:0:0:0:
402,192,38397,1,8,0:0:0:0:
36,192,38397,128,4,38623:0:0:0:0:
109,192,38848,1,8,0:0:0:0:
475,192,38848,128,4,39074:0:0:0:0:
329,192,39074,1,2,0:0:0:0:
256,192,39299,1,8,0:0:0:0:
475,192,39525,1,0,0:0:0:0:
402,192,39638,1,8,0:0:0:0:
329,192,39751,1,10,0:0:0:0:
182,192,39976,128,0,40202:0:0:0:30:LR_Drum Hit HAT.wav
109,192,40427,1,0,0:0:0:0:
402,192,40540,1,0,0:0:0:0:
256,192,40878,1,0,0:0:0:0:
36,192,41330,1,2,0:0:0:0:
182,192,41555,1,8,0:0:0:0:
402,192,41555,1,0,0:0:0:0:
329,192,41781,1,2,0:0:0:0:
109,192,42006,1,2,0:0:0:0:
475,192,42006,128,4,42232:0:0:0:0:
182,192,42457,1,8,0:0:0:0:
402,192,42457,1,0,0:0:0:0:
36,192,42683,1,2,0:0:0:0:
402,192,43134,1,2,0:0:0:0:
109,192,43360,1,8,0:0:0:0:
329,192,43360,1,0,0:0:0:0:
256,192,43585,1,2,0:0:0:0:
256,192,43811,1,2,0:0:0:0:
475,192,43811,1,0,0:0:0:0:
109,192,44262,1,8,0:0:0:0:
402,192,44262,1,0,0:0:0:0:
36,192,44487,1,2,0:0:0:0:
475,192,44939,1,2,0:0:0:0:
256,192,45164,1,8,0:0:0:0:
329,192,45164,1,0,0:0:0:0:
182,192,45390,1,2,0:0:0:0:
182,192,45615,1,2,0:0:0:0:
475,192,45615,1,0,0:0:0:0:
256,192,46066,1,8,0:0:0:0:
402,192,46066,1,0,0:0:0:0:
109,192,46292,1,2,0:0:0:0:
36,192,46743,1,2,0:0:0:0:
182,192,46969,1,8,0:0:0:0:
475,192,46969,1,0,0:0:0:0:
329,192,47194,1,2,0:0:0:0:
256,192,47645,1,2,0:0:0:0:
36,192,47871,1,8,0:0:0:0:
182,192,47871,1,0,0:0:0:0:
329,192,48096,1,0,0:0:0:0:
402,192,48209,1,0,0:0:0:0:
475,192,48322,1,2,0:0:0:0:
256,192,48548,1,2,0:0:0:0:
36,192,48773,128,4,48999:0:0:0:0:
182,192,48773,1,0,0:0:0:0:
402,192,48773,1,8,0:0:0:0:
329,192,48999,1,2,0:0:0:0:
329,192,49224,1,2,0:0:0:0:
475,192,49224,128,4,49450:0:0:0:0:
109,192,49675,1,8,0:0:0:0:
402,192,49675,1,0,0:0:0:0:
329,192,49901,1,0,0:0:0:0:
36,192,50127,1,2,0:0:0:0:
109,192,50352,1,2,0:0:0:0:
182,192,50578,1,8,0:0:0:0:
475,192,50578,1,0,0:0:0:0:
402,192,50803,1,2,0:0:0:0:
36,192,51029,1,0,0:0:0:0:
402,192,51029,1,2,0:0:0:0:
256,192,51480,1,8,0:0:0:0:
475,192,51480,1,0,0:0:0:0:
109,192,51706,1,0,0:0:0:0:
182,192,51818,1,8,0:0:0:0:
256,192,51931,1,2,0:0:0:0:
402,192,52157,1,2,0:0:0:0:
182,192,52382,1,8,0:0:0:0:
329,192,52382,1,0,0:0:0:0:
36,192,52608,1,2,0:0:0:0:
36,192,52833,1,2,0:0:0:0:
475,192,52833,128,4,53059:0:0:0:0:
182,192,53284,128,4,53510:0:0:0:0:
329,192,53284,1,8,0:0:0:0:
402,192,53510,1,2,0:0:0:0:
182,192,53736,128,4,53961:0:0:0:0:
329,192,53736,1,8,0:0:0:0:
402,192,53961,1,2,0:0:0:0:
182,192,54187,128,4,54412:0:0:0:0:
329,192,54187,1,8,0:0:0:0:
402,192,54412,1,2,0:0:0:0:
36,192,54638,1,8,0:0:0:0:
475,192,54638,1,4,0:0:0:0:
109,192,54976,1,8,0:0:0:0:
329,192,54976,1,0,0:0:0:0:
182,192,55315,1,8,0:0:0:0:
402,192,55315,1,0,0:0:0:0:
256,192,55540,1,8,0:0:0:0:
475,192,55540,1,0,0:0:0:0:
36,192,55878,1,8,0:0:0:0:
329,192,55878,1,0,0:0:0:0:
402,192,55991,1,8,0:0:0:0:
475,192,56104,1,8,0:0:0:0:
182,192,56217,1,0,0:0:0:0:
256,192,56442,128,0,58247:0:0:0:0:
