osu file format v14

[General]
AudioFilename: audio.mp3
AudioLeadIn: 0
PreviewTime: 41951
Countdown: 0
SampleSet: Soft
StackLeniency: 0.7
Mode: 3
LetterboxInBreaks: 0
SpecialStyle: 0
WidescreenStoryboard: 1

[Editor]
Bookmarks: 11275
DistanceSpacing: 1.1
BeatDivisor: 4
GridSize: 4
TimelineZoom: 1.5

[Metadata]
Title:Aimaimoko
TitleUnicode:アイマイモコ
Artist:Inori Minase
ArtistUnicode:水瀬いのり
Creator:dudehacker
Version:5K HD
Source:徒然チルドレン
Tags:Tsuredure Children Anime FruityEnLoops Tofu1222
BeatmapID:1401040
BeatmapSetID:657205

[Difficulty]
HPDrainRate:8
CircleSize:5
OverallDifficulty:8
ApproachRate:5
SliderMultiplier:1.4
SliderTickRate:1

[Events]
//Background and Video events
0,0,"bg.jpg",0,0
Video,0,"Tsurezure Children op_v2.avi"
//Break Periods
//Storyboard Layer 0 (Background)
//Storyboard Layer 1 (Fail)
//Storyboard Layer 2 (Pass)
//Storyboard Layer 3 (Foreground)
//Storyboard Sound Samples

[TimingPoints]
503,451.127819548872,4,2,1,15,1,0
3435,-100,4,2,1,45,0,0
42006,-100,4,2,1,65,0,1
56442,-100,4,2,1,15,0,0

[HitObjects]
51,192,503,128,0,728:0:0:0:0:
182,192,728,128,0,1179:0:0:0:0:
256,192,1179,128,0,1856:0:0:0:0:
475,192,1179,128,0,1856:0:0:0:0:
51,192,1630,128,0,1856:0:0:0:0:
182,192,1856,128,0,2307:0:0:0:0:
36,192,2307,128,0,3435:0:0:0:0:
358,192,2345,128,0,3435:0:0:0:0:
153,192,3435,5,2,0:0:0:0:
256,192,3435,1,0,0:0:0:0:
256,192,3660,1,8,0:0:0:0:
460,192,3660,1,0,0:0:0:0:
109,192,3736,1,0,0:0:0:0:
36,192,3811,1,0,0:0:0:0:
460,192,3886,1,2,0:0:0:0:
329,192,3961,1,0,0:0:0:0:
256,192,4036,1,0,0:0:0:0:
36,192,4112,1,4,0:0:0:0:
182,192,4112,1,2,0:0:0:0:
475,192,4112,128,0,4563:0:0:0:0:
51,192,4563,1,8,0:0:0:0:
358,192,4563,128,0,4788:0:0:0:0:
153,192,4788,1,2,0:0:0:0:
256,192,4788,128,0,5239:0:0:0:0:
36,192,5239,128,2,5690:0:0:0:0:
358,192,5239,1,0,0:0:0:0:
182,192,5465,1,8,0:0:0:0:
475,192,5465,1,0,0:0:0:0:
402,192,5690,128,2,5916:0:0:0:0:
460,192,5690,1,0,0:0:0:0:
182,192,5916,1,2,0:0:0:0:
256,192,5916,128,0,6367:0:0:0:0:
51,192,6142,1,0,0:0:0:0:
109,192,6367,128,8,6593:0:0:0:0:
475,192,6367,1,0,0:0:0:0:
36,192,6593,128,2,7044:0:0:0:0:
358,192,6593,1,0,0:0:0:0:
182,192,7044,1,2,0:0:0:0:
475,192,7044,1,0,0:0:0:0:
51,192,7269,1,8,0:0:0:0:
329,192,7269,1,0,0:0:0:0:
256,192,7495,1,0,0:0:0:0:
36,192,7721,128,8,7946:0:0:0:0:
475,192,7721,1,4,0:0:0:0:
153,192,7946,1,2,0:0:0:0:
358,192,7946,128,0,8172:0:0:0:0:
153,192,8172,128,8,8397:0:0:0:0:
256,192,8397,1,2,0:0:0:0:
460,192,8397,128,0,8623:0:0:0:0:
36,192,8623,128,8,8848:0:0:0:0:
153,192,8848,1,2,0:0:0:0:
358,192,8848,128,0,9074:0:0:0:0:
153,192,9074,128,8,9299:0:0:0:0:
256,192,9299,1,2,0:0:0:0:
460,192,9299,128,0,9525:0:0:0:0:
36,192,9525,128,4,9863:0:0:0:0:
358,192,9525,1,8,0:0:0:0:
153,192,9863,1,8,0:0:0:0:
460,192,9863,1,0,0:0:0:0:
256,192,9976,1,0,0:0:0:0:
329,192,10089,1,0,0:0:0:0:
475,192,10202,128,2,10653:0:0:0:0:
51,192,10202,128,0,10653:0:0:0:0:
153,192,10653,1,2,0:0:0:0:
358,192,10653,1,0,0:0:0:0:
51,192,10878,1,2,0:0:0:0:
256,192,10878,1,0,0:0:0:0:
329,192,10991,1,0,0:0:0:0:
460,192,11104,1,0,0:0:0:0:
36,192,11330,128,4,11781:0:0:0:0:
182,192,11330,1,2,0:0:0:0:
358,192,11330,1,0,0:0:0:0:
153,192,11781,1,8,0:0:0:0:
460,192,11781,1,0,0:0:0:0:
358,192,12006,128,0,12457:0:0:0:0:
256,192,12119,1,0,0:0:0:0:
51,192,12457,1,2,0:0:0:0:
109,192,12457,1,0,0:0:0:0:
256,192,12683,1,8,0:0:0:0:
475,192,12683,1,0,0:0:0:0:
153,192,12909,1,0,0:0:0:0:
358,192,12909,1,0,0:0:0:0:
36,192,13134,128,2,13585:0:0:0:0:
256,192,13134,1,0,0:0:0:0:
460,192,13360,1,0,0:0:0:0:
402,192,13472,1,0,0:0:0:0:
153,192,13585,1,8,0:0:0:0:
256,192,13585,1,0,0:0:0:0:
51,192,13811,1,2,0:0:0:0:
460,192,13811,128,0,14262:0:0:0:0:
36,192,14262,1,2,0:0:0:0:
358,192,14262,1,0,0:0:0:0:
109,192,14487,1,8,0:0:0:0:
256,192,14487,1,0,0:0:0:0:
358,192,14713,1,0,0:0:0:0:
51,192,14939,1,2,0:0:0:0:
475,192,14939,128,0,15390:0:0:0:0:
153,192,15164,1,0,0:0:0:0:
256,192,15390,1,8,0:0:0:0:
358,192,15390,1,0,0:0:0:0:
51,192,15615,128,2,16066:0:0:0:0:
153,192,15615,1,0,0:0:0:0:
460,192,15841,1,0,0:0:0:0:
402,192,15954,1,0,0:0:0:0:
153,192,16066,1,2,0:0:0:0:
256,192,16066,1,0,0:0:0:0:
402,192,16292,1,8,0:0:0:0:
460,192,16292,1,0,0:0:0:0:
109,192,16518,1,2,0:0:0:0:
256,192,16518,1,0,0:0:0:0:
36,192,16743,128,2,17194:0:0:0:0:
460,192,16743,1,0,0:0:0:0:
256,192,16969,1,0,0:0:0:0:
329,192,17081,1,0,0:0:0:0:
153,192,17194,1,8,0:0:0:0:
475,192,17194,1,0,0:0:0:0:
51,192,17420,1,2,0:0:0:0:
460,192,17420,128,0,17871:0:0:0:0:
358,192,17645,1,0,0:0:0:0:
256,192,17758,1,0,0:0:0:0:
36,192,17871,1,2,0:0:0:0:
153,192,17871,1,0,0:0:0:0:
358,192,18096,1,8,0:0:0:0:
460,192,18096,1,0,0:0:0:0:
256,192,18322,1,0,0:0:0:0:
51,192,18548,1,2,0:0:0:0:
153,192,18548,1,4,0:0:0:0:
475,192,18548,128,0,18773:0:0:0:0:
358,192,18773,1,0,0:0:0:0:
153,192,18999,1,8,0:0:0:0:
256,192,18999,1,0,0:0:0:0:
153,192,19224,1,0,0:0:0:0:
256,192,19337,1,0,0:0:0:0:
358,192,19450,1,0,0:0:0:0:
51,192,19675,1,2,0:0:0:0:
153,192,19675,1,0,0:0:0:0:
256,192,19901,1,8,0:0:0:0:
358,192,19901,1,0,0:0:0:0:
460,192,20127,1,0,0:0:0:0:
51,192,20352,1,2,0:0:0:0:
358,192,20352,1,0,0:0:0:0:
153,192,20578,1,0,0:0:0:0:
36,192,20803,1,8,0:0:0:0:
256,192,20803,1,0,0:0:0:0:
153,192,21029,1,2,0:0:0:0:
460,192,21029,1,0,0:0:0:0:
358,192,21142,1,0,0:0:0:0:
256,192,21254,1,0,0:0:0:0:
51,192,21480,1,2,0:0:0:0:
153,192,21480,1,0,0:0:0:0:
256,192,21706,1,8,0:0:0:0:
329,192,21706,1,0,0:0:0:0:
182,192,21931,1,0,0:0:0:0:
460,192,21931,1,0,0:0:0:0:
36,192,22157,1,2,0:0:0:0:
329,192,22157,128,0,22608:0:0:0:0:
256,192,22382,1,0,0:0:0:0:
182,192,22495,1,0,0:0:0:0:
51,192,22608,1,8,0:0:0:0:
475,192,22608,1,0,0:0:0:0:
36,192,22833,128,2,23284:0:0:0:0:
256,192,22833,1,0,0:0:0:0:
460,192,23059,1,0,0:0:0:0:
256,192,23284,1,2,0:0:0:0:
329,192,23284,1,0,0:0:0:0:
51,192,23510,1,8,0:0:0:0:
109,192,23510,1,0,0:0:0:0:
402,192,23736,1,0,0:0:0:0:
153,192,23961,1,2,0:0:0:0:
256,192,23961,1,4,0:0:0:0:
51,192,24187,1,2,0:0:0:0:
153,192,24187,1,0,0:0:0:0:
51,192,24412,1,8,0:0:0:0:
460,192,24412,1,0,0:0:0:0:
256,192,24638,1,4,0:0:0:0:
358,192,24638,128,2,25089:0:0:0:0:
460,192,24638,1,0,0:0:0:0:
36,192,25089,1,2,0:0:0:0:
460,192,25089,1,0,0:0:0:0:
153,192,25315,1,8,0:0:0:0:
256,192,25315,1,0,0:0:0:0:
358,192,25427,1,8,0:0:0:0:
460,192,25427,1,0,0:0:0:0:
109,192,25540,1,8,0:0:0:0:
256,192,25540,1,0,0:0:0:0:
36,192,25766,1,2,0:0:0:0:
329,192,25766,1,4,0:0:0:0:
475,192,25766,128,0,26217:0:0:0:0:
36,192,26217,1,8,0:0:0:0:
153,192,26217,1,0,0:0:0:0:
256,192,26442,1,2,0:0:0:0:
329,192,26442,128,0,26893:0:0:0:0:
256,192,26893,1,2,0:0:0:0:
475,192,26893,1,0,0:0:0:0:
36,192,27119,1,8,0:0:0:0:
182,192,27119,128,0,27570:0:0:0:0:
402,192,27119,1,0,0:0:0:0:
256,192,27345,1,0,0:0:0:0:
36,192,27570,1,2,0:0:0:0:
475,192,27570,1,0,0:0:0:0:
358,192,27909,1,2,0:0:0:0:
460,192,27909,1,0,0:0:0:0:
109,192,28021,1,8,0:0:0:0:
256,192,28021,1,0,0:0:0:0:
36,192,28247,1,2,0:0:0:0:
475,192,28247,128,0,28698:0:0:0:0:
329,192,28698,1,2,0:0:0:0:
51,192,28698,1,0,0:0:0:0:
109,192,28924,1,0,0:0:0:0:
256,192,28924,1,0,0:0:0:0:
36,192,28924,1,8,0:0:0:0:
402,192,29149,1,2,0:0:0:0:
460,192,29149,1,0,0:0:0:0:
182,192,29375,128,2,29826:0:0:0:0:
475,192,29375,1,0,0:0:0:0:
36,192,29826,1,8,0:0:0:0:
460,192,29826,1,0,0:0:0:0:
402,192,30051,1,0,0:0:0:0:
109,192,30277,1,2,0:0:0:0:
475,192,30277,128,0,30728:0:0:0:0:
36,192,30728,1,8,0:0:0:0:
329,192,30728,1,0,0:0:0:0:
153,192,30954,1,2,0:0:0:0:
256,192,30954,1,0,0:0:0:0:
51,192,31179,128,2,31630:0:0:0:0:
358,192,31179,1,0,0:0:0:0:
402,192,31630,1,8,0:0:0:0:
460,192,31630,1,0,0:0:0:0:
153,192,31856,1,2,0:0:0:0:
256,192,31856,1,0,0:0:0:0:
460,192,32081,128,2,32533:0:0:0:0:
358,192,32081,1,4,0:0:0:0:
51,192,32081,1,0,0:0:0:0:
358,192,32420,1,8,0:0:0:0:
256,192,32420,1,0,0:0:0:0:
153,192,32533,1,8,0:0:0:0:
51,192,32533,1,0,0:0:0:0:
182,192,32758,128,8,32984:0:0:0:0:
256,192,32758,1,0,0:0:0:0:
36,192,32984,1,4,0:0:0:0:
329,192,32984,1,2,0:0:0:0:
475,192,32984,128,0,33435:0:0:0:0:
36,192,33435,1,8,0:0:0:0:
402,192,33435,1,0,0:0:0:0:
109,192,33660,1,2,0:0:0:0:
256,192,33660,128,0,34112:0:0:0:0:
51,192,33886,1,0,0:0:0:0:
402,192,34112,1,2,0:0:0:0:
460,192,34112,1,0,0:0:0:0:
51,192,34337,1,8,0:0:0:0:
182,192,34337,1,0,0:0:0:0:
256,192,34563,1,2,0:0:0:0:
475,192,34563,128,0,34788:0:0:0:0:
109,192,34788,1,2,0:0:0:0:
329,192,34788,128,0,35239:0:0:0:0:
51,192,35239,1,8,0:0:0:0:
153,192,35239,1,0,0:0:0:0:
256,192,35465,128,2,35916:0:0:0:0:
475,192,35465,1,0,0:0:0:0:
153,192,35690,1,0,0:0:0:0:
358,192,35916,1,8,0:0:0:0:
460,192,35916,1,0,0:0:0:0:
402,192,36142,1,8,0:0:0:0:
460,192,36142,1,0,0:0:0:0:
329,192,36254,1,8,0:0:0:0:
460,192,36254,1,0,0:0:0:0:
51,192,36367,1,0,0:0:0:0:
153,192,36480,1,0,0:0:0:0:
256,192,36593,1,4,0:0:0:0:
358,192,36593,1,0,0:0:0:0:
460,192,36818,1,2,0:0:0:0:
51,192,36818,1,0,0:0:0:0:
153,192,37044,1,8,0:0:0:0:
256,192,37044,1,0,0:0:0:0:
51,192,37269,1,2,0:0:0:0:
460,192,37269,1,0,0:0:0:0:
153,192,37495,1,8,0:0:0:0:
256,192,37495,1,0,0:0:0:0:
460,192,37721,1,2,0:0:0:0:
51,192,37721,1,0,0:0:0:0:
153,192,37946,1,8,0:0:0:0:
256,192,37946,1,0,0:0:0:0:
460,192,38172,1,2,0:0:0:0:
51,192,38172,1,0,0:0:0:0:
51,192,38397,128,4,39976:0:0:0:0:
256,192,38397,1,8,0:0:0:0:
358,192,38397,1,0,0:0:0:0:
256,192,38848,1,8,0:0:0:0:
358,192,38848,1,4,0:0:0:0:
153,192,39074,1,2,0:0:0:0:
460,192,39074,1,0,0:0:0:0:
358,192,39299,1,8,0:0:0:0:
460,192,39299,1,0,0:0:0:0:
256,192,39525,1,0,0:0:0:0:
358,192,39638,1,8,0:0:0:0:
460,192,39638,1,0,0:0:0:0:
153,192,39751,1,8,0:0:0:0:
256,192,39751,1,2,0:0:0:0:
358,192,39976,128,0,40202:0:0:0:30:LR_Drum Hit HAT.wav
256,192,39976,1,0,0:0:0:0:
153,192,39976,1,0,0:0:0:0:
51,192,40427,128,0,41330:0:0:0:0:
182,192,40540,128,0,41330:0:0:0:0:
475,192,40878,128,0,41330:0:0:0:0:
256,192,41330,1,2,0:0:0:0:
358,192,41330,1,0,0:0:0:0:
109,192,41555,1,8,0:0:0:0:
256,192,41555,1,0,0:0:0:0:
51,192,41781,1,2,0:0:0:0:
153,192,41781,1,0,0:0:0:0:
51,192,42006,1,4,0:0:0:0:
358,192,42006,1,2,0:0:0:0:
475,192,42006,128,0,42457:0:0:0:0:
182,192,42457,1,8,0:0:0:0:
402,192,42457,1,0,0:0:0:0:
36,192,42683,1,2,0:0:0:0:
256,192,42683,128,0,43134:0:0:0:0:
109,192,43134,1,2,0:0:0:0:
460,192,43134,1,0,0:0:0:0:
51,192,43360,1,8,0:0:0:0:
329,192,43360,1,0,0:0:0:0:
51,192,43585,1,2,0:0:0:0:
256,192,43585,1,0,0:0:0:0:
182,192,43811,128,2,44262:0:0:0:0:
475,192,43811,1,0,0:0:0:0:
256,192,44262,1,8,0:0:0:0:
460,192,44262,1,0,0:0:0:0:
36,192,44487,1,2,0:0:0:0:
329,192,44487,128,0,44939:0:0:0:0:
256,192,44713,1,0,0:0:0:0:
51,192,44939,1,2,0:0:0:0:
475,192,44939,1,0,0:0:0:0:
182,192,45164,1,8,0:0:0:0:
402,192,45164,1,0,0:0:0:0:
256,192,45390,1,2,0:0:0:0:
460,192,45390,1,0,0:0:0:0:
36,192,45615,1,2,0:0:0:0:
153,192,45615,128,0,46066:0:0:0:0:
256,192,45841,1,0,0:0:0:0:
460,192,46066,1,8,0:0:0:0:
358,192,46066,1,0,0:0:0:0:
51,192,46292,1,2,0:0:0:0:
256,192,46292,128,0,46743:0:0:0:0:
329,192,46743,1,2,0:0:0:0:
460,192,46743,1,0,0:0:0:0:
109,192,46969,1,8,0:0:0:0:
256,192,46969,1,0,0:0:0:0:
51,192,47194,1,2,0:0:0:0:
475,192,47194,128,0,47645:0:0:0:0:
36,192,47645,1,2,0:0:0:0:
256,192,47645,1,0,0:0:0:0:
109,192,47871,1,8,0:0:0:0:
329,192,47871,1,0,0:0:0:0:
256,192,48096,1,0,0:0:0:0:
153,192,48209,1,0,0:0:0:0:
51,192,48322,1,2,0:0:0:0:
460,192,48322,1,0,0:0:0:0:
256,192,48548,1,2,0:0:0:0:
402,192,48548,1,0,0:0:0:0:
51,192,48773,1,8,0:0:0:0:
153,192,48773,1,0,0:0:0:0:
475,192,48773,128,4,48999:0:0:0:0:
256,192,48999,1,2,0:0:0:0:
358,192,48999,1,0,0:0:0:0:
153,192,49224,128,4,49450:0:0:0:0:
256,192,49224,1,2,0:0:0:0:
358,192,49224,1,0,0:0:0:0:
51,192,49675,1,8,0:0:0:0:
460,192,49675,1,0,0:0:0:0:
358,192,49901,1,0,0:0:0:0:
256,192,50014,1,0,0:0:0:0:
36,192,50127,1,2,0:0:0:0:
153,192,50127,1,0,0:0:0:0:
51,192,50352,1,2,0:0:0:0:
153,192,50352,1,0,0:0:0:0:
153,192,50578,1,8,0:0:0:0:
256,192,50578,1,0,0:0:0:0:
358,192,50803,1,2,0:0:0:0:
460,192,50803,1,0,0:0:0:0:
358,192,51029,1,2,0:0:0:0:
460,192,51029,1,0,0:0:0:0:
256,192,51029,128,0,51480:0:0:0:0:
182,192,51480,1,8,0:0:0:0:
475,192,51480,1,0,0:0:0:0:
256,192,51706,1,0,0:0:0:0:
182,192,51818,1,8,0:0:0:0:
460,192,51818,1,0,0:0:0:0:
36,192,51931,1,2,0:0:0:0:
329,192,51931,1,0,0:0:0:0:
109,192,52157,1,2,0:0:0:0:
475,192,52157,1,0,0:0:0:0:
51,192,52382,1,8,0:0:0:0:
402,192,52382,1,0,0:0:0:0:
153,192,52608,1,2,0:0:0:0:
256,192,52608,1,0,0:0:0:0:
51,192,52833,128,0,53961:0:0:0:0:
358,192,52833,1,2,0:0:0:0:
460,192,52833,1,4,0:0:0:0:
358,192,53284,1,8,0:0:0:0:
460,192,53284,128,4,53510:0:0:0:0:
153,192,53510,1,2,0:0:0:0:
256,192,53510,1,0,0:0:0:0:
329,192,53736,1,8,0:0:0:0:
460,192,53736,128,4,53961:0:0:0:0:
153,192,53961,1,2,0:0:0:0:
256,192,53961,1,0,0:0:0:0:
329,192,54187,1,8,0:0:0:0:
460,192,54187,128,4,54412:0:0:0:0:
153,192,54412,1,2,0:0:0:0:
256,192,54412,1,0,0:0:0:0:
358,192,54638,1,8,0:0:0:0:
51,192,54638,128,4,54863:0:0:0:0:
109,192,54976,1,8,0:0:0:0:
329,192,54976,1,0,0:0:0:0:
51,192,55089,1,0,0:0:0:0:
256,192,55315,1,8,0:0:0:0:
460,192,55315,1,0,0:0:0:0:
153,192,55540,1,8,0:0:0:0:
358,192,55540,1,0,0:0:0:0:
36,192,55878,1,8,0:0:0:0:
256,192,55878,1,0,0:0:0:0:
402,192,55991,1,8,0:0:0:0:
475,192,56104,1,8,0:0:0:0:
109,192,56217,1,0,0:0:0:0:
256,192,56442,128,0,58247:0:0:0:0:
