osu file format v14

[General]
AudioFilename: audio.mp3
AudioLeadIn: 0
PreviewTime: 41454
Countdown: 0
SampleSet: Soft
StackLeniency: 0.7
Mode: 0
LetterboxInBreaks: 0
WidescreenStoryboard: 0

[Editor]
DistanceSpacing: 0.4
BeatDivisor: 4
GridSize: 32
TimelineZoom: 1

[Metadata]
Title:Aimaimoko (TV Size)
TitleUnicode:アイマイモコ (TV Size)
Artist:Inori Minase
ArtistUnicode:水瀬いのり
Creator:Amats
Version:Insane
Source:徒然チルドレン
Tags:Tsurezure opening Tsuredure Children Chirudoren japanese pop jpop j-pop anime
BeatmapID:3444644
BeatmapSetID:1678075

[Difficulty]
HPDrainRate:5
CircleSize:3.8
OverallDifficulty:7
ApproachRate:8
SliderMultiplier:1.8
SliderTickRate:1

[Events]
//Background and Video events
0,0,"Bg.jpg",0,0
Video,0,"video.mp4"
//Break Periods
//Storyboard Layer 0 (Background)
//Storyboard Layer 1 (Fail)
//Storyboard Layer 2 (Pass)
//Storyboard Layer 3 (Foreground)
//Storyboard Layer 4 (Overlay)
//Storyboard Sound Samples

[TimingPoints]
480,451.127819548872,4,2,1,30,1,0
480,-133.333333333333,4,2,1,30,0,0
2171,-133.333333333333,4,2,1,5,0,0
2284,-133.333333333333,4,2,1,30,0,0
3412,-133.333333333333,4,2,1,50,0,0
4089,-111.111111111111,4,2,1,60,0,0
11307,-125,4,2,1,50,0,0
25743,-117.647058823529,4,2,1,60,0,0
32961,-111.111111111111,4,2,1,70,0,0
38374,-100,4,2,1,70,0,0
41983,-100,4,2,1,70,0,1
52810,-100,4,2,1,70,0,0
58224,-100,4,2,1,5,0,0

[Colours]
Combo1 : 255,192,0
Combo2 : 255,128,255
Combo3 : 255,128,0
Combo4 : 242,24,57

[HitObjects]
48,192,480,6,0,P|43:225|39:258,2,67.5000025749208,2|2|2,0:2|0:2|0:2,0:0:0:0:
104,100,1156,2,0,P|196:84|232:100,1,135.000005149842,2|2,0:2|0:2,0:0:0:0:
336,176,1833,2,0,B|356:144|356:144|336:64,1,101.250003862381,2|0,0:2|0:0,0:0:0:0:
328,52,2284,5,2,0:2:0:0:
256,192,2397,12,0,3412,1:0:0:0:
56,284,3637,5,10,0:0:0:0:
59,259,3749,1,2,0:0:0:0:
62,234,3862,1,2,0:0:0:0:
65,209,3975,1,2,0:0:0:0:
68,184,4089,6,0,P|144:161|216:193,1,161.999995056153,6|10,1:2|0:2,0:0:0:0:
304,296,4765,2,0,B|375:289|375:289|396:295|396:295|480:288,1,161.999995056153,2|2,1:2|1:2,0:0:0:0:
512,148,5442,1,8,0:0:0:0:
416,204,5667,1,2,1:2:0:0:
388,84,5893,6,0,P|392:43|398:3,1,80.9999975280763,2|0,1:2|0:0,0:0:0:0:
240,68,6344,2,0,P|244:108|250:148,1,80.9999975280763,8|2,0:0|1:2,0:0:0:0:
256,172,6683,1,2,0:2:0:0:
256,172,6795,1,2,0:2:0:0:
80,216,7021,1,2,1:2:0:0:
80,216,7134,1,2,0:2:0:0:
80,216,7246,1,10,0:2:0:0:
144,72,7472,1,2,1:2:0:0:
320,316,7698,5,14,0:2:0:0:
256,172,7924,1,0,1:0:0:0:
104,340,8149,2,0,P|144:336|184:330,1,80.9999975280763,10|0,0:2|1:0,0:0:0:0:
396,180,8600,5,10,0:2:0:0:
196,244,8825,1,0,1:0:0:0:
436,376,9051,2,0,P|432:336|426:296,1,80.9999975280763,8|0,0:0|1:0,0:0:0:0:
424,272,9389,1,0,0:0:0:0:
424,272,9502,6,0,P|384:265|344:273,1,80.9999975280763,6|2,1:2|0:2,0:0:0:0:
328,304,9840,1,10,0:2:0:0:
328,304,9953,1,0,0:0:0:0:
256,172,10179,2,0,P|266:84|276:5,1,161.999995056153,6|8,1:2|3:0,0:0:0:0:
392,140,10855,1,4,3:0:0:0:
394,160,10967,1,4,3:0:0:0:
396,180,11080,1,6,3:0:0:0:
264,88,11307,6,0,P|207:94|152:101,1,108,6|0,1:2|0:0,0:0:0:0:
116,108,11758,2,0,P|120:144|125:187,1,72,10|10,0:2|0:2,0:0:0:0:
132,204,12096,1,8,0:0:0:0:
132,204,12209,1,0,1:0:0:0:
12,164,12434,1,2,1:2:0:0:
108,296,12660,2,0,P|144:292|187:286,1,72,10|2,0:2|1:2,0:0:0:0:
268,172,13111,6,0,P|262:212|272:259,1,72,2|0,1:2|0:0,0:0:0:0:
284,276,13449,1,2,0:2:0:0:
284,276,13562,1,8,0:0:0:0:
452,332,13788,2,0,B|484:292|484:292|455:203,1,144,2|0,1:2|1:0,0:0:0:0:
400,80,14464,2,0,P|436:76|479:70,1,72,8|2,0:0|1:2,0:0:0:0:
328,4,14916,5,2,1:2:0:0:
272,128,15141,1,2,0:2:0:0:
216,0,15367,1,10,0:2:0:0:
156,148,15592,2,0,P|160:112|154:77,1,72,2|0,1:2|0:0,0:0:0:0:
24,116,16043,1,2,1:2:0:0:
88,244,16269,2,0,P|123:240|159:236,1,72,8|2,0:0|1:2,0:0:0:0:
272,128,16720,6,0,P|276:163|280:199,1,72,2|0,1:2|0:0,0:0:0:0:
284,228,17058,1,2,0:2:0:0:
284,228,17171,1,8,0:0:0:0:
224,336,17397,2,0,P|292:354|368:312,1,144,2|0,1:2|1:0,0:0:0:0:
452,252,18073,2,0,P|455:287|460:323,1,72,8|2,0:0|1:2,0:0:0:0:
284,228,18525,6,0,P|288:192|292:156,1,72,6|2,1:2|0:2,0:0:0:0:
296,124,18863,1,0,0:0:0:0:
296,124,18976,1,8,0:0:0:0:
460,56,19201,1,2,0:2:0:0:
460,56,19314,1,0,0:0:0:0:
460,56,19427,1,2,1:2:0:0:
392,192,19652,1,2,1:2:0:0:
324,36,19878,2,0,P|288:32|253:38,1,72,8|2,0:0|1:2,0:0:0:0:
196,176,20329,6,0,P|192:140|188:104,1,72,2|0,1:2|0:0,0:0:0:0:
28,36,20780,2,0,P|24:72|20:108,1,72,8|2,0:0|1:2,0:0:0:0:
36,144,21119,1,0,0:0:0:0:
36,144,21231,2,0,P|40:180|44:216,1,72,2|0,0:2|1:0,0:0:0:0:
60,332,21683,1,8,0:0:0:0:
128,224,21908,1,2,0:2:0:0:
176,348,22134,6,0,P|233:342|288:335,1,108,2|0,1:2|0:0,0:0:0:0:
316,332,22585,1,10,0:2:0:0:
240,220,22810,2,0,B|224:184|232:148|264:140|272:112|252:56,1,144,2|2,1:2|1:2,0:0:0:0:
380,20,23487,2,0,P|384:56|388:92,1,72,10|2,0:2|0:2,0:0:0:0:
396,128,23825,1,0,0:0:0:0:
396,128,23938,5,6,1:2:0:0:
259,82,24164,1,2,1:2:0:0:
328,228,24389,1,10,0:2:0:0:
192,148,24615,2,0,P|124:130|59:157,1,144,6|2,1:2|1:2,0:0:0:0:
0,256,25292,1,10,3:2:0:0:
0,256,25404,1,8,3:0:0:0:
0,256,25517,1,8,3:0:0:0:
132,216,25743,6,0,P|137:273|144:330,1,114.750002188683,6|2,1:2|0:2,0:0:0:0:
148,364,26194,2,0,P|185:370|222:360,1,76.5000014591217,8|2,0:0|1:2,0:0:0:0:
328,260,26645,2,0,P|291:250|253:256,1,76.5000014591217,2|2,0:2|1:2,0:0:0:0:
436,332,27096,2,0,P|431:294|426:256,1,76.5000014591217,10|2,0:2|0:2,0:0:0:0:
332,136,27547,6,0,P|369:142|406:132,1,76.5000014591217,2|0,1:2|1:0,0:0:0:0:
440,120,27886,1,0,1:0:0:0:
440,120,27998,1,10,0:2:0:0:
328,16,28224,2,0,L|169:35,1,153.000002918243,2|2,1:2|1:2,2:2:0:0:
40,8,28901,2,0,P|44:45|49:83,1,76.5000014591217,12|0,0:0|1:0,0:0:0:0:
0,212,29352,6,0,P|60:192|128:212,1,114.750002188683,2|2,1:2|0:2,0:0:0:0:
144,216,29803,2,0,P|139:253|134:291,1,76.5000014591217,8|2,0:0|0:2,0:0:0:0:
240,380,30254,2,0,P|244:342|249:304,1,76.5000014591217,2|2,1:2|0:2,0:0:0:0:
348,180,30705,2,0,P|352:218|357:256,1,76.5000014591217,10|0,0:2|1:0,0:0:0:0:
512,240,31156,6,0,P|505:182|500:125,1,114.750002188683,2|2,1:2|0:2,0:0:0:0:
492,80,31607,2,0,P|455:74|418:84,1,76.5000014591217,8|2,0:0|1:2,0:0:0:0:
272,132,32058,2,0,P|268:94|263:56,1,76.5000014591217,6|8,0:2|0:0,0:0:0:0:
256,20,32397,1,8,0:0:0:0:
256,20,32510,2,0,L|200:13,2,38.2500007295609,8|0|10,0:0|0:0|3:0,0:0:0:0:
44,52,32961,6,0,P|34:118|26:190,1,121.499996292114,6|2,1:2|0:2,0:0:0:0:
24,208,33412,1,8,0:0:0:0:
152,84,33637,1,2,1:2:0:0:
273,216,33863,2,0,P|269:175|263:135,1,80.9999975280763,2|0,0:2|1:0,0:0:0:0:
244,16,34314,1,8,0:0:0:0:
152,116,34540,1,2,1:2:0:0:
320,68,34765,6,0,P|360:62|400:58,1,80.9999975280763,2|0,1:2|0:0,0:0:0:0:
436,56,35104,1,2,0:2:0:0:
436,56,35216,1,8,0:0:0:0:
364,176,35442,1,2,1:2:0:0:
500,128,35667,2,0,P|505:168|509:208,1,80.9999975280763,2|8,0:2|0:0,0:0:0:0:
512,252,36006,1,10,0:2:0:0:
512,252,36119,2,0,L|460:258,1,40.4999987640381,8|8,0:0|0:0,0:0:0:0:
364,208,36344,1,2,1:2:0:0:
320,360,36570,5,14,0:2:0:0:
228,136,36795,1,0,1:0:0:0:
92,340,37021,5,12,0:0:0:0:
272,216,37246,1,2,1:2:0:0:
104,52,37472,5,14,0:2:0:0:
180,280,37698,1,0,1:0:0:0:
284,64,37923,5,12,0:0:0:0:
56,164,38149,1,2,1:2:0:0:
320,260,38374,6,0,P|315:215|309:170,1,90,14|0,0:2|1:0,0:0:0:0:
160,32,38825,2,0,P|153:76|149:121,1,90,12|0,0:0|1:0,0:0:0:0:
136,304,39276,5,8,3:0:0:0:
240,148,39502,1,8,0:0:0:0:
240,148,39615,1,8,0:0:0:0:
240,148,39728,1,8,0:0:0:0:
352,372,39953,5,12,0:0:0:0:
68,208,41307,5,2,1:2:0:0:
68,208,41532,2,0,P|72:252|78:297,1,90,10|2,0:2|1:2,0:0:0:0:
0,124,41983,6,0,P|58:95|123:115,1,135,4|0,1:2|0:0,0:0:0:0:
146,134,42434,1,10,0:2:0:0:
252,8,42660,2,0,P|243:79|235:142,1,135,0|0,1:0|0:0,0:0:0:0:
232,176,43111,1,2,1:2:0:0:
348,68,43337,1,10,0:2:0:0:
360,232,43562,1,2,1:2:0:0:
512,160,43788,6,0,P|508:204|502:249,1,90,2|2,1:2|0:2,0:0:0:0:
440,376,44239,1,10,0:2:0:0:
336,256,44464,2,0,B|284:232|240:256|248:284|196:288|156:276,1,180,2|2,1:2|1:2,0:0:0:0:
32,140,45141,1,10,0:2:0:0:
100,220,45367,1,2,1:2:0:0:
172,8,45592,6,0,B|204:44|204:44|172:140,1,135,2|0,1:2|0:0,0:0:0:0:
168,156,46043,1,10,0:2:0:0:
308,40,46269,1,2,1:2:0:0:
308,40,46720,2,0,P|312:84|318:129,1,90,2|8,1:2|0:0,0:0:0:0:
488,208,47171,6,0,P|424:189|362:213,1,135,2|0,1:2|0:0,0:0:0:0:
340,236,47622,1,2,1:2:0:0:
436,328,47848,1,10,0:2:0:0:
300,364,48073,1,2,0:2:0:0:
300,364,48186,1,0,0:0:0:0:
300,364,48299,1,0,1:0:0:0:
248,192,48525,1,0,1:0:0:0:
168,356,48750,2,0,P|124:352|79:346,1,90,12|2,0:0|1:2,0:0:0:0:
4,188,49201,6,0,P|-4:144|8:100,1,90,6|2,1:2|0:2,0:0:0:0:
20,76,49540,1,2,0:2:0:0:
20,76,49652,1,10,0:2:0:0:
104,228,49878,1,10,0:2:0:0:
104,228,49991,1,8,0:0:0:0:
104,228,50104,1,2,1:2:0:0:
156,52,50329,1,0,1:0:0:0:
256,212,50555,2,0,P|300:208|345:202,1,90,10|0,0:2|1:0,0:0:0:0:
512,176,51006,6,0,P|518:131|506:89,1,90,2|0,1:2|0:0,0:0:0:0:
328,24,51457,2,0,P|362:52|406:62,1,90,10|8,0:2|0:0,0:0:0:0:
436,64,51795,1,8,0:0:0:0:
436,64,51908,1,2,1:2:0:0:
380,216,52134,1,0,1:0:0:0:
244,88,52359,2,0,P|199:92|154:98,1,90,10|0,0:2|1:0,0:0:0:0:
56,260,52810,6,0,B|88:224|88:224|56:128,1,135,6|0,1:2|0:0,0:0:0:0:
52,112,53261,5,12,0:0:0:0:
148,304,53487,1,0,1:0:0:0:
244,88,53713,5,12,0:0:0:0:
256,320,53939,1,0,1:0:0:0:
376,124,54164,5,12,0:0:0:0:
140,184,54389,1,2,1:2:0:0:
392,256,54615,6,0,P|387:211|381:166,1,90,6|0,1:2|0:0,0:0:0:0:
376,124,54953,2,0,P|331:117|289:129,1,90,6|0,1:2|0:0,0:0:0:0:
264,144,55292,1,6,1:2:0:0:
128,52,55517,6,0,P|132:96|138:141,1,90,14|4,3:2|3:0,0:0:0:0:
140,184,55855,2,0,P|135:228|129:273,1,90,6|8,3:2|3:0,0:0:0:0:
124,308,56194,1,10,3:0:0:0:
24,160,56419,5,2,0:2:0:0:
256,192,56532,12,0,58224,0:0:0:0:
