osu file format v14

[General]
AudioFilename: audio.mp3
AudioLeadIn: 0
PreviewTime: 41162
Countdown: 0
SampleSet: Soft
StackLeniency: 0.7
Mode: 0
LetterboxInBreaks: 0
WidescreenStoryboard: 0

[Editor]
DistanceSpacing: 3
BeatDivisor: 4
GridSize: 8
TimelineZoom: 1

[Metadata]
Title:Aimaimoko
TitleUnicode:アイマイモコ
Artist:Inori Minase
ArtistUnicode:水瀬いのり
Creator:SolariS
Version:Insane
Source:Tsurezure Children
Tags:
BeatmapID:1372999
BeatmapSetID:648073

[Difficulty]
HPDrainRate:5
CircleSize:4
OverallDifficulty:7
ApproachRate:8.2
SliderMultiplier:1.6
SliderTickRate:1

[Events]
//Background and Video events
0,0,"thumb-1920-836170.png",0,0
Video,0,"Tsurezure Children Opening - Aimai Moko Inori Minase.mp4"
//Break Periods
//Storyboard Layer 0 (Background)
//Storyboard Layer 1 (Fail)
//Storyboard Layer 2 (Pass)
//Storyboard Layer 3 (Foreground)
//Storyboard Sound Samples

[TimingPoints]
553,451.127819548872,4,2,0,40,1,0
2355,-133.333333333333,4,2,0,40,0,0
3257,-100,4,2,0,65,0,0
13859,-83.3333333333333,4,2,0,100,0,0
14310,-100,4,2,0,100,0,0
17468,-83.3333333333333,4,2,0,100,0,0
17918,-100,4,2,0,100,0,0
40701,-66.6666666666667,4,2,0,100,0,0
40926,-100,4,2,0,100,0,0
42054,-100,4,2,0,100,0,1
56490,-133.333333333333,4,2,0,100,0,0
58069,-100,4,2,0,5,0,0

[Colours]
Combo1 : 255,222,121
Combo2 : 94,255,94
Combo3 : 128,185,255
Combo4 : 251,130,241

[HitObjects]
376,62,553,5,2,0:0:0:0:
258,251,778,2,0,P|249:211|271:169,1,80
376,62,1229,1,2,0:0:0:0:
477,196,1680,1,2,0:0:0:0:
349,186,1906,1,0,0:0:0:0:
256,192,2357,12,0,3485,0:0:0:0:
235,350,3710,5,0,0:0:0:0:
266,330,3822,1,0,0:0:0:0:
291,302,3935,1,0,0:0:0:0:
306,268,4048,1,0,0:0:0:0:
311,231,4162,6,0,B|263:155|175:163,1,160,4|8,0:0|0:0,0:0:0:0:
88,201,4838,2,0,B|48:233|65:301,1,80
112,353,5289,1,0,0:0:0:0:
112,353,5515,1,8,0:0:0:0:
207,352,5740,1,0,0:0:0:0:
304,320,5966,6,0,B|376:280|376:280|448:200,1,160,2|8,0:0|0:0,0:0:0:0:
440,96,6643,1,0,0:0:0:0:
440,96,6756,1,0,0:0:0:0:
440,96,6868,1,0,0:0:0:0:
320,56,7094,2,0,P|280:64|240:104,1,80,0|8,0:0|0:0,0:0:0:0:
224,180,7545,1,0,0:0:0:0:
367,273,7771,5,8,0:0:0:0:
159,271,7996,1,0,0:0:0:0:
367,273,8222,1,8,0:0:0:0:
222,123,8447,1,0,0:0:0:0:
367,273,8673,1,8,0:0:0:0:
368,65,8898,1,0,0:0:0:0:
367,273,9124,1,8,0:0:0:0:
201,106,9349,5,0,0:0:0:0:
201,106,9462,1,0,0:0:0:0:
201,106,9575,2,0,B|168:128|168:128|144:184,1,80,8|0,0:0|0:0,0:0:0:0:
152,240,9913,2,0,B|192:256|192:256|206:315,1,80,8|0,0:0|0:0,0:0:0:0:
248,352,10252,2,0,P|320:330|352:252,1,160,4|0,0:0|0:0,0:0:0:0:
266,172,10928,5,8,0:0:0:0:
292,145,11040,1,0,0:0:0:0:
325,128,11153,1,0,0:0:0:0:
362,120,11266,1,0,0:0:0:0:
401,120,11380,6,0,B|443:143|443:143|412:262,1,150,6|10,0:0|0:0,0:0:0:0:
382,344,12056,1,0,0:0:0:0:
314,275,12282,1,0,0:0:0:0:
348,185,12507,1,0,0:0:0:0:
451,241,12733,2,0,B|428:286|363:289,1,80,10|0,0:0|0:0,0:0:0:0:
220,297,13184,6,0,P|194:250|227:146,1,160,4|0,0:0|0:0,0:0:0:0:
288,104,13861,2,0,P|340:135|333:45,1,191.999994140625
213,23,14537,1,2,0:0:0:0:
93,70,14763,1,0,0:0:0:0:
85,197,14989,6,0,P|88:274|110:306,1,80
187,356,15440,1,10,0:0:0:0:
309,298,15665,1,0,0:0:0:0:
309,298,15778,1,0,0:0:0:0:
309,298,15891,1,0,0:0:0:0:
323,171,16116,2,0,L|225:123,1,80,0|10,0:0|0:0,0:0:0:0:
137,74,16568,1,0,0:0:0:0:
172,299,16793,6,0,P|221:290|264:189,1,160,4|0,0:0|0:0,0:0:0:0:
264,121,17470,2,0,P|280:66|339:139,1,191.999994140625
349,257,18146,1,8,0:0:0:0:
264,353,18372,1,0,0:0:0:0:
159,317,18598,6,0,P|148:286|160:222,1,80
178,114,19049,1,8,0:0:0:0:
178,114,19274,1,0,0:0:0:0:
405,102,19500,6,0,P|425:137|428:182,1,80
409,302,19951,1,8,0:0:0:0:
409,302,20177,1,0,0:0:0:0:
181,279,20402,6,0,P|172:245|188:186,1,80,4|0,0:0|0:0,0:0:0:0:
242,89,20853,1,0,0:0:0:0:
366,57,21079,2,0,L|398:140,1,80,4|0,0:0|0:0,0:0:0:0:
445,249,21530,1,0,0:0:0:0:
383,361,21756,1,8,0:0:0:0:
308,256,21981,1,0,0:0:0:0:
312,138,22207,6,0,B|240:154|240:154|240:218|160:234,1,160,12|0,0:0|0:0,0:0:0:0:
143,282,22883,2,0,P|123:315|209:312,1,160
261,222,23560,1,0,0:0:0:0:
148,160,23786,1,0,0:0:0:0:
217,289,24011,5,8,0:0:0:0:
342,261,24237,2,0,L|289:183,1,80
245,134,24688,2,0,P|256:71|340:18,1,160,12|0,0:0|0:0,0:0:0:0:
437,90,25365,1,0,0:0:0:0:
437,90,25477,1,0,0:0:0:0:
437,90,25590,1,0,0:0:0:0:
472,360,25816,6,2,P|430:350|391:296,1,80,6|2,0:0|0:0,0:0:0:0:
387,280,26154,2,0,P|391:270|366:196,1,80
326,165,26492,1,0,0:0:0:0:
117,98,26718,1,0,0:0:0:0:
113,265,26943,1,0,0:0:0:0:
269,205,27169,1,0,0:0:0:0:
269,205,27620,6,2,P|297:232|340:245,1,80,6|2,0:0|0:0,0:0:0:0:
394,171,27959,2,0,B|392:128|392:128|416:88,1,80
336,36,28297,2,0,B|298:15|298:15|175:61,1,160
85,99,28974,1,0,0:0:0:0:
256,272,29425,6,2,P|242:291|253:352,1,80,14|2,0:0|0:0,0:0:0:0:
360,288,29763,2,0,P|377:273|375:203,1,80
352,128,30101,1,0,0:0:0:0:
211,35,30327,2,0,L|186:130,1,80
149,274,30778,1,0,0:0:0:0:
70,295,31229,6,0,P|104:297|150:271,1,80,4|0,0:0|0:0,0:0:0:0:
136,184,31568,2,0,P|176:160|232:168,1,80
283,198,31906,2,0,L|327:118,1,80
379,28,32357,1,0,0:0:0:0:
379,28,32470,1,0,0:0:0:0:
379,28,32583,1,0,0:0:0:0:
453,150,32808,1,0,0:0:0:0:
194,65,33034,5,12,0:0:0:0:
255,246,33259,1,0,0:0:0:0:
81,163,33485,1,8,0:0:0:0:
268,122,33710,1,0,0:0:0:0:
375,277,33936,6,0,P|311:289|288:280,1,80,8|0,0:0|0:0,0:0:0:0:
189,233,34387,1,8,0:0:0:0:
352,112,34613,5,0,0:0:0:0:
352,112,34725,1,0,0:0:0:0:
352,112,34838,1,12,0:0:0:0:
390,300,35064,1,0,0:0:0:0:
220,210,35289,1,8,0:0:0:0:
410,184,35515,1,0,0:0:0:0:
220,210,35740,6,8,P|215:165|231:126,1,80,8|0,0:0|0:0,0:0:0:0:
400,88,36192,1,4,0:0:0:0:
423,120,36304,1,0,0:0:0:0:
446,152,36417,1,0,0:0:0:0:
470,185,36530,1,0,0:0:0:0:
493,218,36643,6,0,B|468:255|468:255|407:277,1,80,4|0,0:0|0:0,0:0:0:0:
323,226,36981,2,0,P|267:226|248:246,1,80
208,312,37319,1,0,0:0:0:0:
136,101,37545,5,4,0:0:0:0:
304,223,37771,1,0,0:0:0:0:
337,34,37996,1,0,0:0:0:0:
189,156,38222,1,0,0:0:0:0:
368,173,38447,5,4,0:0:0:0:
368,173,38673,1,0,0:0:0:0:
205,238,38898,1,0,0:0:0:0:
205,238,39124,1,0,0:0:0:0:
232,88,39349,5,4,0:0:0:0:
232,88,39462,1,0,0:0:0:0:
335,117,39688,1,0,0:0:0:0:
388,204,39801,2,0,P|348:228|284:220,1,80
128,240,40252,5,0,0:0:0:0:
128,240,40477,2,0,L|192:224,1,40
200,216,40703,2,0,P|264:216|312:160,1,120.000004577637
280,48,41380,5,0,0:0:0:0:
471,58,41605,1,8,0:0:0:0:
373,223,41831,1,0,0:0:0:0:
196,240,42056,6,0,P|174:210|235:109,1,160
316,100,42733,1,0,0:0:0:0:
332,194,42959,2,0,L|351:274,2,80
238,215,43635,1,0,0:0:0:0:
243,324,43861,6,0,B|288:318|288:318|376:212,1,160
415,151,44537,1,0,0:0:0:0:
224,126,44989,1,0,0:0:0:0:
151,326,45214,2,0,L|116:217,1,80,8|0,0:0|0:0,0:0:0:0:
88,128,45665,2,0,P|102:88|238:49,1,160,4|8,0:0|0:0,0:0:0:0:
389,127,46342,1,0,0:0:0:0:
372,336,46793,1,0,0:0:0:0:
204,212,47019,5,8,0:0:0:0:
232,352,47244,2,0,P|272:352|320:312,1,80
368,96,47695,1,0,0:0:0:0:
201,221,47921,1,8,0:0:0:0:
407,199,48146,1,0,0:0:0:0:
377,54,48372,5,0,0:0:0:0:
377,54,48485,1,0,0:0:0:0:
377,54,48598,1,0,0:0:0:0:
440,200,48823,1,12,0:0:0:0:
336,320,49049,1,0,0:0:0:0:
336,320,49162,1,0,0:0:0:0:
336,320,49274,6,0,L|253:305,1,80,4|0,0:0|0:0,0:0:0:0:
104,272,49725,1,8,0:0:0:0:
248,168,49951,1,0,0:0:0:0:
240,344,50177,1,0,0:0:0:0:
90,251,50402,1,0,0:0:0:0:
90,251,50515,1,0,0:0:0:0:
90,251,50628,1,8,0:0:0:0:
245,168,50853,1,0,0:0:0:0:
397,300,51079,5,2,0:0:0:0:
397,300,51192,1,0,0:0:0:0:
397,300,51304,1,0,0:0:0:0:
73,252,51530,5,10,0:0:0:0:
73,252,51643,1,0,0:0:0:0:
73,252,51756,1,0,0:0:0:0:
296,41,51981,5,2,0:0:0:0:
296,41,52094,1,0,0:0:0:0:
296,41,52207,1,0,0:0:0:0:
260,329,52432,5,10,0:0:0:0:
260,329,52545,1,0,0:0:0:0:
260,329,52658,1,0,0:0:0:0:
260,329,52771,1,0,0:0:0:0:
260,329,52883,2,0,B|301:335|363:283,1,80,4|0,0:0|0:0,0:0:0:0:
446,137,53334,5,8,0:0:0:0:
205,146,53560,1,0,0:0:0:0:
409,30,53786,1,8,0:0:0:0:
413,269,54011,1,0,0:0:0:0:
234,107,54237,1,8,0:0:0:0:
473,106,54462,1,0,0:0:0:0:
234,107,54688,6,0,P|271:62|318:58,1,80
402,99,55026,2,0,L|367:199,1,80
331,287,55365,1,0,0:0:0:0:
133,175,55590,5,4,0:0:0:0:
133,175,55703,1,0,0:0:0:0:
133,175,55816,1,0,0:0:0:0:
223,146,55928,2,0,P|290:145|330:167,1,80
388,190,56267,1,0,0:0:0:0:
256,192,56492,12,0,58071,0:0:0:0:
