osu file format v14

[General]
AudioFilename: audio.mp3
AudioLeadIn: 0
PreviewTime: 41162
Countdown: 0
SampleSet: Soft
StackLeniency: 0.7
Mode: 0
LetterboxInBreaks: 0
WidescreenStoryboard: 0

[Editor]
DistanceSpacing: 1.2
BeatDivisor: 4
GridSize: 8
TimelineZoom: 1

[Metadata]
Title:Aimaimoko
TitleUnicode:アイマイモコ
Artist:Inori Minase
ArtistUnicode:水瀬いのり
Creator:SolariS
Version:Hard
Source:Tsurezure Children
Tags:
BeatmapID:1372998
BeatmapSetID:648073

[Difficulty]
HPDrainRate:5
CircleSize:3.8
OverallDifficulty:6
ApproachRate:7
SliderMultiplier:1.5
SliderTickRate:1

[Events]
//Background and Video events
0,0,"thumb-1920-836170.png",0,0
Video,0,"Tsurezure Children Opening - Aimai Moko Inori Minase.mp4"
//Break Periods
//Storyboard Layer 0 (Background)
//Storyboard Layer 1 (Fail)
//Storyboard Layer 2 (Pass)
//Storyboard Layer 3 (Foreground)
//Storyboard Sound Samples

[TimingPoints]
553,451.127819548872,4,2,0,40,1,0
2355,-133.333333333333,4,2,0,40,0,0
3257,-100,4,2,0,65,0,0
42054,-100,4,2,0,100,0,1
56490,-100,4,2,0,5,0,0
58295,-100,4,2,0,20,0,0

[Colours]
Combo1 : 255,255,128
Combo2 : 128,255,128
Combo3 : 0,255,255
Combo4 : 255,166,255

[HitObjects]
128,69,553,6,0,P|106:100|109:159,1,75,2|0,0:0|0:0,0:0:0:0:
128,224,1004,1,0,0:0:0:0:
224,152,1229,1,0,0:0:0:0:
128,224,1680,1,0,0:0:0:0:
208,320,1906,1,0,0:0:0:0:
330,325,2357,6,0,B|361:252|443:287|443:287|463:193,1,225.000008583069,2|0,0:0|0:0,0:0:0:0:
481,56,3485,5,0,0:0:0:0:
310,90,3710,1,8,0:0:0:0:
396,218,4162,6,0,B|344:294|344:294|271:308,1,150,0|8,0:0|0:0,0:0:0:0:
198,318,4838,1,0,0:0:0:0:
187,228,5064,2,0,L|176:137,1,75
169,63,5515,1,8,0:0:0:0:
347,88,5966,2,0,P|386:63|391:138,1,150
429,253,6643,5,0,0:0:0:0:
429,253,6756,1,0,0:0:0:0:
429,253,6868,2,0,P|385:270|332:266,1,75
373,182,7319,1,8,0:0:0:0:
357,271,7771,6,0,L|277:295,1,75
197,270,8222,2,0,L|277:246,1,75
303,165,8673,6,0,L|227:189,1,75
287,116,9124,2,8,L|358:92,1,75,8|0,0:0|0:0,0:0:0:0:
469,136,9462,5,0,0:0:0:0:
469,136,9575,2,0,P|492:189|485:216,1,75,8|0,0:0|0:0,0:0:0:0:
460,235,9913,2,0,P|415:230|380:251,1,75
368,284,10252,2,0,B|320:256|320:256|195:259,1,150,8|0,0:0|0:0,0:0:0:0:
135,263,10928,1,0,0:0:0:0:
306,87,11380,5,4,0:0:0:0:
306,87,11605,1,0,0:0:0:0:
335,203,11831,1,8,0:0:0:0:
245,282,12056,2,0,B|209:281|209:281|154:255,2,75
335,203,12733,2,0,P|364:175|407:173,1,75,8|0,0:0|0:0,0:0:0:0:
447,279,13184,6,0,P|402:317|311:317,1,150,0|8,0:0|0:0,0:0:0:0:
301,198,13861,2,0,P|282:138|195:107,1,150
192,224,14537,1,8,0:0:0:0:
261,138,14989,6,0,B|280:104|280:104|344:80,1,75
401,71,15440,1,8,0:0:0:0:
426,157,15665,2,0,P|437:199|362:264,1,150
276,254,16342,1,8,0:0:0:0:
104,309,16793,6,0,P|93:265|136:172,1,150,0|8,0:0|0:0,0:0:0:0:
88,95,17470,2,0,B|132:67|132:67|235:87,1,150
314,110,18146,1,8,0:0:0:0:
475,190,18598,6,0,B|429:276,1,75
393,333,19049,1,8,0:0:0:0:
213,334,19500,2,0,L|272:257,1,75
321,209,19951,1,8,0:0:0:0:
423,99,20402,6,0,P|395:59|298:55,1,150,0|8,0:0|0:0,0:0:0:0:
241,99,21079,1,0,0:0:0:0:
236,188,21304,2,0,B|130:157,1,75
75,145,21756,1,8,0:0:0:0:
149,308,22207,6,0,P|206:237|273:232,1,150
369,111,22883,2,0,B|311:163|227:120,1,150
181,164,23560,2,0,L|170:251,1,75,8|0,0:0|0:0,0:0:0:0:
100,106,24011,5,0,0:0:0:0:
239,67,24237,1,0,0:0:0:0:
264,192,24462,1,8,0:0:0:0:
290,315,24688,2,0,B|249:331|249:331|148:236,1,150,2|0,0:0|0:0,0:0:0:0:
113,189,25365,2,0,L|78:157,2,37.5
253,74,25816,6,0,P|317:86|339:167,1,150,4|0,0:0|0:0,0:0:0:0:
301,223,26492,1,0,0:0:0:0:
227,209,26718,2,0,P|177:211|143:231,1,75
101,274,27169,1,0,0:0:0:0:
226,355,27620,2,0,B|256:311|256:311|246:184,1,150
267,126,28297,2,0,P|336:114|411:149,1,150
469,210,28974,1,0,0:0:0:0:
288,275,29425,6,0,P|245:281|201:335,2,112.5,4|0|0,0:0|0:0|0:0,0:0:0:0:
304,201,30327,2,0,L|318:122,1,75
330,53,30778,1,0,0:0:0:0:
316,167,31229,6,0,P|381:186|454:154,1,150,4|0,0:0|0:0,0:0:0:0:
461,79,31906,1,0,0:0:0:0:
386,83,32131,2,0,L|285:88,1,75,4|0,0:0|0:0,0:0:0:0:
229,46,32583,2,0,L|310:42,1,75
96,96,33034,5,4,0:0:0:0:
116,183,33259,1,0,0:0:0:0:
193,229,33485,1,0,0:0:0:0:
282,220,33710,1,0,0:0:0:0:
327,142,33936,6,0,L|303:54,2,75
358,226,34613,1,0,0:0:0:0:
427,169,34838,5,4,0:0:0:0:
414,258,35064,1,0,0:0:0:0:
356,326,35289,1,0,0:0:0:0:
270,355,35515,1,0,0:0:0:0:
235,272,35740,6,0,P|183:256|137:268,1,75
83,301,36192,1,4,0:0:0:0:
83,301,36304,1,0,0:0:0:0:
83,301,36417,1,0,0:0:0:0:
90,211,36643,6,0,P|109:158|202:120,1,150
279,123,37319,1,0,0:0:0:0:
356,183,37545,2,0,L|288:263,1,75,4|0,0:0|0:0,0:0:0:0:
254,313,37996,1,0,0:0:0:0:
254,313,38109,1,0,0:0:0:0:
254,313,38222,1,0,0:0:0:0:
336,115,38447,6,0,P|384:108|427:132,1,75,4|0,0:0|0:0,0:0:0:0:
349,218,38898,2,0,P|302:231|272:222,1,75
182,195,39349,1,4,0:0:0:0:
132,106,39575,1,0,0:0:0:0:
132,106,39688,1,0,0:0:0:0:
132,106,39801,2,0,P|156:71|192:58,1,75
382,69,40252,5,0,0:0:0:0:
353,152,40477,2,0,L|339:190,1,37.5
272,224,40703,2,0,P|238:240|218:272,1,75
408,149,41380,5,0,0:0:0:0:
258,136,41605,1,0,0:0:0:0:
408,149,41831,1,0,0:0:0:0:
408,149,42056,1,4,0:0:0:0:
408,149,42507,6,0,B|390:263|390:263|344:299,1,150,8|0,0:0|0:0,0:0:0:0:
260,227,43184,2,0,P|216:232|190:262,1,75,0|8,0:0|0:0,0:0:0:0:
170,340,43635,1,0,0:0:0:0:
104,285,43861,2,0,L|43:222,2,75,0|0|8,0:0|0:0|0:0,0:0:0:0:
170,250,44537,2,0,B|186:210|186:210|285:161,1,150
364,126,45214,1,8,0:0:0:0:
321,313,45665,6,0,B|294:274|214:298|190:226,1,150,0|8,0:0|0:0,0:0:0:0:
158,148,46342,1,0,0:0:0:0:
248,32,46793,2,0,P|296:56|336:48,1,75,0|8,0:0|0:0,0:0:0:0:
436,57,47244,1,0,0:0:0:0:
436,57,47470,1,0,0:0:0:0:
451,145,47695,1,0,0:0:0:0:
435,233,47921,2,0,P|403:232|355:186,1,75,8|0,0:0|0:0,0:0:0:0:
309,155,48372,6,0,P|276:147|216:167,1,75
166,197,48823,1,8,0:0:0:0:
336,248,49274,6,0,P|364:222|402:221,2,75,0|0|8,0:0|0:0|0:0,0:0:0:0:
288,320,49951,1,0,0:0:0:0:
175,343,50177,2,0,P|146:297|170:200,1,150,0|8,0:0|0:0,0:0:0:0:
221,118,50853,1,0,0:0:0:0:
392,42,51079,6,0,L|326:123,1,75
370,147,51530,2,0,L|434:107,1,75,8|0,0:0|0:0,0:0:0:0:
453,183,51981,2,0,L|355:210,1,75
373,263,52432,2,0,L|448:262,1,75,8|0,0:0|0:0,0:0:0:0:
406,341,52883,2,0,P|345:358|274:276,1,150
331,104,53560,5,8,0:0:0:0:
390,305,53786,1,4,0:0:0:0:
233,165,54011,1,8,0:0:0:0:
437,215,54237,1,4,0:0:0:0:
234,266,54462,1,8,0:0:0:0:
387,121,54688,6,0,P|423:163|427:197,1,75
414,270,55026,2,0,P|369:263|328:285,1,75
307,302,55365,1,0,0:0:0:0:
218,288,55590,2,0,P|162:258|153:222,1,75
141,161,56041,2,0,L|139:108,2,37.5
256,192,56492,12,0,58297,0:0:0:0:
