osu file format v14

[General]
AudioFilename: audio.mp3
AudioLeadIn: 0
PreviewTime: 41162
Countdown: 0
SampleSet: Soft
StackLeniency: 0.7
Mode: 0
LetterboxInBreaks: 0
WidescreenStoryboard: 0

[Editor]
DistanceSpacing: 3.2
BeatDivisor: 4
GridSize: 8
TimelineZoom: 1

[Metadata]
Title:Aimaimoko
TitleUnicode:アイマイモコ
Artist:Inori Minase
ArtistUnicode:水瀬いのり
Creator:SolariS
Version:Affection
Source:Tsurezure Children
Tags:
BeatmapID:1377667
BeatmapSetID:648073

[Difficulty]
HPDrainRate:6
CircleSize:4.6
OverallDifficulty:8
ApproachRate:9
SliderMultiplier:1.8
SliderTickRate:1

[Events]
//Background and Video events
0,0,"thumb-1920-836170.png",0,0
Video,0,"Tsurezure Children Opening - Aimai Moko Inori Minase.mp4"
//Break Periods
//Storyboard Layer 0 (Background)
//Storyboard Layer 1 (Fail)
//Storyboard Layer 2 (Pass)
//Storyboard Layer 3 (Foreground)
//Storyboard Sound Samples

[TimingPoints]
553,451.127819548872,4,2,0,40,1,0
2355,-133.333333333333,4,2,0,40,0,0
3485,-100,4,2,0,65,0,0
13859,-83.3333333333333,4,2,0,100,0,0
14310,-100,4,2,0,100,0,0
17468,-83.3333333333333,4,2,0,100,0,0
17919,-100,4,2,0,100,0,0
40926,-100,4,2,0,100,0,0
42054,-100,4,2,0,100,0,1
56490,-133.333333333333,4,2,0,100,0,0
58297,-100,4,2,0,5,0,0

[Colours]
Combo1 : 255,222,121
Combo2 : 94,255,94
Combo3 : 128,185,255
Combo4 : 251,130,241

[HitObjects]
232,40,553,6,0,P|184:64|168:104,1,90,2|0,0:0|0:0,0:0:0:0:
164,203,1004,1,0,0:0:0:0:
209,306,1229,6,0,P|249:307|355:218,1,180
361,116,1906,1,0,0:0:0:0:
361,116,2357,2,0,P|353:20|408:130,1,337.500012874604,2|0,0:0|0:0,0:0:0:0:
208,128,3710,5,0,0:0:0:0:
172,155,3822,1,0,0:0:0:0:
153,195,3935,1,0,0:0:0:0:
154,240,4048,1,0,0:0:0:0:
168,280,4162,6,0,P|224:288|272:280,1,90,4|0,0:0|0:0,0:0:0:0:
432,192,4613,1,0,0:0:0:0:
312,120,4838,2,0,P|256:104|216:112,1,90
264,256,5289,1,0,0:0:0:0:
371,111,5515,1,0,0:0:0:0:
191,107,5740,1,0,0:0:0:0:
360,184,5966,6,0,P|416:232|400:336,1,180
192,288,6643,1,0,0:0:0:0:
192,288,6756,1,0,0:0:0:0:
192,288,6868,1,0,0:0:0:0:
104,130,7094,1,0,0:0:0:0:
281,156,7319,1,0,0:0:0:0:
128,252,7545,1,0,0:0:0:0:
184,8,7771,5,0,0:0:0:0:
225,219,7996,1,0,0:0:0:0:
69,68,8222,1,0,0:0:0:0:
282,98,8447,1,0,0:0:0:0:
208,256,8673,6,0,P|176:216|168:176,1,90
194,73,9124,1,0,0:0:0:0:
480,184,9349,5,0,0:0:0:0:
480,184,9462,1,0,0:0:0:0:
480,184,9575,2,0,L|440:288,1,90
432,304,9913,2,0,P|400:272|344:264,1,90
312,288,10252,2,0,P|280:320|272:232,1,180
350,198,10928,1,0,0:0:0:0:
350,198,11041,1,0,0:0:0:0:
350,198,11154,1,0,0:0:0:0:
323,86,11380,6,0,P|304:91|222:84,1,90,2|0,0:0|0:0,0:0:0:0:
126,81,11831,1,8,0:0:0:0:
92,239,12056,1,0,0:0:0:0:
192,200,12282,2,0,P|220:191|303:206,1,90
382,229,12733,1,8,0:0:0:0:
463,157,12959,1,0,0:0:0:0:
256,64,13184,6,0,P|200:88|200:128,1,90
216,160,13522,2,0,L|120:136,1,90
88,152,13861,2,0,B|32:248|32:248|136:208,1,215.999993408203
297,147,14537,1,0,0:0:0:0:
387,302,14763,1,0,0:0:0:0:
184,216,14989,6,0,P|160:152|176:112,1,90
264,24,15440,1,8,0:0:0:0:
393,148,15665,1,0,0:0:0:0:
393,148,15778,1,0,0:0:0:0:
393,148,15891,2,0,P|337:164|289:148,1,90
133,109,16342,1,8,0:0:0:0:
172,284,16568,1,0,0:0:0:0:
448,280,16793,6,0,P|400:264|352:312,1,90
336,304,17131,2,0,L|296:216,1,90
288,184,17470,2,0,B|352:96|352:96|360:208,1,215.999993408203
261,353,18146,1,0,0:0:0:0:
153,208,18372,1,0,0:0:0:0:
440,96,18598,6,0,L|336:136,1,90
208,195,19049,1,8,0:0:0:0:
208,195,19274,1,0,0:0:0:0:
208,195,19387,1,0,0:0:0:0:
280,336,19500,6,0,L|328:235,1,90
396,112,19951,1,8,0:0:0:0:
396,112,20177,1,0,0:0:0:0:
396,112,20289,1,0,0:0:0:0:
428,229,20402,6,0,L|322:238,1,90
177,256,20853,1,0,0:0:0:0:
177,256,21079,1,0,0:0:0:0:
177,256,21192,1,0,0:0:0:0:
162,141,21304,6,0,L|259:158,1,90
392,185,21756,1,0,0:0:0:0:
414,326,21981,1,0,0:0:0:0:
330,205,22207,6,0,P|322:109|418:53,1,180,0|8,0:0|0:0,0:0:0:0:
451,202,22883,2,0,P|411:282|315:284,1,180
214,201,23560,1,8,0:0:0:0:
221,56,23786,1,0,0:0:0:0:
120,224,24011,5,0,0:0:0:0:
312,96,24237,1,0,0:0:0:0:
256,312,24462,1,8,0:0:0:0:
213,163,24688,2,0,P|277:123|373:171,1,180
421,254,25365,1,8,0:0:0:0:
421,254,25477,1,0,0:0:0:0:
421,254,25590,1,0,0:0:0:0:
213,163,25816,6,0,P|237:115|277:107,1,90
344,152,26154,2,0,P|357:129|352:56,1,90
384,32,26492,2,0,P|448:38|475:59,1,90
445,151,26943,1,0,0:0:0:0:
371,230,27169,1,0,0:0:0:0:
144,48,27620,6,0,P|120:96|136:136,1,90
192,200,27959,2,0,P|136:240|96:232,1,90
128,152,28297,2,0,P|160:72|256:72,1,180
370,135,28974,1,0,0:0:0:0:
304,16,29425,6,0,P|352:32|376:72,1,90
328,192,29763,2,0,P|304:144|320:96,1,90
424,40,30101,2,0,P|424:112|408:128,1,90
342,202,30552,1,0,0:0:0:0:
234,190,30778,1,0,0:0:0:0:
400,112,31229,6,0,P|336:144|336:168,1,90
320,240,31568,2,0,P|296:280|232:296,1,90
312,344,31906,2,0,P|336:304|400:288,1,90
504,232,32357,5,0,0:0:0:0:
504,232,32470,1,0,0:0:0:0:
504,232,32583,1,0,0:0:0:0:
456,96,32808,1,0,0:0:0:0:
207,75,33034,6,0,P|175:107|175:163,1,90
212,287,33485,1,8,0:0:0:0:
298,172,33710,1,0,0:0:0:0:
298,172,33823,1,0,0:0:0:0:
298,172,33936,1,0,0:0:0:0:
80,96,34162,1,0,0:0:0:0:
289,15,34387,1,8,0:0:0:0:
251,237,34613,1,0,0:0:0:0:
344,80,34838,6,0,P|376:56|432:56,1,90
457,193,35289,1,8,0:0:0:0:
264,168,35515,1,0,0:0:0:0:
264,168,35628,1,0,0:0:0:0:
264,168,35740,1,0,0:0:0:0:
472,88,35966,1,0,0:0:0:0:
472,88,36079,1,0,0:0:0:0:
472,88,36192,2,0,P|488:112|496:144,1,45,8|0,0:0|0:0,0:0:0:0:
504,240,36417,1,0,0:0:0:0:
240,352,36643,6,0,P|208:312|208:264,1,90
264,216,36981,2,0,P|248:144|224:128,1,90
136,80,37319,1,0,0:0:0:0:
96,312,37545,6,0,P|112:248|144:232,1,90
226,189,37996,1,0,0:0:0:0:
226,189,38109,1,0,0:0:0:0:
226,189,38222,1,0,0:0:0:0:
168,328,38447,5,0,0:0:0:0:
216,40,38673,1,0,0:0:0:0:
416,248,38898,1,0,0:0:0:0:
128,216,39124,1,0,0:0:0:0:
344,112,39349,5,0,0:0:0:0:
240,152,39462,2,0,B|208:120|208:120|192:64,1,90
344,112,39801,2,0,B|376:144|376:144|384:200,1,90
184,296,40252,5,0,0:0:0:0:
184,296,40477,2,0,P|160:264|160:248,1,45
96,232,40703,2,0,P|88:176|48:136,1,90
256,192,41380,5,0,0:0:0:0:
440,120,41605,1,0,0:0:0:0:
411,316,41831,1,0,0:0:0:0:
201,117,42056,6,0,P|169:157|265:165,1,180,0|8,0:0|0:0,0:0:0:0:
352,40,42733,1,0,0:0:0:0:
344,328,42959,1,0,0:0:0:0:
192,88,43184,1,0,0:0:0:0:
448,224,43410,1,8,0:0:0:0:
160,216,43635,1,0,0:0:0:0:
424,72,43861,5,0,0:0:0:0:
288,328,44086,1,0,0:0:0:0:
232,48,44312,2,0,P|176:80|176:128,1,90,8|0,0:0|0:0,0:0:0:0:
440,328,44989,5,0,0:0:0:0:
160,272,45214,1,8,0:0:0:0:
440,192,45440,1,0,0:0:0:0:
280,296,45665,6,0,B|208:288|184:224|112:224,1,180,0|8,0:0|0:0,0:0:0:0:
170,89,46342,2,0,P|226:78|275:101,1,90
424,160,46793,5,0,0:0:0:0:
424,160,46906,1,0,0:0:0:0:
424,160,47019,1,8,0:0:0:0:
161,218,47244,1,0,0:0:0:0:
358,32,47470,1,0,0:0:0:0:
369,301,47695,1,0,0:0:0:0:
191,96,47921,1,8,0:0:0:0:
453,158,48146,1,0,0:0:0:0:
240,280,48372,5,0,0:0:0:0:
240,280,48485,1,0,0:0:0:0:
240,280,48598,1,0,0:0:0:0:
168,80,48823,2,0,P|240:56|272:72,2,90,8|0|0,0:0|0:0|0:0,0:0:0:0:
184,192,49500,2,0,L|112:216,1,45
32,240,49725,1,8,0:0:0:0:
48,104,49951,1,0,0:0:0:0:
248,64,50177,5,0,0:0:0:0:
262,278,50402,1,0,0:0:0:0:
79,162,50628,1,8,0:0:0:0:
79,162,50740,1,0,0:0:0:0:
79,162,50853,1,0,0:0:0:0:
360,88,51079,5,4,0:0:0:0:
400,64,51192,1,0,0:0:0:0:
400,112,51304,1,0,0:0:0:0:
200,296,51530,5,8,0:0:0:0:
160,320,51643,1,0,0:0:0:0:
152,272,51756,1,0,0:0:0:0:
160,48,51981,5,4,0:0:0:0:
168,0,52094,1,0,0:0:0:0:
208,24,52207,1,0,0:0:0:0:
288,160,52432,5,8,0:0:0:0:
272,224,52545,1,0,0:0:0:0:
288,288,52658,1,0,0:0:0:0:
344,328,52771,1,0,0:0:0:0:
408,344,52883,2,0,P|461:296|474:255,1,90,4|0,0:0|0:0,0:0:0:0:
452,156,53334,5,0,0:0:0:0:
166,197,53560,1,0,0:0:0:0:
278,44,53786,5,0,0:0:0:0:
313,329,54011,1,0,0:0:0:0:
127,121,54237,5,0,0:0:0:0:
400,210,54462,1,0,0:0:0:0:
275,315,54688,6,0,P|258:335|194:353,1,90
146,366,55026,2,0,L|100:282,1,90
81,236,55365,1,0,0:0:0:0:
118,147,55590,1,0,0:0:0:0:
158,143,55702,1,0,0:0:0:0:
191,165,55815,1,0,0:0:0:0:
209,201,55928,1,0,0:0:0:0:
244,220,56041,1,0,0:0:0:0:
352,248,56267,5,0,0:0:0:0:
352,248,56492,2,0,B|264:128|344:24|408:128|408:128|528:48|528:208|392:288,1,540.000020599366,2|0,0:0|0:0,0:0:0:0:
