osu file format v14

[General]
AudioFilename: audio.mp3
AudioLeadIn: 0
PreviewTime: 203604
Countdown: 0
SampleSet: Soft
StackLeniency: 0.7
Mode: 0
LetterboxInBreaks: 0
WidescreenStoryboard: 0

[Editor]
DistanceSpacing: 1.3
BeatDivisor: 4
GridSize: 32
TimelineZoom: 1

[Metadata]
Title:Aimaimoko
TitleUnicode:アイマイモコ
Artist:Inori Minase
ArtistUnicode:水瀬いのり
Creator:Sekai
Version:Precious
Source:徒然チルドレン
Tags:inorin いのりん tsuredure tsurezure children chirudoren blue compass 2nd second album Sekaii Sekai-nyan j-pop jpop japanese pop female vocalist anime full version opening 白戸佑輔 yusuke shirato haggy rock asukow grazuko LeomineXD Leomine
BeatmapID:4030274
BeatmapSetID:1947713

[Difficulty]
HPDrainRate:6
CircleSize:4
OverallDifficulty:8
ApproachRate:8.3
SliderMultiplier:1.6
SliderTickRate:1

[Events]
//Background and Video events
Video,-1947,"inorincute.mp4"
0,0,"inorin love.jpg",0,0
//Break Periods
2,204280,215936
//Storyboard Layer 0 (Background)
//Storyboard Layer 1 (Fail)
//Storyboard Layer 2 (Pass)
//Storyboard Layer 3 (Foreground)
//Storyboard Layer 4 (Overlay)
//Storyboard Sound Samples

[TimingPoints]
371,451.127819548872,4,2,1,45,1,0
371,-125,4,2,1,45,0,0
5784,-200,4,2,1,45,0,0
7137,-125,4,2,1,60,0,0
7589,-100,4,2,1,80,0,0
22025,-111.111111111111,4,2,1,65,0,0
34656,-111.111111111111,4,2,1,78,0,0
36461,-100,4,2,1,70,0,0
50897,-100,4,2,1,75,0,0
61724,-100,4,2,1,78,0,0
65558,-100,4,2,1,60,0,0
66010,-125,4,2,1,60,0,0
66686,-125,4,2,1,70,0,0
67137,-90.9090909090909,4,2,1,85,0,1
94205,-111.111111111111,4,2,1,85,0,1
96010,-100,4,2,1,80,0,0
110446,-125,4,2,1,55,0,0
117664,-125,4,2,1,65,0,0
121273,-125,4,2,1,70,0,0
124882,-100,4,2,1,75,0,0
135709,-100,4,2,1,75,0,0
137513,-100,4,2,1,78,0,0
139543,-100,4,2,1,60,0,0
140446,-100,4,2,1,70,0,0
141122,-90.9090909090909,4,2,1,85,0,1
168190,-111.111111111111,4,2,1,85,0,1
169769,-111.111111111111,4,2,1,85,0,0
169995,-95.2380952380952,4,2,1,80,0,1
170107,-95.2380952380952,4,2,1,80,0,0
184431,-100,4,2,1,75,0,0
195258,-100,4,2,1,78,0,0
198867,-100,4,2,1,75,0,0
199769,-100,4,2,1,72,0,0
200671,-100,4,2,1,69,0,0
201574,-181.818181818182,4,2,1,66,0,0
203152,-181.818181818182,4,2,1,5,0,0
216010,-181.818181818182,4,2,1,50,0,0
216686,-100,4,2,1,75,0,0
220972,-86.9565217391304,4,2,1,85,0,1
233152,-111.111111111111,4,2,1,85,0,1
234957,-100,4,2,1,80,0,0
247589,-111.111111111111,4,2,1,80,0,0
249393,-142.857142857143,4,2,1,70,0,0
250295,-200,4,2,1,70,0,0
251198,-333.333333333333,4,2,1,70,0,0
253002,-333.333333333333,4,2,1,70,0,0
253904,-333.333333333333,4,2,1,70,0,0
254807,-333.333333333333,4,2,1,70,0,0
255934,-333.333333333333,4,2,1,5,0,0

[Colours]
Combo1 : 255,174,215
Combo2 : 184,147,244
Combo3 : 82,187,243
Combo4 : 255,170,130

[HitObjects]
103,83,371,5,2,2:2:0:0:
167,174,596,2,0,B|240:175|208:221|308:212,1,128,2|2,2:2|2:2,0:0:0:0:
428,115,1498,5,2,2:2:0:0:
419,219,1724,1,2,2:2:0:0:
419,219,2175,6,0,P|426:260|414:289,2,64,2|2|2,2:2|2:2|2:2,0:0:0:0:
428,115,2852,2,0,P|377:100|299:74,1,128,2|2,2:2|2:2,0:0:0:0:
54,115,3980,5,2,2:2:0:0:
85,214,4205,2,0,P|124:195|202:158,1,128,2|2,2:2|2:2,0:0:0:0:
352,72,5107,5,2,2:2:0:0:
348,174,5333,1,2,2:2:0:0:
348,174,5784,2,0,B|369:242|322:275|322:275|281:248|231:269,1,200,2|0,2:2|1:1,0:0:0:0:
166,336,7137,6,0,P|150:307|150:288,1,32,8|2,2:2|2:2,0:0:0:0:
98,224,7363,2,0,P|127:215|155:220,1,32,2|2,2:2|2:2,0:0:0:0:
184,132,7589,6,0,B|232:106|232:106|268:112|268:112|333:80,1,160,4|10,1:2|2:2,0:0:0:0:
467,17,8265,2,0,B|452:59|452:59|474:89,1,80,2|0,1:2|3:3,0:0:0:0:
381,161,8716,1,2,1:2:0:0:
265,24,8942,1,8,2:2:0:0:
381,161,9167,6,0,P|370:206|346:322,1,160,2|2,1:2|2:2,0:0:0:0:
210,195,9844,1,8,2:2:0:0:
157,343,10070,1,2,1:2:0:0:
157,343,10183,1,2,3:2:0:0:
157,343,10295,2,0,P|208:322|237:312,1,80,2|0,3:2|1:1,0:0:0:0:
118,194,10746,1,8,2:2:0:0:
37,340,10972,1,2,1:2:0:0:
210,195,11198,6,0,P|203:152|168:119,1,80,2|0,1:2|0:0,0:0:0:0:
118,194,11649,1,8,2:2:0:0:
119,34,11874,2,0,P|177:41|289:50,1,160,2|2,1:2|1:2,0:0:0:0:
445,16,12551,2,0,P|418:55|397:92,1,80,8|0,2:2|1:1,0:0:0:0:
443,244,13002,5,2,1:2:0:0:
269,182,13228,1,2,0:0:0:0:
269,182,13340,1,2,1:2:0:0:
269,182,13453,1,10,2:2:0:0:
401,83,13679,2,0,P|383:139|349:251,1,160,2|0,1:2|1:1,0:0:0:0:
206,346,14355,1,10,2:2:0:0:
371,360,14581,1,0,1:1:0:0:
269,182,14807,6,0,P|201:164|132:217,1,160,4|10,1:2|2:2,0:0:0:0:
20,326,15483,2,0,P|29:284|17:241,1,80,2|0,1:2|3:3,0:0:0:0:
0,98,15934,2,0,P|41:121|98:113,1,80,2|8,1:2|2:2,0:0:0:0:
214,244,16386,1,2,1:2:0:0:
199,68,16611,6,0,P|173:123|131:217,1,160,2|8,1:2|2:2,0:0:0:0:
287,153,17288,1,2,1:2:0:0:
78,39,17513,1,2,3:2:0:0:
78,39,17626,1,2,0:0:0:0:
78,39,17739,1,2,1:2:0:0:
282,3,17964,6,0,P|294:32|289:56,1,40,10|8,2:2|2:2,0:0:0:0:
275,190,18190,2,0,P|277:170|287:153,1,40,0|0,3:3|3:3,0:0:0:0:
407,298,18416,5,12,2:2:0:0:
368,98,18641,1,0,1:1:0:0:
290,295,18867,1,10,2:2:0:0:
470,165,19092,1,0,1:1:0:0:
249,107,19318,1,10,2:2:0:0:
471,257,19543,1,0,1:1:0:0:
318,29,19769,1,8,2:2:0:0:
290,295,19995,1,0,1:1:0:0:
462,70,20220,5,14,2:2:0:0:
249,107,20446,1,0,1:1:0:0:
217,104,20558,1,10,2:2:0:0:
190,120,20671,1,0,1:1:0:0:
118,301,20897,2,0,B|149:290|184:298|184:298|223:269|219:210,1,160,2|0,1:2|1:1,0:0:0:0:
111,130,21574,5,0,3:3:0:0:
111,130,21686,1,0,3:3:0:0:
111,130,21799,2,0,P|97:98|102:81,1,40,2|0,3:2|0:0,0:0:0:0:
214,10,22025,6,0,P|257:20|305:30,1,71.9999978027344,4|2,1:2|2:2,0:0:0:0:
448,44,22476,1,2,1:2:0:0:
370,143,22701,2,0,P|367:92|362:-8,1,143.999995605469,2|2,2:2|2:2,0:0:0:0:
440,127,23378,2,0,P|397:137|349:147,1,71.9999978027344,2|2,1:2|2:2,0:0:0:0:
256,246,23829,5,2,1:2:0:0:
391,285,24055,1,2,0:0:0:0:
391,285,24167,1,2,2:2:0:0:
391,285,24280,1,0,1:1:0:0:
268,370,24506,2,0,P|289:335|315:301,1,71.9999978027344,2|0,2:2|1:1,0:0:0:0:
235,176,24957,2,0,P|248:217|257:252,1,71.9999978027344,2|8,0:0|2:2,0:0:0:0:
158,250,25408,1,2,2:2:0:0:
120,126,25634,6,0,P|149:103|179:77,1,71.9999978027344,2|2,1:2|2:2,0:0:0:0:
34,197,26085,1,2,1:2:0:0:
158,250,26310,2,0,P|207:234|294:204,1,143.999995605469,2|2,2:2|2:2,0:0:0:0:
401,150,26987,1,0,1:1:0:0:
388,266,27213,1,2,2:2:0:0:
320,117,27438,5,2,1:2:0:0:
411,70,27664,1,2,0:0:0:0:
411,70,27777,1,2,2:2:0:0:
411,70,27889,1,0,1:1:0:0:
480,184,28115,2,0,P|485:147|504:37,1,143.999995605469,2|0,2:2|0:0,0:0:0:0:
398,0,28792,2,0,P|406:33|412:77,1,71.9999978027344,8|2,2:2|2:2,0:0:0:0:
256,183,29243,5,2,1:2:0:0:
174,154,29468,2,0,P|163:115|181:80,1,71.9999978027344,2|0,2:2|1:1,0:0:0:0:
255,57,29919,1,2,2:2:0:0:
256,183,30145,5,2,1:2:0:0:
336,213,30371,2,0,P|348:246|337:280,1,71.9999978027344,2|0,2:2|1:1,0:0:0:0:
255,309,30821,1,2,2:2:0:0:
256,183,31047,5,2,1:2:0:0:
191,106,31273,1,0,0:0:0:0:
191,106,31386,1,2,2:2:0:0:
191,106,31498,1,0,1:1:0:0:
169,197,31724,1,2,2:2:0:0:
272,105,31949,2,0,P|317:114|433:137,1,143.999995605469,2|8,1:2|2:2,0:0:0:0:
503,192,32626,1,2,2:2:0:0:
501,34,32852,6,0,P|458:8|376:53,1,143.999995605469,2|2,1:2|1:2,0:0:0:0:
282,7,33528,1,0,0:0:0:0:
255,117,33754,2,0,P|302:128|337:140,1,71.9999978027344,2|0,1:2|0:0,0:0:0:0:
266,272,34205,2,0,P|274:227|256:200,1,71.9999978027344,2|0,1:2|0:0,0:0:0:0:
448,350,34656,5,4,1:2:0:0:
476,148,34882,1,2,3:2:0:0:
343,300,35107,1,10,2:2:0:0:
494,269,35333,2,0,B|431:242|431:242|415:217|415:217|352:189,1,143.999995605469,4|0,1:2|1:1,0:0:0:0:
237,96,36010,5,0,3:3:0:0:
215,124,36122,1,0,3:3:0:0:
209,159,36235,1,2,3:2:0:0:
218,194,36348,1,0,3:3:0:0:
241,220,36461,6,0,B|196:249|151:214|151:214|116:194|66:214,1,160,4|10,1:2|2:2,0:0:0:0:
109,362,37137,2,0,B|124:320|124:320|108:289,1,80,2|0,3:2|3:3,0:0:0:0:
3,216,37589,1,2,1:2:0:0:
103,127,37814,2,0,P|95:174|89:213,1,80,10|2,2:2|2:2,0:0:0:0:
43,27,38265,5,2,1:2:0:0:
206,67,38491,1,2,0:0:0:0:
206,67,38604,1,2,2:2:0:0:
206,67,38716,1,8,2:2:0:0:
90,205,38942,2,0,P|96:166|117:31,1,160,2|0,1:2|1:1,0:0:0:0:
220,137,39619,2,0,P|197:93|207:65,1,80,8|2,2:2|2:2,0:0:0:0:
351,97,40070,5,2,1:2:0:0:
322,188,40295,1,2,2:2:0:0:
287,277,40521,1,10,2:2:0:0:
478,153,40746,2,0,P|433:164|312:189,1,160,2|2,1:2|1:2,0:0:0:0:
458,310,41423,2,0,P|438:272|458:233,1,80,8|2,2:2|2:2,0:0:0:0:
287,277,41874,5,2,1:2:0:0:
171,215,42100,1,0,0:0:0:0:
171,215,42213,1,2,2:2:0:0:
171,215,42325,1,8,2:2:0:0:
156,369,42551,2,0,P|198:338|300:268,1,160,2|0,1:2|1:1,0:0:0:0:
363,151,43228,2,0,P|380:190|367:224,1,80,8|2,2:2|3:2,0:0:0:0:
112,94,43679,5,4,1:2:0:0:
218,57,43904,2,0,P|212:97|206:141,1,80,2|8,2:2|2:2,0:0:0:0:
256,236,44355,1,2,3:2:0:0:
256,236,44468,1,0,3:3:0:0:
256,236,44581,1,2,3:2:0:0:
389,208,44807,2,0,P|376:173|362:132,1,80,2|8,1:2|2:2,0:0:0:0:
206,136,45258,1,2,2:2:0:0:
423,39,45483,5,2,1:2:0:0:
362,132,45709,1,0,0:0:0:0:
362,132,45822,1,2,2:2:0:0:
362,132,45934,1,8,2:2:0:0:
307,25,46160,1,2,1:2:0:0:
206,136,46386,2,0,P|257:145|291:150,1,80,2|0,3:2|1:1,0:0:0:0:
321,226,46837,1,8,2:2:0:0:
417,167,47062,1,2,2:2:0:0:
451,313,47288,6,0,B|357:288|401:242|312:225,1,160,2|10,1:2|2:2,0:0:0:0:
232,316,47964,2,0,P|280:323|313:295,1,80,2|0,1:2|0:0,0:0:0:0:
216,195,48416,1,2,1:2:0:0:
134,328,48641,2,0,P|119:286|103:241,1,80,10|2,2:2|2:2,0:0:0:0:
55,82,49092,5,4,1:2:0:0:
216,195,49318,1,0,3:3:0:0:
6,261,49543,1,8,2:2:0:0:
148,115,49769,2,0,B|206:95|206:95|249:103|249:103|317:80,1,160,4|0,1:2|3:3,0:0:0:0:
465,69,50446,5,8,2:2:0:0:
484,103,50558,1,0,3:3:0:0:
488,142,50671,1,0,3:3:0:0:
474,180,50784,1,0,0:0:0:0:
447,208,50897,5,4,1:2:0:0:
344,316,51122,2,0,P|333:280|338:254,1,40,0|2,0:0|2:2,0:0:0:0:
453,304,51348,1,8,2:2:0:0:
317,156,51574,1,2,1:2:0:0:
267,338,51799,2,0,P|317:325|357:311,1,80,2|2,2:2|1:2,0:0:0:0:
317,156,52250,2,0,P|297:189|275:236,1,80,10|0,2:2|0:0,0:0:0:0:
152,356,52701,6,0,P|140:318|164:275,1,80,2|2,1:2|0:0,0:0:0:0:
174,261,53040,1,0,1:1:0:0:
174,261,53152,1,10,2:2:0:0:
317,156,53378,2,0,P|258:135|155:96,1,160,2|2,1:2|1:2,0:0:0:0:
332,0,54055,2,0,P|319:42|337:76,1,80,8|0,2:2|0:0,0:0:0:0:
487,203,54506,6,0,B|397:203|439:267|341:264,1,160,2|8,1:2|2:2,0:0:0:0:
204,348,55183,1,2,3:2:0:0:
287,180,55408,1,2,1:2:0:0:
343,348,55634,1,2,2:2:0:0:
176,227,55859,2,0,P|166:187|187:148,1,80,10|0,2:2|0:0,0:0:0:0:
343,30,56310,5,2,1:2:0:0:
287,180,56536,1,2,0:0:0:0:
287,180,56649,1,2,2:2:0:0:
287,180,56761,2,0,P|336:160|371:145,1,80,10|2,2:2|2:2,0:0:0:0:
201,48,57213,1,6,1:2:0:0:
176,227,57438,1,0,3:3:0:0:
176,227,57551,1,8,2:2:0:0:
176,227,57664,2,0,P|131:200|91:177,1,80,8|2,2:2|3:2,0:0:0:0:
282,340,58115,6,0,P|361:337|399:254,1,160,4|8,1:2|2:2,0:0:0:0:
443,95,58792,1,2,1:2:0:0:
487,261,59017,1,2,2:2:0:0:
326,189,59243,1,2,1:2:0:0:
326,189,59355,1,2,2:2:0:0:
326,189,59468,2,0,P|383:176|418:169,1,80,10|2,2:2|2:2,0:0:0:0:
154,67,59919,5,2,1:2:0:0:
222,191,60145,1,2,0:0:0:0:
222,191,60258,1,2,2:2:0:0:
222,191,60370,2,0,P|245:147|263:117,1,80,10|2,2:2|1:2,0:0:0:0:
100,184,60822,1,2,2:2:0:0:
212,311,61047,5,8,2:2:0:0:
246,330,61159,1,2,2:2:0:0:
286,334,61272,1,8,2:2:0:0:
323,322,61385,1,8,2:2:0:0:
353,295,61498,1,2,3:2:0:0:
369,259,61610,1,0,3:3:0:0:
369,219,61723,5,12,2:2:0:0:
313,26,61949,1,0,1:1:0:0:
259,203,62175,1,8,2:2:0:0:
431,85,62401,1,2,1:2:0:0:
193,18,62626,1,10,2:2:0:0:
360,139,62852,1,0,1:1:0:0:
122,182,63077,1,8,2:2:0:0:
313,26,63303,1,2,1:2:0:0:
350,248,63528,6,0,B|307:225|245:251|245:251|263:216|257:191,1,160,10|8,2:2|2:2,0:0:0:0:
108,100,64205,1,0,1:1:0:0:
146,284,64431,1,8,2:2:0:0:
254,97,64656,1,0,3:3:0:0:
254,97,64769,1,8,2:2:0:0:
254,97,64882,1,8,2:2:0:0:
37,229,65107,1,12,2:2:0:0:
385,331,65558,6,0,L|395:290,2,40,2|2|2,2:2|2:2|2:2,0:0:0:0:
468,197,66010,2,0,P|425:206|332:223,1,128,2|2,2:2|1:2,0:0:0:0:
235,258,66686,1,10,2:2:0:0:
263,165,66912,1,0,1:1:0:0:
0,324,67137,6,0,B|23:352|79:345|79:345|117:300|156:303,1,176.000005371094,4|8,1:2|2:2,0:0:0:0:
48,127,67814,2,0,P|29:174|47:211,1,88.000002685547,0|0,1:1|0:0,0:0:0:0:
168,0,68265,1,2,1:2:0:0:
124,171,68491,1,10,2:2:0:0:
0,18,68716,1,2,1:2:0:0:
255,112,68942,6,0,P|298:99|344:83,1,88.000002685547,2|2,1:2|2:2,0:0:0:0:
490,17,69393,1,10,2:2:0:0:
486,191,69619,2,0,P|425:176|382:166,1,88.000002685547,2|0,1:2|0:0,0:0:0:0:
280,344,70070,1,2,1:2:0:0:
400,170,70295,1,10,2:2:0:0:
467,354,70521,1,2,1:2:0:0:
288,193,70746,6,0,P|252:236|287:349,1,176.000005371094,2|10,1:2|2:2,0:0:0:0:
114,164,71423,2,0,P|106:117|91:67,1,88.000002685547,2|0,1:2|0:0,0:0:0:0:
313,0,71874,2,0,P|295:47|283:93,1,88.000002685547,2|8,1:2|2:2,0:0:0:0:
452,235,72325,6,0,B|386:209|386:209|341:218|341:218|273:186,1,176.000005371094,2|2,1:2|1:2,0:0:0:0:
403,328,73002,1,10,2:2:0:0:
397,115,73228,1,2,1:2:0:0:
397,115,73340,1,2,0:0:0:0:
397,115,73453,1,2,1:2:0:0:
255,278,73679,1,0,1:1:0:0:
452,235,73904,1,8,2:2:0:0:
256,55,74130,5,2,3:2:0:0:
256,55,74243,1,8,2:2:0:0:
256,55,74355,1,4,1:2:0:0:
118,247,74581,2,0,P|157:258|186:268,1,44.0000013427735,2|2,2:2|2:2,0:0:0:0:
319,337,74807,1,8,2:2:0:0:
256,133,75032,1,2,2:2:0:0:
151,343,75258,1,2,1:2:0:0:
166,140,75483,1,0,1:1:0:0:
336,245,75709,2,0,P|286:266|245:281,1,88.000002685547,8|2,2:2|2:2,0:0:0:0:
398,54,76160,5,2,1:2:0:0:
421,248,76386,1,2,1:2:0:0:
421,248,76498,1,2,2:2:0:0:
421,248,76611,1,10,2:2:0:0:
256,133,76837,2,0,P|249:100|259:75,1,44.0000013427735,2|0,2:2|0:0,0:0:0:0:
468,126,77062,1,2,1:2:0:0:
240,225,77288,1,0,1:1:0:0:
398,54,77513,2,0,P|382:98|362:151,1,88.000002685547,8|2,2:2|2:2,0:0:0:0:
105,102,77964,6,0,P|154:80|257:135,1,176.000005371094,2|10,1:2|2:2,0:0:0:0:
192,318,78641,1,2,1:2:0:0:
192,318,78754,1,2,0:0:0:0:
192,318,78867,1,2,1:2:0:0:
171,157,79092,1,0,1:1:0:0:
53,275,79318,2,0,P|97:260|145:246,1,88.000002685547,8|2,2:2|1:2,0:0:0:0:
413,55,79769,5,14,2:2:0:0:
356,336,79995,1,2,1:2:0:0:
283,70,80220,1,10,2:2:0:0:
474,223,80446,1,2,3:2:0:0:
474,223,80558,1,8,2:2:0:0:
474,223,80671,1,8,2:2:0:0:
240,155,80897,1,14,2:2:0:0:
356,336,81122,5,2,3:2:0:0:
380,299,81234,1,0,3:3:0:0:
387,256,81347,1,2,3:2:0:0:
375,214,81460,1,0,3:3:0:0:
347,181,81574,6,0,P|319:97|366:25,1,176.000005371094,4|10,1:2|2:2,0:0:0:0:
135,15,82250,2,0,P|149:66|162:107,1,88.000002685547,0|0,1:1|0:0,0:0:0:0:
64,250,82701,1,2,1:2:0:0:
232,159,82927,1,10,2:2:0:0:
50,92,83152,1,2,1:2:0:0:
154,294,83378,6,0,P|159:249|136:205,1,88.000002685547,2|2,1:2|2:2,0:0:0:0:
224,65,83829,1,10,2:2:0:0:
341,217,84055,2,0,P|292:241|245:265,1,88.000002685547,2|0,1:2|0:0,0:0:0:0:
454,74,84506,1,2,1:2:0:0:
420,309,84731,1,10,2:2:0:0:
299,119,84957,1,2,1:2:0:0:
468,165,85183,6,0,P|393:144|291:117,1,176.000005371094,2|10,1:2|2:2,0:0:0:0:
110,24,85859,2,0,B|131:69|131:69|107:111,1,88.000002685547,2|0,1:2|0:0,0:0:0:0:
46,252,86310,1,2,1:2:0:0:
0,92,86536,1,8,2:2:0:0:
202,210,86761,6,0,B|172:190|131:195|131:195|46:251,1,176.000005371094,2|2,1:2|1:2,0:0:0:0:
212,333,87438,1,10,2:2:0:0:
310,166,87664,1,2,1:2:0:0:
310,166,87777,1,2,0:0:0:0:
310,166,87889,1,2,1:2:0:0:
365,319,88115,1,0,1:1:0:0:
202,210,88340,1,12,2:2:0:0:
393,136,88566,1,2,1:2:0:0:
212,333,88792,6,0,P|254:293|287:267,1,88.000002685547,4|2,1:2|2:2,0:0:0:0:
303,252,89130,1,2,2:2:0:0:
303,252,89243,1,8,2:2:0:0:
223,83,89468,2,0,P|209:129|209:147,1,44.0000013427735,2|8,3:2|2:2,0:0:0:0:
125,229,89694,2,0,P|100:176|83:131,1,88.000002685547,2|0,1:2|1:1,0:0:0:0:
331,30,90145,2,0,P|311:71|295:110,1,88.000002685547,10|0,2:2|1:1,0:0:0:0:
125,229,90596,6,0,P|178:190|283:226,1,176.000005371094,2|10,1:2|2:2,0:0:0:0:
253,375,91273,1,2,3:2:0:0:
253,375,91386,1,10,2:2:0:0:
253,375,91498,2,0,P|227:332|202:292,1,88.000002685547,2|0,1:2|1:1,0:0:0:0:
375,100,91949,2,0,P|356:158|343:205,1,88.000002685547,10|0,2:2|1:1,0:0:0:0:
102,86,92401,6,0,P|149:69|215:115,1,132.00000402832,14|0,2:2|0:0,0:0:0:0:
141,149,92852,1,8,2:2:0:0:
328,31,93077,1,0,1:1:0:0:
253,207,93303,1,8,2:2:0:0:
156,6,93528,1,0,1:1:0:0:
365,122,93754,1,8,2:2:0:0:
120,233,93980,1,2,1:2:0:0:
257,14,94205,6,0,P|240:67|219:130,2,107.999996704102,14|10|10,2:2|2:2|2:2,0:0:0:0:
120,233,95107,2,0,P|161:225|199:236,1,71.9999978027344,14|0,2:2|3:3,0:0:0:0:
217,250,95446,1,10,2:2:0:0:
251,260,95558,1,8,2:2:0:0:
286,256,95671,1,0,3:3:0:0:
317,238,95784,1,2,3:2:0:0:
338,209,95897,1,0,3:3:0:0:
345,174,96010,6,0,B|436:168|410:221|499:214,1,160,4|10,1:2|2:2,0:0:0:0:
337,43,96686,1,2,3:2:0:0:
337,43,96799,1,10,2:2:0:0:
337,43,96912,2,0,P|289:56|241:64,1,80,2|2,1:2|1:2,0:0:0:0:
130,15,97363,1,8,2:2:0:0:
221,153,97589,1,2,2:2:0:0:
27,155,97814,6,0,P|79:131|179:81,1,160,0|8,1:1|2:2,0:0:0:0:
306,153,98491,1,2,3:2:0:0:
306,153,98604,1,10,2:2:0:0:
306,153,98716,2,0,P|323:202|308:237,1,80,2|0,1:2|1:1,0:0:0:0:
184,344,99167,2,0,P|176:305|193:269,1,80,8|2,2:2|2:2,0:0:0:0:
435,337,99619,6,0,P|361:325|270:308,1,160,2|10,1:2|2:2,0:0:0:0:
426,176,100295,1,2,3:2:0:0:
426,176,100408,1,8,2:2:0:0:
426,176,100521,2,0,P|424:221|422:262,1,80,0|0,1:1|1:1,0:0:0:0:
458,72,100972,2,0,P|414:87|367:98,1,80,8|2,2:2|2:2,0:0:0:0:
207,15,101423,5,2,1:2:0:0:
228,158,101649,1,0,3:3:0:0:
228,158,101761,1,10,2:2:0:0:
228,158,101874,2,0,P|247:119|260:82,1,80,2|2,0:0|1:2,0:0:0:0:
65,141,102325,1,0,0:0:0:0:
65,141,102438,1,8,2:2:0:0:
65,141,102551,1,0,3:3:0:0:
53,316,102777,5,8,2:2:0:0:
90,329,102889,1,8,2:2:0:0:
129,323,103002,1,0,3:3:0:0:
162,301,103115,1,0,3:3:0:0:
180,266,103228,6,0,B|239:280|239:280|261:310|261:310|334:326,1,160,4|10,1:2|2:2,0:0:0:0:
454,200,103904,1,2,3:2:0:0:
454,200,104017,1,10,2:2:0:0:
454,200,104130,2,0,B|467:241|467:241|452:284,1,80,2|2,1:2|1:2,0:0:0:0:
287,183,104581,2,0,P|322:206|362:234,1,80,8|2,2:2|2:2,0:0:0:0:
495,63,105032,6,0,P|437:56|376:132,1,160,0|8,1:1|2:2,0:0:0:0:
189,182,105709,1,2,3:2:0:0:
189,182,105822,1,8,2:2:0:0:
189,182,105934,1,0,1:1:0:0:
259,36,106160,1,2,1:2:0:0:
287,183,106386,1,10,2:2:0:0:
159,63,106611,1,2,1:2:0:0:
127,247,106837,6,0,P|164:210|234:140,1,120,12|0,2:2|0:0,0:0:0:0:
239,133,107288,1,8,2:2:0:0:
360,235,107513,1,2,1:2:0:0:
228,251,107739,1,8,2:2:0:0:
352,147,107964,1,0,1:1:0:0:
314,299,108190,1,8,2:2:0:0:
239,133,108416,1,0,1:1:0:0:
479,171,108641,6,0,P|425:210|394:232,1,80,4|2,1:2|0:0,0:0:0:0:
391,231,108980,1,2,3:2:0:0:
391,231,109092,1,2,0:0:0:0:
389,42,109318,2,0,P|372:89|386:124,1,80,10|0,2:2|0:0,0:0:0:0:
257,223,109769,2,0,P|222:202|188:181,1,80,14|0,2:2|3:3,0:0:0:0:
275,93,110220,1,2,2:2:0:0:
122,123,110446,6,0,P|104:161|111:199,1,64,4|2,1:2|2:2,0:0:0:0:
127,273,110897,1,2,2:2:0:0:
127,273,111122,2,0,P|75:290|6:249,1,128,2|2,2:2|2:2,0:0:0:0:
17,160,111799,2,0,P|15:128|0:100,1,64,2|2,2:2|2:2,0:0:0:0:
53,3,112250,6,0,P|95:27|145:50,2,96,2|2|2,2:2|2:2|2:2,0:0:0:0:
105,182,113378,1,2,0:0:0:0:
105,182,113604,2,0,P|143:169|177:153,1,64,2|2,0:0|2:2,0:0:0:0:
255,97,114055,6,0,P|250:137|255:172,1,64,2|2,2:2|2:2,0:0:0:0:
309,251,114506,1,2,2:2:0:0:
309,251,114731,2,0,P|279:239|248:244,1,64,2|2,0:0|2:2,0:0:0:0:
162,234,115182,2,0,B|152:316|202:278|199:349,1,128,2|2,2:2|2:2,0:0:0:0:
283,326,115859,2,0,P|326:345|370:366,2,96,2|2|2,2:2|2:2|2:2,0:0:0:0:
380,278,116761,2,0,P|408:291|438:304,1,64,2|0,0:0|0:0,0:0:0:0:
453,221,117213,2,0,P|481:234|511:247,1,64,2|2,0:0|2:2,0:0:0:0:
480,81,117664,5,4,1:2:0:0:
413,141,117889,2,0,P|383:128|356:113,1,64,2|0,2:2|1:1,0:0:0:0:
293,57,118341,1,2,2:2:0:0:
480,81,118566,5,2,1:2:0:0:
413,141,118792,2,0,P|385:156|355:169,1,64,2|8,2:2|2:2,0:0:0:0:
278,200,119243,1,2,2:2:0:0:
194,111,119468,6,0,P|204:150|207:180,1,64,2|2,1:2|0:0,0:0:0:0:
205,204,119807,1,2,2:2:0:0:
205,204,119919,1,2,1:2:0:0:
145,279,120145,1,2,2:2:0:0:
65,198,120370,2,0,P|95:183|126:165,1,64,2|0,1:2|0:0,0:0:0:0:
130,65,120822,2,0,P|157:49|186:34,1,64,8|2,2:2|2:2,0:0:0:0:
414,142,121273,6,0,B|371:123|371:123|338:130|338:130|289:107,1,128,4|10,1:2|2:2,0:0:0:0:
214,186,121949,1,2,1:2:0:0:
293,255,122175,2,0,P|310:221|306:189,1,64,0|2,0:0|2:2,0:0:0:0:
184,300,122626,1,10,2:2:0:0:
102,157,122852,6,0,B|151:141|151:141|218:189,1,128,4|2,1:2|3:2,0:0:0:0:
311,105,123528,1,2,3:2:0:0:
406,196,123754,2,0,P|360:219|283:259,1,128,14|0,2:2|3:3,0:0:0:0:
311,105,124431,5,8,2:2:0:0:
336,85,124543,1,8,2:2:0:0:
367,78,124656,1,0,3:3:0:0:
398,82,124769,1,0,3:3:0:0:
425,98,124882,5,4,1:2:0:0:
493,225,125107,1,2,0:0:0:0:
493,225,125220,1,2,2:2:0:0:
493,225,125333,2,0,P|448:209|409:193,1,80,10|2,2:2|1:2,0:0:0:0:
337,362,125784,2,0,P|335:309|355:288,1,80,2|2,2:2|1:2,0:0:0:0:
336,150,126235,1,10,2:2:0:0:
439,291,126461,1,2,1:2:0:0:
239,260,126686,6,0,P|193:273|155:284,1,80,2|2,1:2|0:0,0:0:0:0:
132,293,127025,1,2,0:0:0:0:
132,293,127137,1,10,2:2:0:0:
201,116,127363,2,0,P|278:100|340:160,1,160,2|2,1:2|1:2,0:0:0:0:
110,198,128040,2,0,P|104:155|95:106,1,80,10|0,2:2|0:0,0:0:0:0:
199,22,128491,5,2,1:2:0:0:
257,177,128716,1,2,0:0:0:0:
257,177,128829,1,2,2:2:0:0:
257,177,128942,1,10,2:2:0:0:
97,118,129167,1,2,1:2:0:0:
278,44,129393,2,0,P|246:83|217:116,1,80,2|2,1:2|2:2,0:0:0:0:
360,241,129844,2,0,B|344:200|344:200|359:155,1,80,10|0,2:2|0:0,0:0:0:0:
188,360,130295,6,0,P|207:319|194:281,1,80,2|2,1:2|0:0,0:0:0:0:
177,262,130634,1,2,2:2:0:0:
177,262,130746,1,14,2:2:0:0:
52,125,130972,2,0,P|37:164|46:186,1,40,2|0,3:2|3:3,0:0:0:0:
160,108,131198,1,2,3:2:0:0:
43,275,131423,1,0,3:3:0:0:
210,186,131649,1,0,3:3:0:0:
74,51,131874,1,2,3:2:0:0:
322,68,132100,6,0,P|276:58|238:81,1,80,4|2,1:2|0:0,0:0:0:0:
224,91,132438,1,2,2:2:0:0:
224,91,132551,1,2,0:0:0:0:
306,183,132777,1,2,3:2:0:0:
403,116,133002,2,0,P|411:62|372:7,1,120,2|2,2:2|2:2,0:0:0:0:
322,68,133453,2,0,P|276:58|238:81,1,80,0|2,3:3|3:2,0:0:0:0:
66,83,133904,6,0,P|93:126|116:158,1,80,4|2,1:2|0:0,0:0:0:0:
128,172,134243,1,2,2:2:0:0:
128,172,134355,1,2,0:0:0:0:
180,304,134581,1,2,3:2:0:0:
38,335,134807,2,0,P|33:288|87:233,1,120,2|2,2:2|2:2,0:0:0:0:
128,172,135258,2,0,P|166:195|202:218,1,80,8|2,2:2|3:2,0:0:0:0:
435,294,135709,6,0,P|396:322|350:319,1,80,4|2,1:2|0:0,0:0:0:0:
336,313,136047,1,2,2:2:0:0:
336,313,136160,1,10,2:2:0:0:
376,163,136386,1,2,2:2:0:0:
256,263,136611,1,2,1:2:0:0:
456,190,136837,1,2,1:2:0:0:
273,105,137062,2,0,P|290:163|303:213,1,80,8|2,2:2|2:2,0:0:0:0:
133,23,137513,5,4,1:2:0:0:
148,204,137739,1,0,1:1:0:0:
264,24,137964,1,10,2:2:0:0:
48,126,138190,1,2,1:2:0:0:
232,199,138416,1,10,2:2:0:0:
30,306,138641,1,2,3:2:0:0:
30,306,138754,1,0,3:3:0:0:
30,306,138867,1,2,3:2:0:0:
177,98,139092,1,12,2:2:0:0:
258,318,139543,6,0,L|212:323,2,40,2|2|0,2:2|2:2|0:0,0:0:0:0:
365,370,139995,2,0,P|349:298|394:229,1,160,2|12,2:2|2:2,0:0:0:0:
460,79,140671,5,2,3:2:0:0:
422,65,140783,1,2,3:2:0:0:
383,67,140896,1,0,3:3:0:0:
348,86,141009,1,0,0:0:0:0:
323,117,141122,6,0,P|254:105|143:87,1,176.000005371094,4|8,1:2|2:2,0:0:0:0:
45,259,141799,2,0,P|32:217|59:172,1,88.000002685547,2|0,1:2|0:0,0:0:0:0:
201,220,142250,1,2,1:2:0:0:
42,340,142476,1,10,2:2:0:0:
138,126,142701,1,2,1:2:0:0:
220,334,142927,6,0,P|266:346|308:360,1,88.000002685547,2|2,1:2|2:2,0:0:0:0:
379,186,143378,1,10,2:2:0:0:
434,329,143604,2,0,P|385:304|350:286,1,88.000002685547,2|0,1:2|0:0,0:0:0:0:
512,164,144055,1,2,1:2:0:0:
362,99,144280,2,0,P|372:151|380:191,1,88.000002685547,10|2,2:2|1:2,0:0:0:0:
100,69,144731,6,0,P|177:67|240:154,1,176.000005371094,2|10,1:2|2:2,0:0:0:0:
119,311,145408,2,0,P|115:257|109:213,1,88.000002685547,2|0,1:2|0:0,0:0:0:0:
237,137,145859,1,2,1:2:0:0:
205,359,146085,1,10,2:2:0:0:
380,204,146310,6,0,P|292:231|204:255,1,176.000005371094,2|2,1:2|1:2,0:0:0:0:
396,105,146987,1,10,2:2:0:0:
357,331,147213,1,2,1:2:0:0:
357,331,147325,1,2,0:0:0:0:
357,331,147438,1,2,1:2:0:0:
279,130,147664,1,0,1:1:0:0:
489,230,147889,1,8,2:2:0:0:
411,20,148115,5,2,3:2:0:0:
411,20,148228,1,10,2:2:0:0:
411,20,148340,1,6,1:2:0:0:
375,247,148566,2,0,P|378:199|370:181,1,44.0000013427735,2|2,2:2|2:2,0:0:0:0:
256,102,148792,1,8,2:2:0:0:
451,91,149017,1,2,2:2:0:0:
258,191,149243,1,2,1:2:0:0:
411,20,149468,1,0,1:1:0:0:
192,41,149694,2,0,P|228:78|261:106,1,88.000002685547,8|2,2:2|2:2,0:0:0:0:
170,268,150145,5,2,1:2:0:0:
95,93,150370,2,0,P|82:127|88:153,1,44.0000013427735,2|2,1:2|2:2,0:0:0:0:
257,207,150596,1,8,2:2:0:0:
61,312,150822,1,2,2:2:0:0:
61,312,150934,1,2,0:0:0:0:
61,312,151047,1,2,1:2:0:0:
186,115,151273,1,0,1:1:0:0:
225,336,151498,2,0,P|193:298|167:264,1,88.000002685547,8|2,2:2|2:2,0:0:0:0:
408,206,151949,6,0,P|338:168|252:214,1,176.000005371094,2|10,1:2|2:2,0:0:0:0:
276,87,152626,1,0,1:1:0:0:
329,263,152852,1,2,2:2:0:0:
403,82,153077,1,2,1:2:0:0:
403,82,153190,1,2,2:2:0:0:
403,82,153303,1,10,2:2:0:0:
256,206,153528,1,2,1:2:0:0:
505,125,153754,5,10,2:2:0:0:
212,38,153980,1,2,1:2:0:0:
408,206,154205,1,14,2:2:0:0:
320,5,154431,1,2,3:2:0:0:
320,5,154543,1,8,2:2:0:0:
320,5,154656,1,8,2:2:0:0:
256,206,154882,1,14,2:2:0:0:
443,64,155107,2,0,L|399:83,1,44.0000013427735,2|0,3:2|3:3,0:0:0:0:
256,206,155333,1,2,3:2:0:0:
423,363,155558,6,0,P|446:268|394:195,1,176.000005371094,4|10,1:2|2:2,0:0:0:0:
201,298,156235,2,0,P|254:311|308:325,1,88.000002685547,2|0,1:2|0:0,0:0:0:0:
220,137,156686,1,2,1:2:0:0:
70,238,156912,2,0,P|86:294|98:333,1,88.000002685547,10|2,2:2|1:2,0:0:0:0:
51,82,157363,5,2,1:2:0:0:
163,226,157589,1,2,2:2:0:0:
166,33,157814,1,10,2:2:0:0:
304,113,158040,2,0,P|233:133|192:143,1,88.000002685547,2|0,1:2|0:0,0:0:0:0:
303,17,158491,1,2,1:2:0:0:
328,207,158716,1,10,2:2:0:0:
443,31,158942,5,2,1:2:0:0:
443,31,159055,1,2,0:0:0:0:
443,31,159167,2,0,B|384:57|384:57|375:93|375:93|299:114,1,176.000005371094,2|10,1:2|2:2,0:0:0:0:
485,227,159844,2,0,B|499:182|499:182|479:145,1,88.000002685547,2|0,1:2|0:0,0:0:0:0:
486,352,160295,1,2,1:2:0:0:
348,195,160521,1,8,2:2:0:0:
260,359,160746,6,0,P|311:332|423:273,1,176.000005371094,6|2,1:2|1:2,0:0:0:0:
207,177,161423,1,10,2:2:0:0:
140,356,161649,1,2,1:2:0:0:
140,356,161761,1,2,0:0:0:0:
140,356,161874,1,2,1:2:0:0:
314,237,162100,1,0,1:1:0:0:
98,148,162325,1,8,2:2:0:0:
219,297,162551,5,2,1:2:0:0:
219,297,162664,1,0,0:0:0:0:
219,297,162777,1,4,1:2:0:0:
315,193,163002,2,0,P|315:233|306:255,1,44.0000013427735,2|2,2:2|2:2,0:0:0:0:
366,103,163228,2,0,P|329:116|276:97,1,88.000002685547,8|2,2:2|3:2,0:0:0:0:
256,85,163566,1,8,2:2:0:0:
256,85,163679,1,2,1:2:0:0:
99,116,163904,1,0,1:2:0:0:
249,251,164130,2,0,P|283:219|320:189,1,88.000002685547,10|0,2:2|1:1,0:0:0:0:
141,40,164581,6,0,P|52:45|6:132,1,176.000005371094,2|10,1:2|2:2,0:0:0:0:
2,290,165258,1,2,3:2:0:0:
2,290,165370,1,8,2:2:0:0:
2,290,165483,1,2,1:2:0:0:
99,116,165709,1,0,1:1:0:0:
172,325,165934,1,10,2:2:0:0:
8,184,166160,1,0,1:1:0:0:
252,115,166386,6,0,P|203:161|150:207,1,132.00000402832,14|0,2:2|0:0,0:0:0:0:
132,226,166837,1,8,2:2:0:0:
395,199,167062,1,0,1:1:0:0:
165,78,167288,1,8,2:2:0:0:
306,285,167513,1,0,1:1:0:0:
258,45,167739,1,8,2:2:0:0:
162,287,167964,1,2,1:2:0:0:
370,105,168190,6,0,P|379:69|410:3,1,107.999996704102,6|2,1:2|0:0,0:0:0:0:
258,45,168641,2,0,P|282:93|296:145,1,107.999996704102,2|0,2:2|0:0,0:0:0:0:
378,183,169092,1,10,2:2:0:0:
340,327,169318,6,0,P|326:294|334:271,1,35.9999989013672,0|10,3:3|2:2,0:0:0:0:
194,160,169543,2,0,P|196:177|194:195,1,35.9999989013672,8|0,2:2|3:3,0:0:0:0:
155,343,169769,2,0,P|186:320|208:318,1,35.9999989013672,2|0,3:2|3:3,0:0:0:0:
345,199,169995,6,0,B|392:209|423:173|423:173|437:130|499:129,1,167.999994873047,4|10,1:2|2:2,0:0:0:0:
404,278,170671,1,2,1:2:0:0:
348,115,170897,1,2,3:2:0:0:
348,115,171010,1,10,2:2:0:0:
348,115,171122,1,2,1:2:0:0:
245,247,171348,2,0,P|296:217|327:207,1,83.9999974365235,8|2,2:2|1:2,0:0:0:0:
94,194,171799,6,0,P|128:270|153:350,1,167.999994873047,2|8,1:2|2:2,0:0:0:0:
204,102,172476,1,2,1:2:0:0:
204,102,172589,1,8,2:2:0:0:
204,102,172701,1,2,3:2:0:0:
29,24,172927,1,0,1:1:0:0:
94,194,173152,1,10,2:2:0:0:
139,15,173378,1,2,1:2:0:0:
284,127,173604,6,0,P|244:114|203:101,1,83.9999974365235,2|0,1:2|0:0,0:0:0:0:
179,91,173942,1,2,1:2:0:0:
179,91,174055,1,8,2:2:0:0:
300,0,174280,1,2,1:2:0:0:
379,134,174506,2,0,P|352:172|330:210,1,83.9999974365235,2|0,2:2|1:1,0:0:0:0:
236,331,174957,2,0,P|220:289|200:245,1,83.9999974365235,8|2,2:2|1:2,0:0:0:0:
68,118,175408,6,0,P|112:124|156:98,1,83.9999974365235,2|2,1:2|0:0,0:0:0:0:
170,81,175746,1,2,1:2:0:0:
170,81,175859,1,10,2:2:0:0:
318,24,176085,1,2,1:2:0:0:
318,24,176198,1,10,2:2:0:0:
318,24,176310,2,0,P|297:64|311:109,1,83.9999974365235,2|0,3:2|1:1,0:0:0:0:
204,253,176761,2,0,P|227:209|212:165,1,83.9999974365235,10|2,2:2|1:2,0:0:0:0:
485,142,177213,6,0,P|439:162|327:210,1,167.999994873047,4|8,1:2|2:2,0:0:0:0:
163,273,177889,1,2,1:2:0:0:
163,273,178002,1,10,2:2:0:0:
163,273,178115,1,0,3:3:0:0:
330,208,178340,1,0,1:1:0:0:
214,156,178566,1,10,2:2:0:0:
278,323,178792,1,2,1:2:0:0:
112,166,179017,5,2,1:2:0:0:
317,105,179243,1,2,2:2:0:0:
185,32,179468,1,10,2:2:0:0:
244,238,179694,6,0,B|300:251|300:251|320:286|320:286|403:310,1,167.999994873047,4|2,1:2|1:2,0:0:0:0:
508,186,180370,1,10,2:2:0:0:
389,66,180596,5,2,1:2:0:0:
389,66,180709,1,2,1:2:0:0:
389,66,180822,2,0,B|377:110|377:110|405:149,1,83.9999974365235,6|2,1:2|2:2,0:0:0:0:
417,165,181160,1,2,2:2:0:0:
417,165,181273,1,10,2:2:0:0:
173,31,181498,1,2,1:2:0:0:
173,31,181611,1,10,2:2:0:0:
173,31,181724,1,2,3:2:0:0:
259,167,181949,1,2,1:2:0:0:
304,5,182175,1,10,2:2:0:0:
304,5,182288,1,2,2:2:0:0:
304,5,182401,1,2,2:2:0:0:
40,121,182626,5,4,1:2:0:0:
254,74,182852,1,2,1:2:0:0:
128,251,183077,1,10,2:2:0:0:
325,218,183303,1,2,3:2:0:0:
325,218,183416,1,8,2:2:0:0:
325,218,183528,1,8,2:2:0:0:
109,70,183754,1,14,2:2:0:0:
119,343,183980,5,0,3:3:0:0:
119,343,184092,1,0,3:3:0:0:
119,343,184205,1,2,3:2:0:0:
119,343,184318,1,2,2:2:0:0:
119,343,184431,6,0,P|166:328|212:314,1,80,4|2,1:2|1:2,0:0:0:0:
378,344,184882,1,10,2:2:0:0:
306,143,185107,1,2,1:2:0:0:
306,143,185220,1,10,2:2:0:0:
306,143,185333,2,0,P|306:194|303:231,1,80,2|2,3:2|1:2,0:0:0:0:
447,118,185784,1,10,2:2:0:0:
278,11,186010,5,2,2:2:0:0:
278,11,186122,1,2,2:2:0:0:
278,11,186235,2,0,P|222:32|183:44,1,80,2|2,1:2|1:2,0:0:0:0:
181,188,186686,1,10,2:2:0:0:
42,120,186912,1,2,1:2:0:0:
42,120,187024,1,10,2:2:0:0:
42,120,187137,2,0,P|21:64|9:25,1,80,2|2,3:2|1:2,0:0:0:0:
204,113,187589,1,10,2:2:0:0:
44,216,187814,6,0,P|79:228|97:238,1,40,2|2,1:2|2:2,0:0:0:0:
112,304,188040,2,0,P|159:290|204:280,1,80,4|2,1:2|0:0,0:0:0:0:
224,273,188378,1,2,2:2:0:0:
224,273,188491,1,10,2:2:0:0:
380,163,188716,1,2,3:2:0:0:
380,163,188829,1,10,2:2:0:0:
380,163,188942,1,2,1:2:0:0:
303,220,189167,1,2,1:2:0:0:
224,273,189393,1,10,2:2:0:0:
237,106,189619,1,2,2:2:0:0:
390,238,189844,6,0,P|394:192|371:154,1,80,2|2,1:2|1:2,0:0:0:0:
354,138,190183,1,2,2:2:0:0:
354,138,190295,1,10,2:2:0:0:
160,192,190521,1,2,3:2:0:0:
160,192,190634,1,10,2:2:0:0:
160,192,190746,1,2,1:2:0:0:
248,68,190972,6,0,P|236:103|248:132,1,40,0|0,3:3|3:3,0:0:0:0:
291,275,191198,2,0,P|288:255|279:237,1,40,8|0,2:2|3:3,0:0:0:0:
123,204,191423,2,0,P|140:194|160:192,1,40,2|0,3:2|3:3,0:0:0:0:
354,138,191649,6,0,P|349:94|346:55,1,80,4|2,1:2|1:2,0:0:0:0:
482,163,192100,1,10,2:2:0:0:
370,279,192325,2,0,P|312:276|261:273,1,80,4|0,1:2|0:0,0:0:0:0:
155,352,192777,1,2,1:2:0:0:
194,183,193002,1,8,2:2:0:0:
276,348,193228,1,2,1:2:0:0:
68,240,193453,5,4,1:2:0:0:
194,183,193679,1,0,1:1:0:0:
318,129,193904,1,8,2:2:0:0:
11,114,194130,5,4,1:2:0:0:
68,240,194356,1,2,2:2:0:0:
68,240,194468,1,8,2:2:0:0:
68,240,194581,1,0,3:3:0:0:
122,364,194807,2,0,P|133:335|149:310,1,40,8|8,2:2|2:2,0:0:0:0:
192,222,195032,2,0,P|194:183|183:159,1,40,2|0,3:2|3:3,0:0:0:0:
141,60,195258,5,12,2:2:0:0:
318,129,195483,1,0,1:1:0:0:
106,153,195709,1,8,2:2:0:0:
254,24,195934,1,0,1:1:0:0:
192,222,196160,1,8,2:2:0:0:
402,60,196386,1,0,1:1:0:0:
141,60,196611,1,8,2:2:0:0:
331,271,196837,1,0,1:1:0:0:
46,288,197062,6,0,P|98:264|205:216,1,160,12|8,2:2|2:2,0:0:0:0:
292,77,197739,1,2,1:2:0:0:
328,286,197964,1,10,2:2:0:0:
424,124,198190,1,0,1:1:0:0:
424,124,198303,1,2,2:2:0:0:
424,124,198416,2,0,P|386:127|369:134,1,40,2|2,3:2|0:0,0:0:0:0:
288,289,198641,2,0,P|326:286|343:279,1,40,2|2,3:2|0:0,0:0:0:0:
308,192,198867,6,0,P|263:125|220:58,1,160,4|0,1:2|3:3,0:0:0:0:
339,32,199543,1,6,1:2:0:0:
168,106,199769,5,2,1:2:0:0:
189,139,199881,1,0,3:3:0:0:
210,173,199994,1,0,3:3:0:0:
232,206,200107,1,0,3:3:0:0:
255,240,200220,2,0,P|217:258|192:259,1,40,8|0,2:2|3:3,0:0:0:0:
107,341,200446,5,2,3:2:0:0:
107,341,200558,1,2,0:0:0:0:
107,341,200671,2,0,P|94:302|111:264,1,80,4|0,1:2|3:3,0:0:0:0:
127,237,201010,1,0,3:3:0:0:
127,237,201122,1,0,3:3:0:0:
301,324,201348,1,2,3:2:0:0:
466,190,201574,6,0,B|445:144|472:101|472:101|479:66|440:16|440:16|356:29|386:113,1,308.000009399414,4|0,1:2|0:0,0:0:0:0:
435,79,216686,5,12,2:2:0:0:
347,135,216912,1,0,0:0:0:0:
260,192,217137,1,0,3:3:0:0:
476,164,217363,1,0,3:3:0:0:
294,55,217589,1,8,2:2:0:0:
324,278,217814,1,12,2:2:0:0:
435,79,218040,1,0,3:3:0:0:
435,79,218152,1,8,2:2:0:0:
435,79,218265,1,8,2:2:0:0:
188,49,218491,6,0,P|210:93|254:183,1,120,14|0,2:2|0:0,0:0:0:0:
260,192,218942,1,0,3:3:0:0:
369,30,219167,1,8,2:2:0:0:
449,221,219393,1,0,3:3:0:0:
449,221,219506,1,8,2:2:0:0:
449,221,219619,2,0,P|435:231|409:248,1,40,8|8,2:2|2:2,0:0:0:0:
309,354,219844,2,0,P|291:335|282:314,1,40,2|0,3:2|3:3,0:0:0:0:
161,219,220070,2,0,P|185:197|201:192,1,40,2|0,3:2|3:3,0:0:0:0:
276,83,220295,2,0,P|298:107|303:123,1,40,2|0,3:2|3:3,0:0:0:0:
95,46,220521,5,8,2:2:0:0:
95,46,220972,6,0,P|118:110|162:223,1,184.000003509522,14|8,2:2|2:2,0:0:0:0:
337,360,221649,1,4,1:2:0:0:
264,142,221874,1,2,2:2:0:0:
159,353,222100,1,10,2:2:0:0:
159,353,222213,1,8,2:2:0:0:
159,353,222325,2,0,P|197:315|230:284,1,92.0000017547608,4|2,1:2|2:2,0:0:0:0:
264,142,222777,1,2,2:2:0:0:
441,250,223002,2,0,P|417:295|391:344,1,92.0000017547608,4|0,1:2|0:0,0:0:0:0:
264,142,223453,1,2,1:2:0:0:
389,47,223679,2,0,P|444:61|496:73,1,92.0000017547608,10|10,2:2|2:2,0:0:0:0:
488,107,224017,5,10,2:2:0:0:
488,107,224130,2,0,P|422:89|296:51,1,184.000003509522,4|10,1:2|2:2,0:0:0:0:
111,27,224807,2,0,B|93:73|93:73|118:108,1,92.0000017547608,4|0,1:2|0:0,0:0:0:0:
19,252,225258,1,2,1:2:0:0:
220,199,225483,1,8,2:2:0:0:
151,367,225709,2,0,P|135:299|107:170,1,184.000003509522,4|2,1:2|1:2,0:0:0:0:
266,86,226386,1,14,2:2:0:0:
242,282,226611,1,2,1:2:0:0:
133,120,226837,1,2,1:2:0:0:
343,188,227062,6,0,P|377:224|385:243,1,46.0000008773804,0|10,3:3|2:2,0:0:0:0:
242,282,227288,2,0,P|206:316|187:324,1,46.0000008773804,10|0,2:2|3:3,0:0:0:0:
164,152,227513,2,0,P|130:116|122:97,1,46.0000008773804,2|0,3:2|3:3,0:0:0:0:
296,100,227739,5,12,2:2:0:0:
164,245,227964,1,2,1:2:0:0:
332,281,228190,1,8,2:2:0:0:
203,89,228416,1,2,1:2:0:0:
397,134,228641,1,10,2:2:0:0:
257,305,228867,1,0,1:1:0:0:
90,154,229092,1,10,2:2:0:0:
256,27,229318,1,0,1:1:0:0:
115,286,229543,5,14,2:2:0:0:
0,102,229769,1,0,1:1:0:0:
225,134,229995,2,0,P|188:170|150:207,1,92.0000017547608,10|2,2:2|1:2,0:0:0:0:
379,8,230446,2,0,P|363:60|388:104,1,92.0000017547608,10|0,2:2|1:1,0:0:0:0:
403,280,230897,2,0,P|364:244|297:241,1,92.0000017547608,10|0,2:2|1:1,0:0:0:0:
255,54,231348,5,14,2:2:0:0:
141,186,231574,1,0,1:1:0:0:
115,148,231686,1,0,3:3:0:0:
109,103,231799,1,8,2:2:0:0:
126,61,231912,1,8,2:2:0:0:
161,32,232025,6,0,P|108:103|140:185,1,184.000003509522,4|0,1:2|3:3,0:0:0:0:
271,332,232701,1,8,2:2:0:0:
241,154,232927,1,2,3:2:0:0:
122,360,233152,6,0,P|155:315|196:260,2,107.999996704102,4|2|2,1:2|2:2|2:2,0:0:0:0:
294,268,234055,2,0,P|271:300|271:334,1,71.9999978027344,2|0,2:2|0:0,0:0:0:0:
285,360,234393,1,2,2:2:0:0:
285,360,234506,1,0,3:3:0:0:
415,296,234731,1,2,2:2:0:0:
370,118,234957,6,0,B|278:108|318:167|217:152,1,160,4|10,1:2|2:2,0:0:0:0:
118,54,235634,2,0,P|97:95|95:120,1,40,2|0,1:2|3:3,0:0:0:0:
12,164,235859,2,0,P|53:185|78:187,1,40,0|0,3:3|0:0,0:0:0:0:
126,295,236085,2,0,P|148:253|147:215,1,80,2|8,1:2|2:2,0:0:0:0:
296,275,236536,5,2,1:2:0:0:
296,275,236649,1,2,0:0:0:0:
296,275,236761,1,2,1:2:0:0:
392,165,236987,2,0,L|399:209,1,40,2|0,2:2|0:0,0:0:0:0:
492,114,237213,1,10,2:2:0:0:
385,56,237438,2,0,L|341:63,1,40,2|10,1:2|2:2,0:0:0:0:
242,134,237664,2,0,L|286:141,1,40,2|0,3:2|0:0,0:0:0:0:
201,234,237889,1,2,1:2:0:0:
155,96,238115,1,8,2:2:0:0:
6,239,238340,5,2,1:2:0:0:
6,239,238453,1,2,0:0:0:0:
6,239,238566,2,0,P|71:210|167:168,1,160,2|10,1:2|2:2,0:0:0:0:
271,210,239243,2,0,P|277:244|271:273,1,40,2|0,1:2|3:3,0:0:0:0:
164,369,239468,2,0,P|160:324|176:297,1,40,0|0,3:3|0:0,0:0:0:0:
297,339,239694,1,2,1:2:0:0:
177,242,239919,1,8,2:2:0:0:
339,160,240145,1,2,1:2:0:0:
124,99,240370,6,0,P|140:145|163:199,1,80,2|2,1:2|0:0,0:0:0:0:
160,203,240709,1,2,2:2:0:0:
160,203,240822,2,0,P|199:184|212:172,1,40,10|0,2:2|0:0,0:0:0:0:
255,70,241047,1,2,1:2:0:0:
339,160,241273,1,2,3:2:0:0:
339,160,241386,1,10,2:2:0:0:
339,160,241498,2,0,P|328:206|317:253,1,80,2|10,1:2|2:2,0:0:0:0:
459,145,241949,1,2,1:2:0:0:
255,70,242175,6,0,P|200:59|118:131,1,160,4|10,1:2|2:2,0:0:0:0:
66,242,242852,1,2,1:2:0:0:
66,242,242964,1,0,3:3:0:0:
66,242,243077,2,0,P|110:222|128:215,1,40,0|2,3:3|0:0,0:0:0:0:
122,118,243303,1,2,1:2:0:0:
253,147,243528,1,8,2:2:0:0:
185,325,243754,5,2,1:2:0:0:
185,325,243867,1,2,2:2:0:0:
185,325,243980,1,2,1:2:0:0:
294,227,244205,1,2,2:2:0:0:
294,227,244318,1,2,0:0:0:0:
294,227,244431,2,0,P|230:237|186:243,1,80,10|0,2:2|1:1,0:0:0:0:
396,292,244882,2,0,P|402:252|394:238,1,40,2|8,3:2|2:2,0:0:0:0:
408,143,245107,2,0,P|368:137|354:145,1,40,0|0,1:1|0:0,0:0:0:0:
294,227,245333,2,0,P|230:237|186:243,1,80,10|2,2:2|1:2,0:0:0:0:
25,126,245784,6,0,P|88:114|151:104,1,120,12|0,2:2|0:0,0:0:0:0:
171,99,246235,1,8,2:2:0:0:
394,73,246461,1,0,1:1:0:0:
242,14,246686,1,8,2:2:0:0:
294,227,246912,1,0,1:1:0:0:
337,14,247137,1,8,2:2:0:0:
184,226,247363,1,0,1:1:0:0:
461,222,247589,6,0,P|401:185|352:154,2,107.999996704102,14|10|4,2:2|2:2|1:2,0:0:0:0:
452,105,248491,1,0,0:0:0:0:
317,218,248716,5,0,3:3:0:0:
281,223,248828,1,0,3:3:0:0:
246,216,248941,1,0,3:3:0:0:
217,195,249054,1,0,3:3:0:0:
184,180,249167,1,0,3:3:0:0:
149,178,249279,1,0,0:0:0:0:
115,190,249393,6,0,P|98:144|114:107,2,83.9999974365235,4|2|2,2:2|0:0|0:0,0:0:0:0:
144,267,250295,6,0,P|97:284|78:278,2,60,2|2|2,0:0|0:0|0:0,0:0:0:0:
217,195,251198,6,0,P|242:192|261:197,2,35.9999989013672,2|2|2,0:0|0:0|0:0,0:0:0:0:
256,192,251987,12,0,255934,0:0:0:0:
