osu file format v14

[General]
AudioFilename: audio.mp3
AudioLeadIn: 0
PreviewTime: 203604
Countdown: 0
SampleSet: Soft
StackLeniency: 0.4
Mode: 0
LetterboxInBreaks: 0
WidescreenStoryboard: 1

[Editor]
DistanceSpacing: 1.4
BeatDivisor: 4
GridSize: 4
TimelineZoom: 1.8

[Metadata]
Title:Aimaimoko
TitleUnicode:アイマイモコ
Artist:Inori Minase
ArtistUnicode:水瀬いのり
Creator:Sekai
Version:AsuKo's Hard
Source:徒然チルドレン
Tags:inorin いのりん tsuredure tsurezure children chirudoren blue compass 2nd second album Sekaii Sekai-nyan j-pop jpop japanese pop female vocalist anime full version opening 白戸佑輔 yusuke shirato haggy rock asukow grazuko LeomineXD Leomine
BeatmapID:4030272
BeatmapSetID:1947713

[Difficulty]
HPDrainRate:4.5
CircleSize:3.8
OverallDifficulty:6
ApproachRate:7.5
SliderMultiplier:1.5
SliderTickRate:1

[Events]
//Background and Video events
Video,-1947,"inorincute.mp4"
0,0,"inorin love.jpg",0,0
//Break Periods
2,204480,215861
//Storyboard Layer 0 (Background)
//Storyboard Layer 1 (Fail)
//Storyboard Layer 2 (Pass)
//Storyboard Layer 3 (Foreground)
//Storyboard Layer 4 (Overlay)
//Storyboard Sound Samples

[TimingPoints]
371,451.127819548872,4,2,1,45,1,0
371,-125,4,2,1,45,0,0
7137,-125,4,2,1,60,0,0
7589,-100,4,2,1,80,0,0
7927,-100,4,2,1,5,0,0
8040,-100,4,2,1,80,0,0
22025,-125,4,2,1,65,0,0
34656,-125,4,2,1,78,0,0
36461,-111.111111111111,4,2,1,70,0,0
50897,-125,4,2,1,75,0,0
58115,-111.111111111111,4,2,1,75,0,0
61724,-100,4,2,1,78,0,0
65558,-100,4,2,1,60,0,0
66686,-111.111111111111,4,2,1,70,0,0
67137,-83.3333333333333,4,2,1,85,0,0
67814,-90.9090909090909,4,2,1,85,0,0
68152,-90.9090909090909,4,2,1,5,0,0
68265,-90.9090909090909,4,2,1,85,0,0
69957,-90.9090909090909,4,2,1,5,0,0
70070,-90.9090909090909,4,2,1,85,0,0
71761,-90.9090909090909,4,2,1,5,0,0
71874,-90.9090909090909,4,2,1,85,0,0
84393,-90.9090909090909,4,2,1,5,0,0
84506,-90.9090909090909,4,2,1,85,0,0
86198,-90.9090909090909,4,2,1,5,0,0
86310,-90.9090909090909,4,2,1,85,0,0
96010,-100,4,2,1,80,0,0
107175,-100,4,2,1,80,0,0
107288,-100,4,2,1,80,0,0
110446,-125,4,2,1,55,0,0
117664,-111.111111111111,4,2,1,65,0,0
121273,-111.111111111111,4,2,1,70,0,0
124882,-125,4,2,1,75,0,0
132100,-111.111111111111,4,2,1,75,0,0
135709,-100,4,2,1,75,0,0
137513,-100,4,2,1,78,0,0
139543,-100,4,2,1,60,0,0
140446,-100,4,2,1,70,0,0
141122,-83.3333333333333,4,2,1,85,0,0
141799,-90.9090909090909,4,2,1,85,0,0
142137,-90.9090909090909,4,2,1,5,0,0
142250,-90.9090909090909,4,2,1,85,0,0
143942,-90.9090909090909,4,2,1,5,0,0
144055,-90.9090909090909,4,2,1,85,0,0
145746,-90.9090909090909,4,2,1,5,0,0
145859,-90.9090909090909,4,2,1,85,0,0
156574,-90.9090909090909,4,2,1,5,0,0
156686,-90.9090909090909,4,2,1,85,0,0
158378,-90.9090909090909,4,2,1,5,0,0
158491,-90.9090909090909,4,2,1,85,0,0
160183,-90.9090909090909,4,2,1,5,0,0
160295,-90.9090909090909,4,2,1,85,0,0
169995,-100,4,2,1,80,0,0
184431,-100,4,2,1,75,0,0
195258,-100,4,2,1,78,0,0
198867,-100,4,2,1,75,0,0
199769,-100,4,2,1,72,0,0
200671,-100,4,2,1,69,0,0
201574,-111.111111111111,4,2,1,66,0,0
203152,-111.111111111111,4,2,1,5,0,0
216010,-111.111111111111,4,2,1,50,0,0
216686,-111.111111111111,4,2,1,75,0,0
220972,-83.3333333333333,4,2,1,85,0,0
221649,-90.9090909090909,4,2,1,85,0,0
223340,-90.9090909090909,4,2,1,5,0,0
223453,-90.9090909090909,4,2,1,85,0,0
224468,-90.9090909090909,4,2,1,5,0,0
224581,-90.9090909090909,4,2,1,85,0,0
226047,-90.9090909090909,4,2,1,5,0,0
226160,-90.9090909090909,4,2,1,85,0,0
233152,-111.111111111111,4,2,1,85,0,0
234957,-100,4,2,1,80,0,0
249393,-125,4,2,1,70,0,0
255934,-125,4,2,1,5,0,0

[Colours]
Combo1 : 255,174,215
Combo2 : 184,147,244
Combo3 : 82,187,243
Combo4 : 255,170,130

[HitObjects]
37,18,371,5,2,2:2:0:0:
0,88,596,2,0,P|46:52|104:59,1,120,2|2,2:2|2:2,0:0:0:0:
241,156,1498,1,2,2:2:0:0:
182,216,1724,1,2,2:2:0:0:
63,335,2175,6,0,P|36:324|7:314,2,60,2|2|2,2:2|2:2|2:2,0:0:0:0:
134,380,2852,2,0,P|181:346|239:355,1,120,2|2,2:2|2:2,0:0:0:0:
469,378,3980,5,2,2:2:0:0:
512,292,4205,2,0,P|456:305|392:324,1,120,2|2,2:2|2:2,0:0:0:0:
303,182,5107,1,2,2:2:0:0:
370,131,5333,1,2,2:2:0:0:
497,30,5784,5,2,2:2:0:0:
509,2,7137,6,0,P|502:16|497:30,3,30,8|2|2|2,2:2|2:2|2:2|2:2,0:0:0:0:
476,61,7589,6,0,B|436:43|436:43|426:20|426:20|375:4,1,112.5,4|0,1:2|0:0,0:0:0:0:
373,13,8040,1,10,2:2:0:0:
287,73,8265,2,0,P|296:103|307:145,1,75,2|0,1:2|3:3,0:0:0:0:
391,208,8716,2,0,P|382:238|371:280,1,75,2|8,1:2|2:2,0:0:0:0:
324,374,9167,1,2,1:2:0:0:
228,330,9393,6,0,P|192:320|157:332,1,75,2|2,1:2|2:2,0:0:0:0:
67,276,9844,1,8,2:2:0:0:
145,206,10070,1,2,1:2:0:0:
145,206,10183,1,2,3:2:0:0:
145,206,10295,2,0,P|130:152|124:122,1,75,2|0,3:2|1:1,0:0:0:0:
187,49,10746,1,8,2:2:0:0:
187,49,10972,1,2,1:2:0:0:
87,14,11198,6,0,P|22:23|4:104,1,150,2|8,1:2|2:2,0:0:0:0:
55,185,11874,2,0,P|118:166|207:142,1,150,2|2,1:2|1:2,0:0:0:0:
295,186,12551,1,8,2:2:0:0:
295,186,12777,1,0,1:1:0:0:
259,284,13002,6,0,P|212:264|185:253,1,75,2|2,1:2|0:0,0:0:0:0:
181,258,13340,1,2,1:2:0:0:
173,263,13453,1,10,2:2:0:0:
261,372,13679,2,0,P|319:354|406:332,1,150,2|0,1:2|1:1,0:0:0:0:
512,331,14355,1,10,2:2:0:0:
512,331,14581,1,0,1:1:0:0:
455,202,14807,6,0,P|416:174|337:193,1,112.5,4|0,1:2|0:0,0:0:0:0:
347,186,15258,1,10,2:2:0:0:
278,106,15483,2,0,P|292:62|306:20,1,75,2|0,1:2|3:3,0:0:0:0:
403,10,15934,2,0,P|414:45|426:81,1,75,2|8,1:2|2:2,0:0:0:0:
465,179,16386,1,2,1:2:0:0:
396,258,16611,6,0,P|363:232|329:234,1,75,2|0,1:2|0:0,0:0:0:0:
325,239,16949,1,0,0:0:0:0:
319,244,17062,1,8,2:2:0:0:
258,157,17288,1,2,1:2:0:0:
174,219,17513,2,0,P|182:247|194:295,1,75,2|2,3:2|1:2,0:0:0:0:
227,366,17964,2,0,P|242:357|275:356,3,37.5,10|8|0|0,2:2|2:2|3:3|3:3,0:0:0:0:
295,377,18416,6,0,P|331:367|368:360,1,75,12|0,2:2|1:1,0:0:0:0:
477,307,18867,2,0,P|494:339|490:376,1,75,10|0,2:2|1:1,0:0:0:0:
382,255,19318,2,0,P|396:214|410:176,1,75,10|0,2:2|1:1,0:0:0:0:
355,87,19769,1,8,2:2:0:0:
440,22,19995,1,0,1:1:0:0:
511,103,20220,6,0,P|498:135|485:173,1,75,14|0,2:2|1:1,0:0:0:0:
482,183,20558,1,10,2:2:0:0:
478,191,20671,1,0,1:1:0:0:
424,276,20897,2,0,B|342:262|361:321|285:311,1,150,2|0,1:2|1:1,0:0:0:0:
214,232,21574,2,0,L|231:189,2,37.5,0|0|2,3:3|3:3|3:2,0:0:0:0:
131,301,22025,6,0,P|106:262|18:259,1,120,4|2,1:2|1:2,0:0:0:0:
1,173,22701,2,0,P|11:131|20:99,1,60,2|0,2:2|0:0,0:0:0:0:
52,39,23152,1,2,2:2:0:0:
129,72,23378,2,0,P|159:57|191:47,1,60,2|2,1:2|2:2,0:0:0:0:
258,0,23829,6,0,P|281:44|247:102,1,120,2|0,1:2|1:1,0:0:0:0:
198,168,24506,1,2,2:2:0:0:
198,168,24731,2,0,P|205:190|218:236,1,60,0|2,1:1|0:0,0:0:0:0:
281,278,25183,2,0,P|302:246|299:213,1,60,8|2,2:2|2:2,0:0:0:0:
215,225,25634,6,0,P|176:238|139:252,1,60,2|2,1:2|2:2,0:0:0:0:
91,198,26085,1,2,1:2:0:0:
25,249,26310,2,0,P|33:272|47:312,1,60,2|0,2:2|0:0,0:0:0:0:
112,372,26761,2,0,P|122:339|132:309,1,60,2|0,2:2|1:1,0:0:0:0:
172,241,27213,1,2,2:2:0:0:
90,197,27438,6,0,P|41:168|38:111,1,120,2|0,1:2|1:1,0:0:0:0:
126,110,28115,1,2,2:2:0:0:
126,110,28340,2,0,P|158:100|192:92,1,60
305,24,28792,2,0,P|272:14|242:7,1,60,8|2,2:2|2:2,0:0:0:0:
163,5,29243,5,2,1:2:0:0:
90,47,29468,2,0,P|100:71|114:115,1,60,2|0,2:2|1:1,0:0:0:0:
143,180,29919,1,2,2:2:0:0:
99,252,30145,2,0,P|58:239|36:233,1,60,2|2,1:2|2:2,0:0:0:0:
0,312,30596,1,0,1:1:0:0:
0,312,31047,6,0,P|45:309|77:357,1,90,2|2,1:2|2:2,0:0:0:0:
79,354,31498,1,0,1:1:0:0:
146,304,31724,1,2,2:2:0:0:
192,373,31949,2,0,P|236:357|333:326,1,120,2|8,1:2|2:2,0:0:0:0:
375,252,32626,1,2,2:2:0:0:
428,317,32852,6,0,P|422:336|407:386,1,60,2|0,1:2|0:0,0:0:0:0:
512,293,33303,2,0,P|502:260|493:232,1,60,2|0,1:2|0:0,0:0:0:0:
436,174,33754,2,0,P|446:141|456:109,1,60,2|0,1:2|0:0,0:0:0:0:
414,42,34205,2,0,P|381:44|360:69,1,60,2|0,1:2|0:0,0:0:0:0:
268,107,34656,5,4,1:2:0:0:
187,57,34882,1,2,3:2:0:0:
112,115,35107,1,10,2:2:0:0:
176,183,35333,2,0,P|234:162|315:141,1,120,4|0,1:2|1:1,0:0:0:0:
377,201,36010,1,0,3:3:0:0:
377,201,36122,1,0,3:3:0:0:
377,201,36235,1,2,3:2:0:0:
294,265,36461,6,0,P|301:290|311:332,1,67.4999979400635,4|0,1:2|0:0,0:0:0:0:
229,379,36912,1,10,2:2:0:0:
145,336,37137,2,0,P|152:303|161:270,1,67.4999979400635,2|0,3:2|3:3,0:0:0:0:
213,190,37589,1,2,1:2:0:0:
138,131,37814,2,0,P|104:134|77:158,1,67.4999979400635,10|2,2:2|2:2,0:0:0:0:
32,237,38265,6,0,P|11:175|-3:137,1,101.249996910095,2|2,1:2|2:2,0:0:0:0:
1,133,38716,1,8,2:2:0:0:
2,38,38942,2,0,P|44:19|122:56,1,134.999995880127,2|0,1:2|1:1,0:0:0:0:
206,92,39619,2,0,P|239:81|278:72,1,67.4999979400635,8|2,2:2|2:2,0:0:0:0:
351,23,40070,6,0,P|383:30|415:41,1,67.4999979400635,2|2,1:2|2:2,0:0:0:0:
495,92,40521,1,10,2:2:0:0:
415,142,40746,2,0,P|383:131|350:123,1,67.4999979400635,2|0,1:2|0:0,0:0:0:0:
443,220,41198,2,0,P|475:211|508:203,1,67.4999979400635,2|8,1:2|2:2,0:0:0:0:
394,294,41649,1,2,2:2:0:0:
308,254,41874,6,0,P|317:222|336:152,1,101.249996910095,2|2,1:2|2:2,0:0:0:0:
338,148,42325,1,8,2:2:0:0:
250,111,42551,2,0,B|180:114|203:156|130:167,1,134.999995880127,2|0,1:2|1:1,0:0:0:0:
43,130,43228,1,8,2:2:0:0:
43,130,43453,1,2,3:2:0:0:
2,215,43679,6,0,P|14:246|24:278,1,67.4999979400635,4|2,1:2|2:2,0:0:0:0:
50,369,44130,1,8,2:2:0:0:
128,314,44355,1,2,3:2:0:0:
128,314,44468,1,0,3:3:0:0:
128,314,44581,1,2,3:2:0:0:
205,368,44807,2,0,P|235:356|285:344,1,67.4999979400635,2|8,1:2|2:2,0:0:0:0:
363,348,45258,1,2,2:2:0:0:
419,273,45483,6,0,P|468:261|512:284,2,101.249996910095,2|2|2,1:2|2:2|1:2,0:0:0:0:
413,278,46273,1,0,0:0:0:0:
408,283,46386,2,0,P|385:191|374:146,1,134.999995880127,2|8,3:2|2:2,0:0:0:0:
338,65,47062,1,2,2:2:0:0:
266,127,47288,6,0,P|229:112|186:106,1,67.4999979400635,2|0,1:2|0:0,0:0:0:0:
131,169,47739,1,10,2:2:0:0:
202,229,47964,2,0,P|256:213|341:189,1,134.999995880127,2|2,1:2|1:2,0:0:0:0:
419,226,48641,1,10,2:2:0:0:
419,226,48867,1,2,2:2:0:0:
500,178,49092,5,4,1:2:0:0:
433,111,49318,1,0,3:3:0:0:
510,56,49543,1,8,2:2:0:0:
415,1,49769,2,0,P|348:5|310:65,1,134.999995880127,4|0,1:2|3:3,0:0:0:0:
240,119,50446,2,0,L|208:103,2,33.7499989700318,8|0|0,2:2|3:3|3:3,0:0:0:0:
299,178,50897,6,0,P|303:207|290:233,1,60,4|0,1:2|0:0,0:0:0:0:
285,240,51235,1,2,2:2:0:0:
279,247,51348,1,8,2:2:0:0:
205,287,51574,1,2,1:2:0:0:
148,224,51799,2,0,P|158:188|167:156,1,60,2|2,2:2|1:2,0:0:0:0:
122,93,52250,1,10,2:2:0:0:
122,93,52476,1,0,0:0:0:0:
43,120,52701,6,0,P|34:66|95:20,1,120,2|10,1:2|2:2,0:0:0:0:
160,10,53378,2,0,P|208:22|279:43,1,120,2|2,1:2|1:2,0:0:0:0:
355,69,54055,1,8,2:2:0:0:
355,69,54506,6,0,P|394:53|444:38,1,90,2|0,1:2|0:0,0:0:0:0:
451,39,54957,1,8,2:2:0:0:
507,101,55183,1,2,3:2:0:0:
448,161,55408,2,0,P|404:140|386:134,1,60,2|2,1:2|2:2,0:0:0:0:
335,197,55859,1,10,2:2:0:0:
335,197,56085,1,0,0:0:0:0:
387,262,56310,6,0,P|445:247|484:267,1,90,2|2,1:2|2:2,0:0:0:0:
479,262,56761,2,0,P|468:285|448:331,1,60,10|2,2:2|2:2,0:0:0:0:
401,382,57213,1,6,1:2:0:0:
356,322,57438,1,0,3:3:0:0:
356,322,57551,1,8,2:2:0:0:
356,322,57664,2,0,P|319:333|292:343,1,60,8|2,2:2|3:2,0:0:0:0:
205,369,58115,6,0,P|164:343|116:355,1,101.249996910095,4|0,1:2|0:0,0:0:0:0:
110,364,58566,1,8,2:2:0:0:
16,380,58792,1,2,1:2:0:0:
0,278,59017,2,0,P|27:286|75:300,1,67.4999979400635,2|2,2:2|1:2,0:0:0:0:
149,253,59468,1,10,2:2:0:0:
149,253,59694,1,2,2:2:0:0:
130,160,59919,6,0,P|84:139|36:151,1,101.249996910095,2|2,1:2|2:2,0:0:0:0:
28,158,60370,1,10,2:2:0:0:
85,83,60596,1,2,1:2:0:0:
0,57,60822,2,0,P|6:25|32:4,1,67.4999979400635,2|8,2:2|2:2,0:0:0:0:
140,28,61273,1,8,2:2:0:0:
140,28,61386,1,8,2:2:0:0:
140,28,61498,1,2,3:2:0:0:
140,28,61611,1,0,3:3:0:0:
140,28,61724,6,0,P|175:40|210:52,1,75,12|0,2:2|1:1,0:0:0:0:
313,30,62175,1,8,2:2:0:0:
384,106,62401,1,2,1:2:0:0:
486,83,62626,2,0,P|499:47|512:12,1,75,10|0,2:2|1:1,0:0:0:0:
384,106,63077,2,0,P|397:141|410:176,1,75,8|2,2:2|1:2,0:0:0:0:
443,276,63528,6,0,P|510:261|526:237,1,75,10|0,2:2|0:0,0:0:0:0:
410,176,63980,2,0,P|375:190|331:208,1,75,8|0,2:2|1:1,0:0:0:0:
250,265,64431,1,8,2:2:0:0:
162,202,64656,1,0,3:3:0:0:
162,202,64769,1,8,2:2:0:0:
162,202,64882,1,8,2:2:0:0:
89,303,65107,1,12,2:2:0:0:
495,375,66461,5,2,1:2:0:0:
442,300,66686,2,0,P|470:282|504:283,1,67.4999979400635,10|0,2:2|1:1,0:0:0:0:
389,370,67137,6,0,B|322:346|322:346|304:310|304:310|238:289,1,179.999994506836,4|8,1:2|2:2,0:0:0:0:
131,353,67814,2,0,P|97:304|120:249,1,123.75000377655,0|0,1:1|0:0,0:0:0:0:
133,244,68265,1,2,1:2:0:0:
233,167,68491,1,10,2:2:0:0:
132,91,68716,1,2,1:2:0:0:
230,12,68942,6,0,P|270:24|326:42,1,82.5000025177003,2|2,1:2|2:2,0:0:0:0:
421,11,69393,1,10,2:2:0:0:
511,112,69619,2,0,P|491:162|465:245,1,123.75000377655,2|0,1:2|0:0,0:0:0:0:
466,250,70070,1,2,1:2:0:0:
401,357,70295,1,10,2:2:0:0:
307,272,70521,1,2,1:2:0:0:
368,162,70746,6,0,P|298:122|224:151,1,165.000005035401,2|10,1:2|2:2,0:0:0:0:
127,214,71423,2,0,P|137:255|162:348,1,123.75000377655,2|0,1:2|0:0,0:0:0:0:
164,357,71874,1,2,1:2:0:0:
54,304,72100,1,8,2:2:0:0:
127,214,72325,6,0,B|180:190|209:225|203:225|221:258|279:245,1,165.000005035401,2|2,1:2|1:2,0:0:0:0:
379,188,73002,1,10,2:2:0:0:
299,103,73228,1,2,1:2:0:0:
299,103,73340,1,2,0:0:0:0:
299,103,73453,2,0,P|312:55|327:14,1,82.5000025177003,2|0,1:2|1:1,0:0:0:0:
199,0,73904,1,8,2:2:0:0:
93,54,74130,1,2,3:2:0:0:
93,54,74243,1,8,2:2:0:0:
93,54,74355,6,0,P|36:30|0:16,1,82.5000025177003,4|2,1:2|2:2,0:0:0:0:
8,20,74694,1,2,2:2:0:0:
1,19,74807,1,8,2:2:0:0:
70,132,75032,1,2,2:2:0:0:
2,226,75258,2,0,P|39:253|82:247,1,82.5000025177003,2|0,1:2|1:1,0:0:0:0:
175,195,75709,2,0,P|155:142|145:112,1,82.5000025177003,8|2,2:2|2:2,0:0:0:0:
217,26,76160,5,2,1:2:0:0:
305,100,76386,1,2,1:2:0:0:
305,100,76498,1,2,2:2:0:0:
305,100,76611,2,0,P|341:88|386:74,1,82.5000025177003,10|2,2:2|2:2,0:0:0:0:
474,3,77062,2,0,B|516:50|516:50|465:138,1,165.000005035401,2|8,1:2|2:2,0:0:0:0:
387,223,77739,1,2,2:2:0:0:
433,328,77964,6,0,P|471:316|520:304,1,82.5000025177003,2|0,1:2|0:0,0:0:0:0:
366,384,78416,2,0,P|327:372|279:360,1,82.5000025177003,10|2,2:2|1:2,0:0:0:0:
180,302,78867,2,0,P|156:333|163:373,1,82.5000025177003,2|0,1:2|1:1,0:0:0:0:
171,381,79205,1,0,0:0:0:0:
180,384,79318,1,8,2:2:0:0:
286,361,79543,1,2,1:2:0:0:
180,302,79769,5,14,2:2:0:0:
275,236,79995,1,2,1:2:0:0:
186,162,80220,1,10,2:2:0:0:
268,81,80446,1,2,3:2:0:0:
268,81,80558,1,8,2:2:0:0:
268,81,80671,1,8,2:2:0:0:
356,155,80897,1,14,2:2:0:0:
465,108,81122,1,2,3:2:0:0:
465,108,81235,1,0,3:3:0:0:
465,108,81348,1,2,3:2:0:0:
384,9,81574,6,0,P|313:7|269:92,1,165.000005035401,4|10,1:2|2:2,0:0:0:0:
192,167,82250,2,0,P|131:150|56:132,1,123.75000377655,0|0,1:1|0:0,0:0:0:0:
61,133,82701,1,2,1:2:0:0:
2,232,82927,1,10,2:2:0:0:
87,313,83152,1,2,1:2:0:0:
27,381,83378,6,0,P|0:351|0:311,1,82.5000025177003,2|2,1:2|2:2,0:0:0:0:
80,224,83829,1,10,2:2:0:0:
183,276,84055,2,0,P|236:261|336:235,1,123.75000377655,2|0,1:2|0:0,0:0:0:0:
312,242,84506,1,2,1:2:0:0:
413,296,84731,1,10,2:2:0:0:
324,371,84957,1,2,1:2:0:0:
448,379,85183,6,0,P|425:252|417:198,1,165.000005035401,2|10,1:2|2:2,0:0:0:0:
498,132,85859,2,0,P|450:95|390:104,1,123.75000377655,2|0,1:2|0:0,0:0:0:0:
383,117,86310,1,2,1:2:0:0:
280,63,86536,1,8,2:2:0:0:
188,133,86761,6,0,B|126:147|126:147|106:180|106:180|28:199,1,165.000005035401,2|2,1:2|1:2,0:0:0:0:
0,80,87438,1,10,2:2:0:0:
97,14,87664,1,2,1:2:0:0:
97,14,87776,1,2,0:0:0:0:
97,14,87889,2,0,P|145:27|186:42,1,82.5000025177003,2|0,1:2|1:1,0:0:0:0:
274,97,88340,2,0,P|312:83|352:73,1,82.5000025177003,12|2,2:2|1:2,0:0:0:0:
456,19,88792,5,4,1:2:0:0:
511,111,89017,1,2,2:2:0:0:
511,111,89130,1,2,2:2:0:0:
511,111,89243,1,8,2:2:0:0:
425,188,89468,1,2,3:2:0:0:
425,188,89581,1,8,2:2:0:0:
425,188,89694,2,0,P|351:163|323:181,1,82.5000025177003,2|0,1:2|1:1,0:0:0:0:
236,153,90145,6,0,P|253:211|271:222,1,82.5000025177003,10|0,2:2|1:1,0:0:0:0:
411,290,90596,2,0,P|352:275|333:285,1,82.5000025177003,2|2,1:2|1:2,0:0:0:0:
219,364,91047,2,0,P|260:320|261:299,1,82.5000025177003,10|2,2:2|3:2,0:0:0:0:
255,295,91386,1,10,2:2:0:0:
249,289,91498,2,0,P|205:299|161:310,1,82.5000025177003,2|0,1:2|1:1,0:0:0:0:
74,375,91949,2,0,P|51:343|54:302,1,82.5000025177003,10|0,2:2|1:1,0:0:0:0:
101,195,92401,6,0,P|164:218|189:227,1,82.5000025177003,14|0,2:2|0:0,0:0:0:0:
274,158,92852,1,8,2:2:0:0:
201,68,93077,1,0,1:1:0:0:
303,5,93303,2,0,P|291:38|274:98,1,82.5000025177003,8|0,2:2|1:1,0:0:0:0:
159,129,93754,2,0,P|147:89|133:50,1,82.5000025177003,8|2,2:2|1:2,0:0:0:0:
13,7,94205,6,0,P|-1:45|15:82,1,82.5000025177003,14|0,2:2|0:0,0:0:0:0:
26,88,94543,2,0,P|42:124|28:162,1,82.5000025177003,10|0,2:2|0:0,0:0:0:0:
19,168,94882,1,10,2:2:0:0:
117,248,95107,2,0,P|65:242|37:261,1,82.5000025177003,14|0,2:2|3:3,0:0:0:0:
38,263,95446,1,10,2:2:0:0:
35,270,95558,2,0,P|44:293|50:317,3,41.2500012588501,8|0|2|0,2:2|3:3|3:2|3:3,0:0:0:0:
57,321,96010,6,0,B|110:335|110:335|128:363|128:363|186:382,1,150,4|10,1:2|2:2,0:0:0:0:
284,344,96686,2,0,B|268:290|263:249|263:249|246:279|218:300,1,150,2|2,3:2|1:2,0:0:0:0:
142,231,97363,2,0,P|153:186|166:155,1,75,8|2,2:2|2:2,0:0:0:0:
243,89,97814,6,0,B|318:71|305:129|385:115,1,150,0|8,1:1|2:2,0:0:0:0:
476,52,98491,1,2,3:2:0:0:
476,52,98604,1,10,2:2:0:0:
476,52,98716,2,0,P|438:12|384:18,1,112.5,2|0,1:2|0:0,0:0:0:0:
375,23,99167,1,8,2:2:0:0:
385,115,99393,1,2,2:2:0:0:
309,188,99619,6,0,B|254:162|254:162|245:132|245:132|192:109,1,150,2|10,1:2|2:2,0:0:0:0:
95,106,100295,1,2,3:2:0:0:
95,106,100408,1,8,2:2:0:0:
95,106,100521,2,0,P|101:137|110:188,1,75,0|0,1:1|1:1,0:0:0:0:
52,268,100972,1,8,2:2:0:0:
52,268,101198,1,2,2:2:0:0:
131,336,101423,6,0,P|164:325|228:308,1,75,2|0,1:2|3:3,0:0:0:0:
211,314,101761,1,10,2:2:0:0:
220,316,101874,1,2,0:0:0:0:
323,299,102100,2,0,B|376:322|376:322|385:352|385:352|439:377,1,150,2|0,1:2|3:3,0:0:0:0:
510,300,102777,1,8,2:2:0:0:
510,300,102889,1,8,2:2:0:0:
510,300,103002,1,0,3:3:0:0:
491,196,103228,6,0,P|423:175|353:228,1,150,4|10,1:2|2:2,0:0:0:0:
274,154,103904,2,0,P|289:80|304:7,1,150,2|2,3:2|1:2,0:0:0:0:
398,54,104581,1,8,2:2:0:0:
398,54,104807,1,2,2:2:0:0:
491,7,105032,6,0,P|514:58|455:133,1,150,0|8,1:1|2:2,0:0:0:0:
370,174,105709,1,2,3:2:0:0:
370,174,105822,1,8,2:2:0:0:
370,174,105934,2,0,P|322:158|296:150,1,75,0|2,1:1|1:2,0:0:0:0:
217,218,106386,1,10,2:2:0:0:
217,218,106611,1,2,1:2:0:0:
303,277,106837,6,0,P|353:255|403:277,1,112.5,12|0,2:2|0:0,0:0:0:0:
410,286,107288,2,0,P|399:315|382:360,1,75,8|2,2:2|1:2,0:0:0:0:
268,384,107739,2,0,P|254:348|241:313,1,75,8|0,2:2|1:1,0:0:0:0:
173,233,108190,2,0,P|186:197|199:162,1,75,8|0,2:2|1:1,0:0:0:0:
101,294,108641,6,0,P|56:281|27:272,1,75,4|2,1:2|0:0,0:0:0:0:
21,276,108980,1,2,3:2:0:0:
14,278,109092,1,2,0:0:0:0:
104,378,109318,1,10,2:2:0:0:
104,378,109769,2,0,P|170:363|253:344,1,150,14|2,2:2|2:2,0:0:0:0:
328,375,110446,6,0,P|335:327|273:268,1,120,4|2,1:2|2:2,0:0:0:0:
233,214,111122,2,0,P|198:224|171:239,1,60,2|0,2:2|0:0,0:0:0:0:
135,153,111574,1,2,2:2:0:0:
135,153,111799,2,0,P|162:140|190:131,1,60,2|2,2:2|2:2,0:0:0:0:
218,51,112250,6,0,P|255:21|331:37,1,120,2|0,2:2|0:0,0:0:0:0:
387,91,112927,2,0,P|375:139|358:209,1,120,2|2,2:2|0:0,0:0:0:0:
306,273,113604,2,0,P|269:252|250:245,1,60,2|2,0:0|2:2,0:0:0:0:
348,345,114056,6,0,P|380:334|408:325,1,60,2|2,2:2|2:2,0:0:0:0:
479,365,114507,1,2,2:2:0:0:
507,286,114732,2,0,P|497:257|487:229,1,60,2|2,0:0|2:2,0:0:0:0:
430,167,115183,2,0,P|440:134|451:105,1,60,2|0,2:2|0:0,0:0:0:0:
505,47,115635,1,2,2:2:0:0:
434,2,115859,6,0,P|390:14|312:39,1,120,2|0,2:2|0:0,0:0:0:0:
268,104,116537,1,2,2:2:0:0:
268,104,116761,2,0,P|256:132|263:159,1,60,2|0,0:0|0:0,0:0:0:0:
332,209,117214,2,0,P|365:199|395:192,1,60,2|2,0:0|2:2,0:0:0:0:
434,276,117665,5,4,1:2:0:0:
356,329,117890,2,0,P|323:318|292:310,1,67.4999979400635,2|0,2:2|1:1,0:0:0:0:
211,258,118341,1,2,2:2:0:0:
138,319,118567,2,0,P|146:352|154:385,1,67.4999979400635,2|2,1:2|2:2,0:0:0:0:
56,305,119018,1,8,2:2:0:0:
56,305,119468,6,0,P|75:230|85:194,1,101.249996910095,2|2,1:2|2:2,0:0:0:0:
88,200,119920,1,2,1:2:0:0:
177,168,120146,1,2,2:2:0:0:
165,74,120370,2,0,P|99:49|40:102,1,134.999995880127,2|8,1:2|2:2,0:0:0:0:
0,163,121048,1,2,2:2:0:0:
48,243,121273,6,0,P|81:232|130:215,1,67.4999979400635,4|0,1:2|0:0,0:0:0:0:
188,277,121724,1,10,2:2:0:0:
258,214,121949,2,0,P|242:171|233:141,1,67.4999979400635,2|0,1:2|0:0,0:0:0:0:
172,79,122401,1,2,2:2:0:0:
172,79,122626,1,10,2:2:0:0:
253,30,122852,6,0,B|302:47|302:47|318:74|318:74|376:99,1,134.999995880127,4|2,1:2|3:2,0:0:0:0:
425,167,123529,1,2,3:2:0:0:
368,242,123754,2,0,B|320:221|320:221|304:194|304:194|255:177,1,134.999995880127,14|0,2:2|3:3,0:0:0:0:
184,238,124432,1,8,2:2:0:0:
184,238,124544,1,8,2:2:0:0:
184,238,124657,1,0,3:3:0:0:
215,315,124882,6,0,P|245:301|277:289,1,60,4|2,1:2|0:0,0:0:0:0:
279,291,125220,1,2,2:2:0:0:
288,294,125333,1,10,2:2:0:0:
358,340,125559,1,2,1:2:0:0:
430,297,125784,2,0,P|438:268|446:239,1,60,2|2,2:2|1:2,0:0:0:0:
508,350,126235,1,10,2:2:0:0:
508,350,126461,1,2,1:2:0:0:
415,384,126686,6,0,P|355:369|297:357,1,120,2|10,1:2|2:2,0:0:0:0:
216,309,127363,2,0,P|157:321|99:335,1,120,2|2,1:2|1:2,0:0:0:0:
7,355,128040,1,10,2:2:0:0:
7,355,128491,6,0,P|-4:308|21:273,1,90,2|2,1:2|2:2,0:0:0:0:
29,270,128942,1,10,2:2:0:0:
109,293,129168,1,2,1:2:0:0:
173,239,129393,2,0,P|162:211|148:184,1,60,2|2,1:2|2:2,0:0:0:0:
114,112,129844,1,10,2:2:0:0:
114,112,130070,1,0,0:0:0:0:
171,50,130295,6,0,P|124:21|88:26,1,90,2|2,1:2|2:2,0:0:0:0:
78,29,130746,2,0,P|50:41|23:53,1,60,14|2,2:2|3:2,0:0:0:0:
19,58,131085,1,0,3:3:0:0:
16,64,131198,1,2,3:2:0:0:
81,116,131423,2,0,P|74:140|61:180,1,60,0|0,3:3|3:3,0:0:0:0:
2,231,131874,1,2,3:2:0:0:
74,303,132100,6,0,P|115:291|180:275,1,101.249996910095,4|2,1:2|2:2,0:0:0:0:
180,279,132551,1,2,0:0:0:0:
262,326,132777,1,2,3:2:0:0:
325,258,133002,2,0,P|329:225|314:195,1,67.4999979400635,2|0,2:2|0:0,0:0:0:0:
255,127,133453,1,0,3:3:0:0:
255,127,133679,1,2,3:2:0:0:
330,55,133904,6,0,P|394:47|439:95,1,134.999995880127,4|2,1:2|0:0,0:0:0:0:
507,166,134581,1,2,3:2:0:0:
463,250,134807,2,0,P|474:299|485:348,1,101.249996910095,2|2,2:2|2:2,0:0:0:0:
484,362,135258,2,0,P|454:349|421:350,1,67.4999979400635,8|2,2:2|3:2,0:0:0:0:
343,279,135709,6,0,P|355:237|366:196,1,75,4|2,1:2|0:0,0:0:0:0:
294,127,136160,1,10,2:2:0:0:
223,205,136386,1,2,2:2:0:0:
134,149,136611,2,0,P|147:113|160:78,1,75,2|2,1:2|1:2,0:0:0:0:
46,173,137062,2,0,P|59:208|72:243,1,75,8|2,2:2|2:2,0:0:0:0:
69,352,137513,6,0,P|36:370|0:369,1,75,4|0,1:2|1:1,0:0:0:0:
72,243,137965,2,0,P|107:257|151:275,1,75,10|2,2:2|1:2,0:0:0:0:
232,324,138416,1,10,2:2:0:0:
324,270,138641,1,2,3:2:0:0:
324,270,138754,1,0,3:3:0:0:
324,270,138867,1,2,3:2:0:0:
221,160,139092,1,12,2:2:0:0:
512,15,140446,5,12,2:2:0:0:
435,86,140671,2,0,P|393:73|353:64,1,75,2|0,3:2|3:3,0:0:0:0:
353,66,141010,1,0,0:0:0:0:
343,67,141122,6,0,B|284:55|260:99|270:96|249:140|182:130,1,179.999994506836,4|8,1:2|2:2,0:0:0:0:
73,103,141799,2,0,P|39:152|74:217,1,123.75000377655,2|0,1:2|0:0,0:0:0:0:
66,215,142250,1,2,1:2:0:0:
174,254,142476,1,10,2:2:0:0:
86,328,142701,1,2,1:2:0:0:
189,379,142927,6,0,P|228:366|267:354,1,82.5000025177003,2|2,1:2|2:2,0:0:0:0:
380,382,143378,1,10,2:2:0:0:
485,333,143604,2,0,P|475:280|387:268,1,123.75000377655,2|0,1:2|0:0,0:0:0:0:
406,258,144055,1,2,1:2:0:0:
309,194,144280,1,10,2:2:0:0:
403,126,144506,1,2,1:2:0:0:
313,53,144731,6,0,B|254:70|254:70|236:102|236:102|171:120,1,165.000005035401,2|10,1:2|2:2,0:0:0:0:
192,234,145408,2,0,P|246:214|330:187,1,123.75000377655,2|0,1:2|0:0,0:0:0:0:
317,197,145859,1,2,1:2:0:0:
390,286,146085,1,10,2:2:0:0:
299,357,146310,6,0,B|241:370|223:337|229:337|200:302|147:326,1,165.000005035401,2|2,1:2|1:2,0:0:0:0:
40,372,146987,1,10,2:2:0:0:
0,275,147213,1,2,1:2:0:0:
0,275,147325,1,2,0:0:0:0:
0,275,147438,2,0,P|13:227|28:186,1,82.5000025177003,2|0,1:2|1:1,0:0:0:0:
66,88,147889,1,8,2:2:0:0:
167,163,148115,1,2,3:2:0:0:
167,163,148228,1,10,2:2:0:0:
167,163,148340,6,0,P|224:139|260:125,1,82.5000025177003,6|2,1:2|2:2,0:0:0:0:
251,129,148679,1,2,2:2:0:0:
259,128,148792,1,8,2:2:0:0:
351,59,149017,1,2,2:2:0:0:
255,2,149243,2,0,P|214:1|183:26,1,82.5000025177003,2|0,1:2|1:1,0:0:0:0:
115,120,149694,2,0,P|128:159|143:197,1,82.5000025177003,8|2,2:2|2:2,0:0:0:0:
214,288,150145,5,2,1:2:0:0:
303,213,150371,1,2,1:2:0:0:
303,213,150483,1,2,2:2:0:0:
303,213,150596,2,0,P|339:201|384:187,1,82.5000025177003,8|2,2:2|2:2,0:0:0:0:
482,244,151047,2,0,P|502:136|514:73,1,165.000005035401,2|8,1:2|2:2,0:0:0:0:
424,6,151724,1,2,2:2:0:0:
321,59,151949,6,0,P|283:47|234:35,1,82.5000025177003,2|0,1:2|0:0,0:0:0:0:
129,7,152401,2,0,P|89:17|49:29,1,82.5000025177003,10|0,2:2|1:1,0:0:0:0:
168,110,152852,2,0,P|207:120|247:132,1,82.5000025177003,2|2,2:2|1:2,0:0:0:0:
256,135,153190,1,2,2:2:0:0:
265,139,153303,1,10,2:2:0:0:
372,180,153528,1,2,1:2:0:0:
288,260,153754,5,10,2:2:0:0:
347,359,153980,1,2,1:2:0:0:
461,347,154205,1,14,2:2:0:0:
478,239,154431,1,2,3:2:0:0:
478,239,154543,1,8,2:2:0:0:
478,239,154656,1,8,2:2:0:0:
372,180,154882,1,14,2:2:0:0:
482,120,155107,1,2,3:2:0:0:
482,120,155220,1,0,3:3:0:0:
482,120,155333,1,2,3:2:0:0:
373,48,155558,6,0,B|326:88|326:88|378:192,1,165.000005035401,4|10,1:2|2:2,0:0:0:0:
298,260,156235,2,0,P|237:243|162:225,1,123.75000377655,2|0,1:2|0:0,0:0:0:0:
167,226,156686,1,2,1:2:0:0:
82,146,156912,1,10,2:2:0:0:
6,233,157137,1,2,1:2:0:0:
74,325,157363,6,0,P|114:313|169:296,1,82.5000025177003,2|2,1:2|2:2,0:0:0:0:
266,341,157814,1,10,2:2:0:0:
346,257,158040,2,0,P|359:200|319:157,1,123.75000377655,2|0,1:2|0:0,0:0:0:0:
309,159,158491,1,2,1:2:0:0:
198,192,158716,1,10,2:2:0:0:
119,107,158942,1,2,1:2:0:0:
218,48,159167,6,0,B|282:62|282:62|294:89|294:89|361:111,1,165.000005035401,2|10,1:2|2:2,0:0:0:0:
465,60,159844,2,0,P|425:14|366:16,1,123.75000377655,2|0,1:2|0:0,0:0:0:0:
359,23,160295,1,2,1:2:0:0:
267,94,160521,1,8,2:2:0:0:
174,25,160746,6,0,P|99:45|6:69,1,165.000005035401,6|2,1:2|1:2,0:0:0:0:
96,148,161423,1,10,2:2:0:0:
0,217,161649,1,2,1:2:0:0:
0,217,161761,1,2,0:0:0:0:
0,217,161874,2,0,P|9:255|22:311,1,82.5000025177003,2|0,1:2|1:1,0:0:0:0:
110,368,162325,2,0,P|148:353|188:343,1,82.5000025177003,8|2,2:2|1:2,0:0:0:0:
299,307,162777,5,4,1:2:0:0:
398,382,163002,1,2,2:2:0:0:
398,382,163115,1,2,2:2:0:0:
398,382,163228,1,8,2:2:0:0:
512,384,163453,1,2,3:2:0:0:
512,384,163566,1,8,2:2:0:0:
512,384,163679,2,0,P|493:326|484:299,1,82.5000025177003,2|0,1:2|1:2,0:0:0:0:
428,181,164130,6,0,P|370:198|359:216,1,82.5000025177003,10|0,2:2|1:1,0:0:0:0:
291,356,164581,2,0,P|306:297|296:278,1,82.5000025177003,2|0,1:2|0:0,0:0:0:0:
217,164,165032,2,0,P|261:205|282:206,1,82.5000025177003,10|2,2:2|3:2,0:0:0:0:
286,200,165371,1,8,2:2:0:0:
292,194,165483,2,0,P|301:144|310:106,1,82.5000025177003,2|0,1:2|1:1,0:0:0:0:
233,24,165934,2,0,P|267:0|307:4,1,82.5000025177003,10|0,2:2|1:1,0:0:0:0:
423,13,166386,6,0,P|408:51|394:90,1,82.5000025177003,14|0,2:2|0:0,0:0:0:0:
386,205,166837,1,8,2:2:0:0:
489,155,167062,1,0,1:1:0:0:
394,90,167288,2,0,P|354:101|315:115,1,82.5000025177003,8|0,2:2|1:1,0:0:0:0:
227,197,167739,2,0,P|188:183|148:171,1,82.5000025177003,8|2,2:2|1:2,0:0:0:0:
35,196,168190,6,0,P|49:158|33:121,1,82.5000025177003,6|0,1:2|0:0,0:0:0:0:
22,115,168528,2,0,P|6:79|20:41,1,82.5000025177003,2|0,0:0|0:0,0:0:0:0:
29,35,168867,1,0,0:0:0:0:
139,2,169092,2,0,P|176:13|225:27,1,82.5000025177003,10|0,2:2|3:3,0:0:0:0:
225,30,169431,1,10,2:2:0:0:
232,35,169543,2,0,P|268:25|322:14,1,82.5000025177003,8|2,2:2|3:2,0:0:0:0:
187,129,169995,6,0,P|200:190|222:288,1,150,4|10,1:2|2:2,0:0:0:0:
166,355,170671,2,0,P|198:373|235:372,1,75,2|2,1:2|3:2,0:0:0:0:
245,373,171010,1,10,2:2:0:0:
252,370,171122,1,2,1:2:0:0:
342,316,171348,2,0,P|329:270|317:227,1,75,8|2,2:2|1:2,0:0:0:0:
241,181,171799,6,0,P|186:187|156:233,1,112.5,2|0,1:2|0:0,0:0:0:0:
155,242,172250,1,8,2:2:0:0:
54,211,172476,1,2,1:2:0:0:
54,211,172589,1,8,2:2:0:0:
54,211,172701,2,0,P|71:160|80:133,1,75,2|0,3:2|1:1,0:0:0:0:
178,110,173152,2,0,P|182:68|152:32,1,75,10|2,2:2|1:2,0:0:0:0:
158,39,173491,1,0,0:0:0:0:
149,37,173604,6,0,P|201:27|286:12,1,112.5,2|2,1:2|1:2,0:0:0:0:
268,19,174055,1,8,2:2:0:0:
363,61,174280,1,2,1:2:0:0:
317,156,174506,2,0,P|277:144|242:133,1,75,2|0,2:2|1:1,0:0:0:0:
374,244,174957,1,8,2:2:0:0:
374,244,175183,1,2,1:2:0:0:
461,168,175408,6,0,P|479:95|499:23,1,150,2|10,1:2|2:2,0:0:0:0:
398,51,176085,1,2,1:2:0:0:
398,51,176198,1,10,2:2:0:0:
398,51,176310,2,0,P|390:85|380:130,1,75,2|0,3:2|1:1,0:0:0:0:
324,212,176761,2,0,P|331:246|342:291,1,75,10|2,2:2|1:2,0:0:0:0:
407,367,177213,6,0,P|347:325|278:347,1,150,4|8,1:2|2:2,0:0:0:0:
188,302,177889,1,2,1:2:0:0:
188,302,178002,1,10,2:2:0:0:
188,302,178115,2,0,P|147:313|111:324,1,75,0|0,3:3|1:1,0:0:0:0:
2,349,178566,1,10,2:2:0:0:
2,349,178792,1,2,1:2:0:0:
18,245,179017,6,0,P|9:208|0:172,1,75,2|2,1:2|2:2,0:0:0:0:
0,165,179355,1,0,0:0:0:0:
0,158,179468,1,10,2:2:0:0:
78,88,179694,2,0,B|132:110|132:110|139:138|139:138|194:167,1,150,4|2,1:2|1:2,0:0:0:0:
269,95,180370,1,10,2:2:0:0:
378,127,180596,1,2,1:2:0:0:
378,127,180709,1,2,1:2:0:0:
378,127,180822,6,0,P|364:162|352:197,1,75,6|2,1:2|2:2,0:0:0:0:
282,276,181273,2,0,P|270:310|282:345,1,75,10|2,2:2|1:2,0:0:0:0:
287,351,181611,1,10,2:2:0:0:
293,356,181724,2,0,P|329:347|365:338,1,75,2|2,3:2|1:2,0:0:0:0:
468,314,182175,1,10,2:2:0:0:
511,222,182401,1,2,2:2:0:0:
511,222,182513,1,0,0:0:0:0:
511,222,182626,6,0,P|498:167|492:134,1,75,4|2,1:2|1:2,0:0:0:0:
508,43,183077,2,0,P|471:40|439:59,1,75,10|2,2:2|3:2,0:0:0:0:
434,67,183416,1,8,2:2:0:0:
429,75,183528,1,8,2:2:0:0:
339,132,183754,2,0,P|268:108|197:86,1,150,14|2,2:2|3:2,0:0:0:0:
190,82,184318,1,2,2:2:0:0:
180,85,184431,6,0,P|153:109|104:115,1,75,4|2,1:2|1:2,0:0:0:0:
11,101,184882,2,0,P|27:49|37:17,1,75,10|2,2:2|1:2,0:0:0:0:
39,24,185220,1,10,2:2:0:0:
43,19,185333,2,0,P|80:15|110:36,1,75,2|2,3:2|1:2,0:0:0:0:
211,5,185784,1,10,2:2:0:0:
300,60,186010,1,2,2:2:0:0:
300,60,186122,1,2,2:2:0:0:
300,60,186235,6,0,P|331:45|378:30,1,75,2|2,1:2|1:2,0:0:0:0:
466,70,186686,2,0,P|449:103|432:136,1,75,10|2,2:2|1:2,0:0:0:0:
427,144,187025,1,10,2:2:0:0:
423,152,187137,1,2,3:2:0:0:
337,214,187363,2,0,P|327:249|341:283,1,75,2|10,1:2|2:2,0:0:0:0:
418,369,187814,1,2,1:2:0:0:
418,369,187927,1,2,2:2:0:0:
418,369,188040,6,0,P|451:359|497:348,1,75,4|2,1:2|0:0,0:0:0:0:
498,347,188378,1,2,2:2:0:0:
505,344,188491,1,10,2:2:0:0:
441,260,188716,1,2,3:2:0:0:
441,260,188829,1,10,2:2:0:0:
441,260,188942,2,0,P|404:268|368:279,1,75,2|2,1:2|1:2,0:0:0:0:
293,352,189393,1,10,2:2:0:0:
293,352,189619,1,2,2:2:0:0:
217,277,189844,6,0,P|181:278|150:299,1,75,2|2,1:2|1:2,0:0:0:0:
145,306,190183,1,2,2:2:0:0:
140,313,190295,1,10,2:2:0:0:
64,239,190521,2,0,L|78:193,2,37.5,2|10|2,3:2|2:2|1:2,0:0:0:0:
0,326,190972,1,0,3:3:0:0:
0,326,191085,1,0,3:3:0:0:
0,326,191198,1,8,2:2:0:0:
91,377,191423,1,2,3:2:0:0:
160,297,191649,6,0,P|144:236|135:202,1,75,4|2,1:2|1:2,0:0:0:0:
218,152,192100,1,10,2:2:0:0:
178,53,192325,2,0,P|139:61|95:78,1,75,4|0,1:2|0:0,0:0:0:0:
3,97,192777,2,0,P|-8:61|5:27,1,75,2|8,1:2|2:2,0:0:0:0:
106,73,193228,1,2,1:2:0:0:
190,11,193453,6,0,P|223:19|264:30,1,75,4|0,1:2|1:1,0:0:0:0:
270,34,193792,1,0,0:0:0:0:
277,39,193904,1,8,2:2:0:0:
379,13,194130,1,4,1:2:0:0:
463,73,194355,2,0,P|449:107|436:143,1,75,2|0,2:2|3:3,0:0:0:0:
350,201,194807,1,8,2:2:0:0:
350,201,194919,1,8,2:2:0:0:
350,201,195032,1,2,3:2:0:0:
420,279,195258,6,0,P|455:268|502:254,1,75,12|0,2:2|1:1,0:0:0:0:
374,372,195709,2,0,P|338:361|302:350,1,75,8|0,2:2|1:1,0:0:0:0:
201,280,196160,2,0,P|224:251|260:241,1,75,8|0,2:2|1:1,0:0:0:0:
332,155,196611,2,0,P|322:118|312:82,1,75,8|0,2:2|1:1,0:0:0:0:
403,14,197062,6,0,P|467:16|513:87,1,150,12|8,2:2|2:2,0:0:0:0:
446,171,197739,1,2,1:2:0:0:
332,155,197964,2,0,P|288:166|240:179,1,75,10|0,2:2|1:1,0:0:0:0:
253,179,198303,1,2,2:2:0:0:
247,186,198416,1,2,3:2:0:0:
162,124,198641,1,2,3:2:0:0:
70,198,198867,6,0,B|29:246|29:246|81:315,1,150,4|0,1:2|3:3,0:0:0:0:
165,378,199543,1,6,1:2:0:0:
249,315,199769,2,0,P|233:257|229:242,1,75,2|0,1:2|3:3,0:0:0:0:
156,166,200220,1,8,2:2:0:0:
156,166,200446,1,2,3:2:0:0:
239,96,200671,6,0,B|292:115|292:115|301:147|301:147|354:175,1,150,4|0,1:2|3:3,0:0:0:0:
451,211,201348,1,2,3:2:0:0:
391,275,201574,6,0,B|325:257|251:330|251:330|256:233|165:199|172:127|172:127|185:39|307:29|331:111|331:111|403:65|490:145|444:224,1,809.999975280762,4|0,1:2|0:0,0:0:0:0:
8,380,216686,6,0,P|19:337|31:298,1,67.4999979400635,12|0,2:2|0:0,0:0:0:0:
0,221,217137,1,0,3:3:0:0:
0,221,217363,1,0,3:3:0:0:
72,160,217589,1,8,2:2:0:0:
148,215,217814,2,0,P|179:202|227:187,1,67.4999979400635,12|0,2:2|3:3,0:0:0:0:
219,193,218152,1,8,2:2:0:0:
226,195,218265,1,8,2:2:0:0:
319,116,218491,6,0,P|286:54|220:52,1,134.999995880127,14|0,2:2|3:3,0:0:0:0:
138,16,219167,1,8,2:2:0:0:
60,69,219393,1,0,3:3:0:0:
60,69,219506,1,8,2:2:0:0:
60,69,219619,1,8,2:2:0:0:
121,153,219844,1,2,3:2:0:0:
121,153,219957,1,0,3:3:0:0:
121,153,220070,2,0,L|159:134,3,33.7499989700318,2|0|2|0,3:2|3:3|3:2|3:3,0:0:0:0:
161,142,220521,1,8,2:2:0:0:
161,142,220972,6,0,B|216:163|247:119|238:119|270:82|325:102,1,179.999994506836,14|8,2:2|2:2,0:0:0:0:
428,49,221649,1,4,1:2:0:0:
511,127,221874,1,2,2:2:0:0:
425,205,222100,1,10,2:2:0:0:
425,205,222213,1,8,2:2:0:0:
425,205,222325,6,0,P|374:186|341:179,1,82.5000025177003,4|2,1:2|2:2,0:0:0:0:
242,230,222777,1,2,2:2:0:0:
293,333,223002,2,0,P|347:316|416:298,1,123.75000377655,4|0,1:2|0:0,0:0:0:0:
422,301,223453,1,2,1:2:0:0:
509,225,223679,1,10,2:2:0:0:
429,142,223904,1,10,2:2:0:0:
429,142,224017,1,10,2:2:0:0:
429,142,224130,6,0,P|447:95|478:25,1,123.75000377655,4|0,1:2|0:0,0:0:0:0:
483,20,224581,1,10,2:2:0:0:
367,14,224807,2,0,P|324:27|282:41,1,82.5000025177003,4|0,1:2|0:0,0:0:0:0:
182,92,225258,2,0,P|142:79|103:67,1,82.5000025177003,2|8,1:2|2:2,0:0:0:0:
228,192,225709,6,0,P|288:187|334:225,1,123.75000377655,4|0,1:2|0:0,0:0:0:0:
339,234,226160,1,2,1:2:0:0:
388,338,226386,1,14,2:2:0:0:
279,377,226611,2,0,P|234:362|192:356,1,82.5000025177003,2|2,1:2|1:2,0:0:0:0:
91,375,227062,1,0,3:3:0:0:
91,375,227175,1,10,2:2:0:0:
91,375,227288,1,10,2:2:0:0:
3,299,227513,1,2,3:2:0:0:
3,299,227626,1,0,3:3:0:0:
3,299,227739,6,0,P|14:244|27:195,1,82.5000025177003,12|2,2:2|1:2,0:0:0:0:
25,214,228077,1,0,0:0:0:0:
30,208,228190,1,8,2:2:0:0:
84,105,228416,1,2,1:2:0:0:
170,180,228641,2,0,P|228:163|239:145,1,82.5000025177003,10|0,2:2|1:1,0:0:0:0:
307,5,229092,2,0,P|292:64|302:83,1,82.5000025177003,10|0,2:2|1:1,0:0:0:0:
385,198,229543,6,0,P|341:157|320:156,1,82.5000025177003,14|0,2:2|1:1,0:0:0:0:
316,162,229882,1,0,0:0:0:0:
310,168,229994,2,0,P|320:212|331:256,1,82.5000025177003,10|2,2:2|1:2,0:0:0:0:
417,323,230446,2,0,P|463:297|499:283,1,82.5000025177003,10|0,2:2|1:1,0:0:0:0:
331,380,230897,2,0,P|285:354|249:340,1,82.5000025177003,10|0,2:2|1:1,0:0:0:0:
144,369,231348,6,0,P|135:330|154:294,1,82.5000025177003,14|0,2:2|1:1,0:0:0:0:
161,293,231686,1,0,3:3:0:0:
168,292,231799,1,8,2:2:0:0:
175,292,231912,1,8,2:2:0:0:
183,293,232025,2,0,P|171:232|164:204,1,82.5000025177003,4|0,1:2|0:0,0:0:0:0:
249,131,232476,1,0,3:3:0:0:
194,29,232701,1,8,2:2:0:0:
82,59,232927,1,2,3:2:0:0:
142,131,233152,6,0,P|93:145|45:162,2,101.249996910095,4|2|2,1:2|2:2|2:2,0:0:0:0:
249,131,234055,2,0,P|297:145|345:162,2,101.249996910095,2|2|2,2:2|2:2|2:2,0:0:0:0:
283,31,234957,6,0,P|348:0|417:24,1,150,4|10,1:2|2:2,0:0:0:0:
505,81,235634,2,0,P|486:143|464:228,1,150,2|2,1:2|1:2,0:0:0:0:
505,321,236310,1,8,2:2:0:0:
505,321,236536,1,2,1:2:0:0:
413,371,236761,6,0,B|363:339|363:339|356:306|356:306|306:278,1,150,2|10,1:2|2:2,0:0:0:0:
212,231,237438,1,2,1:2:0:0:
212,231,237551,1,10,2:2:0:0:
212,231,237664,2,0,P|194:182|184:150,1,75,2|2,3:2|1:2,0:0:0:0:
185,153,238002,1,0,0:0:0:0:
184,146,238115,1,8,2:2:0:0:
267,78,238340,1,2,1:2:0:0:
181,16,238566,6,0,P|114:25|78:108,1,150,2|10,1:2|2:2,0:0:0:0:
4,168,239243,2,0,P|75:141|170:113,1,150,2|2,1:2|1:2,0:0:0:0:
253,133,239919,1,8,2:2:0:0:
253,133,240145,1,2,1:2:0:0:
237,240,240370,6,0,P|186:219|150:206,1,75,2|2,1:2|0:0,0:0:0:0:
159,214,240709,1,2,2:2:0:0:
151,219,240822,1,10,2:2:0:0:
58,256,241047,1,2,1:2:0:0:
58,256,241160,1,0,0:0:0:0:
58,256,241273,2,0,P|36:225|37:188,1,75,2|2,3:2|1:2,0:0:0:0:
114,107,241724,2,0,P|97:52|90:30,1,75,10|2,2:2|1:2,0:0:0:0:
204,157,242175,6,0,P|269:135|355:110,1,150,4|10,1:2|2:2,0:0:0:0:
442,157,242852,2,0,P|449:192|431:225,1,75,2|0,1:2|3:3,0:0:0:0:
347,288,243303,2,0,P|299:273|268:265,1,75,2|8,1:2|2:2,0:0:0:0:
183,215,243754,1,2,1:2:0:0:
86,256,243980,6,0,P|61:322|108:375,1,150,2|10,1:2|2:2,0:0:0:0:
202,329,244656,1,0,1:1:0:0:
291,383,244882,2,0,P|331:372|370:364,1,75,2|0,3:2|1:1,0:0:0:0:
466,381,245333,2,0,P|476:345|459:312,1,75,10|2,2:2|1:2,0:0:0:0:
376,236,245784,6,0,P|340:248|305:262,1,75,12|0,2:2|0:0,0:0:0:0:
442,159,246235,2,0,P|477:171|512:185,1,75,8|0,2:2|1:1,0:0:0:0:
370,88,246686,2,0,P|334:100|299:114,1,75,8|0,2:2|1:1,0:0:0:0:
201,152,247137,2,0,P|166:137|130:125,1,75,8|0,2:2|1:1,0:0:0:0:
56,48,247589,6,0,P|16:84|18:138,1,112.5,14|10,2:2|2:2,0:0:0:0:
24,146,248040,1,0,0:0:0:0:
107,209,248265,2,0,P|177:190|277:167,1,150,4|0,1:2|3:3,0:0:0:0:
335,237,248942,1,0,3:3:0:0:
335,237,249167,1,0,3:3:0:0:
385,169,249393,6,0,P|418:201|419:243,2,90,4|2|2,2:2|0:0|0:0,0:0:0:0:
305,142,250295,6,0,P|260:154|223:134,2,90,2|2|2,0:0|0:0|0:0,0:0:0:0:
373,92,251198,6,0,P|384:47|420:25,2,90,2|2|2,0:0|0:0|0:0,0:0:0:0:
256,192,251987,12,0,255934,0:0:0:0:
