osu file format v14

[General]
AudioFilename: audio.mp3
AudioLeadIn: 0
PreviewTime: 41288
Countdown: 0
SampleSet: Soft
StackLeniency: 0.5
Mode: 0
LetterboxInBreaks: 0
WidescreenStoryboard: 1

[Editor]
Bookmarks: 4634,11401,25837,42077,56513
DistanceSpacing: 1.3
BeatDivisor: 4
GridSize: 8
TimelineZoom: 1.1

[Metadata]
Title:Aimaimoko
TitleUnicode:アイマイモコ
Artist:Inori Minase
ArtistUnicode:たかの ちづる
Creator:Hytex
Version:Hard
Source:徒然チルドレン
Tags:tsuredure children tsurezure chirudoren tv size op opening
BeatmapID:1453824
BeatmapSetID:686981

[Difficulty]
HPDrainRate:4.5
CircleSize:3.8
OverallDifficulty:5
ApproachRate:7.5
SliderMultiplier:1.4
SliderTickRate:1

[Events]
//Background and Video events
0,0,"maxresdefault.jpg",0,0
//Break Periods
//Storyboard Layer 0 (Background)
//Storyboard Layer 1 (Fail)
//Storyboard Layer 2 (Pass)
//Storyboard Layer 3 (Foreground)
//Storyboard Sound Samples

[TimingPoints]
549,451.127819548872,4,2,1,30,1,0
549,-125,4,2,1,30,0,0
3481,-125,4,2,1,50,0,0
4158,-100,4,2,1,60,0,0
42052,-90.9090909090909,4,2,1,70,0,1
51526,-76.9230769230769,4,2,1,70,0,1
54684,-90.9090909090909,4,2,1,70,0,1
56488,-100,4,2,1,70,0,0
58293,-100,4,2,1,5,0,0

[HitObjects]
102,163,549,6,0,L|270:155,1,168,2|2,0:0|0:0,0:0:0:0:
415,147,1677,1,0,0:0:0:0:
282,321,2354,1,2,0:0:0:0:
282,321,3482,1,8,0:0:0:0:
248,256,3707,6,0,L|246:221,5,18.6666666666667,2|0|0|0|0|0,0:0|0:0|0:0|0:0|0:0|0:0,0:0:0:0:
250,206,4158,6,0,L|249:115,1,70,4|0,0:0|0:0,0:0:0:0:
245,44,4609,1,8,0:0:0:0:
167,91,4835,2,0,L|166:160,1,70,0|2,0:0|0:0,0:0:0:0:
171,251,5286,1,0,0:0:0:0:
255,222,5512,1,8,0:0:0:0:
336,261,5737,1,0,0:0:0:0:
419,225,5963,6,0,B|438:177|438:177|415:85,1,140,2|8,0:0|0:0,0:0:0:0:
339,43,6640,1,0,0:0:0:0:
269,102,6865,2,0,L|169:96,1,70,2|0,0:0|0:0,0:0:0:0:
114,62,7316,1,8,0:0:0:0:
53,130,7542,1,0,0:0:0:0:
82,216,7767,6,0,P|129:215|166:205,1,70,10|0,0:0|0:0,0:0:0:0:
219,270,8218,2,0,P|253:263|288:264,1,70,8|0,0:0|0:0,0:0:0:0:
376,288,8670,1,10,0:0:0:0:
456,245,8895,1,0,0:0:0:0:
469,154,9121,2,0,L|464:75,1,70,8|0,0:0|0:0,0:0:0:0:
383,42,9572,6,0,B|349:50|349:50|322:36|322:36|263:46,1,105,8|0,0:0|0:0,0:0:0:0:
200,151,10249,2,0,B|186:197|186:197|220:304,1,140,8|0,0:0|0:0,0:0:0:0:
306,363,10925,1,8,0:0:0:0:
306,363,11038,1,0,0:0:0:0:
306,363,11151,1,0,0:0:0:0:
359,264,11376,6,0,L|343:171,1,70,2|0,0:0|0:0,0:0:0:0:
328,105,11827,1,8,0:0:0:0:
262,168,12053,2,0,P|205:169|140:111,1,140,2|0,0:0|0:0,0:0:0:0:
78,181,12730,2,0,L|95:282,1,70,8|0,0:0|0:0,0:0:0:0:
111,338,13181,6,0,P|162:311|236:320,1,105,2|0,0:0|0:0,0:0:0:0:
250,327,13632,1,8,0:0:0:0:
335,359,13858,2,0,P|403:354|473:340,1,140
422,263,14534,2,0,P|412:211|420:167,1,70,8|0,0:0|0:0,0:0:0:0:
430,104,14985,6,0,L|336:92,1,70,2|0,0:0|0:0,0:0:0:0:
270,88,15436,1,8,0:0:0:0:
179,78,15662,2,0,L|193:232,1,140,2|0,0:0|0:0,0:0:0:0:
205,307,16339,2,0,P|258:306|299:291,1,70,8|0,0:0|0:0,0:0:0:0:
359,270,16790,6,0,P|317:220|274:211,1,105
234,209,17241,1,8,0:0:0:0:
202,294,17466,2,0,P|154:329|66:334,1,140
10,271,18143,2,0,L|13:176,1,70,8|0,0:0|0:0,0:0:0:0:
24,110,18594,6,0,P|68:97|115:99,1,70,2|0,0:0|0:0,0:0:0:0:
180,121,19046,1,8,0:0:0:0:
270,112,19271,1,0,0:0:0:0:
351,153,19497,2,0,L|436:144,1,70,2|0,0:0|0:0,0:0:0:0:
439,234,19948,2,0,L|369:241,1,70,8|0,0:0|0:0,0:0:0:0:
280,222,20399,6,0,P|237:224|190:243,1,70,2|0,0:0|0:0,0:0:0:0:
185,319,20850,2,0,P|142:317|95:298,1,70,8|0,0:0|0:0,0:0:0:0:
53,243,21301,2,0,L|65:103,1,140,2|8,0:0|0:0,0:0:0:0:
138,50,21978,1,0,0:0:0:0:
204,112,22203,6,0,P|275:127|334:109,1,105,2|8,0:0|0:0,0:0:0:0:
345,97,22655,2,0,L|418:108,1,70,0|8,0:0|0:0,0:0:0:0:
485,164,23106,1,0,0:0:0:0:
424,231,23331,2,0,P|428:263|439:313,1,70,0|8,0:0|0:0,0:0:0:0:
369,363,23782,1,0,0:0:0:0:
296,308,24008,6,0,P|255:300|223:291,1,70,2|0,0:0|0:0,0:0:0:0:
140,284,24459,1,8,0:0:0:0:
66,375,24685,2,0,L|49:210,1,140
38,145,25361,1,8,0:0:0:0:
38,145,25474,1,0,0:0:0:0:
38,145,25587,1,0,0:0:0:0:
120,59,25812,6,0,P|182:75|215:131,1,105,2|0,0:0|0:0,0:0:0:0:
229,144,26264,2,0,L|332:136,1,70,8|0,0:0|0:0,0:0:0:0:
388,122,26715,2,0,P|407:160|405:220,1,70,2|0,0:0|0:0,0:0:0:0:
350,255,27166,1,8,0:0:0:0:
373,342,27391,1,0,0:0:0:0:
284,320,27617,6,0,P|234:313|161:336,1,105,2|0,0:0|0:0,0:0:0:0:
138,340,28068,2,0,L|123:254,1,70,8|0,0:0|0:0,0:0:0:0:
56,212,28519,1,0,0:0:0:0:
116,143,28745,2,0,P|125:101|126:54,1,70,0|8,0:0|0:0,0:0:0:0:
209,36,29196,1,0,0:0:0:0:
257,112,29421,6,0,L|266:221,1,105,2|0,0:0|0:0,0:0:0:0:
274,261,29873,2,0,P|308:257|339:240,1,70,8|0,0:0|0:0,0:0:0:0:
394,168,30324,2,0,L|384:92,1,70,2|0,0:0|0:0,0:0:0:0:
313,41,30775,1,8,0:0:0:0:
229,78,31000,1,0,0:0:0:0:
143,47,31226,6,0,P|78:74|54:128,1,105,2|0,0:0|0:0,0:0:0:0:
57,146,31677,2,0,L|69:228,1,70,8|0,0:0|0:0,0:0:0:0:
82,305,32128,1,2,0:0:0:0:
163,345,32354,1,0,0:0:0:0:
253,337,32579,2,0,L|303:333,2,35,8|0|0,0:0|0:0|0:0,0:0:0:0:
202,261,33030,6,0,L|206:131,1,105,2|0,0:0|0:0,0:0:0:0:
217,112,33482,2,0,P|258:97|301:98,1,70,8|0,0:0|0:0,0:0:0:0:
374,105,33933,1,0,0:0:0:0:
411,187,34158,1,0,0:0:0:0:
369,267,34384,2,0,L|284:273,1,70,10|0,0:0|0:0,0:0:0:0:
208,256,34835,5,2,0:0:0:0:
172,339,35061,1,0,0:0:0:0:
112,270,35286,2,0,L|101:173,1,70,8|0,0:0|0:0,0:0:0:0:
88,110,35737,1,0,0:0:0:0:
159,52,35963,1,8,0:0:0:0:
159,52,36076,1,0,0:0:0:0:
159,52,36188,2,0,L|205:55,2,35,8|0|8,0:0|0:0|0:0,0:0:0:0:
184,139,36640,6,0,L|268:130,1,70,8|0,0:0|0:0,0:0:0:0:
322,191,37091,2,0,L|391:198,1,70,8|0,0:0|0:0,0:0:0:0:
480,218,37542,2,0,P|478:270|461:308,1,70,8|0,0:0|0:0,0:0:0:0:
401,343,37993,2,0,P|349:341|311:324,1,70,8|0,0:0|0:0,0:0:0:0:
255,286,38444,5,12,0:0:0:0:
169,318,38670,1,2,0:0:0:0:
82,290,38895,2,0,L|70:204,1,70,8|2,0:0|0:0,0:0:0:0:
58,130,39346,1,8,0:0:0:0:
123,67,39572,1,2,0:0:0:0:
123,67,39685,1,0,0:0:0:0:
123,67,39797,1,8,0:0:0:0:
213,73,40023,5,4,0:0:0:0:
336,206,40474,6,0,L|385:203,2,35,0|2|0,0:0|0:0|0:0,0:0:0:0:
260,257,40925,1,0,0:0:0:0:
178,215,41151,2,0,P|135:218|96:222,1,70
24,185,41602,2,0,L|33:98,1,70,8|2,0:0|0:0,0:0:0:0:
117,65,42053,1,4,0:0:0:0:
258,207,42503,5,8,0:0:0:0:
258,207,42728,2,0,P|313:168|320:69,1,154.000004699707
228,102,43406,2,0,P|190:98|139:94,1,77.0000023498536,8|0,0:0|0:0,0:0:0:0:
51,85,43858,6,0,L|61:180,1,77.0000023498536
33,258,44309,1,8,0:0:0:0:
108,322,44534,2,0,P|188:314|229:236,1,154.000004699707,2|0,0:0|0:0,0:0:0:0:
228,157,45211,2,0,P|271:142|330:132,1,77.0000023498536,8|0,0:0|0:0,0:0:0:0:
400,154,45662,6,0,L|391:291,1,115.50000352478,2|0,0:0|0:0,0:0:0:0:
387,319,46113,2,0,P|337:319|302:315,1,77.0000023498536,8|0,0:0|0:0,0:0:0:0:
224,262,46564,1,0,0:0:0:0:
188,355,46790,2,0,L|99:360,1,77.0000023498536,0|8,0:0|0:0,0:0:0:0:
42,286,47241,6,0,B|15:239|15:239|41:109,1,154.000004699707,2|0,0:0|0:0,0:0:0:0:
71,47,47918,1,8,0:0:0:0:
149,109,48143,2,0,L|308:101,1,154.000004699707,2|0,0:0|0:0,0:0:0:0:
403,99,48820,2,0,L|419:199,1,77.0000023498536,8|0,0:0|0:0,0:0:0:0:
356,255,49271,6,0,P|287:259|254:248,1,77.0000023498536,2|0,0:0|0:0,0:0:0:0:
242,224,49609,1,0,0:0:0:0:
242,224,49722,1,8,0:0:0:0:
154,175,49948,1,0,0:0:0:0:
61,213,50173,2,0,P|68:258|73:294,1,77.0000023498536
148,354,50624,2,0,P|186:348|224:342,1,77.0000023498536,10|0,0:0|0:0,0:0:0:0:
324,336,51076,6,0,P|335:289|335:245,1,77.0000023498536,2|0,0:0|0:0,0:0:0:0:
313,145,51527,2,0,L|193:135,1,90.9999958343508,8|0,0:0|0:0,0:0:0:0:
191,113,51865,1,0,0:0:0:0:
159,91,51978,2,0,P|102:102|59:141,1,90.9999958343508,2|0,0:0|0:0,0:0:0:0:
63,238,52429,2,0,P|120:227|163:188,1,90.9999958343508,8|0,0:0|0:0,0:0:0:0:
200,103,52880,5,8,0:0:0:0:
435,127,53331,2,0,P|407:191|364:215,1,90.9999958343508,8|0,0:0|0:0,0:0:0:0:
381,321,53782,2,0,P|317:293|293:250,1,90.9999958343508,8|0,0:0|0:0,0:0:0:0:
228,187,54233,1,8,0:0:0:0:
200,302,54459,1,0,0:0:0:0:
138,222,54685,6,0,L|125:101,1,115.50000352478,4|0,0:0|0:0,0:0:0:0:
117,57,55136,2,0,P|164:45|226:55,1,77.0000023498536,8|0,0:0|0:0,0:0:0:0:
269,110,55587,2,0,P|316:122|402:101,1,115.50000352478,8|0,0:0|0:0,0:0:0:0:
427,90,56038,2,0,L|439:133,2,38.5000011749268,8|0|0,0:0|0:0|0:0,0:0:0:0:
397,203,56489,5,4,0:0:0:0:
256,192,56602,12,0,58293,0:0:0:0:
