osu file format v14

[General]
AudioFilename: audio.mp3
AudioLeadIn: 0
PreviewTime: 40281
Countdown: 0
SampleSet: Normal
StackLeniency: 0.7
Mode: 1
LetterboxInBreaks: 0
WidescreenStoryboard: 0

[Editor]
DistanceSpacing: 1
BeatDivisor: 2
GridSize: 4
TimelineZoom: 1.8

[Metadata]
Title:Aimaimoko
TitleUnicode:アイマイモコ
Artist:Inori Minase
ArtistUnicode:水瀬いのり
Creator:Faputa
Version:Oni
Source:徒然チルドレン
Tags:たかせ はるひこ Tsurezure Children opening Tsuredure
BeatmapID:1357674
BeatmapSetID:640220

[Difficulty]
HPDrainRate:5
CircleSize:2
OverallDifficulty:5
ApproachRate:5
SliderMultiplier:1.4
SliderTickRate:1

[Events]
//Background and Video events
Video,0,"Tsurezure Children Opening - Aimai Moko Inori Minase.mp4"
0,0,"BG.png",0,0
//Break Periods
//Storyboard Layer 0 (Background)
//Storyboard Layer 1 (Fail)
//Storyboard Layer 2 (Pass)
//Storyboard Layer 3 (Foreground)
//Storyboard Sound Samples

[TimingPoints]
582,451.127819548872,4,1,0,80,1,0
42085,-100,4,1,0,80,0,1
56521,-100,4,1,0,50,0,0

[HitObjects]
252,192,582,5,2,0:0:0:0:
252,192,807,1,0,0:0:0:0:
252,192,1258,1,2,0:0:0:0:
252,192,1709,1,0,0:0:0:0:
256,192,1935,1,0,0:0:0:0:
252,192,2386,1,2,0:0:0:0:
252,192,3514,1,0,0:0:0:0:
252,192,3739,1,2,0:0:0:0:
252,192,4191,1,4,0:0:0:0:
248,184,4642,1,2,0:0:0:0:
248,184,4867,1,0,0:0:0:0:
248,184,5318,1,0,0:0:0:0:
248,184,5544,1,2,0:0:0:0:
248,184,5995,1,0,0:0:0:0:
232,180,6221,1,0,0:0:0:0:
248,184,6446,1,2,0:0:0:0:
232,180,6672,1,0,0:0:0:0:
248,184,7123,1,0,0:0:0:0:
248,184,7348,1,2,0:0:0:0:
240,176,7574,1,0,0:0:0:0:
248,184,7800,1,0,0:0:0:0:
248,184,8251,1,2,0:0:0:0:
248,184,8702,1,2,0:0:0:0:
236,188,8927,1,0,0:0:0:0:
248,184,9153,1,2,0:0:0:0:
236,188,9378,1,0,0:0:0:0:
256,192,9604,1,2,0:0:0:0:
248,184,9830,1,0,0:0:0:0:
236,188,9942,1,2,0:0:0:0:
248,184,10281,1,2,0:0:0:0:
240,188,10732,1,0,0:0:0:0:
240,188,10957,1,2,0:0:0:0:
240,184,11070,1,0,0:0:0:0:
240,188,11183,1,0,0:0:0:0:
240,188,11409,1,4,0:0:0:0:
240,188,11860,1,2,0:0:0:0:
240,188,12085,1,0,0:0:0:0:
240,184,12198,1,0,0:0:0:0:
240,184,12311,1,0,0:0:0:0:
240,188,12536,1,2,0:0:0:0:
240,188,12762,1,0,0:0:0:0:
240,188,12988,1,0,0:0:0:0:
240,188,13213,1,2,0:0:0:0:
240,188,13551,1,0,0:0:0:0:
240,184,13664,1,2,0:0:0:0:
240,188,13890,1,2,0:0:0:0:
240,188,14341,1,0,0:0:0:0:
240,188,14566,1,2,0:0:0:0:
240,188,14792,1,0,0:0:0:0:
240,188,15018,1,2,0:0:0:0:
240,188,15243,1,0,0:0:0:0:
240,188,15469,1,2,0:0:0:0:
240,188,15694,1,2,0:0:0:0:
240,188,16145,1,2,0:0:0:0:
240,188,16371,1,2,0:0:0:0:
232,188,16597,1,0,0:0:0:0:
240,188,16822,1,2,0:0:0:0:
232,196,17160,1,0,0:0:0:0:
220,192,17273,1,2,0:0:0:0:
232,196,17499,1,2,0:0:0:0:
232,204,17950,1,0,0:0:0:0:
232,204,18175,1,2,0:0:0:0:
248,192,18401,1,0,0:0:0:0:
248,192,18627,1,6,0:0:0:0:
244,200,18852,1,2,0:0:0:0:
244,200,19303,1,0,0:0:0:0:
244,200,19529,1,2,0:0:0:0:
244,200,19754,1,2,0:0:0:0:
240,204,20206,1,0,0:0:0:0:
240,204,20431,1,2,0:0:0:0:
236,208,20657,1,2,0:0:0:0:
240,204,20769,1,0,0:0:0:0:
236,208,20882,1,2,0:0:0:0:
232,216,21108,1,2,0:0:0:0:
240,204,21221,1,0,0:0:0:0:
232,228,21333,1,0,0:0:0:0:
248,200,21559,1,0,0:0:0:0:
224,216,21785,1,2,0:0:0:0:
228,216,22010,1,0,0:0:0:0:
236,224,22236,1,0,0:0:0:0:
240,212,22461,1,0,0:0:0:0:
224,216,22574,1,0,0:0:0:0:
236,224,22687,1,2,0:0:0:0:
236,224,22912,1,0,0:0:0:0:
236,224,23363,1,2,0:0:0:0:
236,224,23589,1,0,0:0:0:0:
236,224,23815,1,0,0:0:0:0:
228,228,24040,1,6,0:0:0:0:
224,216,24266,1,0,0:0:0:0:
224,216,24491,1,0,0:0:0:0:
224,216,24717,1,6,0:0:0:0:
224,216,25168,1,0,0:0:0:0:
224,216,25394,1,8,0:0:0:0:
224,216,25506,1,0,0:0:0:0:
224,216,25619,1,0,0:0:0:0:
224,216,25845,1,6,0:0:0:0:
224,216,26183,1,0,0:0:0:0:
260,208,26296,1,2,0:0:0:0:
224,216,26521,1,0,0:0:0:0:
224,216,26747,1,2,0:0:0:0:
224,216,26972,1,0,0:0:0:0:
224,216,27198,1,2,0:0:0:0:
224,216,27424,1,8,0:0:0:0:
220,220,27649,1,0,0:0:0:0:
224,216,27988,1,0,0:0:0:0:
220,220,28100,1,2,0:0:0:0:
212,216,28326,1,0,0:0:0:0:
220,220,28777,1,0,0:0:0:0:
224,216,29003,1,2,0:0:0:0:
220,220,29454,1,0,0:0:0:0:
236,220,29792,1,0,0:0:0:0:
212,236,29905,1,2,0:0:0:0:
212,236,30130,1,0,0:0:0:0:
216,236,30356,1,2,0:0:0:0:
216,236,30581,1,0,0:0:0:0:
240,240,30807,1,2,0:0:0:0:
232,240,31033,1,8,0:0:0:0:
240,240,31258,1,0,0:0:0:0:
220,236,31597,1,0,0:0:0:0:
212,216,31709,1,2,0:0:0:0:
220,236,31935,1,0,0:0:0:0:
220,236,32160,1,2,0:0:0:0:
228,228,32386,1,0,0:0:0:0:
228,228,32499,1,0,0:0:0:0:
228,232,32612,1,2,0:0:0:0:
244,200,32837,1,0,0:0:0:0:
244,200,33063,1,6,0:0:0:0:
240,216,33401,1,0,0:0:0:0:
240,212,33514,1,2,0:0:0:0:
240,216,33739,1,0,0:0:0:0:
244,216,33965,1,2,0:0:0:0:
240,216,34303,1,0,0:0:0:0:
232,212,34416,1,2,0:0:0:0:
240,216,34642,1,0,0:0:0:0:
220,220,34867,1,6,0:0:0:0:
220,220,35206,1,2,0:0:0:0:
212,224,35318,1,0,0:0:0:0:
220,220,35544,1,0,0:0:0:0:
228,228,35769,1,2,0:0:0:0:
216,232,35995,1,0,0:0:0:0:
228,228,36108,1,2,0:0:0:0:
240,244,36221,1,0,0:0:0:0:
212,224,36333,1,0,0:0:0:0:
216,232,36446,1,2,0:0:0:0:
228,228,36672,1,6,0:0:0:0:
228,228,37010,1,0,0:0:0:0:
216,232,37123,1,2,0:0:0:0:
228,228,37348,1,0,0:0:0:0:
228,228,37574,1,6,0:0:0:0:
228,228,37912,1,0,0:0:0:0:
232,240,38025,1,2,0:0:0:0:
228,228,38251,1,0,0:0:0:0:
228,228,38476,1,2,0:0:0:0:
240,232,38702,1,0,0:0:0:0:
240,232,38927,1,2,0:0:0:0:
240,232,39153,1,0,0:0:0:0:
240,232,39378,1,0,0:0:0:0:
240,232,39604,1,0,0:0:0:0:
240,232,39717,1,0,0:0:0:0:
240,232,39830,1,2,0:0:0:0:
240,232,40055,1,2,0:0:0:0:
232,252,40506,1,0,0:0:0:0:
224,240,40619,1,2,0:0:0:0:
248,244,40957,1,0,0:0:0:0:
236,260,41409,1,0,0:0:0:0:
236,260,41634,1,2,0:0:0:0:
236,260,41860,1,2,0:0:0:0:
236,260,42085,1,4,0:0:0:0:
236,260,42536,1,2,0:0:0:0:
240,268,42762,1,0,0:0:0:0:
236,260,42875,1,0,0:0:0:0:
236,260,42988,1,0,0:0:0:0:
236,260,43213,1,0,0:0:0:0:
236,260,43439,1,2,0:0:0:0:
236,260,43664,1,2,0:0:0:0:
236,260,43890,1,0,0:0:0:0:
236,260,44115,1,0,0:0:0:0:
236,260,44341,1,2,0:0:0:0:
236,260,44566,1,2,0:0:0:0:
236,260,45018,1,0,0:0:0:0:
236,260,45243,1,2,0:0:0:0:
236,260,45356,1,2,0:0:0:0:
236,260,45469,1,0,0:0:0:0:
236,260,45694,1,2,0:0:0:0:
232,252,45920,1,0,0:0:0:0:
236,260,46145,1,2,0:0:0:0:
236,260,46371,1,2,0:0:0:0:
236,260,46822,1,0,0:0:0:0:
216,260,47048,1,2,0:0:0:0:
248,244,47273,1,2,0:0:0:0:
248,244,47724,1,0,0:0:0:0:
248,244,47950,1,2,0:0:0:0:
248,244,48175,1,8,0:0:0:0:
248,244,48288,1,8,0:0:0:0:
248,244,48401,1,0,0:0:0:0:
248,244,48627,1,0,0:0:0:0:
248,244,48852,1,6,0:0:0:0:
248,244,49078,1,0,0:0:0:0:
248,244,49303,1,4,0:0:0:0:
232,252,49529,1,0,0:0:0:0:
232,252,49642,1,8,0:0:0:0:
244,260,49754,1,2,0:0:0:0:
244,260,49980,1,0,0:0:0:0:
232,260,50093,1,2,0:0:0:0:
244,260,50206,1,0,0:0:0:0:
244,260,50431,1,0,0:0:0:0:
264,252,50657,1,2,0:0:0:0:
252,252,51108,1,2,0:0:0:0:
252,252,51333,1,0,0:0:0:0:
252,252,51559,1,2,0:0:0:0:
232,256,51785,1,0,0:0:0:0:
232,256,51897,1,2,0:0:0:0:
252,252,52010,1,2,0:0:0:0:
252,252,52236,1,0,0:0:0:0:
252,252,52461,1,2,0:0:0:0:
252,252,52687,1,0,0:0:0:0:
220,248,52800,1,0,0:0:0:0:
252,252,52912,1,2,0:0:0:0:
252,252,53138,1,0,0:0:0:0:
252,252,53363,1,2,0:0:0:0:
252,252,53589,1,0,0:0:0:0:
256,256,53702,1,0,0:0:0:0:
252,252,53815,1,2,0:0:0:0:
252,252,54040,1,0,0:0:0:0:
252,252,54266,1,2,0:0:0:0:
220,248,54491,1,0,0:0:0:0:
252,252,54717,1,6,0:0:0:0:
252,252,55055,1,8,0:0:0:0:
252,252,55168,1,0,0:0:0:0:
252,252,55394,1,2,0:0:0:0:
252,252,55619,1,4,0:0:0:0:
252,252,55957,1,0,0:0:0:0:
248,240,56070,1,8,0:0:0:0:
252,252,56296,1,2,0:0:0:0:
256,192,56521,12,0,58326,0:0:0:0:
