osu file format v14

[General]
AudioFilename: audio.mp3
AudioLeadIn: 0
PreviewTime: 41154
Countdown: 0
SampleSet: Soft
StackLeniency: 0.7
Mode: 0
LetterboxInBreaks: 0
WidescreenStoryboard: 0

[Editor]
DistanceSpacing: 1
BeatDivisor: 4
GridSize: 8
TimelineZoom: 1

[Metadata]
Title:Aimaimoko
TitleUnicode:アイマイモコ
Artist:Inori Minase
ArtistUnicode:水瀬いのり
Creator:DakiniBrave
Version:Confession
Source:徒然チルドレン
Tags:Tsuredure Children Tsurezure Chirudoren TV Size OP Opening Rizen aqpw a_q_p_w -_Rain_- -Rain- akitoshi corinn
BeatmapID:1382895
BeatmapSetID:651721

[Difficulty]
HPDrainRate:6
CircleSize:4
OverallDifficulty:8.5
ApproachRate:8.2
SliderMultiplier:1.8
SliderTickRate:1

[Events]
//Background and Video events
0,0,"836170.jpg",0,0
//Break Periods
//Storyboard Layer 0 (Background)
//Storyboard Layer 1 (Fail)
//Storyboard Layer 2 (Pass)
//Storyboard Layer 3 (Foreground)
//Storyboard Sound Samples

[TimingPoints]
553,451.127819548872,4,2,1,50,1,0
3485,-100,4,2,1,70,0,0
11380,-111.111111111111,4,2,1,50,0,0
25816,-125,4,2,1,50,0,0
33034,-100,4,2,1,50,0,0
42056,-90.9090909090909,4,2,1,70,0,1
56492,-100,4,2,1,60,0,0
58297,-100,4,2,1,5,0,0

[Colours]
Combo1 : 158,77,213
Combo2 : 194,12,16
Combo3 : 32,131,240
Combo4 : 231,122,222

[HitObjects]
256,192,553,12,2,2357,0:0:0:0:
265,212,3485,5,2,0:0:0:0:
252,298,3710,1,8,0:0:0:0:
286,118,3936,1,2,0:0:0:0:
286,118,4049,1,2,0:0:0:0:
286,118,4162,6,0,P|242:105|181:121,1,90,6|0,0:0|0:0,0:0:0:0:
252,298,4613,1,8,0:0:0:0:
376,173,4838,2,0,P|390:127|380:83,1,90,2|0,0:0|0:0,0:0:0:0:
333,7,5289,1,2,0:0:0:0:
265,212,5515,1,8,0:0:0:0:
199,111,5740,1,2,0:0:0:0:
393,178,5966,6,0,P|400:228|380:286,1,90,2|0,0:0|0:0,0:0:0:0:
187,323,6417,1,8,0:0:0:0:
301,146,6643,1,2,0:0:0:0:
305,179,6755,1,2,0:0:0:0:
305,213,6868,1,2,0:0:0:0:
300,246,6981,1,2,0:0:0:0:
291,278,7094,1,2,0:0:0:0:
189,91,7319,1,8,0:0:0:0:
408,166,7545,1,0,0:0:0:0:
154,282,7771,5,8,0:0:0:0:
95,112,7996,1,2,0:0:0:0:
164,292,8222,5,8,0:0:0:0:
201,77,8447,1,2,0:0:0:0:
174,302,8673,6,0,L|179:250,1,45,2|2,0:0|0:0,0:0:0:0:
99,50,8898,2,0,L|103:94,1,45,2|2,0:0|0:0,0:0:0:0:
42,239,9124,5,8,0:0:0:0:
315,153,9349,1,2,0:0:0:0:
99,108,9575,5,8,0:0:0:0:
187,313,9801,1,0,0:0:0:0:
217,328,9913,1,8,0:0:0:0:
250,332,10026,1,2,0:0:0:0:
283,324,10139,1,0,0:0:0:0:
311,305,10252,2,0,B|288:227|348:254|308:134,1,135,2|0,0:0|0:0,0:0:0:0:
222,199,10703,1,2,0:0:0:0:
390,371,10928,1,8,0:3:0:0:
390,371,11041,1,8,0:3:0:0:
390,371,11154,1,8,0:3:0:0:
174,272,11380,6,0,P|238:245|317:276,1,121.499996292114,6|0,0:0|0:0,0:0:0:0:
313,285,11831,1,8,0:0:0:0:
445,196,12056,1,2,0:0:0:0:
445,196,12169,1,2,0:0:0:0:
445,196,12282,2,0,L|436:99,1,80.9999975280763,0|2,0:0|0:0,0:0:0:0:
230,75,12733,1,8,0:0:0:0:
320,166,12959,1,2,0:0:0:0:
102,97,13184,5,2,0:0:0:0:
326,43,13410,1,0,0:0:0:0:
326,43,13522,1,0,0:0:0:0:
326,43,13635,1,8,0:0:0:0:
208,250,13861,2,0,B|300:223|276:282|379:245,1,161.999995056153,2|2,0:0|0:0,0:0:0:0:
502,154,14537,1,8,0:0:0:0:
382,271,14763,1,2,0:0:0:0:
350,64,14989,5,2,0:0:0:0:
402,168,15214,1,0,0:0:0:0:
242,60,15440,1,8,0:0:0:0:
451,4,15665,1,2,0:0:0:0:
451,4,15778,1,2,0:0:0:0:
451,4,15891,2,0,L|454:93,1,80.9999975280763,0|2,0:0|0:0,0:0:0:0:
204,176,16342,2,0,P|242:157|304:167,1,80.9999975280763,8|2,0:0|0:0,0:0:0:0:
438,317,16793,5,2,0:0:0:0:
270,243,17019,1,2,0:0:0:0:
270,243,17131,1,2,0:0:0:0:
270,243,17244,1,8,0:0:0:0:
353,365,17470,2,0,B|324:266|384:299|349:193,1,161.999995056153,2|2,0:0|0:0,0:0:0:0:
299,22,18146,1,8,0:0:0:0:
405,98,18372,1,2,0:0:0:0:
114,147,18598,6,0,P|153:125|221:131,1,80.9999975280763,6|0,0:0|0:0,0:0:0:0:
340,192,19049,1,8,0:0:0:0:
190,316,19274,1,2,0:0:0:0:
190,316,19387,1,2,0:0:0:0:
190,316,19500,2,0,L|182:215,1,80.9999975280763,2|2,0:0|0:0,0:0:0:0:
346,111,19951,2,0,L|339:191,1,80.9999975280763,8|0,0:0|0:0,0:0:0:0:
112,124,20402,6,0,P|154:140|205:130,1,80.9999975280763,2|0,0:0|0:0,0:0:0:0:
322,32,20853,1,8,0:0:0:0:
167,54,21079,1,2,0:0:0:0:
167,54,21192,1,2,0:0:0:0:
167,54,21304,1,2,0:0:0:0:
249,237,21530,1,0,0:0:0:0:
399,44,21756,2,0,P|357:28|306:38,1,80.9999975280763,8|2,0:0|0:0,0:0:0:0:
148,277,22207,6,0,P|159:214|145:144,1,121.499996292114,2|0,0:0|0:0,0:0:0:0:
130,108,22658,1,8,0:0:0:0:
325,216,22883,2,0,P|283:212|228:228,1,80.9999975280763,2|0,0:0|0:0,0:0:0:0:
148,277,23334,1,2,0:0:0:0:
346,371,23560,1,8,0:0:0:0:
280,293,23786,1,2,0:0:0:0:
400,125,24011,5,8,0:3:0:0:
387,239,24237,1,8,0:3:0:0:
294,170,24462,1,8,0:3:0:0:
460,298,24688,2,0,P|386:269|292:309,1,161.999995056153,4|0,0:3|0:0,0:0:0:0:
216,374,25365,1,8,0:3:0:0:
216,374,25477,1,8,0:3:0:0:
216,374,25590,1,8,0:3:0:0:
169,177,25816,6,0,L|294:187,1,108,4|0,0:0|0:0,0:0:0:0:
319,181,26267,1,8,0:0:0:0:
390,309,26492,1,2,0:0:0:0:
386,137,26718,2,0,P|398:171|391:221,1,72,2|0,0:0|0:0,0:0:0:0:
313,384,27169,1,8,0:0:0:0:
286,279,27395,1,2,0:0:0:0:
492,139,27620,6,0,P|437:145|365:130,1,108,2|2,0:0|0:0,0:0:0:0:
346,104,28071,1,8,0:0:0:0:
180,179,28297,2,0,P|247:164|306:212,1,144,2|2,0:0|0:0,0:0:0:0:
138,359,28974,1,8,0:0:0:0:
120,271,29199,1,2,0:0:0:0:
353,152,29425,6,0,P|361:215|359:277,1,107.999996704102,2|2,0:0|0:0,0:0:0:0:
352,305,29876,1,8,0:0:0:0:
270,372,30101,1,0,0:0:0:0:
457,217,30327,2,0,P|466:253|460:291,1,71.9999978027344,2|0,0:0|0:0,0:0:0:0:
264,220,30778,1,8,0:0:0:0:
371,141,31004,1,0,0:0:0:0:
193,48,31229,6,0,L|189:180,1,108,2|0,0:0|0:0,0:0:0:0:
190,202,31680,1,8,0:0:0:0:
116,299,31906,1,2,0:0:0:0:
295,168,32131,1,4,0:0:0:0:
288,363,32357,1,0,0:0:0:0:
288,363,32470,1,2,0:0:0:0:
288,363,32583,1,8,0:0:0:0:
234,270,32808,1,2,0:0:0:0:
451,273,33034,6,0,P|410:293|355:281,1,90,4|0,0:0|0:0,0:0:0:0:
263,87,33485,2,0,P|307:81|346:101,1,90,8|2,0:0|0:0,0:0:0:0:
428,171,33936,1,2,0:0:0:0:
411,13,34162,1,0,0:0:0:0:
328,206,34387,1,8,0:0:0:0:
443,91,34613,1,2,0:0:0:0:
178,39,34838,6,0,P|165:85|187:159,1,90,2|0,0:0|0:0,0:0:0:0:
335,293,35289,2,0,P|339:248|327:205,1,90,8|2,0:0|0:0,0:0:0:0:
262,94,35740,1,2,0:0:0:0:
107,278,35966,1,8,0:0:0:0:
140,275,36078,1,8,0:0:0:0:
174,273,36191,1,8,0:0:0:0:
208,271,36304,1,8,0:0:0:0:
241,268,36417,1,8,0:0:0:0:
352,344,36643,5,12,0:0:0:0:
431,178,36868,1,2,0:0:0:0:
369,348,37094,5,8,0:0:0:0:
314,128,37319,1,2,0:0:0:0:
386,352,37545,5,12,0:0:0:0:
460,72,37771,1,2,0:0:0:0:
403,356,37996,5,8,0:0:0:0:
278,33,38222,1,2,0:0:0:0:
148,296,38447,6,0,P|191:283|236:290,1,90,2|0,0:0|0:0,0:0:0:0:
478,151,38898,2,0,P|433:158|390:145,1,90,8|0,0:0|0:0,0:0:0:0:
189,36,39349,1,2,0:0:0:0:
437,25,39575,1,2,0:0:0:0:
437,25,39688,1,2,0:0:0:0:
437,25,39801,1,2,0:0:0:0:
322,245,40026,1,2,0:0:0:0:
428,187,41380,5,2,0:0:0:0:
479,342,41605,2,0,P|431:330|364:354,1,90,8|2,0:0|0:0,0:0:0:0:
217,252,42056,6,0,L|227:364,1,99.0000030212403,6|0,0:0|0:0,0:0:0:0:
381,257,42507,1,8,0:0:0:0:
122,180,42733,2,0,P|181:136|302:179,1,198.000006042481,2|2,0:0|0:0,0:0:0:0:
359,5,43410,1,8,0:0:0:0:
201,112,43635,1,2,0:0:0:0:
391,232,43861,6,0,P|410:188|394:113,1,99.0000030212403,2|0,0:0|0:0,0:0:0:0:
256,33,44312,1,10,0:0:0:0:
161,240,44537,2,0,P|205:221|280:237,1,99.0000030212403,2|2,0:0|0:0,0:0:0:0:
370,328,44989,1,2,0:0:0:0:
209,384,45214,1,8,0:0:0:0:
255,225,45440,1,2,0:0:0:0:
33,135,45665,6,0,L|47:293,1,148.50000453186,2|0,0:0|0:0,0:0:0:0:
53,330,46116,1,8,0:0:0:0:
187,151,46342,2,0,P|187:101|145:42,1,99.0000030212403,2|2,0:0|0:0,0:0:0:0:
22,18,46793,1,0,0:0:0:0:
92,214,47019,1,8,0:0:0:0:
299,75,47244,6,0,B|323:117|298:170|298:170|275:218|294:267,1,198.000006042481,2|2,0:0|0:0,0:0:0:0:
470,384,47921,1,8,0:0:0:0:
408,231,48146,1,2,0:0:0:0:
408,231,48259,1,2,0:0:0:0:
408,231,48372,1,2,0:0:0:0:
337,384,48598,1,2,0:0:0:0:
262,162,48823,1,12,0:0:0:0:
209,320,49049,1,2,0:0:0:0:
159,68,49274,5,2,0:0:0:0:
315,272,49500,1,2,0:0:0:0:
315,272,49613,1,2,0:0:0:0:
315,272,49725,1,8,0:0:0:0:
326,65,49951,1,2,0:0:0:0:
326,65,50064,1,2,0:0:0:0:
326,65,50177,1,2,0:0:0:0:
160,190,50402,1,2,0:0:0:0:
306,370,50628,2,0,L|315:259,1,99.0000030212403,8|2,0:0|0:0,0:0:0:0:
55,344,51079,6,0,P|109:322|169:335,1,99.0000030212403,2|0,0:0|0:0,0:0:0:0:
346,384,51530,1,8,0:0:0:0:
272,160,51756,1,2,0:0:0:0:
272,160,51868,1,2,0:0:0:0:
272,160,51981,1,2,0:0:0:0:
198,381,52207,1,2,0:0:0:0:
392,192,52432,2,0,P|398:140|371:80,1,99.0000030212403,8|0,0:0|0:0,0:0:0:0:
83,230,52883,5,12,0:0:0:0:
414,305,53109,1,2,0:0:0:0:
298,37,53334,5,8,0:0:0:0:
238,349,53560,1,2,0:0:0:0:
454,122,53786,5,8,0:0:0:0:
96,212,54011,1,2,0:0:0:0:
402,325,54237,5,8,0:0:0:0:
282,16,54462,1,2,0:0:0:0:
314,249,54688,6,0,L|325:143,1,99.0000030212403,4|0,0:0|0:0,0:0:0:0:
211,98,55026,1,2,0:0:0:0:
211,98,55139,2,0,L|221:196,1,99.0000030212403,0|2,0:0|0:0,0:0:0:0:
236,362,55590,5,4,0:0:0:0:
26,322,55816,1,2,0:0:0:0:
54,298,55928,1,2,0:0:0:0:
88,285,56041,1,2,0:0:0:0:
125,284,56154,1,2,0:0:0:0:
160,296,56267,1,2,0:0:0:0:
256,192,56492,12,0,58297,0:0:0:0:
