osu file format v14

[General]
AudioFilename: audio.mp3
AudioLeadIn: 0
PreviewTime: 41154
Countdown: 0
SampleSet: Soft
StackLeniency: 0.7
Mode: 0
LetterboxInBreaks: 0
WidescreenStoryboard: 0

[Editor]
Bookmarks: 50402
DistanceSpacing: 1.3
BeatDivisor: 4
GridSize: 8
TimelineZoom: 1

[Metadata]
Title:Aimaimoko
TitleUnicode:アイマイモコ
Artist:Inori Minase
ArtistUnicode:水瀬いのり
Creator:DakiniBrave
Version:Rizen's Hard
Source:徒然チルドレン
Tags:Tsuredure Children Tsurezure Chirudoren TV Size OP Opening Rizen aqpw a_q_p_w -_Rain_- -Rain- akitoshi corinn
BeatmapID:1382739
BeatmapSetID:651721

[Difficulty]
HPDrainRate:5
CircleSize:4
OverallDifficulty:6
ApproachRate:7
SliderMultiplier:1.4
SliderTickRate:1

[Events]
//Background and Video events
0,0,"836170.jpg",0,0
//Break Periods
//Storyboard Layer 0 (Background)
//Storyboard Layer 1 (Fail)
//Storyboard Layer 2 (Pass)
//Storyboard Layer 3 (Foreground)
//Storyboard Sound Samples

[TimingPoints]
553,451.127819548872,4,2,1,50,1,0
3485,-100,4,2,1,70,0,0
11380,-111.111111111111,4,2,1,50,0,0
42056,-90.9090909090909,4,2,1,70,0,1
56492,-100,4,2,1,60,0,0
58297,-100,4,2,1,5,0,0

[Colours]
Combo1 : 158,77,213
Combo2 : 194,12,16
Combo3 : 32,131,240
Combo4 : 231,122,222

[HitObjects]
256,192,553,12,2,2357,0:0:0:0:
86,250,3485,5,2,0:0:0:0:
154,179,3710,2,0,P|156:144|150:109,1,70,8|2,0:0|0:0,0:0:0:0:
71,50,4162,6,0,B|140:64|140:64|208:50,1,140,6|8,0:0|0:0,0:0:0:0:
242,141,4838,2,0,B|310:127|310:127|379:141,1,140,2|2,0:0|0:0,0:0:0:0:
456,201,5515,1,8,0:0:0:0:
365,238,5740,1,2,0:0:0:0:
379,141,5966,6,0,L|389:71,1,70,2|0,0:0|0:0,0:0:0:0:
303,23,6417,1,8,0:0:0:0:
217,71,6643,1,2,0:0:0:0:
249,107,6755,1,2,0:0:0:0:
295,122,6868,1,2,0:0:0:0:
303,23,7094,1,2,0:0:0:0:
205,25,7319,2,0,L|135:35,1,70,8|0,0:0|0:0,0:0:0:0:
56,93,7771,6,0,P|58:127|51:161,1,70,8|2,0:0|0:0,0:0:0:0:
147,143,8222,2,0,P|144:177|151:211,1,70,8|2,0:0|0:0,0:0:0:0:
60,249,8673,2,0,P|53:282|37:313,1,70,2|2,0:0|0:0,0:0:0:0:
134,299,9124,2,0,P|139:332|155:363,1,70,8|2,0:0|0:0,0:0:0:0:
230,300,9575,6,0,L|299:295,1,70,8|0,0:0|0:0,0:0:0:0:
343,316,9913,1,8,0:0:0:0:
343,316,10026,1,2,0:0:0:0:
432,275,10252,2,0,P|416:207|436:141,1,140,2|2,0:0|0:0,0:0:0:0:
404,49,10928,2,0,L|401:14,2,35,8|8|8,0:3|0:3|0:3,0:0:0:0:
353,121,11380,6,0,P|321:122|290:115,1,62.9999980773926,6|0,0:0|0:0,0:0:0:0:
212,75,11831,1,8,0:0:0:0:
134,117,12056,2,0,L|138:242,1,125.999996154785,2|2,0:0|0:0,0:0:0:0:
206,299,12733,1,8,0:0:0:0:
222,212,12959,1,2,0:0:0:0:
138,241,13184,6,0,P|117:282|122:329,1,94.499997116089,2|0,0:0|0:0,0:0:0:0:
147,366,13635,1,8,0:0:0:0:
234,378,13861,2,0,L|359:367,1,125.999996154785,2|2,0:0|0:0,0:0:0:0:
438,327,14537,1,8,0:0:0:0:
422,239,14763,1,2,0:0:0:0:
333,228,14989,6,0,P|342:197|362:173,1,62.9999980773926,2|0,0:0|0:0,0:0:0:0:
445,148,15440,1,8,0:0:0:0:
379,89,15665,2,0,L|254:78,1,125.999996154785,2|2,0:0|0:0,0:0:0:0:
168,103,16342,1,8,0:0:0:0:
187,16,16568,1,2,0:0:0:0:
252,76,16793,6,0,P|253:123|231:165,1,94.499997116089,2|2,0:0|0:0,0:0:0:0:
193,186,17244,1,8,0:0:0:0:
107,165,17470,2,0,L|118:290,1,125.999996154785,2|2,0:0|0:0,0:0:0:0:
203,313,18146,1,8,0:0:0:0:
263,248,18372,1,2,0:0:0:0:
230,165,18598,6,0,P|261:160|293:164,1,62.9999980773926,6|0,0:0|0:0,0:0:0:0:
367,117,19049,1,8,0:0:0:0:
450,172,19274,1,2,0:0:0:0:
450,172,19387,1,2,0:0:0:0:
450,172,19500,2,0,L|446:234,1,62.9999980773926,2|2,0:0|0:0,0:0:0:0:
418,318,19951,1,8,0:0:0:0:
504,301,20177,1,0,0:0:0:0:
446,234,20402,6,0,P|399:233|357:254,1,94.499997116089,2|0,0:0|0:0,0:0:0:0:
333,291,20853,2,0,L|270:283,1,62.9999980773926,8|2,0:0|0:0,0:0:0:0:
193,326,21304,2,0,L|130:333,1,62.9999980773926,2|0,0:0|0:0,0:0:0:0:
60,279,21756,1,8,0:0:0:0:
47,366,21981,1,2,0:0:0:0:
129,333,22207,6,0,P|146:289|139:243,1,94.499997116089,2|0,0:0|0:0,0:0:0:0:
115,206,22658,1,8,0:0:0:0:
44,152,22883,2,0,B|109:161|109:161|164:136,1,125.999996154785,2|2,0:0|0:0,0:0:0:0:
216,65,23560,1,8,0:0:0:0:
302,83,23786,1,2,0:0:0:0:
319,169,24011,6,0,L|381:176,1,62.9999980773926,8|8,0:3|0:3,0:0:0:0:
454,126,24462,1,8,0:3:0:0:
461,214,24688,2,0,B|452:279|452:279|477:334,1,125.999996154785,4|0,0:3|0:0,0:0:0:0:
389,347,25365,2,0,L|357:350,2,31.4999990386963,8|8|8,0:3|0:3|0:3,0:0:0:0:
372,260,25816,6,0,P|325:263|284:287,1,94.499997116089,4|0,0:0|0:0,0:0:0:0:
264,326,26267,2,0,L|201:318,1,62.9999980773926,8|2,0:0|0:0,0:0:0:0:
117,346,26718,1,2,0:0:0:0:
65,274,26943,1,0,0:0:0:0:
114,200,27169,1,8,0:0:0:0:
196,232,27395,1,2,0:0:0:0:
280,206,27620,6,0,P|306:149|294:88,1,125.999996154785,2|8,0:0|0:0,0:0:0:0:
289,0,28297,2,0,P|324:50|382:71,1,125.999996154785,2|2,0:0|0:0,0:0:0:0:
470,59,28974,2,0,P|469:90|457:119,1,62.9999980773926,8|2,0:0|0:0,0:0:0:0:
376,154,29425,6,0,L|386:247,1,94.499997116089,2|2,0:0|0:0,0:0:0:0:
349,272,29876,2,0,L|341:334,1,62.9999980773926,8|0,0:0|0:0,0:0:0:0:
268,383,30327,1,2,0:0:0:0:
187,347,30552,1,0,0:0:0:0:
175,259,30778,2,0,L|167:196,1,62.9999980773926,8|0,0:0|0:0,0:0:0:0:
199,113,31229,6,0,P|152:109|110:128,2,94.499997116089,2|0|2,0:0|0:0|0:0,0:0:0:0:
270,163,32131,2,0,P|302:165|332:158,1,62.9999980773926,4|0,0:0|0:0,0:0:0:0:
369,129,32470,1,2,0:0:0:0:
369,129,32583,1,8,0:0:0:0:
296,78,32808,1,2,0:0:0:0:
271,163,33034,6,0,P|268:209|283:254,1,94.499997116089,4|0,0:0|0:0,0:0:0:0:
271,297,33485,2,0,P|271:328|264:359,1,62.9999980773926,8|2,0:0|0:0,0:0:0:0:
187,315,33936,2,0,P|140:312|95:327,1,94.499997116089,2|0,0:0|0:0,0:0:0:0:
61,299,34387,2,0,P|29:299|-1:292,1,62.9999980773926,8|2,0:0|0:0,0:0:0:0:
37,213,34838,6,0,L|46:119,1,94.499997116089,2|0,0:0|0:0,0:0:0:0:
13,89,35289,2,0,L|75:82,1,62.9999980773926,8|2,0:0|0:0,0:0:0:0:
150,130,35740,6,0,L|212:136,1,62.9999980773926,2|8,0:0|0:0,0:0:0:0:
297,108,36191,1,8,0:0:0:0:
336,126,36304,1,8,0:0:0:0:
363,161,36417,1,8,0:0:0:0:
282,194,36643,6,0,P|268:240|273:286,1,94.499997116089,12|2,0:0|0:0,0:0:0:0:
293,324,37094,2,0,P|267:305|238:294,1,62.9999980773926,8|2,0:0|0:0,0:0:0:0:
152,312,37545,2,0,P|165:266|160:220,1,94.499997116089,12|0,0:0|0:0,0:0:0:0:
143,180,37996,2,0,P|168:198|197:209,1,62.9999980773926,8|2,0:0|0:0,0:0:0:0:
286,199,38447,6,0,L|348:191,1,62.9999980773926,2|0,0:0|0:0,0:0:0:0:
391,114,38898,2,0,L|328:106,1,62.9999980773926,8|0,0:0|0:0,0:0:0:0:
271,38,39349,1,2,0:0:0:0:
186,64,39575,1,2,0:0:0:0:
207,103,39688,1,2,0:0:0:0:
241,126,39801,1,2,0:0:0:0:
328,106,40026,5,2,0:0:0:0:
184,278,41380,5,2,0:0:0:0:
115,222,41605,2,0,P|100:249|95:280,1,62.9999980773926,8|2,0:0|0:0,0:0:0:0:
177,354,42056,6,0,L|183:277,1,77.0000023498536,6|0,0:0|0:0,0:0:0:0:
268,211,42507,1,8,0:0:0:0:
361,264,42733,2,0,L|351:148,1,115.50000352478,2|0,0:0|0:0,0:0:0:0:
395,118,43184,1,2,0:0:0:0:
287,103,43410,1,8,0:0:0:0:
180,88,43635,1,2,0:0:0:0:
101,161,43861,6,0,P|94:198|104:235,1,77.0000023498536,2|0,0:0|0:0,0:0:0:0:
191,300,44312,1,10,0:0:0:0:
298,311,44537,2,0,P|289:255|253:211,1,115.50000352478,2|2,0:0|0:0,0:0:0:0:
202,193,44989,1,2,0:0:0:0:
191,300,45214,1,8,0:0:0:0:
104,235,45440,1,2,0:0:0:0:
118,127,45665,6,0,P|145:101|181:88,1,77.0000023498536,2|0,0:0|0:0,0:0:0:0:
281,131,46116,1,8,0:0:0:0:
379,174,46342,2,0,B|390:138|377:98|377:98|366:59|381:22,1,154.000004699707,2|0,0:0|0:0,0:0:0:0:
479,66,47019,1,8,0:0:0:0:
485,173,47244,6,0,P|459:243|393:279,1,154.000004699707,2|2,0:0|0:0,0:0:0:0:
295,238,47921,1,8,0:0:0:0:
282,133,48146,1,2,0:0:0:0:
336,140,48259,1,2,0:0:0:0:
379,174,48372,1,2,0:0:0:0:
392,279,48598,1,2,0:0:0:0:
308,348,48823,2,0,P|270:344|235:329,1,77.0000023498536,12|2,0:0|0:0,0:0:0:0:
191,231,49274,6,0,L|114:240,1,77.0000023498536,2|2,0:0|0:0,0:0:0:0:
70,207,49613,1,2,0:0:0:0:
29,171,49725,2,0,L|19:94,1,77.0000023498536,8|2,0:0|0:0,0:0:0:0:
118,52,50177,2,0,P|108:88|109:127,1,77.0000023498536,2|2,0:0|0:0,0:0:0:0:
215,110,50628,2,0,P|214:148|224:185,1,77.0000023498536,8|2,0:0|0:0,0:0:0:0:
320,136,51079,6,0,P|357:145|389:166,1,77.0000023498536,2|0,0:0|0:0,0:0:0:0:
314,244,51530,2,0,P|331:277|359:304,1,77.0000023498536,8|2,0:0|0:0,0:0:0:0:
411,315,51868,1,2,0:0:0:0:
463,303,51981,2,0,L|477:227,1,77.0000023498536,2|2,0:0|0:0,0:0:0:0:
389,166,52432,2,0,L|374:90,1,77.0000023498536,8|0,0:0|0:0,0:0:0:0:
279,38,52883,6,0,P|241:46|203:46,1,77.0000023498536,12|2,0:0|0:0,0:0:0:0:
155,142,53334,2,0,P|192:150|230:150,1,77.0000023498536,8|2,0:0|0:0,0:0:0:0:
274,183,53673,1,0,0:0:0:0:
296,232,53786,2,0,L|288:308,1,77.0000023498536,8|2,0:0|0:0,0:0:0:0:
190,354,54237,1,8,0:0:0:0:
125,267,54462,1,2,0:0:0:0:
20,295,54688,6,0,L|30:179,1,115.50000352478,4|2,0:0|0:0,0:0:0:0:
69,142,55139,2,0,P|105:154|143:153,1,77.0000023498536,0|2,0:0|0:0,0:0:0:0:
237,206,55590,6,0,L|226:90,1,115.50000352478,4|2,0:0|0:0,0:0:0:0:
269,57,56041,2,0,L|271:18,2,38.5000011749268,2|2|2,0:0|0:0|0:0,0:0:0:0:
256,192,56492,12,0,58297,0:0:0:0:
