osu file format v14

[General]
AudioFilename: audio.mp3
AudioLeadIn: 0
PreviewTime: 41154
Countdown: 0
SampleSet: Soft
StackLeniency: 0.7
Mode: 0
LetterboxInBreaks: 0
WidescreenStoryboard: 0

[Editor]
DistanceSpacing: 1
BeatDivisor: 4
GridSize: 8
TimelineZoom: 1

[Metadata]
Title:Aimaimoko
TitleUnicode:アイマイモコ
Artist:Inori Minase
ArtistUnicode:水瀬いのり
Creator:DakiniBrave
Version:Corinn's Normal
Source:徒然チルドレン
Tags:Tsuredure Children Tsurezure Chirudoren TV Size OP Opening Rizen aqpw a_q_p_w -_Rain_- -Rain- akitoshi corinn
BeatmapID:1403206
BeatmapSetID:651721

[Difficulty]
HPDrainRate:4
CircleSize:3.5
OverallDifficulty:4
ApproachRate:4.5
SliderMultiplier:1.1
SliderTickRate:1

[Events]
//Background and Video events
0,0,"836170.jpg",0,0
//Break Periods
//Storyboard Layer 0 (Background)
//Storyboard Layer 1 (Fail)
//Storyboard Layer 2 (Pass)
//Storyboard Layer 3 (Foreground)
//Storyboard Sound Samples

[TimingPoints]
553,451.127819548872,4,2,1,50,1,0
3485,-100.0,4,2,1,70,0,0
3710,-100.0,4,2,1,70,0,0
11380,-100.0,4,2,1,50,0,0
42056,-100.0,4,2,1,70,0,1
56492,-100.0,4,2,1,60,0,0
58297,-100.0,4,2,1,5,0,0

[Colours]
Combo1 : 158,77,213
Combo2 : 194,12,16
Combo3 : 32,131,240
Combo4 : 231,122,222

[HitObjects]
256,192,553,12,2,2357,0:0:0:0:
312,96,3710,5,8,0:0:0:0:
312,96,4162,6,0,P|264:113|187:89,1,110,6|8,0:0|0:0,0:0:0:0:
160,73,4838,2,0,L|169:206,1,110,2|2,0:0|0:0,0:0:0:0:
172,237,5515,1,8,0:0:0:0:
259,303,5966,2,0,L|254:369,2,55,2|0|8,0:0|0:0|0:0,0:0:0:0:
297,263,6643,2,0,P|351:250|422:268,1,110,2|2,0:0|0:0,0:0:0:0:
449,289,7319,1,8,0:0:0:0:
497,190,7771,5,8,0:0:0:0:
463,85,8222,1,8,0:0:0:0:
366,31,8673,1,2,0:0:0:0:
265,76,9124,1,8,0:0:0:0:
229,180,9575,2,0,B|151:204|150:148|63:180,2,165,8|2|8,0:0|0:0|0:3,0:0:0:0:
332,141,11380,6,0,L|344:252,1,110,6|8,0:0|0:0,0:0:0:0:
363,301,12056,2,0,P|325:288|200:346,1,165,2|8,0:0|0:0,0:0:0:0:
104,351,13184,2,0,L|92:240,1,110,2|8,0:0|0:0,0:0:0:0:
90,186,13861,2,0,P|128:199|253:141,1,165,2|8,0:0|0:0,0:0:0:0:
309,73,14989,6,0,L|304:12,2,55,2|0|8,0:0|0:0|0:0,0:0:0:0:
340,118,15665,2,0,P|389:132|451:118,1,110,2|2,0:0|0:0,0:0:0:0:
491,89,16342,1,8,0:0:0:0:
512,198,16793,2,0,L|503:308,1,110,2|8,0:0|0:0,0:0:0:0:
475,355,17470,2,0,P|436:329|303:320,1,165,2|8,0:0|0:0,0:0:0:0:
216,351,18598,6,0,L|93:345,1,110,6|8,0:0|0:0,0:0:0:0:
86,237,19500,2,0,L|209:231,1,110,2|8,0:0|0:0,0:0:0:0:
273,153,20402,2,0,P|314:176|392:176,2,110,2|8|2,0:0|0:0|0:0,0:0:0:0:
199,70,21756,1,8,0:0:0:0:
100,119,22207,6,0,L|93:232,1,110,2|8,0:0|0:0,0:0:0:0:
87,283,22883,2,0,P|148:278|207:307,1,110,2|2,0:0|0:0,0:0:0:0:
235,330,23560,1,8,0:0:0:0:
331,276,24011,2,0,L|408:282,2,55,8|8|8,0:3|0:3|0:3,0:0:0:0:
288,241,24688,2,0,P|277:185|290:131,1,110,4|0,0:3|0:0,0:0:0:0:
321,89,25365,1,8,0:3:0:0:
430,77,25816,6,0,L|440:192,1,110,4|8,0:0|0:0,0:0:0:0:
449,245,26492,1,2,0:0:0:0:
449,245,26718,2,0,L|526:239,2,55,2|0|8,0:0|0:0|0:0,0:0:0:0:
352,297,27620,2,0,P|296:310|240:293,1,110,2|8,0:0|0:0,0:0:0:0:
202,263,28297,2,0,P|146:276|90:259,1,110,2|2,0:0|0:0,0:0:0:0:
55,225,28974,1,8,0:0:0:0:
49,115,29425,6,0,L|167:104,1,110,2|8,0:0|0:0,0:0:0:0:
217,99,30101,1,0,0:0:0:0:
217,99,30327,2,0,L|209:28,2,55,2|0|8,0:0|0:0|0:0,0:0:0:0:
254,202,31229,2,0,P|306:216|376:202,1,110,2|8,0:0|0:0,0:0:0:0:
415,189,31906,1,2,0:0:0:0:
415,189,32131,2,0,L|417:77,1,110,4|8,0:0|0:0,0:0:0:0:
314,39,33034,6,0,B|239:17|231:67|150:43,2,165,4|2|8,0:0|0:0|0:0,0:0:0:0:
281,144,34838,2,0,P|200:166|116:147,2,165,2|2|8,0:0|0:0|0:0,0:0:0:0:
314,39,36643,5,12,0:0:0:0:
421,63,37094,1,8,0:0:0:0:
468,163,37545,1,12,0:0:0:0:
419,262,37996,1,8,0:0:0:0:
312,285,38447,2,0,L|199:279,1,110,2|8,0:0|0:0,0:0:0:0:
101,235,39349,2,0,L|37:243,2,55,2|2|2,0:0|0:0|0:0,0:0:0:0:
140,196,40026,5,2,0:0:0:0:
266,84,41380,2,0,L|276:10,2,55,2|8|2,0:0|0:0|0:0,0:0:0:0:
245,134,42056,6,0,P|204:146|124:131,1,110,6|8,0:0|0:0,0:0:0:0:
92,108,42733,2,0,L|99:238,1,110,2|2,0:0|0:0,0:0:0:0:
103,272,43410,1,8,0:0:0:0:
195,331,43861,2,0,L|260:323,1,55,2|0,0:0|0:0,0:0:0:0:
302,301,44312,1,10,0:0:0:0:
302,301,44537,2,0,P|349:277|413:287,1,110,2|2,0:0|0:0,0:0:0:0:
449,314,45214,1,8,0:0:0:0:
511,223,45665,6,0,L|501:106,1,110,2|8,0:0|0:0,0:0:0:0:
494,58,46342,1,2,0:0:0:0:
389,92,46793,2,0,L|323:83,1,55,0|8,0:0|0:0,0:0:0:0:
295,46,47244,2,0,P|276:113|283:173,1,110,2|2,0:0|0:0,0:0:0:0:
290,212,47921,1,8,0:0:0:0:
290,212,48146,2,0,P|232:228|164:215,1,110,2|2,0:0|0:0,0:0:0:0:
138,190,48823,1,12,0:0:0:0:
35,150,49274,6,0,L|51:270,1,110,2|8,0:0|0:0,0:0:0:0:
66,317,49951,1,2,0:0:0:0:
66,317,50177,2,0,P|122:319|184:298,1,110,2|8,0:0|0:0,0:0:0:0:
225,207,51079,1,2,0:0:0:0:
329,221,51530,1,8,0:0:0:0:
349,329,51981,1,2,0:0:0:0:
250,380,52432,1,8,0:0:0:0:
173,303,52883,6,0,L|170:176,1,110,12|8,0:0|0:0,0:0:0:0:
172,142,53560,1,2,0:0:0:0:
172,142,53786,2,0,P|226:133|279:148,1,110,8|8,0:0|0:0,0:0:0:0:
375,198,54688,2,0,B|423:178|423:178|494:183,1,110,4|0,0:0|0:0,0:0:0:0:
498,290,55590,2,0,B|450:310|450:310|379:305,1,110,4|2,0:0|0:0,0:0:0:0:
256,192,56492,12,0,58297,0:0:0:0:
