osu file format v14

[General]
AudioFilename: audio.mp3
AudioLeadIn: 0
PreviewTime: 41267
Countdown: 0
SampleSet: Soft
StackLeniency: 0.7
Mode: 2
LetterboxInBreaks: 0
WidescreenStoryboard: 0

[Editor]
DistanceSpacing: 1.5
BeatDivisor: 4
GridSize: 32
TimelineZoom: 1

[Metadata]
Title:Aimaimoko
TitleUnicode:アイマイモコ
Artist:Inori Minase
ArtistUnicode:水瀬いのり
Creator:Ascendance
Version:Platter
Source:徒然チルドレン
Tags:Tsuredure Children Tsurezure Chirudoren TV Size OP Opening
BeatmapID:1415127
BeatmapSetID:669017

[Difficulty]
HPDrainRate:5
CircleSize:3.5
OverallDifficulty:8
ApproachRate:8
SliderMultiplier:1.8
SliderTickRate:2

[Events]
//Background and Video events
0,0,"00065be0_14520.png",0,0
//Break Periods
//Storyboard Layer 0 (Background)
//Storyboard Layer 1 (Fail)
//Storyboard Layer 2 (Pass)
//Storyboard Layer 3 (Foreground)
//Storyboard Sound Samples

[TimingPoints]
553,451.127819548872,4,2,1,50,1,0
553,-133.333333333333,4,2,1,50,0,0
3485,-100,4,2,1,70,0,0
11380,-100,4,2,1,50,0,0
33034,-100,4,2,1,50,0,0
42056,-90.9090909090909,4,2,1,70,0,1
56492,-100,4,2,1,60,0,0
58297,-100,4,2,1,5,0,0

[Colours]
Combo1 : 158,77,213
Combo2 : 194,12,16
Combo3 : 32,131,240
Combo4 : 231,122,222

[HitObjects]
66,98,553,6,0,L|157:109,1,67.5000025749207,0|0,0:0|0:0,0:0:0:0:
349,323,1229,2,0,L|357:163,1,135.000005149841,0|0,0:0|0:0,0:0:0:0:
230,134,1906,1,0,0:0:0:0:
439,61,2357,5,0,0:0:0:0:
230,134,2808,2,0,L|88:118,1,135.000005149842,0|0,0:0|0:0,0:0:0:0:
247,239,3485,1,0,0:0:0:0:
421,285,3710,1,2,0:0:0:0:
464,182,3936,1,0,0:0:0:0:
141,325,4162,6,0,P|96:252|174:192,1,180,6|0,0:0|0:0,0:0:0:0:
311,283,4838,2,0,L|325:95,1,180,0|0,0:0|0:0,0:0:0:0:
198,95,5515,1,8,0:0:0:0:
431,71,5966,5,2,0:0:0:0:
281,138,6192,2,0,L|288:245,1,90,0|0,0:0|0:0,0:0:0:0:
451,291,6643,2,0,P|329:278|258:321,1,180,2|0,0:0|0:0,0:0:0:0:
134,271,7319,2,0,L|123:165,1,90,8|0,0:0|0:0,0:0:0:0:
466,121,7771,5,12,0:0:0:0:
291,34,8222,2,0,L|103:42,2,180,8|2|8,0:0|0:0|0:0,0:0:0:0:
433,23,9349,1,0,0:0:0:0:
136,144,9575,5,12,0:0:0:0:
23,234,9801,2,0,L|10:176,2,45,0|0|0,0:0|0:0|0:0,0:0:0:0:
191,306,10252,2,0,L|398:325,1,180,2|2,0:0|0:0,0:0:0:0:
259,226,10928,1,8,0:3:0:0:
454,228,11154,1,0,0:0:0:0:
155,85,11380,6,0,P|96:140|180:202,1,180,6|8,0:0|0:0,0:0:0:0:
313,223,12056,1,0,0:0:0:0:
169,306,12507,2,0,L|65:312,2,90,0|8|0,0:0|0:0|0:0,0:0:0:0:
350,330,13184,6,0,L|517:352,2,135,2|0|2,0:0|0:0|0:0,0:0:0:0:
149,248,14312,2,0,L|52:262,2,90,0|8|0,0:0|0:0|0:0,0:0:0:0:
292,215,14989,6,0,L|286:119,1,90,2|0,0:0|0:0,0:0:0:0:
134,85,15440,1,8,0:0:0:0:
292,215,15665,2,0,L|483:195,1,180,2|2,0:0|0:0,0:0:0:0:
303,120,16342,2,0,L|181:134,1,90,8|0,0:0|0:0,0:0:0:0:
443,325,16793,6,0,P|475:239|412:176,1,180,2|0,0:0|0:0,0:0:0:0:
212,65,17470,2,0,L|404:81,1,180,2|0,0:0|0:0,0:0:0:0:
274,223,18146,2,0,L|391:208,1,90,8|0,0:0|0:0,0:0:0:0:
51,323,18598,6,0,L|39:229,1,90,6|0,0:0|0:0,0:0:0:0:
184,232,19049,2,0,L|279:222,1,90,8|0,0:0|0:0,0:0:0:0:
475,340,19500,2,0,L|487:246,1,90,2|0,0:0|0:0,0:0:0:0:
342,249,19951,2,0,L|247:239,1,90,8|0,0:0|0:0,0:0:0:0:
466,135,20402,6,0,L|305:155,2,135,2|0|2,0:0|0:0|0:0,0:0:0:0:
284,78,21304,2,0,L|186:66,1,90,2|0,0:0|0:0,0:0:0:0:
17,178,21756,2,0,L|121:165,1,90,8|0,0:0|0:0,0:0:0:0:
311,322,22207,6,0,P|359:241|292:178,1,180,2|8,0:0|0:0,0:0:0:0:
186,162,22883,1,2,0:0:0:0:
401,132,23334,2,0,L|496:127,2,90,2|8|0,0:0|0:0|0:0,0:0:0:0:
106,85,24011,6,0,L|2:77,2,90,12|0|8,0:3|0:0|0:3,0:0:0:0:
298,194,24688,2,0,L|478:177,1,180,4|0,0:3|0:0,0:0:0:0:
367,87,25365,1,8,0:3:0:0:
411,82,25477,1,0,0:0:0:0:
456,77,25590,1,0,0:0:0:0:
115,57,25816,5,6,0:0:0:0:
310,177,26154,2,0,L|142:185,1,135,0|0,0:0|0:0,0:0:0:0:
325,338,26718,2,0,L|342:245,1,90,2|0,0:0|0:0,0:0:0:0:
199,175,27169,2,0,L|106:160,1,90,8|0,0:0|0:0,0:0:0:0:
436,238,27620,6,0,P|479:164|414:88,1,180,2|0,0:0|0:0,0:0:0:0:
270,38,28297,2,0,L|85:55,1,180,2|0,0:0|0:0,0:0:0:0:
173,124,28974,2,0,L|273:133,1,90,8|0,0:0|0:0,0:0:0:0:
69,251,29425,6,0,L|61:77,1,135,2|0,0:0|0:0,0:0:0:0:
303,167,30101,1,0,0:0:0:0:
156,302,30327,2,0,L|151:207,1,90,2|0,0:0|0:0,0:0:0:0:
303,167,30778,2,0,L|426:148,1,90,8|0,0:0|0:0,0:0:0:0:
84,60,31229,5,2,0:0:0:0:
229,197,31568,2,0,L|56:205,1,135,0|0,0:0|0:0,0:0:0:0:
454,287,32131,1,4,0:0:0:0:
319,352,32357,1,0,0:0:0:0:
313,307,32469,1,0,0:0:0:0:
308,262,32582,1,8,0:0:0:0:
454,287,32808,1,0,0:0:0:0:
104,288,33034,6,0,P|60:204|138:147,1,180,4|8,0:0|0:0,0:0:0:0:
243,151,33710,1,0,0:0:0:0:
77,150,33936,1,2,0:0:0:0:
221,152,34274,2,0,L|81:152,1,135,0|0,0:0|0:0,0:0:0:0:
438,287,34838,6,0,P|482:203|404:146,1,180,2|8,0:0|0:0,0:0:0:0:
299,150,35514,1,0,0:0:0:0:
446,146,35740,1,2,0:0:0:0:
299,150,36079,2,0,L|440:150,1,135,0|0,0:0|0:0,0:0:0:0:
85,68,36643,5,12,0:0:0:0:
246,153,36981,2,0,L|394:145,1,135,0|2,0:0|0:0,0:0:0:0:
136,244,37545,2,0,L|-16:226,2,135,12|0|2,0:0|0:0|0:0,0:0:0:0:
459,351,38447,6,0,P|501:272|434:205,1,180,2|0,0:0|0:0,0:0:0:0:
186,200,39349,1,0,0:0:0:0:
321,288,39575,1,0,0:0:0:0:
369,258,39687,1,0,0:0:0:0:
368,212,39800,1,0,0:0:0:0:
320,172,39913,1,0,0:0:0:0:
180,141,40026,1,2,0:0:0:0:
107,96,40477,6,0,L|119:165,1,45,0|0,0:0|0:0,0:0:0:0:
282,165,40928,1,0,0:0:0:0:
101,301,41154,2,0,L|290:315,1,180,0|0,0:0|0:0,0:0:0:0:
404,329,41831,1,2,0:0:0:0:
54,355,42056,5,6,0:0:0:0:
248,297,42507,1,8,0:0:0:0:
116,235,42733,2,0,P|84:159|160:76,1,198.000006042481,0|2,0:0|0:0,0:0:0:0:
289,51,43410,2,0,L|406:62,1,99.0000030212403,8|0,0:0|0:0,0:0:0:0:
87,322,43861,6,0,P|43:236|124:162,1,198.000006042481,2|8,0:0|0:0,0:0:0:0:
224,124,44537,2,0,L|23:98,1,198.000006042481,2|0,0:0|0:0,0:0:0:0:
341,229,45214,2,0,L|441:215,1,99.0000030212403,8|0,0:0|0:0,0:0:0:0:
146,137,45665,5,2,0:0:0:0:
349,83,46116,1,8,0:0:0:0:
230,141,46342,2,0,L|263:336,1,198.000006042481,2|0,0:0|0:0,0:0:0:0:
429,316,47019,1,0,0:0:0:0:
140,252,47244,6,0,P|96:163|173:90,1,198.000006042481,2|2,0:0|0:0,0:0:0:0:
323,65,47921,2,0,L|423:77,1,99.0000030212403,0|2,0:0|0:0,0:0:0:0:
243,196,48598,2,0,L|144:204,1,99.0000030212403,2|12,0:0|0:0,0:0:0:0:
27,220,49049,1,0,0:0:0:0:
349,326,49274,6,0,L|364:223,1,99.0000030212403,6|0,0:0|0:0,0:0:0:0:
223,198,49725,2,0,L|116:188,1,99.0000030212403,8|0,0:0|0:0,0:0:0:0:
306,119,50177,2,0,L|532:152,1,198.000006042481,2|8,0:0|0:0,0:0:0:0:
395,216,50853,1,0,0:0:0:0:
56,311,51079,6,0,P|13:226|93:145,1,198.000006042481,2|8,0:0|0:0,0:0:0:0:
179,140,51756,1,0,0:0:0:0:
480,140,51981,1,2,0:0:0:0:
318,249,52432,2,0,L|446:240,1,99.0000030212403,8|0,0:0|0:0,0:0:0:0:
102,337,52883,6,0,L|86:222,1,99.0000030212403,12|0,0:0|0:0,0:0:0:0:
310,209,53334,2,0,L|421:194,1,99.0000030212403,8|0,0:0|0:0,0:0:0:0:
233,146,53786,2,0,L|130:153,1,99.0000030212403,8|2,0:0|0:0,0:0:0:0:
333,87,54237,2,0,L|440:74,1,99.0000030212403,8|0,0:0|0:0,0:0:0:0:
69,68,54688,5,4,0:0:0:0:
262,84,55026,1,2,0:0:0:0:
476,101,55365,1,2,0:0:0:0:
190,286,55590,5,4,0:0:0:0:
20,287,55928,1,2,0:0:0:0:
190,286,56267,1,2,0:0:0:0:
491,299,56492,5,0,0:0:0:0:
256,192,56718,12,0,58297,0:0:0:0:
