osu file format v14

[General]
AudioFilename: audio.mp3
AudioLeadIn: 0
PreviewTime: 41267
Countdown: 0
SampleSet: Soft
StackLeniency: 0.7
Mode: 2
LetterboxInBreaks: 0
WidescreenStoryboard: 0

[Editor]
DistanceSpacing: 1.2
BeatDivisor: 4
GridSize: 32
TimelineZoom: 1

[Metadata]
Title:Aimaimoko
TitleUnicode:アイマイモコ
Artist:Inori Minase
ArtistUnicode:水瀬いのり
Creator:Ascendance
Version:Ambiguous Love
Source:徒然チルドレン
Tags:Tsuredure Children Tsurezure Chirudoren TV Size OP Opening
BeatmapID:1415125
BeatmapSetID:669017

[Difficulty]
HPDrainRate:6
CircleSize:3.7
OverallDifficulty:8.8
ApproachRate:8.8
SliderMultiplier:2
SliderTickRate:2

[Events]
//Background and Video events
0,0,"00065be0_14520.png",0,0
//Break Periods
//Storyboard Layer 0 (Background)
//Storyboard Layer 1 (Fail)
//Storyboard Layer 2 (Pass)
//Storyboard Layer 3 (Foreground)
//Storyboard Sound Samples

[TimingPoints]
553,451.127819548872,4,2,1,50,1,0
553,-133.333333333333,4,2,1,50,0,0
3485,-100,4,2,1,70,0,0
11380,-100,4,2,1,50,0,0
25816,-100,4,2,1,50,0,0
33034,-100,4,2,1,50,0,0
42056,-90.9090909090909,4,2,1,70,0,1
56492,-100,4,2,1,60,0,0
58297,-100,4,2,1,5,0,0

[Colours]
Combo1 : 158,77,213
Combo2 : 194,12,16
Combo3 : 32,131,240
Combo4 : 231,122,222

[HitObjects]
63,78,553,6,0,L|166:78,1,75.0000028610231,0|0,0:0|0:0,0:0:0:0:
396,132,1229,2,0,L|218:146,1,150.000005722046,0|0,0:0|0:0,0:0:0:0:
93,160,1906,1,0,0:0:0:0:
342,299,2357,6,0,P|381:235|322:187,1,150.000005722046,0|0,0:0|0:0,0:0:0:0:
170,138,3259,2,0,L|86:138,1,75.0000028610231,0|0,0:0|0:0,0:0:0:0:
315,251,3710,1,2,0:0:0:0:
368,217,3822,1,0,0:0:0:0:
368,168,3935,1,0,0:0:0:0:
315,131,4048,1,0,0:0:0:0:
129,57,4162,6,0,L|129:176,1,100,6|0,0:0|0:0,0:0:0:0:
321,133,4613,1,0,0:0:0:0:
17,214,4838,2,0,L|223:227,1,200,0|0,0:0|0:0,0:0:0:0:
84,348,5515,2,0,L|75:244,1,100,8|0,0:0|0:0,0:0:0:0:
379,250,5966,5,2,0:0:0:0:
237,191,6192,1,0,0:0:0:0:
242,141,6304,1,0,0:0:0:0:
248,91,6417,1,0,0:0:0:0:
386,154,6643,1,2,0:0:0:0:
229,245,6868,2,0,L|159:243,2,50,0|0|0,0:0|0:0|0:0,0:0:0:0:
386,323,7319,2,0,L|436:218,1,100,8|0,0:0|0:0,0:0:0:0:
114,208,7771,6,0,L|68:110,1,100,12|0,0:0|0:0,0:0:0:0:
403,119,8222,2,0,L|519:102,1,100,8|0,0:0|0:0,0:0:0:0:
209,53,8673,1,2,0:0:0:0:
156,78,8785,1,0,0:0:0:0:
151,126,8898,1,0,0:0:0:0:
197,165,9011,1,0,0:0:0:0:
271,53,9124,1,8,0:0:0:0:
324,78,9236,1,0,0:0:0:0:
329,126,9349,1,0,0:0:0:0:
282,165,9462,1,0,0:0:0:0:
76,228,9575,5,12,0:0:0:0:
212,306,9801,2,0,L|304:300,1,50,0|0,0:0|0:0,0:0:0:0:
212,306,10026,2,0,L|147:312,1,50,0|0,0:0|0:0,0:0:0:0:
415,345,10252,2,0,P|465:264|390:189,1,200,2|2,0:0|0:0,0:0:0:0:
236,51,10928,1,8,0:3:0:0:
176,75,11040,1,0,0:0:0:0:
170,123,11153,1,0,0:0:0:0:
223,164,11266,1,0,0:0:0:0:
410,191,11380,5,6,0:0:0:0:
192,279,11605,2,0,L|302:267,1,100,0|8,0:0|0:0,0:0:0:0:
96,111,12056,2,0,L|304:146,1,200,0|0,0:0|0:0,0:0:0:0:
68,328,12733,2,0,L|58:196,1,100,8|0,0:0|0:0,0:0:0:0:
381,108,13184,5,2,0:0:0:0:
241,171,13410,2,0,L|244:231,1,50,0|0,0:0|0:0,0:0:0:0:
337,240,13635,2,0,L|340:292,1,50,0|0,0:0|0:0,0:0:0:0:
130,336,13861,2,0,P|76:262|175:194,1,200,2|0,0:0|0:0,0:0:0:0:
293,109,14537,2,0,L|160:116,1,100,8|0,0:0|0:0,0:0:0:0:
132,118,14876,1,0,0:0:0:0:
451,245,14989,6,0,L|459:128,1,100,2|0,0:0|0:0,0:0:0:0:
292,168,15440,1,8,0:0:0:0:
420,266,15665,2,0,L|205:277,1,200,2|2,0:0|0:0,0:0:0:0:
332,158,16342,2,0,L|460:177,1,100,8|0,0:0|0:0,0:0:0:0:
490,181,16680,1,0,0:0:0:0:
166,266,16793,5,2,0:0:0:0:
300,332,17019,2,0,L|319:269,1,50,0|0,0:0|0:0,0:0:0:0:
216,220,17244,2,0,L|201:166,1,50,0|0,0:0|0:0,0:0:0:0:
448,215,17470,2,0,P|498:139|416:77,1,200,2|0,0:0|0:0,0:0:0:0:
242,54,18146,2,0,L|377:41,1,100,8|0,0:0|0:0,0:0:0:0:
37,176,18598,6,0,L|149:189,1,100,6|0,0:0|0:0,0:0:0:0:
311,278,19049,2,0,L|194:287,1,100,8|0,0:0|0:0,0:0:0:0:
151,289,19387,1,0,0:0:0:0:
449,364,19500,2,0,L|467:256,1,100,2|0,0:0|0:0,0:0:0:0:
310,142,19951,2,0,L|438:135,1,100,8|0,0:0|0:0,0:0:0:0:
206,81,20402,6,0,P|136:97|51:71,2,150,2|0|2,0:0|0:0|0:0,0:0:0:0:
261,56,21192,1,0,0:0:0:0:
66,299,21304,2,0,L|48:178,1,100,2|0,0:0|0:0,0:0:0:0:
261,212,21756,1,8,0:0:0:0:
109,286,21981,1,0,0:0:0:0:
433,318,22207,6,0,L|311:313,2,100,2|0|8,0:0|0:0|0:0,0:0:0:0:
139,338,22883,2,0,P|91:262|158:183,1,200,2|2,0:0|0:0,0:0:0:0:
289,196,23560,1,8,0:0:0:0:
91,128,23786,1,0,0:0:0:0:
421,58,24011,6,0,L|414:180,1,100,12|0,0:3|0:0,0:0:0:0:
91,128,24462,1,8,0:3:0:0:
458,239,24688,2,0,L|243:265,1,200,4|0,0:3|0:0,0:0:0:0:
86,334,25365,1,8,0:3:0:0:
39,297,25477,1,0,0:0:0:0:
40,248,25590,1,0,0:0:0:0:
89,213,25703,1,0,0:0:0:0:
353,207,25816,5,6,0:0:0:0:
201,307,26041,1,0,0:0:0:0:
197,267,26153,1,0,0:0:0:0:
194,227,26266,1,0,0:0:0:0:
353,207,26492,1,0,0:0:0:0:
191,181,26718,2,0,L|68:188,1,100,2|0,0:0|0:0,0:0:0:0:
453,38,27169,2,0,L|441:147,1,100,8|0,0:0|0:0,0:0:0:0:
134,302,27620,6,0,L|259:313,1,100,2|0,0:0|0:0,0:0:0:0:
293,319,27959,1,0,0:0:0:0:
351,327,28071,1,0,0:0:0:0:
40,217,28297,2,0,L|19:10,1,200,2|0,0:0|0:0,0:0:0:0:
217,108,28974,2,0,L|101:117,1,100,8|0,0:0|0:0,0:0:0:0:
432,232,29425,5,2,0:0:0:0:
269,297,29650,1,0,0:0:0:0:
219,290,29762,1,0,0:0:0:0:
169,283,29875,1,8,0:0:0:0:
309,177,30101,2,0,L|381:176,2,50,0|0|2,0:0|0:0|0:0,0:0:0:0:
129,178,30552,1,0,0:0:0:0:
470,62,30778,2,0,L|460:169,1,100,8|0,0:0|0:0,0:0:0:0:
153,299,31229,6,0,P|248:282|325:316,2,150,2|0|0,0:0|0:0|0:0,0:0:0:0:
453,350,32131,1,4,0:0:0:0:
304,289,32357,1,0,0:0:0:0:
250,263,32469,1,0,0:0:0:0:
220,210,32582,1,8,0:0:0:0:
219,149,32695,1,0,0:0:0:0:
252,98,32808,1,0,0:0:0:0:
308,80,32920,1,0,0:0:0:0:
487,98,33034,5,4,0:0:0:0:
306,33,33259,1,0,0:0:0:0:
256,37,33371,1,0,0:0:0:0:
206,42,33484,1,8,0:0:0:0:
411,118,33710,1,0,0:0:0:0:
107,224,33936,2,0,L|213:231,1,100,2|0,0:0|0:0,0:0:0:0:
266,235,34274,1,0,0:0:0:0:
325,240,34387,1,8,0:0:0:0:
469,256,34613,1,0,0:0:0:0:
114,333,34838,5,2,0:0:0:0:
264,280,35064,1,0,0:0:0:0:
270,230,35176,1,0,0:0:0:0:
276,180,35289,1,8,0:0:0:0:
116,182,35515,1,0,0:0:0:0:
424,255,35740,1,2,0:0:0:0:
253,316,35966,6,0,L|267:254,1,50,0|0,0:0|0:0,0:0:0:0:
439,210,36192,2,0,L|456:145,1,50,8|0,0:0|0:0,0:0:0:0:
263,97,36417,2,0,L|286:26,1,50,0|0,0:0|0:0,0:0:0:0:
475,47,36643,6,0,L|363:58,1,100,12|0,0:0|0:0,0:0:0:0:
57,170,37094,2,0,L|172:177,1,100,0|2,0:0|0:0,0:0:0:0:
468,335,37545,2,0,L|485:217,1,100,12|0,0:0|0:0,0:0:0:0:
144,77,37996,2,0,L|17:89,1,100,0|2,0:0|0:0,0:0:0:0:
401,156,38447,5,2,0:0:0:0:
236,207,38673,1,0,0:0:0:0:
241,256,38785,1,0,0:0:0:0:
247,306,38898,1,0,0:0:0:0:
406,237,39124,2,0,L|351:245,1,50,0|0,0:0|0:0,0:0:0:0:
115,249,39349,5,0,0:0:0:0:
71,210,39461,1,0,0:0:0:0:
73,161,39574,1,0,0:0:0:0:
121,128,39687,1,0,0:0:0:0:
314,109,39801,2,0,L|364:108,1,50,0|0,0:0|0:0,0:0:0:0:
78,51,40026,5,2,0:0:0:0:
256,248,40477,2,0,L|266:192,1,50,0|0,0:0|0:0,0:0:0:0:
76,159,40928,1,0,0:0:0:0:
214,161,41154,1,0,0:0:0:0:
354,165,41380,6,0,L|457:165,2,100,2|0|2,0:0|0:0|0:0,0:0:0:0:
47,160,42056,5,6,0:0:0:0:
212,169,42282,2,0,L|269:169,1,55.0000016784668,0|0,0:0|0:0,0:0:0:0:
92,274,42507,1,8,0:0:0:0:
263,352,42733,2,0,P|307:273|231:182,1,220.000006713867,0|2,0:0|0:0,0:0:0:0:
25,149,43410,2,0,L|152:139,1,110.000003356934,8|0,0:0|0:0,0:0:0:0:
444,44,43861,5,2,0:0:0:0:
273,115,44086,2,0,L|286:181,1,55.0000016784668,0|0,0:0|0:0,0:0:0:0:
476,210,44312,1,8,0:0:0:0:
293,316,44537,2,0,L|519:300,1,220.000006713867,2|0,0:0|0:0,0:0:0:0:
279,219,45214,2,0,L|162:230,1,110.000003356934,8|0,0:0|0:0,0:0:0:0:
475,70,45665,5,2,0:0:0:0:
319,28,45891,1,0,0:0:0:0:
264,35,46003,1,0,0:0:0:0:
475,70,46116,1,8,0:0:0:0:
282,192,46342,2,0,P|402:163|496:211,1,220.000006713867,2|0,0:0|0:0,0:0:0:0:
164,96,47019,1,0,0:0:0:0:
464,44,47244,6,0,L|230:49,1,220.000006713867,2|2,0:0|0:0,0:0:0:0:
395,212,47921,2,0,L|405:95,1,110.000003356934,0|2,0:0|0:0,0:0:0:0:
345,72,48259,1,0,0:0:0:0:
75,131,48372,1,0,0:0:0:0:
232,187,48598,1,2,0:0:0:0:
45,324,48823,2,0,L|45:205,1,110.000003356934,12|0,0:0|0:0,0:0:0:0:
107,190,49162,1,0,0:0:0:0:
359,181,49274,5,6,0:0:0:0:
222,94,49500,2,0,L|157:101,2,55.0000016784668,0|0|8,0:0|0:0|0:0,0:0:0:0:
359,181,49951,1,0,0:0:0:0:
153,306,50177,2,0,L|165:184,1,110.000003356934,2|0,0:0|0:0,0:0:0:0:
302,278,50628,2,0,P|372:268|473:307,1,165.000005035401,8|0,0:0|0:0,0:0:0:0:
106,347,51079,6,0,L|88:233,1,110.000003356934,2|0,0:0|0:0,0:0:0:0:
447,126,51530,2,0,L|329:141,1,110.000003356934,8|0,0:0|0:0,0:0:0:0:
48,56,51981,2,0,L|284:81,1,220.000006713867,2|8,0:0|0:0,0:0:0:0:
85,158,52658,1,0,0:0:0:0:
461,298,52883,5,12,0:0:0:0:
274,217,53109,1,0,0:0:0:0:
219,223,53221,1,0,0:0:0:0:
164,229,53334,1,8,0:0:0:0:
329,97,53560,1,0,0:0:0:0:
383,103,53672,1,0,0:0:0:0:
438,109,53785,1,8,0:0:0:0:
122,40,54011,1,2,0:0:0:0:
412,186,54237,2,0,L|404:314,1,110.000003356934,8|0,0:0|0:0,0:0:0:0:
59,235,54688,6,0,P|166:248|238:217,2,165.000005035401,4|2|2,0:0|0:0|0:0,0:0:0:0:
407,325,55590,2,0,L|416:204,1,110.000003356934,4|0,0:0|0:0,0:0:0:0:
353,192,55928,1,2,0:0:0:0:
133,262,56041,2,0,L|124:202,1,55.0000016784668,0|0,0:0|0:0,0:0:0:0:
336,106,56267,2,0,L|396:98,1,55.0000016784668,2|0,0:0|0:0,0:0:0:0:
61,45,56492,5,0,0:0:0:0:
256,192,56718,12,0,58297,0:0:0:0:
