osu file format v14

[General]
AudioFilename: audio.mp3
AudioLeadIn: 0
PreviewTime: 41267
Countdown: 0
SampleSet: Soft
StackLeniency: 0.7
Mode: 2
LetterboxInBreaks: 0
WidescreenStoryboard: 0

[Editor]
DistanceSpacing: 1.2
BeatDivisor: 4
GridSize: 32
TimelineZoom: 1

[Metadata]
Title:Aimaimoko
TitleUnicode:アイマイモコ
Artist:Inori Minase
ArtistUnicode:水瀬いのり
Creator:Ascendance
Version:Salad
Source:徒然チルドレン
Tags:Tsuredure Children Tsurezure Chirudoren TV Size OP Opening
BeatmapID:1415128
BeatmapSetID:669017

[Difficulty]
HPDrainRate:4
CircleSize:3
OverallDifficulty:7
ApproachRate:7
SliderMultiplier:1.6
SliderTickRate:2

[Events]
//Background and Video events
0,0,"00065be0_14520.png",0,0
//Break Periods
//Storyboard Layer 0 (Background)
//Storyboard Layer 1 (Fail)
//Storyboard Layer 2 (Pass)
//Storyboard Layer 3 (Foreground)
//Storyboard Sound Samples

[TimingPoints]
553,451.127819548872,4,2,1,50,1,0
553,-133.333333333333,4,2,1,50,0,0
3485,-100,4,2,1,70,0,0
11380,-100,4,2,1,50,0,0
25816,-100,4,2,1,50,0,0
33034,-100,4,2,1,50,0,0
42056,-90.9090909090909,4,2,1,70,0,1
56492,-100,4,2,1,60,0,0
58297,-100,4,2,1,5,0,0

[Colours]
Combo1 : 158,77,213
Combo2 : 194,12,16
Combo3 : 32,131,240
Combo4 : 231,122,222

[HitObjects]
120,324,553,6,0,L|109:247,1,60.0000022888184,0|0,0:0|0:0,0:0:0:0:
322,224,1229,2,0,L|463:215,1,120.000004577637
388,255,1906,1,0,0:0:0:0:
183,237,2357,5,0,0:0:0:0:
372,247,3485,1,0,0:0:0:0:
147,209,3710,1,2,0:0:0:0:
381,342,4162,6,0,P|412:275|356:206,1,160,6|0,0:0|0:0,0:0:0:0:
247,168,4838,2,0,L|71:172,2,160,0|0|0,0:0|0:0|0:0,0:0:0:0:
373,164,5966,5,2,0:0:0:0:
145,93,6417,1,0,0:0:0:0:
266,147,6643,2,0,P|306:194|256:282,1,160,2|0,0:0|0:0,0:0:0:0:
137,298,7319,1,8,0:0:0:0:
418,362,7771,6,0,L|466:191,1,160,12|8,0:0|0:0,0:0:0:0:
169,214,8673,2,0,L|130:47,1,160,2|8,0:0|0:0,0:0:0:0:
353,125,9575,6,0,L|434:117,2,80,12|0|0,0:0|0:0|0:0,0:0:0:0:
143,139,10252,2,0,P|99:202|161:268,1,160,2|2,0:0|0:0,0:0:0:0:
280,287,10928,1,8,0:3:0:0:
487,291,11380,5,6,0:0:0:0:
286,165,11831,2,0,L|202:175,1,80,8|0,0:0|0:0,0:0:0:0:
381,68,12507,2,0,L|480:83,2,80,0|8|0,0:0|0:0|0:0,0:0:0:0:
268,126,13184,6,0,P|155:160|27:130,2,240,2|2|8,0:0|0:0|0:0,0:0:0:0:
375,185,14763,1,0,0:0:0:0:
170,260,14989,5,2,0:0:0:0:
363,344,15440,2,0,L|376:253,1,80,8|2,0:0|0:0,0:0:0:0:
215,181,16116,2,0,L|127:172,2,80,2|8|0,0:0|0:0|0:0,0:0:0:0:
425,296,16793,6,0,L|442:147,1,120,2|0,0:0|0:0,0:0:0:0:
268,89,17470,2,0,L|450:100,1,160,2|0,0:0|0:0,0:0:0:0:
302,181,18146,2,0,L|209:179,1,80,8|0,0:0|0:0,0:0:0:0:
439,345,18598,6,0,L|486:265,1,80,6|0,0:0|0:0,0:0:0:0:
270,216,19274,2,0,L|167:222,2,80,0|2|0,0:0|0:0|0:0,0:0:0:0:
399,202,19951,1,8,0:0:0:0:
199,62,20402,6,0,L|326:80,2,120,2|0|2,0:0|0:0|0:0,0:0:0:0:
82,172,21304,2,0,L|270:163,1,160,2|8,0:0|0:0,0:0:0:0:
464,303,22207,6,0,P|503:218|450:159,1,160,2|8,0:0|0:0,0:0:0:0:
319,116,22883,2,0,L|145:122,1,160,2|2,0:0|0:0,0:0:0:0:
244,206,23560,1,8,0:0:0:0:
454,269,24011,6,0,L|292:278,1,160,12|8,0:3|0:3,0:0:0:0:
78,290,24688,1,4,0:3:0:0:
275,169,25139,2,0,L|363:184,2,80,0|8|0,0:0|0:3|0:0,0:0:0:0:
58,212,25816,6,0,P|22:141|84:81,1,160,6|8,0:0|0:0,0:0:0:0:
258,51,26718,2,0,L|351:57,1,80,2|0,0:0|0:0,0:0:0:0:
209,136,27169,2,0,L|125:130,1,80,8|0,0:0|0:0,0:0:0:0:
346,211,27620,5,2,0:0:0:0:
155,307,28071,1,0,0:0:0:0:
283,260,28297,2,0,P|302:155|252:107,1,160,2|0,0:0|0:0,0:0:0:0:
157,99,28974,1,8,0:0:0:0:
408,174,29425,6,0,L|236:181,1,160,2|8,0:0|0:0,0:0:0:0:
70,292,30327,2,0,L|64:199,1,80,2|0,0:0|0:0,0:0:0:0:
187,170,30778,2,0,L|271:161,1,80,8|0,0:0|0:0,0:0:0:0:
483,240,31229,6,0,L|495:98,1,120,2|0,0:0|0:0,0:0:0:0:
369,74,31906,1,0,0:0:0:0:
178,61,32131,1,4,0:0:0:0:
43,259,32583,2,0,L|143:226,1,80,8|0,0:0|0:0,0:0:0:0:
333,293,33034,6,0,L|492:312,1,160,4|8,0:0|0:0,0:0:0:0:
244,185,33936,2,0,L|77:198,1,160,2|8,0:0|0:0,0:0:0:0:
433,336,34838,6,0,L|455:171,1,160,2|8,0:0|0:0,0:0:0:0:
232,158,35740,2,0,L|64:143,1,160,2|8,0:0|0:0,0:0:0:0:
381,122,36643,6,0,L|525:115,2,120,12|0|2,0:0|0:0|0:0,0:0:0:0:
200,171,37545,2,0,L|71:164,2,120,12|0|2,0:0|0:0|0:0,0:0:0:0:
420,311,38447,6,0,L|466:128,1,160,2|0,0:0|0:0,0:0:0:0:
213,129,39349,1,0,0:0:0:0:
329,253,39575,2,0,L|354:190,2,40,0|0|0,0:0|0:0|0:0,0:0:0:0:
104,324,40026,1,2,0:0:0:0:
243,353,40477,6,0,L|261:279,1,40,0|0,0:0|0:0,0:0:0:0:
103,222,40928,1,0,0:0:0:0:
345,150,41380,2,0,L|454:161,2,80,2|0|2,0:0|0:0|0:0,0:0:0:0:
108,121,42056,5,6,0:0:0:0:
320,53,42507,2,0,P|403:136|311:251,1,264.000008056641,8|2,0:0|0:0,0:0:0:0:
191,266,43410,2,0,L|99:257,1,88.000002685547,8|0,0:0|0:0,0:0:0:0:
363,350,43861,6,0,P|408:281|338:209,1,176.000005371094,2|8,0:0|0:0,0:0:0:0:
249,205,44537,1,2,0:0:0:0:
458,109,44989,2,0,L|355:114,2,88.000002685547,0|8|0,0:0|0:0|0:0,0:0:0:0:
247,198,45665,6,0,L|54:179,1,176.000005371094,2|8,0:0|0:0,0:0:0:0:
178,309,46342,2,0,L|366:296,1,176.000005371094,2|0,0:0|0:0,0:0:0:0:
117,88,47244,6,0,P|64:155|123:238,1,176.000005371094,2|2,0:0|0:0,0:0:0:0:
201,248,47921,1,0,0:0:0:0:
412,248,48146,1,2,0:0:0:0:
201,248,48598,2,0,L|106:248,2,88.000002685547,2|12|0,0:0|0:0|0:0,0:0:0:0:
420,280,49274,6,0,L|443:169,1,88.000002685547,6|0,0:0|0:0,0:0:0:0:
314,165,49725,2,0,L|210:165,1,88.000002685547,8|0,0:0|0:0,0:0:0:0:
118,163,50177,1,2,0:0:0:0:
344,172,50628,1,8,0:0:0:0:
82,306,51079,6,0,L|72:126,1,176.000005371094,2|8,0:0|0:0,0:0:0:0:
340,65,51981,2,0,B|256:37|256:37|158:69,1,176.000005371094,2|8,0:0|0:0,0:0:0:0:
435,126,52883,6,0,P|475:196|417:272,1,176.000005371094,12|8,0:0|0:0,0:0:0:0:
206,298,53786,1,8,0:0:0:0:
118,296,54011,1,2,0:0:0:0:
30,293,54237,1,8,0:0:0:0:
364,221,54688,6,0,L|498:210,2,132.00000402832,4|2|2,0:0|0:0|0:0,0:0:0:0:
162,219,55590,2,0,L|28:208,2,132.00000402832,4|2|2,0:0|0:0|0:0,0:0:0:0:
364,221,56492,5,0,0:0:0:0:
256,192,56943,12,0,58297,0:0:0:0:
