osu file format v14

[General]
AudioFilename: audio.mp3
AudioLeadIn: 0
PreviewTime: 41267
Countdown: 0
SampleSet: Soft
StackLeniency: 0.7
Mode: 2
LetterboxInBreaks: 0
WidescreenStoryboard: 0

[Editor]
DistanceSpacing: 1.2
BeatDivisor: 4
GridSize: 32
TimelineZoom: 1

[Metadata]
Title:Aimaimoko
TitleUnicode:アイマイモコ
Artist:Inori Minase
ArtistUnicode:水瀬いのり
Creator:Ascendance
Version:Cup
Source:徒然チルドレン
Tags:Tsuredure Children Tsurezure Chirudoren TV Size OP Opening
BeatmapID:1415126
BeatmapSetID:669017

[Difficulty]
HPDrainRate:3
CircleSize:2.5
OverallDifficulty:6
ApproachRate:6
SliderMultiplier:1.4
SliderTickRate:2

[Events]
//Background and Video events
0,0,"00065be0_14520.png",0,0
//Break Periods
//Storyboard Layer 0 (Background)
//Storyboard Layer 1 (Fail)
//Storyboard Layer 2 (Pass)
//Storyboard Layer 3 (Foreground)
//Storyboard Sound Samples

[TimingPoints]
553,451.127819548872,4,2,1,50,1,0
553,-133.333333333333,4,2,1,50,0,0
3485,-100,4,2,1,70,0,0
11380,-100,4,2,1,50,0,0
25816,-100,4,2,1,50,0,0
33034,-100,4,2,1,50,0,0
42056,-90.9090909090909,4,2,1,70,0,1
56492,-100,4,2,1,60,0,0
58297,-100,4,2,1,5,0,0

[Colours]
Combo1 : 158,77,213
Combo2 : 194,12,16
Combo3 : 32,131,240
Combo4 : 231,122,222

[HitObjects]
55,80,553,5,0,0:0:0:0:
219,172,1229,2,0,L|344:164,1,105.000004005432,0|0,0:0|0:0,0:0:0:0:
256,192,2357,12,2,3710,0:0:0:0:
109,295,4162,6,0,P|34:194|130:94,1,280,6|0,0:0|0:0,0:0:0:0:
262,91,5515,1,8,0:0:0:0:
401,93,5966,6,0,L|181:92,2,210,2|2|8,0:0|0:0|0:0,0:0:0:0:
224,160,7771,6,0,L|74:159,2,140,12|8|2,0:0|0:0|0:0,0:0:0:0:
408,148,9124,1,8,0:0:0:0:
245,190,9575,6,0,L|165:190,1,70,12|0,0:0|0:0,0:0:0:0:
333,246,10252,2,0,L|482:258,1,140,2|2,0:0|0:0,0:0:0:0:
408,310,10928,1,8,0:3:0:0:
239,316,11380,5,6,0:0:0:0:
82,254,11831,2,0,L|89:101,1,140,8|0,0:0|0:0,0:0:0:0:
246,57,12733,1,8,0:0:0:0:
388,145,13184,6,0,L|171:155,2,210,2|2|8,0:0|0:0|0:0,0:0:0:0:
248,239,14989,5,2,0:0:0:0:
405,297,15440,1,8,0:0:0:0:
329,333,15665,2,0,L|170:328,1,140,2|2,0:0|0:0,0:0:0:0:
382,167,16793,6,0,L|165:188,2,210,2|2|8,0:0|0:0|0:0,0:0:0:0:
234,298,18598,6,0,L|89:293,1,140,6|8,0:0|0:0,0:0:0:0:
246,210,19500,2,0,L|399:223,1,140,2|8,0:0|0:0,0:0:0:0:
270,127,20402,6,0,L|136:138,2,105,2|0|2,0:0|0:0|0:0,0:0:0:0:
352,112,21304,1,2,0:0:0:0:
194,53,21756,1,8,0:0:0:0:
46,133,22207,6,0,L|59:291,1,140,2|8,0:0|0:0,0:0:0:0:
149,309,22883,1,2,0:0:0:0:
321,341,23334,2,0,L|410:335,1,70,2|8,0:0|0:0,0:0:0:0:
228,242,24011,6,0,L|68:255,1,140,12|8,0:3|0:3,0:0:0:0:
4,260,24688,1,4,0:3:0:0:
151,179,25139,2,0,L|238:190,1,70,0|8,0:0|0:3,0:0:0:0:
436,267,25816,6,0,L|456:121,1,140,6|8,0:0|0:0,0:0:0:0:
277,57,26718,2,0,L|132:64,1,140,2|8,0:0|0:0,0:0:0:0:
276,174,27620,6,0,L|505:195,2,210,2|2|8,0:0|0:0|0:0,0:0:0:0:
88,264,29425,6,0,L|235:248,1,140,2|8,0:0|0:0,0:0:0:0:
377,324,30327,2,0,P|411:254|358:201,1,140,2|8,0:0|0:0,0:0:0:0:
223,272,31229,6,0,L|215:107,1,140,2|8,0:0|0:0,0:0:0:0:
379,71,32131,2,0,L|451:82,2,70,4|0|8,0:0|0:0|0:0,0:0:0:0:
184,100,33034,6,0,L|34:116,3,140,4|8|2|8,0:0|0:0|0:0|0:0,0:0:0:0:
231,175,34838,6,0,L|381:190,3,140,2|8|2|8,0:0|0:0|0:0|0:0,0:0:0:0:
213,250,36643,6,0,L|84:260,2,105,12|0|2,0:0|0:0|0:0,0:0:0:0:
297,246,37545,2,0,L|404:240,2,105,12|0|2,0:0|0:0|0:0,0:0:0:0:
213,252,38447,5,2,0:0:0:0:
256,192,38898,12,2,40026,0:0:0:0:
83,73,41380,6,0,L|233:83,1,140,2|2,0:0|0:0,0:0:0:0:
337,92,42056,5,6,0:0:0:0:
161,148,42507,2,0,P|86:220|167:326,1,231.000007049561,8|2,0:0|0:0,0:0:0:0:
230,330,43410,1,8,0:0:0:0:
414,333,43861,6,0,L|182:336,2,231.000007049561,2|2|8,0:0|0:0|0:0,0:0:0:0:
215,257,45665,6,0,P|186:185|226:108,1,154.000004699707,2|8,0:0|0:0,0:0:0:0:
308,82,46342,1,2,0:0:0:0:
153,68,46793,1,0,0:0:0:0:
338,81,47244,6,0,L|494:91,2,154.000004699707,2|2|2,0:0|0:0|0:0,0:0:0:0:
162,140,48598,2,0,L|71:135,1,77.0000023498536,2|12,0:0|0:0,0:0:0:0:
287,235,49274,6,0,L|450:241,1,154.000004699707,6|8,0:0|0:0,0:0:0:0:
229,161,50177,2,0,L|62:157,1,154.000004699707,2|8,0:0|0:0,0:0:0:0:
248,92,51079,5,2,0:0:0:0:
63,97,51530,1,8,0:0:0:0:
248,92,51981,1,2,0:0:0:0:
432,88,52432,1,8,0:0:0:0:
264,92,52883,6,0,L|102:94,1,154.000004699707,12|8,0:0|0:0,0:0:0:0:
289,177,53786,2,0,L|398:178,2,77.0000023498536,8|2|8,0:0|0:0|0:0,0:0:0:0:
115,226,54688,6,0,L|-23:227,2,115.50000352478,4|2|2,0:0|0:0|0:0,0:0:0:0:
251,226,55590,1,4,0:0:0:0:
372,227,55928,1,2,0:0:0:0:
251,226,56267,1,2,0:0:0:0:
122,226,56492,5,0,0:0:0:0:
256,192,56943,12,0,58297,0:0:0:0:
