osu file format v14

[General]
AudioFilename: audio.mp3
AudioLeadIn: 0
PreviewTime: 40439
Countdown: 0
SampleSet: Soft
StackLeniency: 0.7
Mode: 0
LetterboxInBreaks: 0
WidescreenStoryboard: 0

[Editor]
Bookmarks: 740
DistanceSpacing: 1
BeatDivisor: 4
GridSize: 4
TimelineZoom: 1.2

[Metadata]
Title:Aimai Moko
TitleUnicode:アイマイモコ
Artist:Inori Minase
ArtistUnicode:水瀬 いのり
Creator:tiffany yu tyu
Version:Normal
Source:徒然チルドレン
Tags:op opening anime Kyle_Y Tsurezure Children
BeatmapID:1396917
BeatmapSetID:657903

[Difficulty]
HPDrainRate:5
CircleSize:3
OverallDifficulty:4
ApproachRate:4
SliderMultiplier:1.2
SliderTickRate:1

[Events]
//Background and Video events
Video,0,"Tsurezure_Children_Opening_-_Aimai_Moko_-_Inori_Minase.avi"
0,0,"64074281_p0.jpg",0,0
//Break Periods
//Storyboard Layer 0 (Background)
//Storyboard Layer 1 (Fail)
//Storyboard Layer 2 (Pass)
//Storyboard Layer 3 (Foreground)
//Storyboard Sound Samples

[TimingPoints]
740,451.127819548872,4,2,0,70,1,0
4349,-83.3333333333333,4,2,0,70,0,0
11567,-100,4,2,0,70,0,0
42243,-90.9090909090909,4,3,0,100,0,1
54875,-100,4,2,0,70,0,0

[Colours]
Combo1 : 248,202,165
Combo2 : 255,128,192
Combo3 : 91,155,240
Combo4 : 255,255,162

[HitObjects]
96,64,740,6,0,L|224:60,1,120,2|0,0:0|0:0,0:0:0:0:
300,108,1416,2,0,P|304:188|264:196,1,120
88,304,2544,2,0,B|220:352|220:352|296:316|296:316|376:336|412:292|428:260,1,360
460,168,4349,6,0,P|484:124|432:32,1,143.999995605469,0|8,0:0|0:0,0:0:0:0:
336,76,5251,1,0,0:0:0:0:
208,64,5702,2,0,L|56:68,1,143.999995605469,10|0,0:0|0:0,0:0:0:0:
104,180,6604,2,0,L|256:200,1,143.999995605469,10|0,0:0|0:0,0:0:0:0:
392,192,7506,1,2,0:0:0:0:
504,104,7958,6,0,P|532:172|504:244,2,143.999995605469,8|0|0,0:0|0:0|0:0,0:0:0:0:
380,32,9311,1,8,0:0:0:0:
236,36,9762,2,0,P|156:92|148:208,1,215.999993408203,0|8,0:0|0:0,0:0:0:0:
328,320,11115,1,0,0:0:0:0:
340,200,11567,6,0,P|400:192|464:184,1,120,2|8,0:0|0:0,0:0:0:0:
464,64,12469,2,0,L|328:80,1,120,0|8,0:0|0:0,0:0:0:0:
236,28,13371,2,0,P|212:96|232:148,2,120
116,48,14724,1,8,0:0:0:0:
48,148,15176,6,0,P|80:224|136:224,1,120,2|8,0:0|0:0,0:0:0:0:
168,220,15852,2,0,L|300:180,1,120,0|8,0:0|0:0,0:0:0:0:
420,192,16755,1,0,0:0:0:0:
400,248,16980,2,0,P|356:300|296:288,2,120,8|0|0,0:0|0:0|0:0,0:0:0:0:
504,216,18333,1,8,0:0:0:0:
444,112,18785,6,0,P|380:92|332:128,1,120,2|8,0:0|0:0,0:0:0:0:
252,196,19687,2,0,P|208:232|128:216,1,120,2|8,0:0|0:0,0:0:0:0:
60,128,20589,2,0,L|-20:164,2,60,0|0|8,0:0|0:0|0:0,0:0:0:0:
148,44,21491,1,0,0:0:0:0:
268,68,21943,5,0,0:0:0:0:
192,164,22394,2,0,L|188:300,1,120,10|0,0:0|0:0,0:0:0:0:
244,304,23070,2,0,P|336:260|348:184,1,180
404,84,24198,2,0,L|484:92,2,60,8|0|0,0:0|0:0|0:0,0:0:0:0:
344,76,24875,2,0,P|256:68|136:56,1,180
84,168,26003,6,0,P|116:216|156:272,1,120,2|8,0:0|0:0,0:0:0:0:
260,212,26905,2,0,L|340:328,1,120,2|8,0:0|0:0,0:0:0:0:
388,208,27807,1,0,0:0:0:0:
312,116,28258,2,8,P|368:64|528:104,1,240
488,196,29612,6,0,P|480:268|436:288,1,120,2|8,0:0|0:0,0:0:0:0:
340,224,30514,1,0,0:0:0:0:
244,296,30965,1,0,0:0:0:0:
128,276,31416,2,0,P|52:256|28:208,1,120,0|8,0:0|0:0,0:0:0:0:
76,112,32318,2,0,P|128:84|196:88,1,120,0|8,0:0|0:0,0:0:0:0:
284,156,33221,5,2,0:0:0:0:
352,88,33672,2,0,P|384:136|364:212,1,120,8|0,0:0|0:0,0:0:0:0:
156,272,35025,1,2,0:0:0:0:
52,320,35476,2,0,P|24:272|48:208,1,120,8|0,0:0|0:0,0:0:0:0:
108,144,36379,1,0,0:0:0:0:
188,56,36830,6,0,B|256:40|256:40|304:88,1,120,8|0,0:0|0:0,0:0:0:0:
244,184,37732,2,0,P|228:224|276:304,1,120,0|8,0:0|0:0,0:0:0:0:
256,192,38634,12,0,40213,0:0:0:0:
132,180,41792,5,0,0:0:0:0:
232,268,42243,1,0,0:0:0:0:
340,344,42694,6,0,P|364:292|332:220,1,132.00000402832,8|0,0:0|0:0,0:0:0:0:
380,100,43597,1,8,0:0:0:0:
284,12,44048,1,0,0:0:0:0:
152,44,44499,2,0,P|116:88|148:156,1,132.00000402832,8|0,0:0|0:0,0:0:0:0:
264,104,45401,1,8,0:0:0:0:
200,244,45852,6,0,L|336:256,1,132.00000402832,8|0,0:0|0:0,0:0:0:0:
380,224,46529,2,0,L|428:96,1,132.00000402832,0|8,0:0|0:0,0:0:0:0:
316,96,47431,2,0,P|272:148|160:96,1,198.000006042481
80,188,48559,1,0,0:0:0:0:
128,288,49010,1,0,0:0:0:0:
248,312,49461,5,10,0:0:0:0:
364,248,49912,1,0,0:0:0:0:
324,120,50364,2,0,P|268:128|216:72,1,132.00000402832,8|0,0:0|0:0,0:0:0:0:
92,36,51266,2,0,P|40:72|24:136,1,132.00000402832,2|2,0:0|0:0,0:0:0:0:
164,152,52168,2,0,P|140:204|64:232,1,132.00000402832
224,264,53070,6,0,B|288:224|304:152|304:108|304:108|304:108|304:108|384:96|384:96|448:80|512:44,1,396.000012084961,10|0,0:0|0:0,0:0:0:0:
480,188,54875,6,0,P|440:240|368:264,1,120,8|0,0:0|0:0,0:0:0:0:
288,324,55777,1,0,0:0:0:0:
196,248,56228,1,12,0:0:0:0:
256,192,56679,12,0,58484,0:0:0:0:
