osu file format v14

[General]
AudioFilename: audio.mp3
AudioLeadIn: 0
PreviewTime: 40708
Countdown: 0
SampleSet: Normal
StackLeniency: 0.7
Mode: 0
LetterboxInBreaks: 0
WidescreenStoryboard: 0

[Editor]
DistanceSpacing: 1
BeatDivisor: 4
GridSize: 4
TimelineZoom: 1

[Metadata]
Title:Aimai Moko (TV size)
TitleUnicode:Aimai Moko (TV size)
Artist:Inori Minase
ArtistUnicode:Inori Minase
Creator:MidnightMint
Version:Hard
Source:Tsurezure Children
Tags:Tsurezure Children
BeatmapID:1370319
BeatmapSetID:646791

[Difficulty]
HPDrainRate:7
CircleSize:4
OverallDifficulty:6
ApproachRate:8
SliderMultiplier:1.5
SliderTickRate:1

[Events]
//Background and Video events
0,0,"maxresdefault.jpg",0,0
Video,0,"Tsurezure Children Opening - Aimai Moko Inori Minase.mp4"
//Break Periods
//Storyboard Layer 0 (Background)
//Storyboard Layer 1 (Fail)
//Storyboard Layer 2 (Pass)
//Storyboard Layer 3 (Foreground)
//Storyboard Sound Samples

[TimingPoints]
593,451.127819548872,4,1,0,45,1,0
593,-100,4,1,0,45,0,0
2397,-100,4,1,0,45,0,0
3299,-100,4,1,0,45,0,0
4202,-100,4,1,0,45,0,0
11420,-100,4,1,0,45,0,0
25856,-100,4,1,0,45,0,0
33976,-100,4,1,0,45,0,0
35780,-100,4,1,0,45,0,0
38487,-100,4,1,0,45,0,0
42096,-100,4,1,0,45,0,0
42547,-100,4,1,0,45,0,0
56532,-100,4,1,0,45,0,0

[HitObjects]
128,48,593,6,0,L|212:56,1,75
368,72,1044,1,0,0:0:0:0:
364,180,1269,1,0,0:0:0:0:
364,180,1720,2,0,L|280:240,1,75
208,228,2397,2,0,L|44:232,2,150
384,216,3525,5,0,0:0:0:0:
420,116,3750,1,0,0:0:0:0:
420,104,3863,1,0,0:0:0:0:
420,96,3976,1,0,0:0:0:0:
420,88,4089,2,0,L|324:20,1,112.5
264,72,4653,5,0,0:0:0:0:
264,72,4878,2,0,L|196:156,1,75
360,216,5329,1,0,0:0:0:0:
160,220,5555,2,0,L|248:220,2,75
96,124,6232,5,0,0:0:0:0:
224,40,6457,1,0,0:0:0:0:
372,84,6683,2,0,P|360:120|308:148,1,75
331,142,7134,1,0,0:0:0:0:
331,142,7359,2,0,L|248:184,1,75
120,204,7811,5,0,0:0:0:0:
248,288,8036,1,0,0:0:0:0:
392,192,8262,2,0,L|352:128,2,75
316,232,8938,2,0,L|236:256,2,75
288,156,9615,2,0,L|212:112,3,75
212,44,10517,5,0,0:0:0:0:
304,44,10743,6,0,P|376:64|376:64,1,75
300,152,11194,1,0,0:0:0:0:
168,216,11420,1,0,0:0:0:0:
304,284,11645,1,0,0:0:0:0:
304,136,11871,5,0,0:0:0:0:
304,136,12096,2,0,L|128:92,1,150
92,176,12773,1,0,0:0:0:0:
208,284,12999,1,0,0:0:0:0:
360,308,13224,2,0,L|488:308,2,112.5
264,256,14126,5,0,0:0:0:0:
184,184,14352,2,0,L|184:80,1,75
444,52,14803,1,0,0:0:0:0:
352,156,15029,2,0,L|276:156,1,75
176,44,15480,1,0,0:0:0:0:
176,44,15705,2,0,L|120:192,1,150
200,280,16382,5,0,0:0:0:0:
112,180,16608,1,0,0:0:0:0:
200,72,16833,2,0,L|336:72,2,112.5
200,232,17735,1,0,0:0:0:0:
320,228,17961,1,0,0:0:0:0:
340,228,18074,1,0,0:0:0:0:
364,228,18186,1,0,0:0:0:0:
380,108,18412,5,0,0:0:0:0:
256,68,18638,2,0,L|156:68,1,75
80,172,19089,1,0,0:0:0:0:
80,172,19314,2,0,P|136:232|136:232,1,75
376,228,19765,1,0,0:0:0:0:
304,304,19991,5,0,0:0:0:0:
304,304,20217,2,0,P|188:308|172:296,2,112.5
376,224,21119,1,0,0:0:0:0:
272,72,21344,1,0,0:0:0:0:
112,160,21570,2,0,L|160:232,1,75
320,268,22021,5,0,0:0:0:0:
392,100,22247,1,0,0:0:0:0:
452,240,22472,1,0,0:0:0:0:
296,176,22698,2,0,L|200:176,1,75
96,72,23149,1,0,0:0:0:0:
96,72,23374,2,0,P|168:64|200:72,1,75
292,124,23826,5,0,0:0:0:0:
300,248,24051,1,0,0:0:0:0:
188,296,24277,2,0,L|84:324,2,75
356,128,25179,5,0,0:0:0:0:
116,92,25405,1,0,0:0:0:0:
264,60,25856,6,0,L|364:152,1,112.5
200,272,26420,2,0,P|136:284|108:260,1,75
124,136,26871,1,0,0:0:0:0:
264,60,27096,1,0,0:0:0:0:
284,256,27322,2,0,L|136:220,1,150
84,80,27999,2,0,L|244:72,1,150
304,76,28788,6,0,L|404:108,1,75
320,224,29239,1,0,0:0:0:0:
208,264,29465,2,0,P|160:240|148:200,2,75
368,268,30141,5,0,0:0:0:0:
364,128,30367,2,0,L|288:80,2,75
364,256,31044,1,0,0:0:0:0:
148,256,31269,2,0,L|256:256,2,75
88,164,31946,5,0,0:0:0:0:
152,64,32171,2,0,L|228:44,1,75
312,120,32623,1,0,0:0:0:0:
360,248,32848,1,0,0:0:0:0:
360,248,33074,2,0,L|244:312,1,112.5
128,264,33638,5,0,0:0:0:0:
256,168,33863,1,0,0:0:0:0:
256,156,33976,1,0,0:0:0:0:
256,144,34089,1,0,0:0:0:0:
256,132,34202,2,0,P|172:76|140:80,1,112.5
84,188,34765,1,0,0:0:0:0:
192,272,34991,5,0,0:0:0:0:
304,220,35217,2,0,P|364:168|380:88,1,150
264,64,35893,1,0,0:0:0:0:
184,192,36119,1,0,0:0:0:0:
360,204,36344,5,0,0:0:0:0:
344,100,36683,2,0,L|184:56,1,150
120,104,37359,2,0,P|96:228|92:280,2,150
216,84,38487,1,0,0:0:0:0:
332,224,38938,5,0,0:0:0:0:
332,224,39051,1,0,0:0:0:0:
332,224,39164,1,0,0:0:0:0:
332,224,39277,1,0,0:0:0:0:
332,224,39389,1,0,0:0:0:0:
164,136,39615,5,0,0:0:0:0:
264,40,39841,2,0,L|424:48,2,150
168,144,41307,1,0,0:0:0:0:
168,144,41532,2,0,L|312:252,1,150
410,176,42547,2,0,L|276:68,1,150
136,68,43224,2,0,L|136:168,1,75
224,224,43675,5,0,0:0:0:0:
360,184,43901,1,0,0:0:0:0:
256,60,44126,1,0,0:0:0:0:
136,60,44352,2,0,L|68:140,1,75
112,256,45029,2,0,L|208:232,2,75
304,196,45705,2,0,P|316:100|292:40,1,150
96,76,46382,5,0,0:0:0:0:
240,288,46833,1,0,0:0:0:0:
436,44,47284,1,0,0:0:0:0:
376,232,47735,5,0,0:0:0:0:
264,208,47961,1,0,0:0:0:0:
192,128,48186,1,0,0:0:0:0:
280,40,48412,5,0,0:0:0:0:
300,48,48524,1,0,0:0:0:0:
320,56,48637,1,0,0:0:0:0:
336,68,48750,1,0,0:0:0:0:
352,84,48863,1,0,0:0:0:0:
364,100,48975,1,0,0:0:0:0:
372,116,49088,1,0,0:0:0:0:
380,132,49201,1,0,0:0:0:0:
388,148,49314,1,0,0:0:0:0:
332,272,49540,6,0,L|236:272,1,75
168,196,49991,1,0,0:0:0:0:
188,88,50217,2,0,L|272:72,2,75
304,240,51119,2,0,L|144:236,2,150
288,52,52472,1,0,0:0:0:0:
412,72,52923,6,0,L|416:212,1,112.5
415,184,53374,2,0,P|408:240|352:304,1,112.5
376,286,53826,2,0,L|224:288,1,150
76,220,54728,5,0,0:0:0:0:
308,64,55066,1,0,0:0:0:0:
320,264,55405,1,0,0:0:0:0:
144,88,55630,1,0,0:0:0:0:
160,252,55968,1,0,0:0:0:0:
328,72,56307,1,0,0:0:0:0:
256,192,56532,12,0,59239,0:0:0:0:
